<?xml version="1.0" standalone="no"?>
<!DOCTYPE svg PUBLIC "-//W3C//DTD SVG 1.1//EN" "http://www.w3.org/Graphics/SVG/1.1/DTD/svg11.dtd" >
<svg xmlns="http://www.w3.org/2000/svg">
<metadata>
This is a custom SVG webfont generated by Font Squirrel.
Copyright   : Copyright c 20072010 Johan Aakerlund aajohangmailcom with Reserved Font Name Comfortaa This Font Software is licensed under the SIL Open Font License Version 11 httpscriptssilorgOFL
Designer    : Johan Aakerlund  aajohan
Foundry     : Johan Aakerlund
</metadata>
<defs>
<font id="ComfortaaRegular" horiz-adv-x="1280" >
<font-face units-per-em="2048" ascent="1638" descent="-410" />
<missing-glyph horiz-adv-x="560" />
<glyph unicode=" "  horiz-adv-x="560" />
<glyph unicode="&#x09;" horiz-adv-x="560" />
<glyph unicode="&#xa0;" horiz-adv-x="560" />
<glyph unicode="!" horiz-adv-x="400" d="M80 120q0 50 35 85t85 35t85 -35t35 -85t-35 -85t-85 -35t-85 35t-35 85zM120 399v1121q0 33 23.5 56.5t56.5 23.5t56.5 -23.5t23.5 -56.5v-1121q0 -32 -23 -55q-24 -24 -57 -24t-56 24q-24 23 -24 55z" />
<glyph unicode="&#x22;" horiz-adv-x="560" d="M80 1512v8q0 33 23.5 56.5t56.5 23.5t56.5 -23.5t23.5 -56.5v-8l-20 -292q0 -25 -17.5 -42.5t-42.5 -17.5t-42.5 17.5t-17.5 42.5zM320 1512v8q0 33 23.5 56.5t56.5 23.5t56.5 -23.5t23.5 -56.5v-8l-20 -292q0 -25 -17.5 -42.5t-42.5 -17.5t-42.5 17.5t-17.5 42.5z" />
<glyph unicode="#" d="M73 545q0 7 1 15q6 33 33.5 56.5t60.5 23.5h160l56 320h-160q-33 0 -52 23.5t-14 56.5q6 33 34 56.5t61 23.5h160l70 400q6 33 33.5 56.5t60.5 23.5t52.5 -23.5t13.5 -56.5l-70 -400h240l70 400q6 33 33.5 56.5t60.5 23.5t52.5 -23.5t13.5 -56.5l-70 -400h160 q33 0 52 -23q14 -18 14 -42q0 -7 -1 -15q-5 -33 -33 -56.5t-61 -23.5h-160l-56 -320h160q33 0 52.5 -23.5t13.5 -56.5t-33.5 -56.5t-60.5 -23.5h-160l-71 -400q-6 -33 -33.5 -56.5t-60.5 -23.5t-52.5 23.5t-13.5 56.5l71 400h-240l-71 -400q-6 -33 -33.5 -56.5t-60.5 -23.5 t-52.5 23.5t-13.5 56.5l71 400h-160q-33 0 -52 24q-15 17 -15 41zM488 640h240l56 320h-240z" />
<glyph unicode="$" horiz-adv-x="1060" d="M80 267q0 33 23.5 56.5t56.5 23.5q43 0 68 -37q12 -19 28 -36q85 -102 224 -113v644q-134 26 -226 134q-107 126 -94 292q14 165 140 272q82 69 180 88v89q0 33 23.5 56.5t56.5 23.5t56.5 -23.5t23.5 -56.5v-90q133 -26 224 -133q22 -26 39 -54q12 -19 12 -43 q0 -33 -23.5 -56.5t-56.5 -23.5t-56 24q-9 8 -14 17q-10 16 -23 32q-44 51 -102 71v-484q132 -38 227 -149q113 -134 113 -304q0 -23 -2 -46q-16 -198 -167 -326q-79 -67 -171 -95v-100q0 -33 -23.5 -56.5t-56.5 -23.5t-56.5 23.5t-23.5 56.5v81q-10 0 -20 1 q-198 16 -326 168q-21 23 -38 49q-16 21 -16 48zM320 1218q-8 -99 57 -175q43 -52 103 -72v454q-41 -14 -76 -44q-76 -65 -84 -163zM640 192q35 17 67 45q101 85 112 217q11 133 -74 234q-46 53 -105 81v-577z" />
<glyph unicode="%" horiz-adv-x="1760" d="M80 1200q0 166 117 283t283 117t283 -117t117 -283t-117 -283t-283 -117t-283 117t-117 283zM240 80q0 31 20 54l1115 1433q28 33 65 33q33 0 56.5 -23.5t23.5 -56.5q0 -27 -16 -48l-1123 -1445q-28 -27 -61 -27t-56.5 23.5t-23.5 56.5zM240 1200q0 -99 70.5 -169.5 t169.5 -70.5t169.5 70.5t70.5 169.5t-70.5 169.5t-169.5 70.5t-169.5 -70.5t-70.5 -169.5zM880 400q0 166 117 283t283 117t283 -117t117 -283t-117 -283t-283 -117t-283 117t-117 283zM1040 400q0 -99 70.5 -169.5t169.5 -70.5t169.5 70.5t70.5 169.5t-70.5 169.5 t-169.5 70.5t-169.5 -70.5t-70.5 -169.5z" />
<glyph unicode="&#x26;" horiz-adv-x="1440" d="M80 460q0 182 189 331l106 83l-110 111q-105 106 -105 255t105.5 254.5t254.5 105.5t254.5 -105.5t105.5 -254.5q0 -159 -146 -285l-121 -92l354 -355l177 189q23 23 56 23t56.5 -23.5t23.5 -56.5q0 -31 -20 -54l-180 -191l258 -261q22 -22 22 -54q0 -33 -23.5 -56.5 t-56.5 -23.5q-32 0 -56 22l-254 255l-139 -148q-129 -129 -311 -129t-311 129t-129 331zM240 460q0 -136 82 -218t198 -82t198 82l139 149l-372 373l-113 -86q-132 -102 -132 -218zM320 1240q0 -83 58 -141l124 -125l119 94q99 79 99 172q0 83 -58.5 141.5t-141.5 58.5 t-141.5 -58.5t-58.5 -141.5z" />
<glyph unicode="'" horiz-adv-x="320" d="M80 1512v8q0 33 23.5 56.5t56.5 23.5t56.5 -23.5t23.5 -56.5v-8l-20 -292q0 -25 -17.5 -42.5t-42.5 -17.5t-42.5 17.5t-17.5 42.5z" />
<glyph unicode="(" horiz-adv-x="560" d="M80 562q0 493 243 985q6 16 19 30q24 23 57 23t56.5 -23.5t23.5 -56.5q-2 -24 -13 -43q-228 -458 -228 -916q0 -460 230 -920q11 -18 11 -41q0 -33 -23.5 -56.5t-56.5 -23.5t-57 24q-12 14 -19 30q-243 495 -243 988z" />
<glyph unicode=")" horiz-adv-x="560" d="M80 -400q0 23 11 41q230 460 230 920q0 458 -228 916q-11 19 -13 43q0 33 23.5 56.5t56.5 23.5t57 -23q13 -14 19 -30q244 -492 244 -985t-244 -988q-8 -16 -19 -30q-24 -24 -57 -24t-56.5 23.5t-23.5 56.5z" />
<glyph unicode="*" horiz-adv-x="780" d="M85 1360q0 13 5 26q11 32 41 46t61 3q14 -5 24 -13l157 -117l-58 188q-4 13 -4 27q0 33 23.5 56.5t56.5 23.5t56.5 -23.5t23.5 -56.5q0 -14 -4 -27l-58 -189l158 118q11 8 24 13q31 11 61 -3t41 -46q5 -14 5 -27q0 -17 -8 -34q-14 -30 -45 -41q-14 -4 -27 -5l-196 -8 l161 -112q11 -7 20 -19q20 -26 16 -59t-30 -53q-22 -17 -59 -16q-33 4 -53 30q-9 11 -13 24l-72 181l-73 -181q-4 -13 -13 -24q-20 -31 -64 -31q-26 0 -48 17q-26 20 -30 53t16 59q9 12 20 19l161 112l-195 8q-14 1 -27 5q-31 11 -45 41q-9 17 -9 35z" />
<glyph unicode="+" horiz-adv-x="1120" d="M80 800q0 33 23.5 56.5t56.5 23.5h320v320q0 33 23.5 56.5t56.5 23.5t56.5 -23.5t23.5 -56.5v-320h320q33 0 56.5 -23.5t23.5 -56.5t-23.5 -56.5t-56.5 -23.5h-320v-320q0 -33 -23.5 -56.5t-56.5 -23.5t-56.5 23.5t-23.5 56.5v320h-320q-33 0 -56.5 23.5t-23.5 56.5z" />
<glyph unicode="," horiz-adv-x="400" d="M80 120q0 50 35 85t85 35t85 -35t35 -85q0 -196 -87 -328q-18 -32 -53 -32q-25 0 -42.5 17.5t-17.5 42.5t17 42q70 78 -22 173q-35 35 -35 85z" />
<glyph unicode="-" horiz-adv-x="800" d="M80 560q0 33 23.5 56.5t56.5 23.5h480q33 0 56.5 -23.5t23.5 -56.5t-23.5 -56.5t-56.5 -23.5h-480q-33 0 -56.5 23.5t-23.5 56.5z" />
<glyph unicode="." horiz-adv-x="400" d="M80 120q0 50 35 85t85 35t85 -35t35 -85t-35 -85t-85 -35t-85 35t-35 85z" />
<glyph unicode="/" horiz-adv-x="960" d="M80 -80q0 18 7 34l640 1600q6 12 17 23q23 23 56 23t56.5 -23.5t23.5 -56.5q0 -18 -7 -34l-640 -1600q-6 -12 -16 -22q-24 -24 -57 -24t-56.5 23.5t-23.5 56.5z" />
<glyph unicode="0" horiz-adv-x="1120" d="M80 800q0 480 197 683q117 117 283 117t283 -117q197 -203 197 -683t-197 -683q-117 -117 -283 -117t-283 117q-197 203 -197 683zM240 800q0 -400 150 -569q71 -71 170 -71t170 71q150 169 150 569t-150 569q-71 71 -170 71t-170 -71q-150 -169 -150 -569z" />
<glyph unicode="1" horiz-adv-x="560" d="M80 1440q0 33 24 57q12 12 27 18l240 80q13 5 29 5q33 0 56.5 -23.5t23.5 -56.5v-1440q0 -33 -23.5 -56.5t-56.5 -23.5t-56.5 23.5t-23.5 56.5v1329l-129 -43q-15 -6 -31 -6q-33 0 -56.5 23.5t-23.5 56.5z" />
<glyph unicode="2" horiz-adv-x="1120" d="M80 80q0 33 23 57l683 756q94 94 94 227t-93.5 226.5t-226.5 93.5t-226.5 -93.5t-93.5 -226.5q0 -33 -23.5 -56.5t-56.5 -23.5t-56.5 23.5t-23.5 56.5q0 199 140.5 339.5t339.5 140.5t339.5 -140.5t140.5 -339.5t-141 -340l-558 -620h619q33 0 56.5 -23.5t23.5 -56.5 t-23.5 -56.5t-56.5 -23.5h-800q-33 0 -56.5 23.5t-23.5 56.5z" />
<glyph unicode="3" horiz-adv-x="1120" d="M80 480q0 33 23.5 56.5t56.5 23.5t56.5 -23.5t23.5 -56.5q0 -133 93.5 -226.5t226.5 -93.5t226.5 93.5t93.5 226.5t-93.5 226.5t-226.5 93.5q-33 0 -56.5 23.5t-23.5 56.5t23.5 56.5t56.5 23.5q99 0 169.5 70.5t70.5 169.5t-70.5 169.5t-169.5 70.5t-169.5 -70.5 t-70.5 -169.5q0 -33 -23.5 -56.5t-56.5 -23.5t-56.5 23.5t-23.5 56.5q0 166 117 283t283 117t283 -117t117 -283q0 -176 -147 -311q46 -29 87 -69q140 -141 140 -340t-140.5 -339.5t-339.5 -140.5t-339.5 140.5t-140.5 339.5z" />
<glyph unicode="4" d="M80 480q0 26 15 47l720 1040q22 33 65 33q33 0 56.5 -23.5t23.5 -56.5v-960h160q33 0 56.5 -23.5t23.5 -56.5t-23.5 -56.5t-56.5 -23.5h-160v-320q0 -33 -23.5 -56.5t-56.5 -23.5t-56.5 23.5t-23.5 56.5v320h-640q-33 0 -56.5 23.5t-23.5 56.5zM313 560h487v704z" />
<glyph unicode="5" horiz-adv-x="1200" d="M80 520q0 33 23.5 56.5t56.5 23.5t56.5 -23.5t23.5 -56.5q0 -149 105.5 -254.5t254.5 -105.5t254.5 105.5t105.5 254.5t-105.5 254.5t-254.5 105.5h-360q-33 0 -56.5 23.5t-23.5 56.5v560q0 33 23.5 56.5t56.5 23.5h720q33 0 56.5 -23.5t23.5 -56.5t-23.5 -56.5 t-56.5 -23.5h-640v-400h280q215 0 367.5 -152.5t152.5 -367.5t-152.5 -367.5t-367.5 -152.5t-367.5 152.5t-152.5 367.5z" />
<glyph unicode="6" horiz-adv-x="1120" d="M80 480q0 147 77 262l491 814q6 11 16 21q23 23 56 23t56.5 -23.5t23.5 -56.5q0 -23 -11 -41l-318 -527q43 8 89 8q199 0 339.5 -140.5t140.5 -339.5t-140.5 -339.5t-339.5 -140.5t-339.5 140.5t-140.5 339.5zM240 480q0 -133 93.5 -226.5t226.5 -93.5t226.5 93.5 t93.5 226.5t-93.5 226.5t-226.5 93.5t-226.5 -93.5t-93.5 -226.5z" />
<glyph unicode="7" horiz-adv-x="1120" d="M80 80q0 24 16 48l729 1312h-665q-33 0 -56.5 23.5t-23.5 56.5t23.5 56.5t56.5 23.5h800q33 0 56.5 -23.5t23.5 -56.5q0 -24 -12 -43l-796 -1432q-7 -13 -15 -21q-24 -24 -57 -24t-56.5 23.5t-23.5 56.5z" />
<glyph unicode="8" horiz-adv-x="1120" d="M80 480q0 199 141 340q40 40 86 69q-15 13 -30 28q-117 117 -117 283t117 283t283 117t283 -117t117 -283t-117 -283q-15 -15 -30 -28q46 -29 87 -69q140 -141 140 -340t-140.5 -339.5t-339.5 -140.5t-339.5 140.5t-140.5 339.5zM240 480q0 -133 93.5 -226.5t226.5 -93.5 t226.5 93.5t93.5 226.5t-93.5 226.5t-226.5 93.5t-226.5 -93.5t-93.5 -226.5zM320 1200q0 -99 70.5 -169.5t169.5 -70.5t169.5 70.5t70.5 169.5t-70.5 169.5t-169.5 70.5t-169.5 -70.5t-70.5 -169.5z" />
<glyph unicode="9" horiz-adv-x="1120" d="M80 1120q0 199 140.5 339.5t339.5 140.5t339.5 -140.5t140.5 -339.5q0 -147 -77 -262l-491 -814q-6 -11 -15 -20q-24 -24 -57 -24t-56.5 23.5t-23.5 56.5q0 23 11 41l318 527q-43 -8 -89 -8q-199 0 -339.5 140.5t-140.5 339.5zM240 1120q0 -133 93.5 -226.5t226.5 -93.5 t226.5 93.5t93.5 226.5t-93.5 226.5t-226.5 93.5t-226.5 -93.5t-93.5 -226.5z" />
<glyph unicode=":" horiz-adv-x="400" d="M80 120q0 50 35 85t85 35t85 -35t35 -85t-35 -85t-85 -35t-85 35t-35 85zM80 1001q0 50 35 85t85 35t85 -35t35 -85t-35 -85t-85 -35t-85 35t-35 85z" />
<glyph unicode=";" horiz-adv-x="400" d="M80 120q0 50 35 85t85 35t85 -35t35 -85q0 -196 -87 -328q-22 -32 -53 -32q-25 0 -42.5 17.5t-17.5 42.5t17 42q70 78 -22 173q-35 35 -35 85zM80 1001q0 50 35 85t85 35t85 -35t35 -85t-35 -85t-85 -35t-85 35t-35 85z" />
<glyph unicode="&#x37e;" horiz-adv-x="400" d="M80 120q0 50 35 85t85 35t85 -35t35 -85q0 -196 -87 -328q-22 -32 -53 -32q-25 0 -42.5 17.5t-17.5 42.5t17 42q70 78 -22 173q-35 35 -35 85zM80 1001q0 50 35 85t85 35t85 -35t35 -85t-35 -85t-85 -35t-85 35t-35 85z" />
<glyph unicode="&#x3c;" horiz-adv-x="1120" d="M80 720q0 44 44 72l796 478q18 10 40 10q33 0 56.5 -23.5t23.5 -56.5q0 -43 -41 -70l-684 -410l684 -410q41 -27 41 -70q0 -33 -23.5 -56.5t-56.5 -23.5q-22 0 -40 10l-796 478q-44 28 -44 72z" />
<glyph unicode="=" horiz-adv-x="1040" d="M80 480q0 33 23.5 56.5t56.5 23.5h720q33 0 56.5 -23.5t23.5 -56.5t-23.5 -56.5t-56.5 -24.5h-720q-33 1 -56.5 24.5t-23.5 56.5zM80 960q0 33 23.5 56.5t56.5 23.5h720q33 0 56.5 -23.5t23.5 -56.5t-23.5 -56.5t-56.5 -23.5h-720q-33 0 -56.5 23.5t-23.5 56.5z" />
<glyph unicode="&#x3e;" horiz-adv-x="1120" d="M80 240q0 43 41 70l684 410l-684 410q-41 27 -41 70q0 33 23.5 56.5t56.5 23.5q22 0 40 -10l796 -478q44 -28 44 -72t-44 -72l-796 -478q-18 -10 -40 -10q-33 0 -56.5 23.5t-23.5 56.5z" />
<glyph unicode="?" horiz-adv-x="1120" d="M80 1120q0 199 140.5 339.5t339.5 140.5t339.5 -140.5t140.5 -339.5t-141 -340l-165 -153q-94 -94 -94 -227q0 -33 -23.5 -56.5t-56.5 -23.5t-56.5 23.5t-23.5 56.5q0 199 141 340l165 153q94 94 94 227t-93.5 226.5t-226.5 93.5t-226.5 -93.5t-93.5 -226.5 q0 -33 -23.5 -56.5t-56.5 -23.5t-56.5 23.5t-23.5 56.5zM440 120q0 50 35 85t85 35t85 -35t35 -85t-35 -85t-85 -35t-85 35t-35 85z" />
<glyph unicode="@" horiz-adv-x="2240" d="M80 560q0 431 304.5 735.5t735.5 304.5t735.5 -304.5t304.5 -735.5q0 -640 -400 -640q-240 0 -240 247q-168 -167 -400 -167t-396 164t-164 396t164 396t396 164t396 -164t164 -396v-400q0 -80 80 -80q240 0 240 480q0 365 -257.5 622.5t-622.5 257.5t-622.5 -257.5 t-257.5 -622.5t257.5 -622.5t622.5 -257.5q196 0 362 74q18 11 40 11q33 0 56.5 -23.5t23.5 -56.5t-23 -56q-13 -13 -28 -19q-197 -90 -431 -90q-431 0 -735.5 304.5t-304.5 735.5zM720 560q0 -166 117 -283t283 -117t283 117t117 283t-117 283t-283 117t-283 -117 t-117 -283z" />
<glyph unicode="A" horiz-adv-x="1440" d="M80 80q0 19 7 34l556 1430q6 18 21 33q23 23 56 23t57 -23q14 -15 20 -33l556 -1430q7 -15 7 -34q0 -33 -23.5 -56.5t-56.5 -23.5t-56 23q-12 12 -18 26l-199 511h-574l-199 -511q-6 -14 -17 -26q-24 -23 -57 -23t-56.5 23.5t-23.5 56.5zM495 720h450l-225 579z" />
<glyph unicode="B" horiz-adv-x="1120" d="M80 80v1440q0 33 23.5 56.5t56.5 23.5h320q166 0 283 -117t117 -283t-117 -283q74 -35 137 -97q140 -141 140 -340t-140.5 -339.5t-339.5 -140.5h-400q-33 0 -56.5 23.5t-23.5 56.5zM240 160h320q133 0 226.5 93.5t93.5 226.5t-93.5 226.5t-226.5 93.5h-320v-640z M240 960h240q99 0 169.5 70.5t70.5 169.5t-70.5 169.5t-169.5 70.5h-240v-480z" />
<glyph unicode="C" horiz-adv-x="1480" d="M80 800q0 331 234.5 565.5t565.5 234.5q286 0 509 -183q23 -24 23 -57t-23.5 -56.5t-56.5 -23.5t-57 24q-169 136 -395 136q-265 0 -452.5 -187.5t-187.5 -452.5t187.5 -452.5t452.5 -187.5q229 0 400 140q20 14 46 14q33 0 56.5 -23.5t23.5 -56.5t-23 -56 q-223 -178 -503 -178q-331 0 -565.5 234.5t-234.5 565.5z" />
<glyph unicode="D" horiz-adv-x="1360" d="M80 80v1440q0 33 23.5 56.5t56.5 23.5h320q331 0 565.5 -234.5t234.5 -565.5t-234.5 -565.5t-565.5 -234.5h-320q-33 0 -56.5 23.5t-23.5 56.5zM240 160h240q265 0 452.5 187.5t187.5 452.5t-187.5 452.5t-452.5 187.5h-240v-1280z" />
<glyph unicode="E" d="M80 80v1440q0 33 23.5 56.5t56.5 23.5h960q33 0 56.5 -23.5t23.5 -56.5t-23.5 -56.5t-56.5 -23.5h-880v-560h640q33 0 56.5 -23.5t23.5 -56.5t-23.5 -56.5t-56.5 -23.5h-640v-560h880q33 0 56.5 -23.5t23.5 -56.5t-23.5 -56.5t-56.5 -23.5h-960q-33 0 -56.5 23.5 t-23.5 56.5z" />
<glyph unicode="F" d="M80 80v1440q0 33 23.5 56.5t56.5 23.5h960q33 0 56.5 -23.5t23.5 -56.5t-23.5 -56.5t-56.5 -23.5h-880v-560h640q33 0 56.5 -23.5t23.5 -56.5t-23.5 -56.5t-56.5 -23.5h-640v-640q0 -33 -23.5 -56.5t-56.5 -23.5t-56.5 23.5t-23.5 56.5z" />
<glyph unicode="G" horiz-adv-x="1500" d="M80 800q0 331 234.5 565.5t565.5 234.5q286 0 509 -183q23 -24 23 -57t-23.5 -56.5t-56.5 -23.5t-57 24q-169 136 -395 136q-265 0 -452.5 -187.5t-187.5 -452.5t187.5 -452.5t452.5 -187.5q207 0 366 114v366h-316q-33 0 -56.5 23.5t-23.5 56.5t23.5 56.5t56.5 23.5h397 q32 0 56 -23q23 -24 23 -57v-486q0 -33 -23 -56q-223 -178 -503 -178q-331 0 -565.5 234.5t-234.5 565.5z" />
<glyph unicode="H" d="M80 80v1440q0 33 23.5 56.5t56.5 23.5t56.5 -23.5t23.5 -56.5v-640h800v640q0 33 23.5 56.5t56.5 23.5t56.5 -23.5t23.5 -56.5v-1440q0 -33 -23.5 -56.5t-56.5 -23.5t-56.5 23.5t-23.5 56.5v640h-800v-640q0 -33 -23.5 -56.5t-56.5 -23.5t-56.5 23.5t-23.5 56.5z" />
<glyph unicode="I" horiz-adv-x="480" d="M160 80v1440q0 33 23.5 56.5t56.5 23.5t56.5 -23.5t23.5 -56.5v-1440q0 -33 -23.5 -56.5t-56.5 -23.5t-56.5 23.5t-23.5 56.5z" />
<glyph unicode="J" horiz-adv-x="1120" d="M80 480q0 33 23.5 56.5t56.5 23.5t56.5 -23.5t23.5 -56.5q0 -133 93.5 -226.5t226.5 -93.5t226.5 93.5t93.5 226.5v1040q0 33 23.5 56.5t56.5 23.5t56.5 -23.5t23.5 -56.5v-1040q0 -199 -140.5 -339.5t-339.5 -140.5t-339.5 140.5t-140.5 339.5z" />
<glyph unicode="K" horiz-adv-x="1200" d="M80 80v1440q0 33 23.5 56.5t56.5 23.5t56.5 -23.5t23.5 -56.5v-686l741 741q26 25 59 25t56.5 -23.5t23.5 -56.5t-23 -57l-562 -562l570 -773q15 -21 15 -45q0 -42 -32 -67q-22 -16 -46 -16q-44 0 -68 34l-554 752l-180 -180v-526q0 -33 -23.5 -56.5t-56.5 -23.5 t-56.5 23.5t-23.5 56.5z" />
<glyph unicode="L" horiz-adv-x="1200" d="M80 80v1440q0 33 23.5 56.5t56.5 23.5t56.5 -23.5t23.5 -56.5v-1360h800q33 0 56.5 -23.5t23.5 -56.5t-23.5 -56.5t-56.5 -23.5h-880q-33 0 -56.5 23.5t-23.5 56.5z" />
<glyph unicode="M" horiz-adv-x="1760" d="M80 80v1440q0 33 23.5 56.5t56.5 23.5q48 0 71 -42l649 -1299l649 1299q23 42 71 42q33 0 56.5 -23.5t23.5 -56.5v-1440q0 -33 -23.5 -56.5t-56.5 -23.5t-56.5 23.5t-23.5 56.5v1101l-571 -1142q-21 -39 -69 -39q-50 0 -74 49l-566 1132v-1101q0 -33 -23.5 -56.5 t-56.5 -23.5t-56.5 23.5t-23.5 56.5z" />
<glyph unicode="N" horiz-adv-x="1440" d="M80 80v1440q0 33 23.5 56.5t56.5 23.5q36 0 62 -29l978 -1258v1207q0 33 23.5 56.5t56.5 23.5t56.5 -23.5t23.5 -56.5v-1440q0 -33 -23.5 -56.5t-56.5 -23.5q-35 0 -60 26l-980 1260v-1206q0 -33 -23.5 -56.5t-56.5 -23.5t-56.5 23.5t-23.5 56.5z" />
<glyph unicode="O" horiz-adv-x="1760" d="M80 800q0 331 234.5 565.5t565.5 234.5t565.5 -234.5t234.5 -565.5t-234.5 -565.5t-565.5 -234.5t-565.5 234.5t-234.5 565.5zM240 800q0 -265 187.5 -452.5t452.5 -187.5t452.5 187.5t187.5 452.5t-187.5 452.5t-452.5 187.5t-452.5 -187.5t-187.5 -452.5z" />
<glyph unicode="P" horiz-adv-x="1080" d="M80 80v1440q0 33 23.5 56.5t56.5 23.5h320q215 0 367.5 -152.5t152.5 -367.5t-152.5 -367.5t-367.5 -152.5h-240v-480q0 -33 -23.5 -56.5t-56.5 -23.5t-56.5 23.5t-23.5 56.5zM240 720h240q149 0 254.5 105.5t105.5 254.5t-105.5 254.5t-254.5 105.5h-240v-720z" />
<glyph unicode="Q" horiz-adv-x="1760" d="M80 800q0 331 234.5 565.5t565.5 234.5t565.5 -234.5t234.5 -565.5q0 -290 -180 -506l158 -158q22 -24 22 -56q0 -33 -23.5 -56.5t-56.5 -23.5t-58 24l-156 156q-216 -180 -506 -180q-331 0 -565.5 234.5t-234.5 565.5zM240 800q0 -265 187.5 -452.5t452.5 -187.5 q224 0 392 134l-169 169q-23 24 -23 57t23.5 56.5t56.5 23.5t57 -23l169 -169q134 168 134 392q0 265 -187.5 452.5t-452.5 187.5t-452.5 -187.5t-187.5 -452.5z" />
<glyph unicode="R" horiz-adv-x="1200" d="M80 80v1440q0 33 23.5 56.5t56.5 23.5h400q199 0 339.5 -140.5t140.5 -339.5t-140 -339q-65 -65 -141 -99l348 -558q13 -19 13 -44q0 -33 -23.5 -56.5t-56.5 -23.5q-43 0 -70 41l-375 600q-17 -1 -35 -1h-320v-560q0 -33 -23.5 -56.5t-56.5 -23.5t-56.5 23.5t-23.5 56.5z M240 800h320q133 0 226.5 93.5t93.5 226.5t-93.5 226.5t-226.5 93.5h-320v-640z" />
<glyph unicode="S" horiz-adv-x="1060" d="M80 267q0 33 23.5 56.5t56.5 23.5q43 0 68 -37q12 -19 28 -36q85 -102 218 -113q14 -1 27 -1q115 0 206 76q101 86 112 218q1 15 1 30q0 116 -76 204q-86 100 -218 111q-165 14 -272 140q-95 112 -95 257q0 18 1 35q14 165 140 272q113 97 260 97q174 0 304 -143 q22 -26 39 -54q12 -19 12 -43q0 -33 -23.5 -56.5t-56.5 -23.5q-38 0 -56 24t-37 49q-65 76 -163 84q-11 1 -22 1q-86 0 -153 -58q-76 -64 -84 -162q-1 -11 0 -22q0 -86 56 -153q64 -76 163 -84q199 -17 328 -168q113 -134 113 -304q0 -23 -2 -46q-16 -198 -167 -326 q-135 -115 -307 -115q-215 0 -370 170q-21 23 -38 49q-16 21 -16 48z" />
<glyph unicode="T" horiz-adv-x="1360" d="M80 1520q0 33 23.5 56.5t56.5 23.5h1040q33 0 56.5 -23.5t23.5 -56.5t-23.5 -56.5t-56.5 -23.5h-440v-1360q0 -33 -23.5 -56.5t-56.5 -23.5t-56.5 23.5t-23.5 56.5v1360h-440q-33 0 -56.5 23.5t-23.5 56.5z" />
<glyph unicode="U" d="M80 560v960q0 33 23.5 56.5t56.5 23.5t56.5 -23.5t23.5 -56.5v-960q0 -166 117 -283t283 -117t283 117t117 283v960q0 33 23.5 56.5t56.5 23.5t56.5 -23.5t23.5 -56.5v-960q0 -232 -164 -396t-396 -164t-396 164t-164 396z" />
<glyph unicode="V" horiz-adv-x="1440" d="M80 1520q0 33 23.5 56.5t56.5 23.5q53 0 73 -46l487 -1253l487 1253q20 46 73 46q33 0 56.5 -23.5t23.5 -56.5q0 -22 -10 -45l-557 -1425q-6 -16 -16 -26q-24 -24 -57 -24t-56 24q-11 10 -17 26l-557 1425q-10 23 -10 45z" />
<glyph unicode="W" horiz-adv-x="1920" d="M80 1520q0 33 23.5 56.5t56.5 23.5t57 -23q13 -14 19 -30l324 -1168l324 1168q4 15 20 30q23 23 56 23t57 -23q13 -14 19 -30l324 -1168l324 1168q6 16 20 30q23 23 56 23t56.5 -23.5t23.5 -56.5q0 -17 -6 -35l-392 -1418q-8 -25 -25 -43q-24 -24 -57 -24t-56 24 q-18 18 -25 42l-319 1152l-318 -1151q-8 -25 -25 -43q-24 -24 -57 -24t-56 24q-18 18 -25 42l-393 1419q-6 18 -6 35z" />
<glyph unicode="X" horiz-adv-x="1440" d="M80 80q0 28 17 50l521 670l-524 674q-14 20 -14 46q0 33 23.5 56.5t56.5 23.5q38 0 66 -34l494 -635l494 635q28 34 66 34q33 0 56.5 -23.5t23.5 -56.5q0 -26 -14 -46l-524 -674l521 -670q17 -22 17 -50q0 -33 -23.5 -56.5t-56.5 -23.5q-38 0 -61 28l-499 641l-499 -641 q-23 -28 -61 -28q-33 0 -56.5 23.5t-23.5 56.5z" />
<glyph unicode="Y" d="M80 1520q0 33 23.5 56.5t56.5 23.5q41 0 65 -33l415 -622l415 622q24 33 65 33q33 0 56.5 -23.5t23.5 -56.5q0 -25 -13 -45l-467 -699v-696q0 -33 -23.5 -56.5t-56.5 -23.5t-56.5 23.5t-23.5 56.5v696l-467 699q-13 20 -13 45z" />
<glyph unicode="Z" horiz-adv-x="1440" d="M80 80q0 28 17 50l1019 1310h-956q-33 0 -56.5 23.5t-23.5 56.5t23.5 56.5t56.5 23.5h1120q33 0 56.5 -23.5t23.5 -56.5q0 -26 -14 -46l-1022 -1314h956q33 0 56.5 -23.5t23.5 -56.5t-23.5 -56.5t-56.5 -23.5h-1120q-33 0 -56.5 23.5t-23.5 56.5z" />
<glyph unicode="[" horiz-adv-x="640" d="M80 -400v1920q0 33 23.5 56.5t56.5 23.5h320q33 0 56.5 -23.5t23.5 -56.5t-23.5 -56.5t-56.5 -23.5h-240v-1760h240q33 0 56.5 -23.5t23.5 -56.5t-23.5 -56.5t-56.5 -23.5h-320q-33 0 -56.5 23.5t-23.5 56.5z" />
<glyph unicode="\" horiz-adv-x="960" d="M80 1520q0 33 23.5 56.5t56.5 23.5t57 -23q10 -11 16 -23l640 -1600q7 -16 7 -34q0 -33 -23.5 -56.5t-56.5 -23.5t-57 24q-10 10 -16 22l-640 1600q-7 16 -7 34z" />
<glyph unicode="]" horiz-adv-x="640" d="M80 -400q0 33 23.5 56.5t56.5 23.5h240v1760h-240q-33 0 -56.5 23.5t-23.5 56.5t23.5 56.5t56.5 23.5h320q33 0 56.5 -23.5t23.5 -56.5v-1920q0 -33 -23.5 -56.5t-56.5 -23.5h-320q-33 0 -56.5 23.5t-23.5 56.5z" />
<glyph unicode="^" horiz-adv-x="960" d="M80 1040q0 23 11 41l324 486q22 33 65 33t65 -33l324 -486q11 -18 11 -41q0 -33 -23.5 -56.5t-56.5 -23.5q-40 0 -64 31l-256 384l-256 -384q-24 -31 -64 -31q-33 0 -56.5 23.5t-23.5 56.5z" />
<glyph unicode="_" horiz-adv-x="960" d="M-80 -80q0 33 23.5 56.5t56.5 23.5h960q33 0 56.5 -23.5t23.5 -56.5t-23.5 -56.5t-56.5 -23.5h-960q-33 0 -56.5 23.5t-23.5 56.5z" />
<glyph unicode="`" horiz-adv-x="560" d="M80 1520q0 33 23.5 56.5t56.5 23.5t57 -23l243 -243q20 -23 20 -54q0 -33 -23.5 -56.5t-56.5 -23.5q-32 0 -55 21l-243 243q-22 24 -22 56z" />
<glyph unicode="a" d="M80 560q0 232 164 396t396 164t396 -164t164 -396v-480q0 -33 -23.5 -56.5t-56.5 -23.5t-56.5 23.5t-23.5 56.5v88q-168 -168 -400 -168t-396 164t-164 396zM240 560q0 -166 117 -283t283 -117t283 117t117 283t-117 283t-283 117t-283 -117t-117 -283z" />
<glyph unicode="b" d="M80 560v962q0 33 23.5 56.5t56.5 23.5t56.5 -23.5t23.5 -56.5v-570l4 4q164 164 396 164t396 -164t164 -396t-164 -396t-396 -164t-396 164t-164 396zM240 560q0 -166 117 -283t283 -117t283 117t117 283t-117 283t-283 117t-283 -117t-117 -283z" />
<glyph unicode="c" horiz-adv-x="1120" d="M80 560q0 232 164 396t396 164q210 0 365 -135q28 -25 28 -62q0 -33 -23.5 -56.5t-56.5 -23.5q-29 0 -51 18q-112 99 -262 99q-166 0 -283 -117t-117 -283t117 -283t283 -117q150 0 261 98q21 16 49 16q33 0 56.5 -23.5t23.5 -56.5t-25 -59q-155 -135 -365 -135 q-232 0 -396 164t-164 396z" />
<glyph unicode="d" d="M80 560q0 232 164 396t396 164t396 -164l4 -4v570q0 33 23.5 56.5t56.5 23.5t56.5 -23.5t23.5 -56.5v-962q0 -232 -164 -396t-396 -164t-396 164t-164 396zM240 560q0 -166 117 -283t283 -117t283 117t117 283t-117 283t-283 117t-283 -117t-117 -283z" />
<glyph unicode="e" d="M80 560q0 232 164 396t396 164t396 -164t164 -396q0 -33 -23.5 -56.5t-56.5 -23.5h-873q22 -115 110 -203q117 -117 283 -117q150 0 258 95q22 17 50 17q33 0 56.5 -23.5t23.5 -56.5t-23 -57q-155 -135 -365 -135q-232 0 -396 164t-164 396zM247 640h786 q-22 115 -110 203q-117 117 -283 117t-283 -117q-88 -88 -110 -203z" />
<glyph unicode="f" horiz-adv-x="800" d="M80 980q0 33 23.5 56.5t56.5 23.5h80v60q0 480 480 480q33 0 56.5 -23.5t23.5 -56.5t-23.5 -56.5t-56.5 -23.5q-320 0 -320 -320v-60h241q33 0 56.5 -23.5t23.5 -56.5t-23.5 -56.5t-56.5 -23.5h-241v-820q0 -33 -23.5 -56.5t-56.5 -23.5t-56.5 23.5t-23.5 56.5v820h-80 q-33 0 -56.5 23.5t-23.5 56.5z" />
<glyph unicode="g" d="M80 560q0 232 164 396t396 164t396 -164t164 -396v-560q0 -175 -126 -304q-176 -176 -425 -176t-424 176q-65 64 -106 139q-12 18 -12 42q0 33 23.5 56.5t56.5 23.5t57 -23q10 -11 17 -24q30 -54 77 -101q129 -129 311 -129t311 129q80 96 80 191v168l-4 -4 q-164 -164 -396 -164t-396 164t-164 396zM240 560q0 -166 117 -283t283 -117t283 117t117 283t-117 283t-283 117t-283 -117t-117 -283z" />
<glyph unicode="h" horiz-adv-x="1200" d="M80 80v1440q0 33 23.5 56.5t56.5 23.5t56.5 -23.5t23.5 -56.5v-545q150 145 360 145q215 0 367.5 -152.5t152.5 -367.5v-520q0 -33 -23.5 -56.5t-56.5 -23.5t-56.5 23.5t-23.5 56.5v520q0 149 -105.5 254.5t-254.5 105.5t-254.5 -105.5t-105.5 -254.5v-520 q0 -33 -23.5 -56.5t-56.5 -23.5t-56.5 23.5t-23.5 56.5z" />
<glyph unicode="i" horiz-adv-x="480" d="M140 1360q0 41 29.5 70.5t70.5 29.5t70.5 -29.5t29.5 -70.5t-29.5 -70.5t-70.5 -29.5t-70.5 29.5t-29.5 70.5zM160 80v960q0 33 23.5 56.5t56.5 23.5t56.5 -23.5t23.5 -56.5v-960q0 -33 -23.5 -56.5t-56.5 -23.5t-56.5 23.5t-23.5 56.5z" />
<glyph unicode="j" horiz-adv-x="656" d="M0 -400q0 33 23.5 56.5t56.5 23.5q133 0 226.5 93.5t93.5 226.5v1040q0 33 23.5 56.5t56.5 23.5t56.5 -23.5t23.5 -56.5v-1040q0 -199 -140.5 -339.5t-339.5 -140.5q-33 0 -56.5 23.5t-23.5 56.5zM380 1360q0 41 29.5 70.5t70.5 29.5t70.5 -29.5t29.5 -70.5t-29.5 -70.5 t-70.5 -29.5t-70.5 29.5t-29.5 70.5z" />
<glyph unicode="k" horiz-adv-x="1120" d="M80 80v1440q0 33 23.5 56.5t56.5 23.5t56.5 -23.5t23.5 -56.5v-852l677 440q19 12 43 12q33 0 56.5 -23.5t23.5 -56.5t-23 -56q-6 -6 -11 -10l-464 -302l476 -536q22 -24 22 -56q0 -33 -23.5 -56.5t-56.5 -23.5t-58 24l-497 560l-165 -107v-397q0 -33 -23.5 -56.5 t-56.5 -23.5t-56.5 23.5t-23.5 56.5z" />
<glyph unicode="l" horiz-adv-x="480" d="M80 80v1440q0 33 23.5 56.5t56.5 23.5t56.5 -23.5t23.5 -56.5v-1360h80q33 0 56.5 -23.5t23.5 -56.5t-23.5 -56.5t-56.5 -23.5h-160q-33 0 -56.5 23.5t-23.5 56.5z" />
<glyph unicode="m" horiz-adv-x="1760" d="M80 80v960q0 33 23.5 56.5t56.5 23.5t56.5 -23.5t23.5 -56.5v-21q119 101 280 101q182 0 311 -129q27 -27 49 -57q22 30 49 57q129 129 311 129t311 -129t129 -311v-600q0 -33 -23.5 -56.5t-56.5 -23.5t-56.5 23.5t-23.5 56.5v600q0 116 -82 198t-198 82t-198 -82 t-82 -198v-600q0 -33 -23.5 -56.5t-56.5 -23.5t-56.5 23.5t-23.5 56.5v600q0 116 -82 198t-198 82t-198 -82t-82 -198v-600q0 -33 -23.5 -56.5t-56.5 -23.5t-56.5 23.5t-23.5 56.5z" />
<glyph unicode="n" horiz-adv-x="1200" d="M80 80v960q0 33 23.5 56.5t56.5 23.5t56.5 -23.5t23.5 -56.5v-65q150 145 360 145q215 0 367.5 -152.5t152.5 -367.5v-520q0 -33 -23.5 -56.5t-56.5 -23.5t-56.5 23.5t-23.5 56.5v520q0 149 -105.5 254.5t-254.5 105.5t-254.5 -105.5t-105.5 -254.5v-520 q0 -33 -23.5 -56.5t-56.5 -23.5t-56.5 23.5t-23.5 56.5z" />
<glyph unicode="o" d="M80 560q0 232 164 396t396 164t396 -164t164 -396t-164 -396t-396 -164t-396 164t-164 396zM240 560q0 -166 117 -283t283 -117t283 117t117 283t-117 283t-283 117t-283 -117t-117 -283z" />
<glyph unicode="p" d="M80 -400v960q0 232 164 396t396 164t396 -164t164 -396t-164 -396t-396 -164t-396 164l-4 4v-568q0 -33 -23.5 -56.5t-56.5 -23.5t-56.5 23.5t-23.5 56.5zM240 560q0 -166 117 -283t283 -117t283 117t117 283t-117 283t-283 117t-283 -117t-117 -283z" />
<glyph unicode="q" d="M80 560q0 232 164 396t396 164t396 -164t164 -396v-960q0 -33 -23.5 -56.5t-56.5 -23.5t-56.5 23.5t-23.5 56.5v568l-4 -4q-164 -164 -396 -164t-396 164t-164 396zM240 560q0 -166 117 -283t283 -117t283 117t117 283t-117 283t-283 117t-283 -117t-117 -283z" />
<glyph unicode="r" horiz-adv-x="960" d="M80 80v960q0 33 23.5 56.5t56.5 23.5t56.5 -23.5t23.5 -56.5v-88q168 168 400 168q117 0 215 -40q18 -7 33 -21q23 -24 23 -57t-23.5 -56.5t-56.5 -23.5q-19 0 -35 8q-71 30 -156 30q-166 0 -283 -117t-117 -283v-480q0 -33 -23.5 -56.5t-56.5 -23.5t-56.5 23.5 t-23.5 56.5z" />
<glyph unicode="s" horiz-adv-x="1060" d="M80 800q0 99 74 173q144 147 376 147q251 0 430 -201q16 -19 15 -47q0 -33 -23.5 -56.5t-56.5 -23.5t-53 21t-29 30q-117 117 -283 117t-265 -104q-24 -29 -24 -69q3 -47 49 -64l492 -163q91 -34 127 -71q71 -70 71 -169t-74 -173q-144 -147 -376 -147q-252 0 -430 201 q-15 21 -15 47q0 33 23.5 56.5t56.5 23.5t53 -21t29 -30q117 -117 283 -117t265 104q24 29 24 69q-3 47 -49 64l-492 163q-91 34 -127 71q-71 70 -71 169z" />
<glyph unicode="t" horiz-adv-x="800" d="M80 1040q0 33 23.5 56.5t56.5 23.5h80v400q0 33 23.5 56.5t56.5 23.5t56.5 -23.5t23.5 -56.5v-400h161q33 0 56.5 -23.5t23.5 -56.5t-23.5 -56.5t-56.5 -23.5h-161v-560q0 -240 240 -240q33 0 56.5 -23.5t23.5 -56.5t-23.5 -56.5t-56.5 -23.5q-400 0 -400 400v560h-80 q-33 0 -56.5 23.5t-23.5 56.5z" />
<glyph unicode="u" horiz-adv-x="1200" d="M80 520v520q0 33 23.5 56.5t56.5 23.5t56.5 -23.5t23.5 -56.5v-520q0 -149 105.5 -254.5t254.5 -105.5t254.5 105.5t105.5 254.5v520q0 33 23.5 56.5t56.5 23.5t56.5 -23.5t23.5 -56.5v-960q0 -33 -23.5 -56.5t-56.5 -23.5t-56.5 23.5t-23.5 56.5v65q-150 -145 -360 -145 q-215 0 -367.5 152.5t-152.5 367.5z" />
<glyph unicode="v" horiz-adv-x="1200" d="M80 1040q0 33 23.5 56.5t56.5 23.5t57 -23q8 -8 15 -21l368 -804l368 804q7 13 16 21q23 23 56 23t56.5 -23.5t23.5 -56.5q0 -17 -6 -31l-444 -967q-6 -13 -13 -20q-22 -22 -57 -22t-57 23q-7 6 -13 19l-444 967q-6 14 -6 31z" />
<glyph unicode="w" horiz-adv-x="1600" d="M80 1040q0 33 23.5 56.5t56.5 23.5t57 -23q10 -11 16 -23l247 -741l242 727q7 21 22 37q23 23 56 23t57 -23q15 -16 21 -37l242 -727l247 741q6 12 17 23q23 23 56 23t56.5 -23.5t23.5 -56.5q0 -16 -6 -31l-319 -958q-6 -15 -18 -29q-24 -22 -57 -22t-56 22 q-13 14 -19 29l-245 736l-245 -736q-6 -15 -18 -29q-24 -22 -57 -22t-56 22q-13 14 -19 29l-319 958q-6 15 -6 31z" />
<glyph unicode="x" horiz-adv-x="1120" d="M80 80q0 28 16 49l360 432l-357 427q-19 22 -19 52q0 33 23.5 56.5t56.5 23.5t59 -25l341 -409l341 409q26 25 59 25t56.5 -23.5t23.5 -56.5q0 -30 -19 -52l-357 -427l360 -432q16 -21 16 -49q0 -33 -23.5 -56.5t-56.5 -23.5t-56 24l-344 412l-344 -412q-23 -24 -56 -24 t-56.5 23.5t-23.5 56.5z" />
<glyph unicode="y" horiz-adv-x="1120" d="M80 1040q0 33 23.5 56.5t56.5 23.5t57 -23q13 -14 19 -30l324 -777l324 777q6 16 20 30q23 23 56 23t56.5 -23.5t23.5 -56.5q0 -20 -9 -37l-596 -1430q-6 -16 -19 -29q-24 -24 -57 -24t-56.5 23.5t-23.5 56.5q0 20 9 37l185 444l-384 922q-9 17 -9 37z" />
<glyph unicode="z" horiz-adv-x="1120" d="M80 80q0 28 16 49l693 831h-629q-33 0 -56.5 23.5t-23.5 56.5t23.5 56.5t56.5 23.5h800q33 0 56.5 -23.5t23.5 -56.5q0 -30 -19 -52l-691 -828h630q33 0 56.5 -23.5t23.5 -56.5t-23.5 -56.5t-56.5 -23.5h-800q-33 0 -56.5 23.5t-23.5 56.5z" />
<glyph unicode="{" horiz-adv-x="800" d="M80 560q0 33 23.5 56.5t56.5 23.5q160 0 160 160v480q0 320 320 320q33 0 56.5 -23.5t23.5 -56.5t-23.5 -56.5t-56.5 -23.5q-160 0 -160 -160v-480q0 -160 -80 -240q80 -80 80 -240v-480q0 -160 160 -160q33 0 56.5 -23.5t23.5 -56.5t-23.5 -56.5t-56.5 -23.5 q-320 0 -320 320v480q0 160 -160 160q-33 0 -56.5 23.5t-23.5 56.5z" />
<glyph unicode="|" horiz-adv-x="800" d="M320 -400v1920q0 33 23.5 56.5t56.5 23.5t56.5 -23.5t23.5 -56.5v-1920q0 -33 -23.5 -56.5t-56.5 -23.5t-56.5 23.5t-23.5 56.5z" />
<glyph unicode="}" horiz-adv-x="800" d="M80 -400q0 33 23.5 56.5t56.5 23.5q160 0 160 160v480q0 160 80 240q-80 80 -80 240v480q0 160 -160 160q-33 0 -56.5 23.5t-23.5 56.5t23.5 56.5t56.5 23.5q320 0 320 -320v-480q0 -160 160 -160q33 0 56.5 -23.5t23.5 -56.5t-23.5 -56.5t-56.5 -23.5q-160 0 -160 -160 v-480q0 -320 -320 -320q-33 0 -56.5 23.5t-23.5 56.5z" />
<glyph unicode="~" horiz-adv-x="960" d="M71 757q0 33 23.5 56.5t56.5 23.5q32 0 56 -22q47 -48 113 -48q56 0 100 35q89 80 212 80q133 0 227 -94q22 -24 22 -56q0 -33 -23.5 -56.5t-56.5 -23.5q-32 0 -56 22q-47 48 -113 48q-57 0 -100 -35q-90 -80 -212 -80q-133 0 -227 94q-22 24 -22 56z" />
<glyph unicode="&#xa1;" horiz-adv-x="400" d="M80 999q0 50 35 85t85 35t85 -35t35 -85t-35 -85t-85 -35t-85 35t-35 85zM120 -400v1120q0 32 24 55q23 24 56 24t57 -24q23 -23 23 -55v-1120q0 -33 -23.5 -56.5t-56.5 -23.5t-56.5 23.5t-23.5 56.5z" />
<glyph unicode="&#xa2;" horiz-adv-x="1120" d="M87 560q0 232 164 396t396 164q25 0 49 -2l109 272q13 31 44 44q13 6 31 6q15 0 29 -5q31 -12 44 -42.5t1 -61.5l-99 -249q84 -34 157 -97q28 -25 28 -62q0 -33 -23.5 -56.5t-56.5 -23.5q-29 0 -51 18q-53 47 -114 71l-298 -744q69 -28 150 -28q150 0 261 98q21 16 49 16 q33 0 56.5 -23.5t23.5 -56.5t-25 -59q-155 -135 -365 -135q-113 0 -209 39l-123 -308q-12 -31 -42 -44q-16 -7 -32 -7q-15 0 -30 6q-31 12 -44 42.5t-1 61.5l132 331q-24 20 -47 43q-164 164 -164 396zM247 560q0 -164 114 -280l272 680q-157 -5 -269 -117 q-117 -117 -117 -283z" />
<glyph unicode="&#xa3;" horiz-adv-x="1040" d="M80 720q0 33 23.5 56.5t56.5 23.5h105q-22 127 -75 250h1q-31 75 -31 150q0 166 117 283t283 117t283 -117q29 -29 51 -61q16 -22 16 -50q0 -33 -23.5 -56.5t-56.5 -23.5q-37 0 -56 24q-17 25 -44 54q-71 70 -170 70t-169.5 -70.5t-70.5 -169.5q0 -45 19 -90 q65 -151 88 -310h293q33 0 56.5 -23.5t23.5 -56.5t-23.5 -56.5t-56.5 -23.5h-281q2 -232 -83 -480h394l60 120q21 40 70 40q33 0 56.5 -23.5t23.5 -56.5q0 -21 -9 -38l-77 -154q-6 -13 -17 -24q-24 -24 -57 -24h-560q-33 0 -56.5 23.5t-23.5 56.5q0 17 6 32q117 273 113 528 h-119q-33 0 -56.5 23.5t-23.5 56.5z" />
<glyph unicode="&#xa4;" horiz-adv-x="960" d="M110 460q0 33 24 57l72 67q-46 73 -46 166q0 89 42 161l-68 73q-24 23 -24 56t23.5 56.5t56.5 23.5q32 0 55 -21l69 -74q74 45 166 45q89 0 161 -42l73 69q23 23 56 23t56.5 -23.5t23.5 -56.5t-24 -58l-71 -66q45 -74 45 -166q0 -89 -42 -161l69 -72q23 -24 23 -57 t-23.5 -56.5t-56.5 -23.5q-32 0 -54 22l-1 -1l-69 74q-74 -45 -166 -45q-89 0 -160 42l-77 -72q-22 -20 -53 -20q-33 0 -56.5 23.5t-23.5 56.5zM320 750q0 -66 47 -113t113 -47t113 47t47 113t-47 113t-113 47t-113 -47t-47 -113z" />
<glyph unicode="&#xa5;" d="M80 560q0 33 23.5 56.5t56.5 23.5h400v136l-69 104h-331q-33 0 -56.5 23.5t-23.5 56.5t23.5 56.5t56.5 23.5h224l-291 435q-13 20 -13 45q0 33 23.5 56.5t56.5 23.5q41 0 65 -33l415 -622l415 622q24 33 65 33q33 0 56.5 -23.5t23.5 -56.5q0 -25 -13 -45l-291 -435h225 q32 0 56 -23q23 -24 23 -57t-23 -56q-24 -24 -56 -24h-332l-69 -104v-136h400q33 0 56.5 -23.5t23.5 -56.5t-23.5 -56.5t-56.5 -23.5h-400v-400q0 -33 -23.5 -56.5t-56.5 -23.5t-56.5 23.5t-23.5 56.5v400h-400q-33 0 -56.5 23.5t-23.5 56.5z" />
<glyph unicode="&#xa6;" horiz-adv-x="480" d="M160 320q0 33 23.5 56.5t56.5 23.5t56.5 -23.5t23.5 -56.5v-720q0 -33 -23.5 -56.5t-56.5 -23.5t-56.5 23.5t-23.5 56.5v720zM160 960v720q0 33 23.5 56.5t56.5 23.5t56.5 -23.5t23.5 -56.5v-720q0 -33 -23.5 -56.5t-56.5 -23.5t-56.5 23.5t-23.5 56.5z" />
<glyph unicode="&#xa7;" horiz-adv-x="960" d="M80 -80q0 33 23.5 56.5t56.5 23.5t56.5 -23.5t23.5 -56.5q0 -99 70.5 -169.5t169.5 -70.5t169.5 70.5t70.5 169.5t-70.5 169.5t-169.5 70.5q-166 0 -283 117t-117 283t117 283q20 20 42 37q-22 17 -42 37q-117 117 -117 283t117 283t283 117t283 -117t117 -283 q0 -33 -23.5 -56.5t-56.5 -23.5t-56.5 23.5t-23.5 56.5q0 99 -70.5 169.5t-169.5 70.5t-169.5 -70.5t-70.5 -169.5t70.5 -169.5t169.5 -70.5q166 0 283 -117t117 -283t-117 -283q-20 -20 -42 -37q22 -17 42 -37q117 -117 117 -283t-117 -283t-283 -117t-283 117t-117 283z M240 560q0 -99 70.5 -169.5t169.5 -70.5t169.5 70.5t70.5 169.5t-70.5 169.5t-169.5 70.5t-169.5 -70.5t-70.5 -169.5z" />
<glyph unicode="&#xa8;" horiz-adv-x="960" d="M139 1360q0 41 29.5 70.5t70.5 29.5t70.5 -29.5t29.5 -70.5t-29.5 -70.5t-70.5 -29.5t-70.5 29.5t-29.5 70.5zM619 1360q0 41 29.5 70.5t70.5 29.5t70.5 -29.5t29.5 -70.5t-29.5 -70.5t-70.5 -29.5t-70.5 29.5t-29.5 70.5z" />
<glyph unicode="&#xa9;" horiz-adv-x="1760" d="M80 798q0 330 233.5 563.5t564.5 233.5q330 0 563.5 -233.5t233.5 -563.5q0 -331 -233.5 -564.5t-563.5 -233.5q-331 0 -564.5 233.5t-233.5 564.5zM203 798q0 -280 197.5 -477.5t477.5 -197.5q279 0 476.5 197.5t197.5 477.5q0 279 -197.5 476.5t-476.5 197.5 q-280 0 -477.5 -197.5t-197.5 -476.5zM320 800q0 232 164 396t396 164q210 0 365 -135q28 -25 28 -62q0 -33 -23.5 -56.5t-56.5 -23.5q-29 0 -51 18q-112 99 -262 99q-166 0 -283 -117t-117 -283t117 -283t283 -117q150 0 261 98q21 16 49 16q33 0 56.5 -23.5t23.5 -56.5 t-25 -59q-155 -135 -365 -135q-232 0 -396 164t-164 396z" />
<glyph unicode="&#xaa;" horiz-adv-x="960" d="M80 1200q0 166 117 283t283 117t283 -117t117 -283v-320q0 -33 -23.5 -56.5t-56.5 -23.5t-56 24q-24 23 -24 55q-103 -79 -240 -79q-166 0 -283 117t-117 283zM240 1200q0 -99 70.5 -169.5t169.5 -70.5t169.5 70.5t70.5 169.5t-70.5 169.5t-169.5 70.5t-169.5 -70.5 t-70.5 -169.5z" />
<glyph unicode="&#xab;" horiz-adv-x="960" d="M80 559q0 20 10 39l236 472q6 14 18 26q23 23 56 23t56.5 -23.5t23.5 -56.5q0 -18 -7 -34l-223 -445l223 -446q7 -16 7 -34q0 -33 -23.5 -56.5t-56.5 -23.5t-56 24q-12 11 -18 25l-234 467q-12 22 -12 43zM480 559q0 20 10 39l236 472q6 14 18 26q23 23 56 23t56.5 -23.5 t23.5 -56.5q0 -18 -7 -34l-223 -445l223 -446q7 -16 7 -34q0 -33 -23.5 -56.5t-56.5 -23.5t-56 24q-12 11 -18 25l-234 467q-12 22 -12 43z" />
<glyph unicode="&#xac;" horiz-adv-x="1120" d="M80 1040q0 33 23.5 56.5t56.5 23.5h800q33 0 56.5 -23.5t23.5 -56.5v-320q0 -33 -23.5 -56.5t-56.5 -23.5t-56.5 23.5t-23.5 56.5v240h-720q-33 0 -56.5 23.5t-23.5 56.5z" />
<glyph unicode="&#xad;" horiz-adv-x="800" d="M80 560q0 33 23.5 56.5t56.5 23.5h480q33 0 56.5 -23.5t23.5 -56.5t-23.5 -56.5t-56.5 -23.5h-480q-33 0 -56.5 23.5t-23.5 56.5z" />
<glyph unicode="&#xae;" horiz-adv-x="1760" d="M80 798q0 330 233.5 563.5t564.5 233.5q330 0 563.5 -233.5t233.5 -563.5q0 -331 -233.5 -564.5t-563.5 -233.5q-331 0 -564.5 233.5t-233.5 564.5zM203 798q0 -280 197.5 -477.5t477.5 -197.5q279 0 476.5 197.5t197.5 477.5q0 279 -197.5 476.5t-476.5 197.5 q-280 0 -477.5 -197.5t-197.5 -476.5zM560 326v944q0 22 15.5 37t36.5 15h263q130 0 222.5 -92t92.5 -222q0 -131 -93 -223q-42 -42 -92 -65l228 -366q9 -12 9 -28q0 -22 -15.5 -37.5t-36.5 -15.5q-29 0 -46 27l-246 394q-12 -1 -23 -1h-210v-367q0 -22 -15.5 -37.5 t-37.5 -15.5q-21 0 -36.5 15.5t-15.5 37.5zM665 798h210q87 0 148.5 61t61.5 149q0 87 -61.5 148t-148.5 61h-210v-419z" />
<glyph unicode="&#xaf;" horiz-adv-x="1120" d="M80 1840q0 33 23.5 56.5t56.5 23.5h800q33 0 56.5 -23.5t23.5 -56.5t-23.5 -56.5t-56.5 -23.5h-800q-33 0 -56.5 23.5t-23.5 56.5z" />
<glyph unicode="&#xb0;" horiz-adv-x="960" d="M80 1200q0 166 117 283t283 117t283 -117t117 -283t-117 -283t-283 -117t-283 117t-117 283zM240 1200q0 -99 70.5 -169.5t169.5 -70.5t169.5 70.5t70.5 169.5t-70.5 169.5t-169.5 70.5t-169.5 -70.5t-70.5 -169.5z" />
<glyph unicode="&#xb1;" horiz-adv-x="1120" d="M80 80q0 33 23.5 56.5t56.5 23.5h800q33 0 56.5 -23.5t23.5 -56.5t-23.5 -56.5t-56.5 -23.5h-800q-33 0 -56.5 23.5t-23.5 56.5zM80 800q0 33 23.5 56.5t56.5 23.5h320v320q0 33 23.5 56.5t56.5 23.5t56.5 -23.5t23.5 -56.5v-320h320q33 0 56.5 -23.5t23.5 -56.5 t-23.5 -56.5t-56.5 -23.5h-320v-320q0 -33 -23.5 -56.5t-56.5 -23.5t-56.5 23.5t-23.5 56.5v320h-320q-33 0 -56.5 23.5t-23.5 56.5z" />
<glyph unicode="&#xb2;" horiz-adv-x="640" d="M80 848q0 16 11 28l338 374q47 47 47 112q0 66 -46.5 112.5t-111.5 46.5q-66 0 -112.5 -46.5t-46.5 -112.5q0 -16 -11.5 -27.5t-27.5 -11.5q-17 0 -28.5 11.5t-11.5 27.5q0 99 69.5 168.5t168.5 69.5q98 0 167.5 -69.5t69.5 -168.5q0 -98 -70 -168l-276 -307h307 q16 0 27.5 -11.5t11.5 -27.5q0 -17 -11.5 -28.5t-27.5 -11.5h-396q-17 0 -28.5 11.5t-11.5 28.5z" />
<glyph unicode="&#xb3;" horiz-adv-x="640" d="M80 1041q0 17 11.5 28.5t28.5 11.5q16 0 28 -11.5t12 -28.5q0 -66 46.5 -112.5t113.5 -46.5q66 0 112.5 46.5t46.5 112.5q0 67 -46.5 113.5t-112.5 46.5q-17 0 -28.5 11.5t-11.5 28.5q0 16 11.5 28t28.5 12q49 0 84 35t35 84q0 50 -35 85t-84 35q-50 0 -85 -35t-35 -85 q0 -16 -12 -27.5t-28 -11.5q-17 0 -28.5 11.5t-11.5 27.5q0 83 58.5 141.5t141.5 58.5q82 0 140.5 -58.5t58.5 -141.5q0 -92 -73 -155q23 -14 43 -34q70 -71 70 -170t-70 -169t-169 -70q-100 0 -170 70t-70 169z" />
<glyph unicode="&#xb4;" horiz-adv-x="560" d="M80 1280q0 31 20 54l243 243q24 23 57 23t56.5 -23.5t23.5 -56.5q0 -32 -22 -56l-243 -243q-23 -21 -55 -21q-33 0 -56.5 23.5t-23.5 56.5z" />
<glyph unicode="&#xb5;" horiz-adv-x="1200" d="M80 -400v1440q0 33 23.5 56.5t56.5 23.5t56.5 -23.5t23.5 -56.5v-520q0 -149 105.5 -254.5t254.5 -105.5t254.5 105.5t105.5 254.5v520q0 33 23.5 56.5t56.5 23.5t56.5 -23.5t23.5 -56.5v-960q0 -33 -23.5 -56.5t-56.5 -23.5t-56.5 23.5t-23.5 56.5v65 q-150 -145 -360 -145t-360 145v-545q0 -33 -23.5 -56.5t-56.5 -23.5t-56.5 23.5t-23.5 56.5z" />
<glyph unicode="&#xb6;" horiz-adv-x="1120" d="M80 1200q0 166 117 283t283 117h480q33 0 56.5 -23.5t23.5 -56.5t-23.5 -56.5t-56.5 -23.5v-1360q0 -33 -23.5 -56.5t-56.5 -23.5t-56.5 23.5t-23.5 56.5v1360h-160v-1360q0 -33 -23.5 -56.5t-56.5 -23.5t-56.5 23.5t-23.5 56.5v720q-166 0 -283 117t-117 283z" />
<glyph unicode="&#xb7;" horiz-adv-x="400" d="M80 760q0 50 35 85t85 35t85 -35t35 -85t-35 -85t-85 -35t-85 35t-35 85z" />
<glyph unicode="&#x2219;" horiz-adv-x="400" d="M80 760q0 50 35 85t85 35t85 -35t35 -85t-35 -85t-85 -35t-85 35t-35 85z" />
<glyph unicode="&#xb8;" horiz-adv-x="640" d="M80 -330q0 33 23.5 56.5t56.5 23.5q24 0 43 -12l78 -48q19 -10 39 -10q33 0 56.5 13.5t23.5 36.5t-23.5 36.5t-56.5 13.5t-56.5 23.5t-23.5 56.5q0 14 4 26l39 137q6 19 21 34q23 23 56 23t56.5 -23.5t23.5 -56.5q0 -10 -2 -19l-17 -60q37 -15 69 -41q70 -61 70 -150 t-70.5 -149.5t-169.5 -60.5q-59 0 -114 29l-91 54q-35 29 -35 67z" />
<glyph unicode="&#xb9;" horiz-adv-x="480" d="M120 1521q0 16 12 28q6 6 13 9l120 40q6 2 14 2q16 0 28 -11.5t12 -28.5v-715q0 -17 -12 -28.5t-28 -11.5t-28 11.5t-12 28.5v660l-64 -21q-7 -3 -15 -3q-17 0 -28.5 11.5t-11.5 28.5z" />
<glyph unicode="&#xba;" horiz-adv-x="640" d="M80 1203q0 238 98 339q58 58 141 58q82 0 140 -58q98 -101 98 -339q0 -239 -98 -340q-58 -58 -140 -58q-83 0 -141 58q-98 101 -98 340zM160 1203q0 -199 74 -283q35 -35 85 -35q49 0 84 35q75 84 75 283q0 198 -75 282q-35 36 -84 36q-50 0 -85 -36q-74 -84 -74 -282z " />
<glyph unicode="&#xbb;" horiz-adv-x="960" d="M80 80q0 18 7 34l223 446l-223 445q-7 16 -7 34q0 33 23.5 56.5t56.5 23.5t56 -23q12 -12 18 -26l236 -472q10 -19 10 -39q0 -21 -12 -43l-234 -467q-6 -14 -18 -25q-23 -24 -56 -24t-56.5 23.5t-23.5 56.5zM480 80q0 18 7 34l223 446l-223 445q-7 16 -7 34 q0 33 23.5 56.5t56.5 23.5t56 -23q12 -12 18 -26l236 -472q10 -19 10 -39q0 -21 -12 -43l-234 -467q-6 -14 -18 -25q-23 -24 -56 -24t-56.5 23.5t-23.5 56.5z" />
<glyph unicode="&#xbc;" horiz-adv-x="1440" d="M80 1505q0 20 14 34q8 7 17 11l144 48q8 3 17 3q20 0 34 -14t14 -34v-865q0 -20 -14 -34t-34 -14t-34 14t-14 34v798l-77 -26q-9 -3 -19 -3q-20 0 -34 14t-14 34zM160 80q0 24 12 43l964 1446q21 31 64 31q33 0 56.5 -23.5t23.5 -56.5q0 -24 -12 -43l-958 -1436 q-27 -41 -70 -41q-33 0 -56.5 23.5t-23.5 56.5zM688 288q0 16 9 28l432 624q2 3 5 6q14 14 34 14t34 -14t14 -34v-576h96q20 0 34 -14t14 -34t-14 -34t-34 -14h-96v-192q0 -20 -14 -34t-34 -14t-34 14t-14 34v192h-384q-20 0 -34 14t-14 34zM828 336h292v422z" />
<glyph unicode="&#xbd;" horiz-adv-x="1600" d="M80 1505q0 20 14 34q8 7 17 11l144 48q8 3 17 3q20 0 34 -14t14 -34v-865q0 -20 -14 -34t-34 -14t-34 14t-14 34v798l-77 -26q-9 -3 -19 -3q-20 0 -34 14t-14 34zM160 80q0 24 12 43l964 1446q21 31 64 31q33 0 56.5 -23.5t23.5 -56.5q0 -24 -12 -43l-958 -1436 q-27 -41 -70 -41q-33 0 -56.5 23.5t-23.5 56.5zM943 48q0 20 14 34l410 454q57 57 57 137t-56.5 136t-136.5 56t-136 -56t-56 -136q0 -20 -14 -34t-34 -14t-34 14t-14 34q0 119 84.5 203.5t203.5 84.5q120 0 204.5 -84.5t84.5 -203.5q0 -120 -85 -205l-335 -372h372 q19 0 33.5 -14t14.5 -34t-14.5 -34t-33.5 -14h-481q-20 0 -34 14t-14 34z" />
<glyph unicode="&#xbe;" horiz-adv-x="1600" d="M80 927q0 20 14 34t34 14t34 -14t14 -34q0 -79 55.5 -135t135.5 -56t135.5 56t55.5 135q0 80 -55.5 136t-135.5 56q-20 0 -34 14t-14 34q0 19 14 33t34 14q59 0 101.5 42.5t42.5 101.5t-42.5 101t-101.5 42t-101 -42t-42 -101q0 -20 -14.5 -34t-33.5 -14q-20 0 -34 14 t-14 34q0 99 70 169t169 70t169 -70t70 -169t-70 -169q-9 -9 -18 -17q28 -17 52 -41q84 -85 84 -204t-84 -203t-203 -84t-203 84t-84 203zM320 80q0 24 12 43l964 1446q21 31 64 31q33 0 56.5 -23.5t23.5 -56.5q0 -24 -12 -43l-958 -1436q-27 -41 -70 -41q-33 0 -56.5 23.5 t-23.5 56.5zM848 288q0 16 9 28l432 624q2 3 5 6q14 14 34 14t34 -14t14 -34v-576h96q20 0 34 -14t14 -34t-14 -34t-34 -14h-96v-192q0 -20 -14 -34t-34 -14t-34 14t-14 34v192h-384q-20 0 -34 14t-14 34zM988 336h292v422z" />
<glyph unicode="&#xbf;" horiz-adv-x="1120" d="M80 0q0 33 23.5 56.5t56.5 23.5t56.5 -23.5t23.5 -56.5q0 -133 93.5 -226.5t226.5 -93.5t226.5 93.5t93.5 226.5t-94 227l-165 153q-141 141 -141 340q0 33 23.5 56.5t56.5 23.5t56.5 -23.5t23.5 -56.5q0 -133 94 -227l165 -153q141 -141 141 -340t-140.5 -339.5 t-339.5 -140.5t-339.5 140.5t-140.5 339.5zM440 999q0 50 35 85t85 35t85 -35t35 -85t-35 -85t-85 -35t-85 35t-35 85z" />
<glyph unicode="&#xc0;" horiz-adv-x="1440" d="M80 80q0 19 7 34l556 1430q6 18 21 33q23 23 56 23t57 -23q14 -15 20 -33l556 -1430q7 -15 7 -34q0 -33 -23.5 -56.5t-56.5 -23.5t-56 23q-12 12 -18 26l-199 511h-574l-199 -511q-6 -14 -17 -26q-24 -23 -57 -23t-56.5 23.5t-23.5 56.5zM495 720h450l-225 579zM453 2000 q0 33 23.5 56.5t56.5 23.5t57 -23l243 -243q20 -23 20 -54q0 -33 -23.5 -56.5t-56.5 -23.5q-32 0 -55 21l-243 243q-22 24 -22 56z" />
<glyph unicode="&#xc1;" horiz-adv-x="1440" d="M80 80q0 19 7 34l556 1430q6 18 21 33q23 23 56 23t57 -23q14 -15 20 -33l556 -1430q7 -15 7 -34q0 -33 -23.5 -56.5t-56.5 -23.5t-56 23q-12 12 -18 26l-199 511h-574l-199 -511q-6 -14 -17 -26q-24 -23 -57 -23t-56.5 23.5t-23.5 56.5zM495 720h450l-225 579zM587 1760 q0 31 20 54l243 243q24 23 57 23t56.5 -23.5t23.5 -56.5q0 -32 -22 -56l-243 -243q-23 -21 -55 -21q-33 0 -56.5 23.5t-23.5 56.5z" />
<glyph unicode="&#xc2;" horiz-adv-x="1440" d="M80 80q0 19 7 34l556 1430q6 18 21 33q23 23 56 23t57 -23q14 -15 20 -33l556 -1430q7 -15 7 -34q0 -33 -23.5 -56.5t-56.5 -23.5t-56 23q-12 12 -18 26l-199 511h-574l-199 -511q-6 -14 -17 -26q-24 -23 -57 -23t-56.5 23.5t-23.5 56.5zM495 720h450l-225 579zM400 1800 q0 40 40 70l239 159q18 11 41 11t41 -11l239 -159q40 -30 40 -70q0 -33 -23.5 -56.5t-56.5 -23.5q-29 0 -50 17l-190 126l-190 -126q-21 -17 -50 -17q-33 0 -56.5 23.5t-23.5 56.5z" />
<glyph unicode="&#xc3;" horiz-adv-x="1440" d="M80 80q0 19 7 34l556 1430q6 18 21 33q23 23 56 23t57 -23q14 -15 20 -33l556 -1430q7 -15 7 -34q0 -33 -23.5 -56.5t-56.5 -23.5t-56 23q-12 12 -18 26l-199 511h-574l-199 -511q-6 -14 -17 -26q-24 -23 -57 -23t-56.5 23.5t-23.5 56.5zM495 720h450l-225 579zM308 1871 q0 33 23.5 56.5t56.5 23.5q32 0 56 -22q47 -48 113 -48q56 0 100 35q89 80 212 80q133 0 227 -94q22 -24 22 -56q0 -33 -23.5 -56.5t-56.5 -23.5q-32 0 -56 22q-47 48 -113 48q-57 0 -100 -35q-90 -80 -212 -80q-133 0 -227 94q-22 24 -22 56z" />
<glyph unicode="&#xc4;" horiz-adv-x="1440" d="M80 80q0 19 7 34l556 1430q6 18 21 33q23 23 56 23t57 -23q14 -15 20 -33l556 -1430q7 -15 7 -34q0 -33 -23.5 -56.5t-56.5 -23.5t-56 23q-12 12 -18 26l-199 511h-574l-199 -511q-6 -14 -17 -26q-24 -23 -57 -23t-56.5 23.5t-23.5 56.5zM495 720h450l-225 579zM380 1840 q0 41 29.5 70.5t70.5 29.5t70.5 -29.5t29.5 -70.5t-29.5 -70.5t-70.5 -29.5t-70.5 29.5t-29.5 70.5zM860 1840q0 41 29.5 70.5t70.5 29.5t70.5 -29.5t29.5 -70.5t-29.5 -70.5t-70.5 -29.5t-70.5 29.5t-29.5 70.5z" />
<glyph unicode="&#xc5;" horiz-adv-x="1440" d="M80 80q0 19 7 34l556 1430q6 18 21 33q23 23 56 23t57 -23q14 -15 20 -33l556 -1430q7 -15 7 -34q0 -33 -23.5 -56.5t-56.5 -23.5t-56 23q-12 12 -18 26l-199 511h-574l-199 -511q-6 -14 -17 -26q-24 -23 -57 -23t-56.5 23.5t-23.5 56.5zM495 720h450l-225 579zM518 1879 q0 83 59 142t143 59q83 0 142 -59t59 -142q0 -84 -59 -143t-142 -59q-84 0 -143 59t-59 143zM619 1879q0 -42 29.5 -71.5t71.5 -29.5q41 0 70.5 29.5t29.5 71.5q0 41 -29.5 70.5t-70.5 29.5q-42 0 -71.5 -29.5t-29.5 -70.5z" />
<glyph unicode="&#xc6;" horiz-adv-x="1760" d="M80 80q0 22 10 39l802 1444q23 37 68 37h640q33 0 56.5 -23.5t23.5 -56.5t-23.5 -56.5t-56.5 -23.5h-560v-640h400q33 0 56.5 -23.5t23.5 -56.5t-23.5 -56.5t-56.5 -23.5h-400v-480h560q33 0 56.5 -23.5t23.5 -56.5t-23.5 -56.5t-56.5 -23.5h-640q-33 0 -56.5 23.5 t-23.5 56.5v560h-317l-335 -603q-25 -37 -68 -37q-33 0 -56.5 23.5t-23.5 56.5zM652 800h228v410z" />
<glyph unicode="&#xc7;" horiz-adv-x="1480" d="M80 800q0 331 234.5 565.5t565.5 234.5q286 0 509 -183q23 -24 23 -57t-23.5 -56.5t-56.5 -23.5t-57 24q-169 136 -395 136q-265 0 -452.5 -187.5t-187.5 -452.5t187.5 -452.5t452.5 -187.5q229 0 400 140q20 14 46 14q33 0 56.5 -23.5t23.5 -56.5t-23 -56 q-223 -178 -503 -178q-331 0 -565.5 234.5t-234.5 565.5zM506 -330q0 33 23.5 56.5t56.5 23.5q24 0 43 -12l78 -48q19 -10 39 -10q33 0 56.5 13.5t23.5 36.5t-23.5 36.5t-56.5 13.5t-56.5 23.5t-23.5 56.5q0 14 4 26l39 137q6 19 21 34q23 23 56 23t56.5 -23.5t23.5 -56.5 q0 -10 -2 -19l-17 -60q37 -15 69 -41q70 -61 70 -150t-70.5 -149.5t-169.5 -60.5q-59 0 -114 29l-91 54q-35 29 -35 67z" />
<glyph unicode="&#xc8;" d="M81 80v1440q0 33 23.5 56.5t56.5 23.5h960q33 0 56.5 -23.5t23.5 -56.5t-23.5 -56.5t-56.5 -23.5h-880v-560h640q33 0 56.5 -23.5t23.5 -56.5t-23.5 -56.5t-56.5 -23.5h-640v-560h880q33 0 56.5 -23.5t23.5 -56.5t-23.5 -56.5t-56.5 -23.5h-960q-33 0 -56.5 23.5 t-23.5 56.5zM375 2000q0 33 23.5 56.5t56.5 23.5t57 -23l243 -243q20 -23 20 -54q0 -33 -23.5 -56.5t-56.5 -23.5q-32 0 -55 21l-243 243q-22 24 -22 56z" />
<glyph unicode="&#xc9;" d="M81 80v1440q0 33 23.5 56.5t56.5 23.5h960q33 0 56.5 -23.5t23.5 -56.5t-23.5 -56.5t-56.5 -23.5h-880v-560h640q33 0 56.5 -23.5t23.5 -56.5t-23.5 -56.5t-56.5 -23.5h-640v-560h880q33 0 56.5 -23.5t23.5 -56.5t-23.5 -56.5t-56.5 -23.5h-960q-33 0 -56.5 23.5 t-23.5 56.5zM509 1760q0 31 20 54l243 243q24 23 57 23t56.5 -23.5t23.5 -56.5q0 -32 -22 -56l-243 -243q-23 -21 -55 -21q-33 0 -56.5 23.5t-23.5 56.5z" />
<glyph unicode="&#xca;" d="M81 80v1440q0 33 23.5 56.5t56.5 23.5h960q33 0 56.5 -23.5t23.5 -56.5t-23.5 -56.5t-56.5 -23.5h-880v-560h640q33 0 56.5 -23.5t23.5 -56.5t-23.5 -56.5t-56.5 -23.5h-640v-560h880q33 0 56.5 -23.5t23.5 -56.5t-23.5 -56.5t-56.5 -23.5h-960q-33 0 -56.5 23.5 t-23.5 56.5zM320 1800q0 40 40 70l239 159q18 11 41 11t41 -11l239 -159q40 -30 40 -70q0 -33 -23.5 -56.5t-56.5 -23.5q-29 0 -50 17l-190 126l-190 -126q-21 -17 -50 -17q-33 0 -56.5 23.5t-23.5 56.5z" />
<glyph unicode="&#xcb;" d="M81 80v1440q0 33 23.5 56.5t56.5 23.5h960q33 0 56.5 -23.5t23.5 -56.5t-23.5 -56.5t-56.5 -23.5h-880v-560h640q33 0 56.5 -23.5t23.5 -56.5t-23.5 -56.5t-56.5 -23.5h-640v-560h880q33 0 56.5 -23.5t23.5 -56.5t-23.5 -56.5t-56.5 -23.5h-960q-33 0 -56.5 23.5 t-23.5 56.5zM302 1840q0 41 29.5 70.5t70.5 29.5t70.5 -29.5t29.5 -70.5t-29.5 -70.5t-70.5 -29.5t-70.5 29.5t-29.5 70.5zM782 1840q0 41 29.5 70.5t70.5 29.5t70.5 -29.5t29.5 -70.5t-29.5 -70.5t-70.5 -29.5t-70.5 29.5t-29.5 70.5z" />
<glyph unicode="&#xcc;" horiz-adv-x="480" d="M160 80v1440q0 33 23.5 56.5t56.5 23.5t56.5 -23.5t23.5 -56.5v-1440q0 -33 -23.5 -56.5t-56.5 -23.5t-56.5 23.5t-23.5 56.5zM-27 2000q0 33 23.5 56.5t56.5 23.5t57 -23l243 -243q20 -23 20 -54q0 -33 -23.5 -56.5t-56.5 -23.5q-32 0 -55 21l-243 243q-22 24 -22 56z " />
<glyph unicode="&#xcd;" horiz-adv-x="480" d="M160 80v1440q0 33 23.5 56.5t56.5 23.5t56.5 -23.5t23.5 -56.5v-1440q0 -33 -23.5 -56.5t-56.5 -23.5t-56.5 23.5t-23.5 56.5zM107 1760q0 31 20 54l243 243q24 23 57 23t56.5 -23.5t23.5 -56.5q0 -32 -22 -56l-243 -243q-23 -21 -55 -21q-33 0 -56.5 23.5t-23.5 56.5z " />
<glyph unicode="&#xce;" horiz-adv-x="480" d="M160 80v1440q0 33 23.5 56.5t56.5 23.5t56.5 -23.5t23.5 -56.5v-1440q0 -33 -23.5 -56.5t-56.5 -23.5t-56.5 23.5t-23.5 56.5zM-80 1800q0 40 40 70l239 159q18 11 41 11t41 -11l239 -159q40 -30 40 -70q0 -33 -23.5 -56.5t-56.5 -23.5q-29 0 -50 17l-190 126l-190 -126 q-21 -17 -50 -17q-33 0 -56.5 23.5t-23.5 56.5z" />
<glyph unicode="&#xcf;" horiz-adv-x="480" d="M160 80v1440q0 33 23.5 56.5t56.5 23.5t56.5 -23.5t23.5 -56.5v-1440q0 -33 -23.5 -56.5t-56.5 -23.5t-56.5 23.5t-23.5 56.5zM-100 1840q0 41 29.5 70.5t70.5 29.5t70.5 -29.5t29.5 -70.5t-29.5 -70.5t-70.5 -29.5t-70.5 29.5t-29.5 70.5zM380 1840q0 41 29.5 70.5 t70.5 29.5t70.5 -29.5t29.5 -70.5t-29.5 -70.5t-70.5 -29.5t-70.5 29.5t-29.5 70.5z" />
<glyph unicode="&#xd0;" horiz-adv-x="1520" d="M0 800q0 33 23.5 56.5t56.5 23.5h159v640q0 33 23.5 56.5t56.5 23.5h320q331 0 565.5 -234.5t234.5 -565.5t-234.5 -565.5t-565.5 -234.5h-320q-33 0 -56.5 23.5t-23.5 56.5v640h-159q-33 0 -56.5 23.5t-23.5 56.5zM399 160h240q265 0 452.5 187.5t187.5 452.5 t-187.5 452.5t-452.5 187.5h-240v-560h320q33 0 56.5 -23.5t23.5 -56.5t-23.5 -56.5t-56.5 -23.5h-320v-560z" />
<glyph unicode="&#xd1;" horiz-adv-x="1440" d="M80 80v1440q0 33 23.5 56.5t56.5 23.5q36 0 62 -29l978 -1258v1207q0 33 23.5 56.5t56.5 23.5t56.5 -23.5t23.5 -56.5v-1440q0 -33 -23.5 -56.5t-56.5 -23.5q-35 0 -60 26l-980 1260v-1206q0 -33 -23.5 -56.5t-56.5 -23.5t-56.5 23.5t-23.5 56.5zM308 1871 q0 33 23.5 56.5t56.5 23.5q32 0 56 -22q47 -48 113 -48q56 0 100 35q89 80 212 80q133 0 227 -94q22 -24 22 -56q0 -33 -23.5 -56.5t-56.5 -23.5q-32 0 -56 22q-47 48 -113 48q-57 0 -100 -35q-90 -80 -212 -80q-133 0 -227 94q-22 24 -22 56z" />
<glyph unicode="&#xd2;" horiz-adv-x="1760" d="M80 800q0 331 234.5 565.5t565.5 234.5t565.5 -234.5t234.5 -565.5t-234.5 -565.5t-565.5 -234.5t-565.5 234.5t-234.5 565.5zM240 800q0 -265 187.5 -452.5t452.5 -187.5t452.5 187.5t187.5 452.5t-187.5 452.5t-452.5 187.5t-452.5 -187.5t-187.5 -452.5zM693 2000 q0 33 23.5 56.5t56.5 23.5t57 -23l243 -243q20 -23 20 -54q0 -33 -23.5 -56.5t-56.5 -23.5q-32 0 -55 21l-243 243q-22 24 -22 56z" />
<glyph unicode="&#xd3;" horiz-adv-x="1760" d="M80 800q0 331 234.5 565.5t565.5 234.5t565.5 -234.5t234.5 -565.5t-234.5 -565.5t-565.5 -234.5t-565.5 234.5t-234.5 565.5zM240 800q0 -265 187.5 -452.5t452.5 -187.5t452.5 187.5t187.5 452.5t-187.5 452.5t-452.5 187.5t-452.5 -187.5t-187.5 -452.5zM677 1760 q0 31 20 54l243 243q24 23 57 23t56.5 -23.5t23.5 -56.5q0 -32 -22 -56l-243 -243q-23 -21 -55 -21q-33 0 -56.5 23.5t-23.5 56.5z" />
<glyph unicode="&#xd4;" horiz-adv-x="1760" d="M80 800q0 331 234.5 565.5t565.5 234.5t565.5 -234.5t234.5 -565.5t-234.5 -565.5t-565.5 -234.5t-565.5 234.5t-234.5 565.5zM240 800q0 -265 187.5 -452.5t452.5 -187.5t452.5 187.5t187.5 452.5t-187.5 452.5t-452.5 187.5t-452.5 -187.5t-187.5 -452.5zM560 1800 q0 40 40 70l239 159q18 11 41 11t41 -11l239 -159q40 -30 40 -70q0 -33 -23.5 -56.5t-56.5 -23.5q-29 0 -50 17l-190 126l-190 -126q-21 -17 -50 -17q-33 0 -56.5 23.5t-23.5 56.5z" />
<glyph unicode="&#xd5;" horiz-adv-x="1760" d="M80 800q0 331 234.5 565.5t565.5 234.5t565.5 -234.5t234.5 -565.5t-234.5 -565.5t-565.5 -234.5t-565.5 234.5t-234.5 565.5zM240 800q0 -265 187.5 -452.5t452.5 -187.5t452.5 187.5t187.5 452.5t-187.5 452.5t-452.5 187.5t-452.5 -187.5t-187.5 -452.5zM468 1871 q0 33 23.5 56.5t56.5 23.5q32 0 56 -22q47 -48 113 -48q56 0 100 35q89 80 212 80q133 0 227 -94q22 -24 22 -56q0 -33 -23.5 -56.5t-56.5 -23.5q-32 0 -56 22q-47 48 -113 48q-57 0 -100 -35q-90 -80 -212 -80q-133 0 -227 94q-22 24 -22 56z" />
<glyph unicode="&#xd6;" horiz-adv-x="1760" d="M80 800q0 331 234.5 565.5t565.5 234.5t565.5 -234.5t234.5 -565.5t-234.5 -565.5t-565.5 -234.5t-565.5 234.5t-234.5 565.5zM240 800q0 -265 187.5 -452.5t452.5 -187.5t452.5 187.5t187.5 452.5t-187.5 452.5t-452.5 187.5t-452.5 -187.5t-187.5 -452.5zM540 1840 q0 41 29.5 70.5t70.5 29.5t70.5 -29.5t29.5 -70.5t-29.5 -70.5t-70.5 -29.5t-70.5 29.5t-29.5 70.5zM1020 1840q0 41 29.5 70.5t70.5 29.5t70.5 -29.5t29.5 -70.5t-29.5 -70.5t-70.5 -29.5t-70.5 29.5t-29.5 70.5z" />
<glyph unicode="&#xd7;" horiz-adv-x="960" d="M80 400q0 32 22 56l264 264l-264 264q-22 24 -22 56q0 33 23.5 56.5t56.5 23.5t58 -24l262 -262l262 262q25 24 58 24t56.5 -23.5t23.5 -56.5q0 -32 -22 -56l-264 -264l264 -264q22 -24 22 -56q0 -33 -23.5 -56.5t-56.5 -23.5q-32 0 -55 21l-265 265l-265 -265 q-23 -21 -55 -21q-33 0 -56.5 23.5t-23.5 56.5z" />
<glyph unicode="&#xd8;" horiz-adv-x="1760" d="M80 80q0 32 21 55l159 159q-180 216 -180 506q0 331 234.5 565.5t565.5 234.5q290 0 506 -180l157 157q24 23 57 23t56.5 -23.5t23.5 -56.5q0 -29 -18 -51l-162 -163q180 -216 180 -506q0 -331 -234.5 -565.5t-565.5 -234.5q-290 0 -506 180l-157 -157q-24 -23 -57 -23 t-56.5 23.5t-23.5 56.5zM240 800q0 -224 134 -392l898 898q-168 134 -392 134q-265 0 -452.5 -187.5t-187.5 -452.5zM488 294q168 -134 392 -134q265 0 452.5 187.5t187.5 452.5q0 224 -134 393z" />
<glyph unicode="&#xd9;" d="M80 560v960q0 33 23.5 56.5t56.5 23.5t56.5 -23.5t23.5 -56.5v-960q0 -166 117 -283t283 -117t283 117t117 283v960q0 33 23.5 56.5t56.5 23.5t56.5 -23.5t23.5 -56.5v-960q0 -232 -164 -396t-396 -164t-396 164t-164 396zM373 2000q0 33 23.5 56.5t56.5 23.5t57 -23 l243 -243q20 -23 20 -54q0 -33 -23.5 -56.5t-56.5 -23.5q-32 0 -55 21l-243 243q-22 24 -22 56z" />
<glyph unicode="&#xda;" d="M80 560v960q0 33 23.5 56.5t56.5 23.5t56.5 -23.5t23.5 -56.5v-960q0 -166 117 -283t283 -117t283 117t117 283v960q0 33 23.5 56.5t56.5 23.5t56.5 -23.5t23.5 -56.5v-960q0 -232 -164 -396t-396 -164t-396 164t-164 396zM507 1760q0 31 20 54l243 243q24 23 57 23 t56.5 -23.5t23.5 -56.5q0 -32 -22 -56l-243 -243q-23 -21 -55 -21q-33 0 -56.5 23.5t-23.5 56.5z" />
<glyph unicode="&#xdb;" d="M80 560v960q0 33 23.5 56.5t56.5 23.5t56.5 -23.5t23.5 -56.5v-960q0 -166 117 -283t283 -117t283 117t117 283v960q0 33 23.5 56.5t56.5 23.5t56.5 -23.5t23.5 -56.5v-960q0 -232 -164 -396t-396 -164t-396 164t-164 396zM320 1800q0 40 40 70l239 159q18 11 41 11 t41 -11l239 -159q40 -30 40 -70q0 -33 -23.5 -56.5t-56.5 -23.5q-29 0 -50 17l-190 126l-190 -126q-21 -17 -50 -17q-33 0 -56.5 23.5t-23.5 56.5z" />
<glyph unicode="&#xdc;" d="M80 560v960q0 33 23.5 56.5t56.5 23.5t56.5 -23.5t23.5 -56.5v-960q0 -166 117 -283t283 -117t283 117t117 283v960q0 33 23.5 56.5t56.5 23.5t56.5 -23.5t23.5 -56.5v-960q0 -232 -164 -396t-396 -164t-396 164t-164 396zM300 1840q0 41 29.5 70.5t70.5 29.5t70.5 -29.5 t29.5 -70.5t-29.5 -70.5t-70.5 -29.5t-70.5 29.5t-29.5 70.5zM780 1840q0 41 29.5 70.5t70.5 29.5t70.5 -29.5t29.5 -70.5t-29.5 -70.5t-70.5 -29.5t-70.5 29.5t-29.5 70.5z" />
<glyph unicode="&#xdd;" d="M80 1520q0 33 23.5 56.5t56.5 23.5q41 0 65 -33l415 -622l415 622q24 33 65 33q33 0 56.5 -23.5t23.5 -56.5q0 -25 -13 -45l-467 -699v-696q0 -33 -23.5 -56.5t-56.5 -23.5t-56.5 23.5t-23.5 56.5v696l-467 699q-13 20 -13 45zM507 1760q0 31 20 54l243 243q24 23 57 23 t56.5 -23.5t23.5 -56.5q0 -32 -22 -56l-243 -243q-23 -21 -55 -21q-33 0 -56.5 23.5t-23.5 56.5z" />
<glyph unicode="&#xde;" d="M80 80v1440q0 33 23.5 56.5t56.5 23.5t56.5 -23.5t23.5 -56.5v-240h480q199 0 339.5 -140.5t140.5 -339.5t-140.5 -339.5t-339.5 -140.5h-480v-240q0 -33 -23.5 -56.5t-56.5 -23.5t-56.5 23.5t-23.5 56.5zM240 480h480q133 0 226.5 93.5t93.5 226.5t-93.5 226.5 t-226.5 93.5h-480v-640z" />
<glyph unicode="&#xdf;" horiz-adv-x="1120" d="M80 80v1120q0 166 117 283t283 117t283 -117t117 -283q0 -147 -92 -255q-25 -34 -25 -78q0 -77 56 -108q56 -28 104 -76q117 -117 117 -283t-117 -283t-283 -117t-283 117q-26 26 -26 59t23.5 56.5t56.5 23.5t60 -25q70 -71 169 -71t169.5 70.5t70.5 169.5t-70 170 q-29 28 -62.5 47t-63.5 50q-84 83 -84 201q0 107 72 188q48 62 48 144q0 99 -70.5 169.5t-169.5 70.5t-169 -70q-71 -71 -71 -170v-1120q0 -33 -23.5 -56.5t-56.5 -23.5t-56.5 23.5t-23.5 56.5z" />
<glyph unicode="&#xe0;" d="M80 560q0 232 164 396t396 164t396 -164t164 -396v-480q0 -33 -23.5 -56.5t-56.5 -23.5t-56.5 23.5t-23.5 56.5v88q-168 -168 -400 -168t-396 164t-164 396zM240 560q0 -166 117 -283t283 -117t283 117t117 283t-117 283t-283 117t-283 -117t-117 -283zM400 1520 q0 33 23.5 56.5t56.5 23.5t57 -23l243 -243q20 -23 20 -54q0 -33 -23.5 -56.5t-56.5 -23.5q-32 0 -55 21l-243 243q-22 24 -22 56z" />
<glyph unicode="&#xe1;" d="M80 560q0 232 164 396t396 164t396 -164t164 -396v-480q0 -33 -23.5 -56.5t-56.5 -23.5t-56.5 23.5t-23.5 56.5v88q-168 -168 -400 -168t-396 164t-164 396zM240 560q0 -166 117 -283t283 -117t283 117t117 283t-117 283t-283 117t-283 -117t-117 -283zM480 1280 q0 31 20 54l243 243q24 23 57 23t56.5 -23.5t23.5 -56.5q0 -32 -22 -56l-243 -243q-23 -21 -55 -21q-33 0 -56.5 23.5t-23.5 56.5z" />
<glyph unicode="&#xe2;" d="M80 560q0 232 164 396t396 164t396 -164t164 -396v-480q0 -33 -23.5 -56.5t-56.5 -23.5t-56.5 23.5t-23.5 56.5v88q-168 -168 -400 -168t-396 164t-164 396zM240 560q0 -166 117 -283t283 -117t283 117t117 283t-117 283t-283 117t-283 -117t-117 -283zM320 1320 q0 40 40 70l239 159q18 11 41 11t41 -11l239 -159q40 -30 40 -70q0 -33 -23.5 -56.5t-56.5 -23.5q-29 0 -50 17l-190 126l-190 -126q-21 -17 -50 -17q-33 0 -56.5 23.5t-23.5 56.5z" />
<glyph unicode="&#xe3;" d="M80 560q0 232 164 396t396 164t396 -164t164 -396v-480q0 -33 -23.5 -56.5t-56.5 -23.5t-56.5 23.5t-23.5 56.5v88q-168 -168 -400 -168t-396 164t-164 396zM240 560q0 -166 117 -283t283 -117t283 117t117 283t-117 283t-283 117t-283 -117t-117 -283zM235 1391 q0 33 23.5 56.5t56.5 23.5q32 0 56 -22q47 -48 113 -48q56 0 100 35q89 80 212 80q133 0 227 -94q22 -24 22 -56q0 -33 -23.5 -56.5t-56.5 -23.5q-32 0 -56 22q-47 48 -113 48q-57 0 -100 -35q-90 -80 -212 -80q-133 0 -227 94q-22 24 -22 56z" />
<glyph unicode="&#xe4;" d="M80 560q0 232 164 396t396 164t396 -164t164 -396v-480q0 -33 -23.5 -56.5t-56.5 -23.5t-56.5 23.5t-23.5 56.5v88q-168 -168 -400 -168t-396 164t-164 396zM240 560q0 -166 117 -283t283 -117t283 117t117 283t-117 283t-283 117t-283 -117t-117 -283zM300 1360 q0 41 29.5 70.5t70.5 29.5t70.5 -29.5t29.5 -70.5t-29.5 -70.5t-70.5 -29.5t-70.5 29.5t-29.5 70.5zM780 1360q0 41 29.5 70.5t70.5 29.5t70.5 -29.5t29.5 -70.5t-29.5 -70.5t-70.5 -29.5t-70.5 29.5t-29.5 70.5z" />
<glyph unicode="&#xe5;" d="M80 560q0 232 164 396t396 164t396 -164t164 -396v-480q0 -33 -23.5 -56.5t-56.5 -23.5t-56.5 23.5t-23.5 56.5v88q-168 -168 -400 -168t-396 164t-164 396zM240 560q0 -166 117 -283t283 -117t283 117t117 283t-117 283t-283 117t-283 -117t-117 -283zM439 1399 q0 83 59 142t143 59q83 0 142 -59t59 -142q0 -84 -59 -143t-142 -59q-84 0 -143 59t-59 143zM540 1399q0 -42 29.5 -71.5t71.5 -29.5q41 0 70.5 29.5t29.5 71.5q0 41 -29.5 70.5t-70.5 29.5q-42 0 -71.5 -29.5t-29.5 -70.5z" />
<glyph unicode="&#xe6;" horiz-adv-x="2240" d="M80 560q0 232 164 396t396 164t396 -164q49 -49 84 -105q35 56 84 105q164 164 396 164t396 -164t164 -396q0 -33 -23.5 -56.5t-56.5 -23.5h-873q22 -115 110 -203q117 -117 283 -117q150 0 258 95q22 17 50 17q33 0 56.5 -23.5t23.5 -56.5t-23 -57q-155 -135 -365 -135 q-232 0 -400 168v-88q0 -33 -23.5 -56.5t-56.5 -23.5t-56.5 23.5t-23.5 56.5v88q-168 -168 -400 -168t-396 164t-164 396zM240 560q0 -166 117 -283t283 -117t283 117t117 283t-117 283t-283 117t-283 -117t-117 -283zM1207 640h786q-22 115 -110 203q-117 117 -283 117 t-283 -117q-88 -88 -110 -203z" />
<glyph unicode="&#xe7;" horiz-adv-x="1120" d="M80 560q0 232 164 396t396 164q210 0 365 -135q28 -25 28 -62q0 -33 -23.5 -56.5t-56.5 -23.5q-29 0 -51 18q-112 99 -262 99q-166 0 -283 -117t-117 -283t117 -283t283 -117q150 0 261 98q21 16 49 16q33 0 56.5 -23.5t23.5 -56.5t-25 -59q-155 -135 -365 -135 q-232 0 -396 164t-164 396zM317 -330q0 33 23.5 56.5t56.5 23.5q24 0 43 -12l78 -48q19 -10 39 -10q33 0 56.5 13.5t23.5 36.5t-23.5 36.5t-56.5 13.5t-56.5 23.5t-23.5 56.5q0 14 4 26l39 137q6 19 21 34q23 23 56 23t56.5 -23.5t23.5 -56.5q0 -10 -2 -19l-17 -60 q37 -15 69 -41q70 -61 70 -150t-70.5 -149.5t-169.5 -60.5q-59 0 -114 29l-91 54q-35 29 -35 67z" />
<glyph unicode="&#xe8;" d="M80 560q0 232 164 396t396 164t396 -164t164 -396q0 -33 -23.5 -56.5t-56.5 -23.5h-873q22 -115 110 -203q117 -117 283 -117q150 0 258 95q22 17 50 17q33 0 56.5 -23.5t23.5 -56.5t-23 -57q-155 -135 -365 -135q-232 0 -396 164t-164 396zM247 640h786 q-22 115 -110 203q-117 117 -283 117t-283 -117q-88 -88 -110 -203zM400 1520q0 33 23.5 56.5t56.5 23.5t57 -23l243 -243q20 -23 20 -54q0 -33 -23.5 -56.5t-56.5 -23.5q-32 0 -55 21l-243 243q-22 24 -22 56z" />
<glyph unicode="&#xe9;" d="M80 560q0 232 164 396t396 164t396 -164t164 -396q0 -33 -23.5 -56.5t-56.5 -23.5h-873q22 -115 110 -203q117 -117 283 -117q150 0 258 95q22 17 50 17q33 0 56.5 -23.5t23.5 -56.5t-23 -57q-155 -135 -365 -135q-232 0 -396 164t-164 396zM247 640h786 q-22 115 -110 203q-117 117 -283 117t-283 -117q-88 -88 -110 -203zM480 1280q0 31 20 54l243 243q24 23 57 23t56.5 -23.5t23.5 -56.5q0 -32 -22 -56l-243 -243q-23 -21 -55 -21q-33 0 -56.5 23.5t-23.5 56.5z" />
<glyph unicode="&#xea;" d="M80 560q0 232 164 396t396 164t396 -164t164 -396q0 -33 -23.5 -56.5t-56.5 -23.5h-873q22 -115 110 -203q117 -117 283 -117q150 0 258 95q22 17 50 17q33 0 56.5 -23.5t23.5 -56.5t-23 -57q-155 -135 -365 -135q-232 0 -396 164t-164 396zM247 640h786 q-22 115 -110 203q-117 117 -283 117t-283 -117q-88 -88 -110 -203zM320 1320q0 40 40 70l239 159q18 11 41 11t41 -11l239 -159q40 -30 40 -70q0 -33 -23.5 -56.5t-56.5 -23.5q-29 0 -50 17l-190 126l-190 -126q-21 -17 -50 -17q-33 0 -56.5 23.5t-23.5 56.5z" />
<glyph unicode="&#xeb;" d="M80 560q0 232 164 396t396 164t396 -164t164 -396q0 -33 -23.5 -56.5t-56.5 -23.5h-873q22 -115 110 -203q117 -117 283 -117q150 0 258 95q22 17 50 17q33 0 56.5 -23.5t23.5 -56.5t-23 -57q-155 -135 -365 -135q-232 0 -396 164t-164 396zM247 640h786 q-22 115 -110 203q-117 117 -283 117t-283 -117q-88 -88 -110 -203zM300 1360q0 41 29.5 70.5t70.5 29.5t70.5 -29.5t29.5 -70.5t-29.5 -70.5t-70.5 -29.5t-70.5 29.5t-29.5 70.5zM780 1360q0 41 29.5 70.5t70.5 29.5t70.5 -29.5t29.5 -70.5t-29.5 -70.5t-70.5 -29.5 t-70.5 29.5t-29.5 70.5z" />
<glyph unicode="&#xec;" horiz-adv-x="480" d="M160 80v960q0 33 23.5 56.5t56.5 23.5t56.5 -23.5t23.5 -56.5v-960q0 -33 -23.5 -56.5t-56.5 -23.5t-56.5 23.5t-23.5 56.5zM0 1520q0 33 23.5 56.5t56.5 23.5t57 -23l243 -243q20 -23 20 -54q0 -33 -23.5 -56.5t-56.5 -23.5q-32 0 -55 21l-243 243q-22 24 -22 56z" />
<glyph unicode="&#xed;" horiz-adv-x="480" d="M160 80v960q0 33 23.5 56.5t56.5 23.5t56.5 -23.5t23.5 -56.5v-960q0 -33 -23.5 -56.5t-56.5 -23.5t-56.5 23.5t-23.5 56.5zM82 1280q0 31 20 54l243 243q24 23 57 23t56.5 -23.5t23.5 -56.5q0 -32 -22 -56l-243 -243q-23 -21 -55 -21q-33 0 -56.5 23.5t-23.5 56.5z" />
<glyph unicode="&#xee;" horiz-adv-x="560" d="M201 80v960q0 33 23.5 56.5t56.5 23.5t56.5 -23.5t23.5 -56.5v-960q0 -33 -23.5 -56.5t-56.5 -23.5t-56.5 23.5t-23.5 56.5zM-40 1320q0 40 40 70l239 159q18 11 41 11t41 -11l239 -159q40 -30 40 -70q0 -33 -23.5 -56.5t-56.5 -23.5q-29 0 -50 17l-190 126l-190 -126 q-21 -17 -50 -17q-33 0 -56.5 23.5t-23.5 56.5z" />
<glyph unicode="&#xef;" horiz-adv-x="600" d="M220 80v960q0 33 23.5 56.5t56.5 23.5t56.5 -23.5t23.5 -56.5v-960q0 -33 -23.5 -56.5t-56.5 -23.5t-56.5 23.5t-23.5 56.5zM-39 1360q0 41 29.5 70.5t70.5 29.5t70.5 -29.5t29.5 -70.5t-29.5 -70.5t-70.5 -29.5t-70.5 29.5t-29.5 70.5zM441 1360q0 41 29.5 70.5 t70.5 29.5t70.5 -29.5t29.5 -70.5t-29.5 -70.5t-70.5 -29.5t-70.5 29.5t-29.5 70.5z" />
<glyph unicode="&#xf0;" d="M80 560q0 232 164 396t396 164q79 0 150 -19l-104 179l-139 -81q-28 -17 -60.5 -8.5t-48.5 36.5q-17 29 -8.5 61t36.5 49l140 81l-34 58q-12 22 -12 44q0 33 23.5 56.5t56.5 23.5q46 0 68 -37l37 -63l136 79q28 17 60.5 8.5t48.5 -36.5q17 -29 8.5 -61t-36.5 -49 l-137 -80l308 -532q67 -121 67 -269q0 -232 -164 -396t-396 -164t-396 164t-164 396zM240 560q0 -166 117 -283t283 -117t283 117t117 283t-117 283t-283 117t-283 -117t-117 -283z" />
<glyph unicode="&#xf1;" horiz-adv-x="1200" d="M80 80v960q0 33 23.5 56.5t56.5 23.5t56.5 -23.5t23.5 -56.5v-65q150 145 360 145q215 0 367.5 -152.5t152.5 -367.5v-520q0 -33 -23.5 -56.5t-56.5 -23.5t-56.5 23.5t-23.5 56.5v520q0 149 -105.5 254.5t-254.5 105.5t-254.5 -105.5t-105.5 -254.5v-520 q0 -33 -23.5 -56.5t-56.5 -23.5t-56.5 23.5t-23.5 56.5zM200 1391q0 33 23.5 56.5t56.5 23.5q32 0 56 -22q47 -48 113 -48q56 0 100 35q89 80 212 80q133 0 227 -94q22 -24 22 -56q0 -33 -23.5 -56.5t-56.5 -23.5q-32 0 -56 22q-47 48 -113 48q-57 0 -100 -35 q-90 -80 -212 -80q-133 0 -227 94q-22 24 -22 56z" />
<glyph unicode="&#xf2;" d="M80 560q0 232 164 396t396 164t396 -164t164 -396t-164 -396t-396 -164t-396 164t-164 396zM240 560q0 -166 117 -283t283 -117t283 117t117 283t-117 283t-283 117t-283 -117t-117 -283zM400 1520q0 33 23.5 56.5t56.5 23.5t57 -23l243 -243q20 -23 20 -54 q0 -33 -23.5 -56.5t-56.5 -23.5q-32 0 -55 21l-243 243q-22 24 -22 56z" />
<glyph unicode="&#xf3;" d="M80 560q0 232 164 396t396 164t396 -164t164 -396t-164 -396t-396 -164t-396 164t-164 396zM240 560q0 -166 117 -283t283 -117t283 117t117 283t-117 283t-283 117t-283 -117t-117 -283zM480 1280q0 31 20 54l243 243q24 23 57 23t56.5 -23.5t23.5 -56.5q0 -32 -22 -56 l-243 -243q-23 -21 -55 -21q-33 0 -56.5 23.5t-23.5 56.5z" />
<glyph unicode="&#xf4;" d="M80 560q0 232 164 396t396 164t396 -164t164 -396t-164 -396t-396 -164t-396 164t-164 396zM240 560q0 -166 117 -283t283 -117t283 117t117 283t-117 283t-283 117t-283 -117t-117 -283zM320 1320q0 40 40 70l239 159q18 11 41 11t41 -11l239 -159q40 -30 40 -70 q0 -33 -23.5 -56.5t-56.5 -23.5q-29 0 -50 17l-190 126l-190 -126q-21 -17 -50 -17q-33 0 -56.5 23.5t-23.5 56.5z" />
<glyph unicode="&#xf5;" d="M80 560q0 232 164 396t396 164t396 -164t164 -396t-164 -396t-396 -164t-396 164t-164 396zM240 560q0 -166 117 -283t283 -117t283 117t117 283t-117 283t-283 117t-283 -117t-117 -283zM235 1391q0 33 23.5 56.5t56.5 23.5q32 0 56 -22q47 -48 113 -48q56 0 100 35 q89 80 212 80q133 0 227 -94q22 -24 22 -56q0 -33 -23.5 -56.5t-56.5 -23.5q-32 0 -56 22q-47 48 -113 48q-57 0 -100 -35q-90 -80 -212 -80q-133 0 -227 94q-22 24 -22 56z" />
<glyph unicode="&#xf6;" d="M80 560q0 232 164 396t396 164t396 -164t164 -396t-164 -396t-396 -164t-396 164t-164 396zM240 560q0 -166 117 -283t283 -117t283 117t117 283t-117 283t-283 117t-283 -117t-117 -283zM300 1360q0 41 29.5 70.5t70.5 29.5t70.5 -29.5t29.5 -70.5t-29.5 -70.5 t-70.5 -29.5t-70.5 29.5t-29.5 70.5zM780 1360q0 41 29.5 70.5t70.5 29.5t70.5 -29.5t29.5 -70.5t-29.5 -70.5t-70.5 -29.5t-70.5 29.5t-29.5 70.5z" />
<glyph unicode="&#xf7;" horiz-adv-x="960" d="M80 720q0 33 23.5 56.5t56.5 23.5h640q33 0 56.5 -23.5t23.5 -56.5t-23.5 -56.5t-56.5 -23.5h-640q-33 0 -56.5 23.5t-23.5 56.5zM380 420q0 41 29.5 70.5t70.5 29.5t70.5 -29.5t29.5 -70.5t-29.5 -70.5t-70.5 -29.5t-70.5 29.5t-29.5 70.5zM380 1020q0 41 29.5 70.5 t70.5 29.5t70.5 -29.5t29.5 -70.5t-29.5 -70.5t-70.5 -29.5t-70.5 29.5t-29.5 70.5z" />
<glyph unicode="&#xf8;" d="M80 80q0 32 22 56l89 89q-111 144 -111 335q0 232 164 396t396 164q191 0 336 -111l85 85q26 26 59 26t56.5 -23.5t23.5 -56.5q0 -32 -22 -56l-89 -89q111 -144 111 -335q0 -232 -164 -396t-396 -164q-191 0 -335 111l-88 -88q-24 -23 -57 -23t-56.5 23.5t-23.5 56.5z M240 560q0 -124 65 -221l556 555q-97 66 -221 66q-166 0 -283 -117t-117 -283zM419 225q97 -65 221 -65q166 0 283 117t117 283q0 124 -65 221z" />
<glyph unicode="&#xf9;" horiz-adv-x="1200" d="M80 520v520q0 33 23.5 56.5t56.5 23.5t56.5 -23.5t23.5 -56.5v-520q0 -149 105.5 -254.5t254.5 -105.5t254.5 105.5t105.5 254.5v520q0 33 23.5 56.5t56.5 23.5t56.5 -23.5t23.5 -56.5v-960q0 -33 -23.5 -56.5t-56.5 -23.5t-56.5 23.5t-23.5 56.5v65q-150 -145 -360 -145 q-215 0 -367.5 152.5t-152.5 367.5zM400 1520q0 33 23.5 56.5t56.5 23.5t57 -23l243 -243q20 -23 20 -54q0 -33 -23.5 -56.5t-56.5 -23.5q-32 0 -55 21l-243 243q-22 24 -22 56z" />
<glyph unicode="&#xfa;" horiz-adv-x="1200" d="M80 520v520q0 33 23.5 56.5t56.5 23.5t56.5 -23.5t23.5 -56.5v-520q0 -149 105.5 -254.5t254.5 -105.5t254.5 105.5t105.5 254.5v520q0 33 23.5 56.5t56.5 23.5t56.5 -23.5t23.5 -56.5v-960q0 -33 -23.5 -56.5t-56.5 -23.5t-56.5 23.5t-23.5 56.5v65q-150 -145 -360 -145 q-215 0 -367.5 152.5t-152.5 367.5zM400 1280q0 31 20 54l243 243q24 23 57 23t56.5 -23.5t23.5 -56.5q0 -32 -22 -56l-243 -243q-23 -21 -55 -21q-33 0 -56.5 23.5t-23.5 56.5z" />
<glyph unicode="&#xfb;" horiz-adv-x="1200" d="M80 520v520q0 33 23.5 56.5t56.5 23.5t56.5 -23.5t23.5 -56.5v-520q0 -149 105.5 -254.5t254.5 -105.5t254.5 105.5t105.5 254.5v520q0 33 23.5 56.5t56.5 23.5t56.5 -23.5t23.5 -56.5v-960q0 -33 -23.5 -56.5t-56.5 -23.5t-56.5 23.5t-23.5 56.5v65q-150 -145 -360 -145 q-215 0 -367.5 152.5t-152.5 367.5zM280 1320q0 40 40 70l239 159q18 11 41 11t41 -11l239 -159q40 -30 40 -70q0 -33 -23.5 -56.5t-56.5 -23.5q-29 0 -50 17l-190 126l-190 -126q-21 -17 -50 -17q-33 0 -56.5 23.5t-23.5 56.5z" />
<glyph unicode="&#xfc;" horiz-adv-x="1200" d="M80 520v520q0 33 23.5 56.5t56.5 23.5t56.5 -23.5t23.5 -56.5v-520q0 -149 105.5 -254.5t254.5 -105.5t254.5 105.5t105.5 254.5v520q0 33 23.5 56.5t56.5 23.5t56.5 -23.5t23.5 -56.5v-960q0 -33 -23.5 -56.5t-56.5 -23.5t-56.5 23.5t-23.5 56.5v65q-150 -145 -360 -145 q-215 0 -367.5 152.5t-152.5 367.5zM260 1360q0 41 29.5 70.5t70.5 29.5t70.5 -29.5t29.5 -70.5t-29.5 -70.5t-70.5 -29.5t-70.5 29.5t-29.5 70.5zM740 1360q0 41 29.5 70.5t70.5 29.5t70.5 -29.5t29.5 -70.5t-29.5 -70.5t-70.5 -29.5t-70.5 29.5t-29.5 70.5z" />
<glyph unicode="&#xfd;" horiz-adv-x="1120" d="M80 1040q0 33 23.5 56.5t56.5 23.5t57 -23q13 -14 19 -30l324 -777l324 777q6 16 20 30q23 23 56 23t56.5 -23.5t23.5 -56.5q0 -20 -9 -37l-596 -1430q-6 -16 -19 -29q-24 -24 -57 -24t-56.5 23.5t-23.5 56.5q0 20 9 37l185 444l-384 922q-9 17 -9 37zM427 1280 q0 31 20 54l243 243q24 23 57 23t56.5 -23.5t23.5 -56.5q0 -32 -22 -56l-243 -243q-23 -21 -55 -21q-33 0 -56.5 23.5t-23.5 56.5z" />
<glyph unicode="&#xfe;" d="M80 -400v1922q0 33 23.5 56.5t56.5 23.5t56.5 -23.5t23.5 -56.5v-568q168 168 400 168t396 -164t164 -396t-164 -396t-396 -164t-400 168v-570q0 -33 -23.5 -56.5t-56.5 -23.5t-56.5 23.5t-23.5 56.5zM240 562q0 -166 117 -283t283 -117t283 117t117 283t-117 283 t-283 117t-283 -117t-117 -283z" />
<glyph unicode="&#xff;" horiz-adv-x="1120" d="M80 1040q0 33 23.5 56.5t56.5 23.5t57 -23q13 -14 19 -30l324 -777l324 777q6 16 20 30q23 23 56 23t56.5 -23.5t23.5 -56.5q0 -20 -9 -37l-596 -1430q-6 -16 -19 -29q-24 -24 -57 -24t-56.5 23.5t-23.5 56.5q0 20 9 37l185 444l-384 922q-9 17 -9 37zM220 1360 q0 41 29.5 70.5t70.5 29.5t70.5 -29.5t29.5 -70.5t-29.5 -70.5t-70.5 -29.5t-70.5 29.5t-29.5 70.5zM700 1360q0 41 29.5 70.5t70.5 29.5t70.5 -29.5t29.5 -70.5t-29.5 -70.5t-70.5 -29.5t-70.5 29.5t-29.5 70.5z" />
<glyph unicode="&#x131;" horiz-adv-x="480" d="M160 80v960q0 33 23.5 56.5t56.5 23.5t56.5 -23.5t23.5 -56.5v-960q0 -33 -23.5 -56.5t-56.5 -23.5t-56.5 23.5t-23.5 56.5z" />
<glyph unicode="&#x152;" horiz-adv-x="2160" d="M80 800q0 331 234.5 565.5t565.5 234.5h1121q33 0 56.5 -23.5t23.5 -56.5t-23.5 -56.5t-56.5 -23.5h-881v-560h641q33 0 56.5 -23.5t23.5 -56.5q0 -34 -23.5 -57.5t-56.5 -23.5h-641v-559h880q33 0 56.5 -23.5t23.5 -56.5t-23.5 -56.5t-56.5 -23.5h-1120 q-331 0 -565.5 234.5t-234.5 565.5zM240 800q0 -265 187.5 -452.5t452.5 -187.5h80v1280h-80q-265 0 -452.5 -187.5t-187.5 -452.5z" />
<glyph unicode="&#x153;" horiz-adv-x="2240" d="M80 560q0 232 164 396t396 164t396 -164q49 -49 84 -105q35 56 84 105q164 164 396 164t396 -164t164 -396q0 -33 -23.5 -56.5t-56.5 -23.5h-873q22 -115 110 -203q117 -117 283 -117q150 0 258 95q22 17 50 17q33 0 56.5 -23.5t23.5 -56.5t-23 -57q-155 -135 -365 -135 q-232 0 -396 164q-49 49 -84 105q-35 -56 -84 -105q-164 -164 -396 -164t-396 164t-164 396zM240 560q0 -166 117 -283t283 -117t283 117t117 283t-117 283t-283 117t-283 -117t-117 -283zM1207 640h786q-22 115 -110 203q-117 117 -283 117t-283 -117q-88 -88 -110 -203z " />
<glyph unicode="&#x178;" d="M80 1520q0 33 23.5 56.5t56.5 23.5q41 0 65 -33l415 -622l415 622q24 33 65 33q33 0 56.5 -23.5t23.5 -56.5q0 -25 -13 -45l-467 -699v-696q0 -33 -23.5 -56.5t-56.5 -23.5t-56.5 23.5t-23.5 56.5v696l-467 699q-13 20 -13 45zM300 1840q0 41 29.5 70.5t70.5 29.5 t70.5 -29.5t29.5 -70.5t-29.5 -70.5t-70.5 -29.5t-70.5 29.5t-29.5 70.5zM780 1840q0 41 29.5 70.5t70.5 29.5t70.5 -29.5t29.5 -70.5t-29.5 -70.5t-70.5 -29.5t-70.5 29.5t-29.5 70.5z" />
<glyph unicode="&#x2c6;" horiz-adv-x="800" d="M80 1320q0 40 40 70l239 159q18 11 41 11t41 -11l239 -159q40 -30 40 -70q0 -33 -23.5 -56.5t-56.5 -23.5q-29 0 -50 17l-190 126l-190 -126q-21 -17 -50 -17q-33 0 -56.5 23.5t-23.5 56.5z" />
<glyph unicode="&#x2da;" horiz-adv-x="560" d="M80 1399q0 83 59 142t143 59q83 0 142 -59t59 -142q0 -84 -59 -143t-142 -59q-84 0 -143 59t-59 143zM181 1399q0 -42 29.5 -71.5t71.5 -29.5q41 0 70.5 29.5t29.5 71.5q0 41 -29.5 70.5t-70.5 29.5q-42 0 -71.5 -29.5t-29.5 -70.5z" />
<glyph unicode="&#x2dc;" horiz-adv-x="960" d="M71 1391q0 33 23.5 56.5t56.5 23.5q32 0 56 -22q47 -48 113 -48q56 0 100 35q89 80 212 80q133 0 227 -94q22 -24 22 -56q0 -33 -23.5 -56.5t-56.5 -23.5q-32 0 -56 22q-47 48 -113 48q-57 0 -100 -35q-90 -80 -212 -80q-133 0 -227 94q-22 24 -22 56z" />
<glyph unicode="&#x2000;" horiz-adv-x="1040" />
<glyph unicode="&#x2001;" horiz-adv-x="2080" />
<glyph unicode="&#x2002;" horiz-adv-x="1040" />
<glyph unicode="&#x2003;" horiz-adv-x="2080" />
<glyph unicode="&#x2004;" horiz-adv-x="693" />
<glyph unicode="&#x2005;" horiz-adv-x="520" />
<glyph unicode="&#x2006;" horiz-adv-x="346" />
<glyph unicode="&#x2007;" horiz-adv-x="346" />
<glyph unicode="&#x2008;" horiz-adv-x="260" />
<glyph unicode="&#x2009;" horiz-adv-x="416" />
<glyph unicode="&#x200a;" horiz-adv-x="115" />
<glyph unicode="&#x2010;" horiz-adv-x="800" d="M80 560q0 33 23.5 56.5t56.5 23.5h480q33 0 56.5 -23.5t23.5 -56.5t-23.5 -56.5t-56.5 -23.5h-480q-33 0 -56.5 23.5t-23.5 56.5z" />
<glyph unicode="&#x2011;" horiz-adv-x="800" d="M80 560q0 33 23.5 56.5t56.5 23.5h480q33 0 56.5 -23.5t23.5 -56.5t-23.5 -56.5t-56.5 -23.5h-480q-33 0 -56.5 23.5t-23.5 56.5z" />
<glyph unicode="&#x2012;" horiz-adv-x="800" d="M80 560q0 33 23.5 56.5t56.5 23.5h480q33 0 56.5 -23.5t23.5 -56.5t-23.5 -56.5t-56.5 -23.5h-480q-33 0 -56.5 23.5t-23.5 56.5z" />
<glyph unicode="&#x2013;" horiz-adv-x="800" d="M-80 560q0 33 23.5 56.5t56.5 23.5h800q33 0 56.5 -23.5t23.5 -56.5t-23.5 -56.5t-56.5 -23.5h-800q-33 0 -56.5 23.5t-23.5 56.5z" />
<glyph unicode="&#x2014;" horiz-adv-x="1920" d="M-80 560q0 33 23.5 56.5t56.5 23.5h1920q33 0 56.5 -23.5t23.5 -56.5t-23.5 -56.5t-56.5 -23.5h-1920q-33 0 -56.5 23.5t-23.5 56.5z" />
<glyph unicode="&#x2018;" horiz-adv-x="480" d="M120 1225q0 175 152 358q17 17 42 17q24 0 41.5 -17.5t17.5 -41.5q0 -14 -5 -26q-98 -237 -3 -435q8 -18 8 -40q0 -41 -29.5 -70.5t-70.5 -29.5q-62 0 -90 58q-63 112 -63 227z" />
<glyph unicode="&#x2019;" horiz-adv-x="480" d="M120 999q0 14 5 26q98 237 3 435q-8 18 -8 40q0 41 29.5 70.5t70.5 29.5q62 0 90 -58q63 -112 63 -227q0 -175 -152 -358q-17 -17 -42 -17q-24 0 -41.5 17.5t-17.5 41.5z" />
<glyph unicode="&#x201a;" horiz-adv-x="480" d="M120 219q0 41 29.5 70.5t70.5 29.5q62 0 90 -58q63 -112 63 -227q0 -175 -152 -358q-17 -17 -42 -17q-24 0 -41.5 17.5t-17.5 41.5q0 14 5 26q98 237 3 435q-8 18 -8 40z" />
<glyph unicode="&#x201c;" horiz-adv-x="760" d="M80 1227q0 175 152 358q17 17 42 17q24 0 41.5 -17.5t17.5 -41.5q0 -14 -5 -26q-98 -237 -3 -435q8 -18 8 -40q0 -41 -29.5 -70.5t-70.5 -29.5q-62 0 -90 58q-63 112 -63 227zM427 1227q0 175 152 358q17 17 42 17q24 0 41.5 -17.5t17.5 -41.5q0 -14 -5 -26 q-98 -237 -3 -435q8 -18 8 -40q0 -41 -29.5 -70.5t-70.5 -29.5q-62 0 -90 58q-63 112 -63 227z" />
<glyph unicode="&#x201d;" horiz-adv-x="760" d="M80 1001q0 14 5 26q98 237 3 435q-8 18 -8 40q0 41 29.5 70.5t70.5 29.5q62 0 90 -58q63 -112 63 -227q0 -175 -152 -358q-17 -17 -42 -17q-24 0 -41.5 17.5t-17.5 41.5zM427 1001q0 14 5 26q98 237 3 435q-8 18 -8 40q0 41 29.5 70.5t70.5 29.5q62 0 90 -58 q63 -112 63 -227q0 -175 -152 -358q-17 -17 -42 -17q-24 0 -41.5 17.5t-17.5 41.5z" />
<glyph unicode="&#x201e;" horiz-adv-x="760" d="M80 220q0 41 29.5 70.5t70.5 29.5q62 0 90 -58q63 -112 63 -227q0 -175 -152 -358q-17 -17 -42 -17q-24 0 -41.5 17.5t-17.5 41.5q0 14 5 26q98 237 3 435q-8 18 -8 40zM427 220q0 41 29.5 70.5t70.5 29.5q62 0 90 -58q63 -112 63 -227q0 -175 -152 -358q-17 -17 -42 -17 q-24 0 -41.5 17.5t-17.5 41.5q0 14 5 26q98 237 3 435q-8 18 -8 40z" />
<glyph unicode="&#x2022;" horiz-adv-x="800" d="M160 800q0 99 70.5 169.5t169.5 70.5t169.5 -70.5t70.5 -169.5t-70.5 -169.5t-169.5 -70.5t-169.5 70.5t-70.5 169.5z" />
<glyph unicode="&#x2026;" horiz-adv-x="1440" d="M80 120q0 50 35 85t85 35t85 -35t35 -85t-35 -85t-85 -35t-85 35t-35 85zM560 120q0 50 35 85t85 35t85 -35t35 -85t-35 -85t-85 -35t-85 35t-35 85zM1040 120q0 50 35 85t85 35t85 -35t35 -85t-35 -85t-85 -35t-85 35t-35 85z" />
<glyph unicode="&#x202f;" horiz-adv-x="416" />
<glyph unicode="&#x2039;" horiz-adv-x="560" d="M80 559q0 20 10 39l236 472q6 14 18 26q23 23 56 23t56.5 -23.5t23.5 -56.5q0 -18 -7 -34l-223 -445l223 -446q7 -16 7 -34q0 -33 -23.5 -56.5t-56.5 -23.5t-56 24q-12 11 -18 25l-234 467q-12 22 -12 43z" />
<glyph unicode="&#x203a;" horiz-adv-x="560" d="M80 80q0 18 7 34l223 446l-223 445q-7 16 -7 34q0 33 23.5 56.5t56.5 23.5t56 -23q12 -12 18 -26l236 -472q10 -19 10 -39q0 -21 -12 -43l-234 -467q-6 -14 -18 -25q-23 -24 -56 -24t-56.5 23.5t-23.5 56.5z" />
<glyph unicode="&#x205f;" horiz-adv-x="520" />
<glyph unicode="&#x20ac;" horiz-adv-x="1480" d="M80 800q0 331 234.5 565.5t565.5 234.5q286 0 509 -183q23 -24 23 -57t-23.5 -56.5t-56.5 -23.5t-57 24q-169 136 -395 136q-265 0 -452 -187q-97 -97 -143 -213h915q33 0 56.5 -23.5t23.5 -56.5t-23.5 -56.5t-56.5 -23.5h-956q-4 -39 -4 -80t4 -80h956q33 0 56.5 -23.5 t23.5 -56.5t-23.5 -56.5t-56.5 -23.5h-915q46 -116 143 -212q187 -188 452 -188q229 0 400 140q20 14 46 14q33 0 56.5 -23.5t23.5 -56.5t-23 -56q-223 -178 -503 -178q-331 0 -565.5 234.5t-234.5 565.5z" />
<glyph unicode="&#x2122;" horiz-adv-x="1500" d="M80.001 1568.04q0 13.2012 10.5752 22.6016t25.4258 9.40039h468.013q14.8506 0 25.4258 -9.40039t10.5752 -22.6016t-10.5752 -22.6016t-25.4258 -9.40039h-198.005v-544.033q0 -13.2012 -10.5762 -22.6016q-10.5752 -9.40039 -25.4258 -9.40039 q-14.8496 0 -25.4248 9.40039t-10.5752 22.6016v544.033h-198.006q-14.8506 0 -25.4258 9.40039t-10.5752 22.6016zM680.001 992.002v576.035q0 13.2012 10.5752 22.6016t25.4258 9.40039q21.6006 0 31.9512 -16.8008l292.058 -519.632l292.058 519.632 q10.3506 16.8008 31.9512 16.8008q14.8506 0 25.4258 -9.40039t10.5752 -22.6016v-576.035q0 -13.2012 -10.5752 -22.6016t-25.4258 -9.40039t-25.4258 9.40039t-10.5752 22.6016v440.427l-256.957 -456.828q-9.4502 -15.6006 -31.0508 -15.6006q-22.501 0 -33.3008 19.6016 l-254.707 452.827v-440.427q0 -13.2012 -10.5752 -22.6016t-25.4258 -9.40039t-25.4258 9.40039t-10.5752 22.6016z" />
<glyph unicode="&#xe000;" horiz-adv-x="1120" d="M0 1120h1120v-1120h-1120v1120z" />
<glyph unicode="&#xf001;" horiz-adv-x="1120" d="M80 980q0 33 23.5 56.5t56.5 23.5h80v60q0 480 440 480q380 0 380 -240q0 -41 -29.5 -70.5t-70.5 -29.5t-70.5 29.5t-29.5 70.5q0 80 -180 80q-280 0 -280 -320v-60h241q33 0 56.5 -23.5t23.5 -56.5t-23.5 -56.5t-56.5 -23.5h-241v-820q0 -33 -23.5 -56.5t-56.5 -23.5 t-56.5 23.5t-23.5 56.5v820h-80q-33 0 -56.5 23.5t-23.5 56.5zM880 80v960q0 33 23.5 56.5t56.5 23.5t56.5 -23.5t23.5 -56.5v-960q0 -33 -23.5 -56.5t-56.5 -23.5t-56.5 23.5t-23.5 56.5z" />
<glyph unicode="&#xfb01;" horiz-adv-x="1120" d="M80 980q0 33 23.5 56.5t56.5 23.5h80v60q0 480 440 480q380 0 380 -240q0 -41 -29.5 -70.5t-70.5 -29.5t-70.5 29.5t-29.5 70.5q0 80 -180 80q-280 0 -280 -320v-60h241q33 0 56.5 -23.5t23.5 -56.5t-23.5 -56.5t-56.5 -23.5h-241v-820q0 -33 -23.5 -56.5t-56.5 -23.5 t-56.5 23.5t-23.5 56.5v820h-80q-33 0 -56.5 23.5t-23.5 56.5zM880 80v960q0 33 23.5 56.5t56.5 23.5t56.5 -23.5t23.5 -56.5v-960q0 -33 -23.5 -56.5t-56.5 -23.5t-56.5 23.5t-23.5 56.5z" />
<glyph unicode="&#xf002;" horiz-adv-x="1200" d="M80 980q0 33 23.5 56.5t56.5 23.5h80v60q0 480 480 480q240 0 240 -240v-1200h80q33 0 56.5 -23.5t23.5 -56.5t-23.5 -56.5t-56.5 -23.5h-160q-33 0 -56.5 23.5t-23.5 56.5v1280q0 80 -80 80q-320 0 -320 -320v-60h241q33 0 56.5 -23.5t23.5 -56.5t-23.5 -56.5 t-56.5 -23.5h-241v-820q0 -33 -23.5 -56.5t-56.5 -23.5t-56.5 23.5t-23.5 56.5v820h-80q-33 0 -56.5 23.5t-23.5 56.5z" />
<glyph unicode="&#xfb02;" horiz-adv-x="1200" d="M80 980q0 33 23.5 56.5t56.5 23.5h80v60q0 480 480 480q240 0 240 -240v-1200h80q33 0 56.5 -23.5t23.5 -56.5t-23.5 -56.5t-56.5 -23.5h-160q-33 0 -56.5 23.5t-23.5 56.5v1280q0 80 -80 80q-320 0 -320 -320v-60h241q33 0 56.5 -23.5t23.5 -56.5t-23.5 -56.5 t-56.5 -23.5h-241v-820q0 -33 -23.5 -56.5t-56.5 -23.5t-56.5 23.5t-23.5 56.5v820h-80q-33 0 -56.5 23.5t-23.5 56.5z" />
<glyph unicode="&#xfb03;" horiz-adv-x="2080" d="M1740 1360q0 41 29.5 70.5t70.5 29.5t70.5 -29.5t29.5 -70.5t-29.5 -70.5t-70.5 -29.5t-70.5 29.5t-29.5 70.5zM1760 80v960q0 33 23.5 56.5t56.5 23.5t56.5 -23.5t23.5 -56.5v-960q0 -33 -23.5 -56.5t-56.5 -23.5t-56.5 23.5t-23.5 56.5zM880 980q0 33 23.5 56.5 t56.5 23.5h80v60q0 480 480 480q33 0 56.5 -23.5t23.5 -56.5t-23.5 -56.5t-56.5 -23.5q-320 0 -320 -320v-60h241q33 0 56.5 -23.5t23.5 -56.5t-23.5 -56.5t-56.5 -23.5h-241v-820q0 -33 -23.5 -56.5t-56.5 -23.5t-56.5 23.5t-23.5 56.5v820h-80q-33 0 -56.5 23.5 t-23.5 56.5zM80 980q0 33 23.5 56.5t56.5 23.5h80v60q0 480 480 480q33 0 56.5 -23.5t23.5 -56.5t-23.5 -56.5t-56.5 -23.5q-320 0 -320 -320v-60h241q33 0 56.5 -23.5t23.5 -56.5t-23.5 -56.5t-56.5 -23.5h-241v-820q0 -33 -23.5 -56.5t-56.5 -23.5t-56.5 23.5t-23.5 56.5 v820h-80q-33 0 -56.5 23.5t-23.5 56.5z" />
<glyph unicode="&#xfb04;" horiz-adv-x="2080" d="M1680 80v1440q0 33 23.5 56.5t56.5 23.5t56.5 -23.5t23.5 -56.5v-1360h80q33 0 56.5 -23.5t23.5 -56.5t-23.5 -56.5t-56.5 -23.5h-160q-33 0 -56.5 23.5t-23.5 56.5zM880 980q0 33 23.5 56.5t56.5 23.5h80v60q0 480 480 480q33 0 56.5 -23.5t23.5 -56.5t-23.5 -56.5 t-56.5 -23.5q-320 0 -320 -320v-60h241q33 0 56.5 -23.5t23.5 -56.5t-23.5 -56.5t-56.5 -23.5h-241v-820q0 -33 -23.5 -56.5t-56.5 -23.5t-56.5 23.5t-23.5 56.5v820h-80q-33 0 -56.5 23.5t-23.5 56.5zM80 980q0 33 23.5 56.5t56.5 23.5h80v60q0 480 480 480 q33 0 56.5 -23.5t23.5 -56.5t-23.5 -56.5t-56.5 -23.5q-320 0 -320 -320v-60h241q33 0 56.5 -23.5t23.5 -56.5t-23.5 -56.5t-56.5 -23.5h-241v-820q0 -33 -23.5 -56.5t-56.5 -23.5t-56.5 23.5t-23.5 56.5v820h-80q-33 0 -56.5 23.5t-23.5 56.5z" />
</font>
</defs>
</svg>
