<?xml version="1.0" standalone="no"?>
<!DOCTYPE svg PUBLIC "-//W3C//DTD SVG 1.1//EN" "http://www.w3.org/Graphics/SVG/1.1/DTD/svg11.dtd" >
<svg xmlns="http://www.w3.org/2000/svg">
<metadata>
This is a custom SVG webfont generated by Font Squirrel.
Copyright   :  2010 2012 Adobe Systems Incorporated All Rights Reserved
Designer    : Paul D Hunt
Foundry     : Adobe Systems Incorporated
Foundry URL : httpwwwadobecomtype
</metadata>
<defs>
<font id="SourceSansProBold" horiz-adv-x="0" >
<font-face units-per-em="2048" ascent="1536" descent="-512" />
<missing-glyph horiz-adv-x="425" />
<glyph unicode="&#xfb00;" horiz-adv-x="1343" d="M49 780v224l135 10v47q0 170 94.5 274.5t290.5 104.5q117 0 211 -37l-55 -223q-51 23 -119 22q-55 0 -88 -34.5t-33 -104.5v-47h346v53q0 176 90.5 283.5t282.5 107.5q103 0 203 -37l-53 -221q-57 20 -105 21q-117 0 -116 -146v-61h182v-236h-182v-780h-302v780h-346 v-780h-301v780h-135z" />
<glyph unicode="ft" horiz-adv-x="1409" d="M49 780v224l135 10v55q0 176 90.5 283.5t284.5 107.5q100 0 203 -37l-55 -221q-57 20 -105 21q-117 0 -117 -146v-61h330l35 270h250v-270h243v-236h-243v-407q0 -162 131 -162q43 0 96 20l47 -219q-121 -37 -225 -37q-350 0 -350 394v411h-314v-780h-301v780h-135z" />
<glyph unicode=" "  horiz-adv-x="425" />
<glyph unicode="&#x09;" horiz-adv-x="425" />
<glyph unicode="&#xa0;" horiz-adv-x="425" />
<glyph unicode="!" horiz-adv-x="696" d="M166 164q0 82 52 136t130 54t130 -54t52 -136q0 -80 -52 -134.5t-130 -54.5t-130 54.5t-52 134.5zM197 1372h303l-11 -272l-43 -627h-196l-43 627z" />
<glyph unicode="&#x22;" horiz-adv-x="1099" d="M156 1405h303l-10 -272l-60 -408h-164l-59 408zM641 1405h303l-10 -272l-60 -408h-163l-62 408z" />
<glyph unicode="#" horiz-adv-x="1081" d="M70 383v192h174l28 226h-161v192h186l43 338h172l-41 -338h213l43 338h172l-41 -338h162v-192h-186l-27 -226h172v-192h-195l-47 -383h-174l45 383h-211l-47 -383h-174l45 383h-151zM420 575h211l28 226h-213z" />
<glyph unicode="$" horiz-adv-x="1081" d="M80 135l131 203q160 -119 293 -119q166 0 166 141q0 49 -40 91.5t-100.5 71t-130 67.5t-130 80t-100.5 110.5t-40 155.5q0 150 83 250t228 129v211h199v-207q168 -25 305 -168l-151 -172q-113 102 -224 102q-152 0 -151 -131q0 -45 40 -83t100 -64.5t130 -64.5t130.5 -79 t100 -113.5t39.5 -164.5q0 -152 -81.5 -256.5t-237.5 -136.5v-213h-199v205q-219 27 -360 155z" />
<glyph unicode="%" horiz-adv-x="1755" d="M53 938q0 197 92.5 309.5t239.5 112.5t240.5 -112.5t93.5 -309.5t-93.5 -311.5t-240.5 -114.5t-239.5 114.5t-92.5 311.5zM262 938q0 -258 123 -258t123 258q0 254 -123 254t-123 -254zM432 -25l721 1385h172l-719 -1385h-174zM1036 401.5q0 196.5 93.5 309t241 112.5 t240.5 -112.5t93 -309t-93 -311.5t-240.5 -115t-241 115t-93.5 311.5zM1247 401q0 -258 123 -258t123 258q0 254 -123 254t-123 -254z" />
<glyph unicode="&#x26;" horiz-adv-x="1366" d="M51 356q0 129 64.5 216t179.5 161q-82 154 -82 277q0 147 99.5 248.5t262.5 101.5q150 0 239 -82t89 -221q0 -117 -73.5 -204t-204.5 -175q111 -129 268 -244q106 137 154 320h274q-76 -250 -223 -451q135 -70 231 -84l-72 -244q-164 33 -342 136q-182 -135 -419 -136 q-209 0 -327 110t-118 271zM336 375q0 -76 55 -123t144 -47q82 0 170 53q-164 131 -279 277q-90 -80 -90 -160zM461 1012q0 -70 43 -160q84 49 127 96t43 109q0 104 -92 104q-51 0 -86 -40.5t-35 -108.5z" />
<glyph unicode="'" horiz-adv-x="614" d="M156 1405h303l-10 -272l-60 -408h-164l-59 408z" />
<glyph unicode="(" horiz-adv-x="704" d="M147.5 569q-0.5 496 270.5 936l188 -78q-215 -383 -215 -858t215 -858l-188 -78q-270 440 -270.5 936z" />
<glyph unicode=")" horiz-adv-x="704" d="M98 -289q217 381 217 858.5t-217 857.5l189 78q270 -440 270 -935.5t-270 -936.5z" />
<glyph unicode="*" horiz-adv-x="935" d="M78 1118l47 148l237 -49l27 241h158l26 -244l236 52l49 -148l-221 -100l121 -213l-125 -90l-164 182l-166 -182l-125 90l121 213z" />
<glyph unicode="+" horiz-adv-x="1081" d="M70 569v213h360v377h221v-377h361v-213h-361v-376h-221v376h-360z" />
<glyph unicode="," horiz-adv-x="614" d="M94 -238q111 39 171.5 104.5t60.5 145.5h-17q-76 0 -129 46t-53 124q0 76 54.5 124t133.5 48q100 0 154.5 -74.5t54.5 -209.5q0 -170 -95 -292t-273 -175z" />
<glyph unicode="-" horiz-adv-x="679" d="M88 412v213h504v-213h-504z" />
<glyph unicode="." horiz-adv-x="614" d="M125 164q0 82 52 136t130 54t130 -54t52 -136q0 -80 -52 -134.5t-130 -54.5t-130 54.5t-52 134.5z" />
<glyph unicode="/" horiz-adv-x="694" d="M27 -328l411 1782h197l-412 -1782h-196z" />
<glyph unicode="0" horiz-adv-x="1081" d="M76 655q0 324 125 497t340 173t340 -173t125 -497q0 -326 -126 -503t-339 -177t-339 177.5t-126 502.5zM360 655q1 -446 181 -446q86 0 133 99.5t47 347t-47 342t-133 94.5t-133.5 -94.5t-47.5 -342.5z" />
<glyph unicode="1" horiz-adv-x="1081" d="M143 0v244h283v751h-244v187q182 35 324 118h221v-1056h244v-244h-828z" />
<glyph unicode="2" horiz-adv-x="1081" d="M61 1118q100 106 200.5 156.5t236.5 50.5q193 0 311.5 -113.5t118.5 -300.5q0 -147 -108.5 -307t-307.5 -366q131 16 217 16h262v-254h-915v172q156 147 233.5 224t167.5 179.5t127 176t37 141.5q0 94 -49 145.5t-135 51.5q-106 0 -232 -134z" />
<glyph unicode="3" horiz-adv-x="1081" d="M45 160l139 190q135 -131 285 -131q96 0 153.5 41t57.5 113q0 94 -75 140t-275 46v213q307 0 307 174q0 68 -42 106t-118 38q-113 0 -244 -115l-151 184q193 166 410 166q205 0 326.5 -94t121.5 -262q0 -197 -217 -289v-8q117 -35 187.5 -116t70.5 -202 q0 -174 -139.5 -276.5t-343.5 -102.5q-295 1 -453 185z" />
<glyph unicode="4" horiz-adv-x="1081" d="M39 311v207l475 782h369v-759h149v-230h-149v-311h-281v311h-563zM328 541h274v211q0 45 12 290h-8q-33 -72 -106 -219z" />
<glyph unicode="5" horiz-adv-x="1081" d="M47 158l135 190q139 -129 281 -129q102 0 160.5 52.5t58.5 150.5q0 96 -56.5 148.5t-148.5 52.5q-55 0 -93 -13.5t-99 -52.5l-135 86l36 657h738v-253h-478l-22 -244q68 31 145 31q178 0 296 -103.5t118 -300.5q0 -209 -139 -332t-338 -123q-277 1 -459 183z" />
<glyph unicode="6" horiz-adv-x="1081" d="M84 621q0 344 151.5 524t374.5 180q227 0 379 -156l-158 -180q-35 39 -91 65.5t-111 26.5q-254 0 -269 -405q49 61 123 99t138 38q176 0 281.5 -101.5t105.5 -299.5q0 -197 -125 -317t-308 -120q-207 0 -349 162t-142 484zM367 471q34 -270 202 -270q72 0 118 53t46 158 q0 188 -170 188q-115 0 -196 -129z" />
<glyph unicode="7" horiz-adv-x="1081" d="M90 1047v253h905v-184q-113 -135 -181.5 -253t-106 -255t-53 -267t-25.5 -341h-303q18 334 93 566.5t255 480.5h-584z" />
<glyph unicode="8" horiz-adv-x="1081" d="M86 332q0 201 221 319v8q-174 131 -174 308q0 164 116 261t300 97q178 0 286.5 -97.5t108.5 -258.5q0 -172 -170 -285v-8q225 -123 225 -340q0 -156 -128 -258.5t-332 -102.5q-197 0 -325 99.5t-128 257.5zM344 367q0 -84 58.5 -133.5t142.5 -49.5q78 0 126 42t48 120 q0 41 -16.5 72t-63.5 60.5t-79 44t-116 50.5q-100 -91 -100 -206zM397 967q0 -74 55.5 -120t168.5 -89q80 92 79 190q0 76 -42 122t-115 46q-63 0 -104.5 -39t-41.5 -110z" />
<glyph unicode="9" horiz-adv-x="1081" d="M70 889q0 197 124.5 316.5t307.5 119.5q207 0 350 -162t143 -483q0 -344 -152.5 -524.5t-373.5 -180.5q-225 0 -381 156l160 180q33 -39 89 -65.5t112 -26.5q254 0 268 406q-49 -61 -123 -99.5t-137 -38.5q-174 0 -280.5 101.5t-106.5 300.5zM344 889q0 -189 172 -189 q117 0 195 129q-35 270 -203 271q-72 0 -118 -53.5t-46 -157.5z" />
<glyph unicode=":" horiz-adv-x="614" d="M125 164q0 82 52 136t130 54t130 -54t52 -136q0 -80 -52 -134.5t-130 -54.5t-130 54.5t-52 134.5zM125 827q0 82 52 136.5t130 54.5t130 -54.5t52 -136.5q0 -80 -52 -134t-130 -54t-130 54t-52 134z" />
<glyph unicode=";" horiz-adv-x="614" d="M94 -238q111 39 171.5 104.5t60.5 145.5h-17q-76 0 -129 46t-53 124q0 76 54.5 124t133.5 48q100 0 154.5 -74.5t54.5 -209.5q0 -170 -95 -292t-273 -175zM125 827q0 82 52 136.5t130 54.5t130 -54.5t52 -136.5q0 -80 -52 -134t-130 -54t-130 54.5t-52 133.5z" />
<glyph unicode="&#x3c;" horiz-adv-x="1081" d="M70 575v209l942 363v-248l-361 -119l-276 -96v-8l276 -96l361 -119v-248z" />
<glyph unicode="=" horiz-adv-x="1081" d="M70 332v211h942v-211h-942zM70 809v211h942v-211h-942z" />
<glyph unicode="&#x3e;" horiz-adv-x="1081" d="M70 213v248l360 119l277 96v8l-277 96l-360 119v248l942 -363v-209z" />
<glyph unicode="?" horiz-adv-x="948" d="M84 1210q156 186 373 187q182 0 293.5 -88t111.5 -262q0 -70 -31.5 -132.5t-75.5 -110.5t-86 -95t-69 -107.5t-20 -128.5h-265q-14 96 24 183t90 140.5t98 116t46 111.5q0 61 -36.5 95t-100.5 34q-92 0 -186 -94zM266 164q0 82 51.5 136t129 54t130 -54t52.5 -136 q0 -80 -52.5 -134.5t-130 -54.5t-129 54.5t-51.5 134.5z" />
<glyph unicode="@" horiz-adv-x="1849" d="M100 420q0 420 268.5 685t655.5 265q330 0 527.5 -202.5t197.5 -526.5q0 -262 -143.5 -412.5t-323.5 -150.5q-90 0 -154.5 42t-80.5 113h-5q-43 -59 -112.5 -97t-132.5 -38q-123 0 -197 83t-74 225q0 195 121 348t293 153q106 0 156 -102h4l28 86h187l-94 -451 q-43 -176 94 -176q96 0 170 103.5t74 265.5q0 240 -138.5 397.5t-421.5 157.5q-276 0 -486 -214t-210 -546q0 -289 171 -443.5t427 -154.5q160 0 311 80l66 -164q-182 -98 -401 -98q-156 0 -294.5 48t-247 141t-172 243t-63.5 340zM754 424q0 -137 106 -137q66 0 135 92 l49 276q-31 59 -94 60q-86 0 -141 -94.5t-55 -196.5z" />
<glyph unicode="A" horiz-adv-x="1169" d="M-14 0l420 1335h360l420 -1335h-320l-82 317h-409l-82 -317h-307zM436 553h287l-33 123q-20 72 -56 220t-52 210h-9q-53 -246 -104 -430z" />
<glyph unicode="B" horiz-adv-x="1236" d="M156 0v1335h456q494 0 494 -331q0 -96 -57.5 -178.5t-167.5 -110.5v-8q290 -53 290 -312q0 -99 -36 -172.5t-108 -123.5q-144 -99 -376 -99h-495zM459 233h168q250 0 250 183q0 168 -250 168h-168v-351zM459 797h139q213 0 213 164q0 141 -209 141h-143v-305z" />
<glyph unicode="C" horiz-adv-x="1187" d="M92 659q0 322 184.5 511.5t452.5 189.5q225 0 395 -174l-166 -187q-111 100 -225 101q-143 0 -237.5 -117t-94.5 -313q0 -203 88.5 -318.5t235.5 -115.5q145 0 254 118l166 -182q-168 -197 -424 -197q-272 0 -450.5 180t-178.5 504z" />
<glyph unicode="D" horiz-adv-x="1282" d="M139 0v1335h379q317 0 493.5 -163.5t176.5 -497.5t-175 -504t-478 -170h-396zM442 244h58q379 0 379 430q0 227 -98.5 322.5t-280.5 95.5h-58v-848z" />
<glyph unicode="E" horiz-adv-x="1118" d="M156 0v1335h837v-254h-534v-268h454v-252h-454v-307h555v-254h-858z" />
<glyph unicode="F" horiz-adv-x="1071" d="M156 0v1335h843v-254h-540v-309h461v-254h-461v-518h-303z" />
<glyph unicode="G" horiz-adv-x="1302" d="M92 659q0 322 188.5 511.5t469.5 189.5q242 0 415 -174l-166 -187q-111 100 -245 101q-156 0 -254.5 -116t-98.5 -314q0 -209 95.5 -321.5t281.5 -112.5q90 0 142 40v230h-222v246h490v-615q-80 -70 -199 -116t-250 -46q-283 0 -465 179t-182 505z" />
<glyph unicode="H" horiz-adv-x="1376" d="M156 0v1335h303v-514h461v514h301v-1335h-301v557h-461v-557h-303z" />
<glyph unicode="I" horiz-adv-x="614" d="M156 0v1335h303v-1335h-303z" />
<glyph unicode="J" horiz-adv-x="1038" d="M31 217l205 152q76 -133 186 -133q86 0 126 52t40 181v866h303v-891q0 -207 -108.5 -338t-319.5 -131q-295 0 -432 242z" />
<glyph unicode="K" horiz-adv-x="1255" d="M156 0v1335h303v-547h6l399 547h330l-403 -532l479 -803h-332l-324 563l-155 -205v-358h-303z" />
<glyph unicode="L" horiz-adv-x="1056" d="M156 0v1335h303v-1081h526v-254h-829z" />
<glyph unicode="M" horiz-adv-x="1558" d="M156 0v1335h319l223 -600l80 -233h8l80 233l217 600h320v-1335h-283v489q0 104 39 455h-8l-109 -309l-206 -518h-121l-205 518l-107 309h-8q39 -350 39 -455v-489h-278z" />
<glyph unicode="N" horiz-adv-x="1359" d="M156 0v1335h309l348 -663l133 -295h8q-39 383 -39 487v471h287v-1335h-309l-348 666l-131 290h-8q39 -399 38 -483v-473h-288z" />
<glyph unicode="O" horiz-adv-x="1398" d="M92 674q0 322 166 504t440.5 182t440.5 -182.5t166 -503.5q0 -324 -166.5 -511.5t-440.5 -187.5q-272 0 -439 187.5t-167 511.5zM401 674q0 -201 81 -319.5t216 -118.5q137 0 217 118.5t80 319.5q0 199 -79.5 312.5t-217.5 113.5q-135 0 -216 -114t-81 -312z" />
<glyph unicode="P" horiz-adv-x="1239" d="M156 0v1335h487q522 0 522 -430q0 -223 -147.5 -337.5t-374.5 -114.5h-184v-453h-303zM459 692h166q245 0 245 211q0 104 -61 148.5t-184 44.5h-166v-404z" />
<glyph unicode="Q" horiz-adv-x="1398" d="M86 674q0 322 166 504t440.5 182t440 -182.5t165.5 -503.5q0 -264 -113.5 -441.5t-310.5 -232.5q84 -125 293 -125q80 0 148 25l53 -222q-86 -43 -235 -43q-205 0 -354.5 96.5t-223.5 258.5q-217 45 -343 225t-126 459zM395 674q0 -201 80 -319.5t217 -118.5t217 118.5 t80 319.5q0 199 -80 312.5t-217 113.5t-217 -113.5t-80 -312.5z" />
<glyph unicode="R" horiz-adv-x="1259" d="M156 0v1335h481q516 0 516 -415q0 -279 -238 -385l302 -535h-338l-256 481h-164v-481h-303zM459 721h153q244 0 244 199q0 94 -60.5 135t-183.5 41h-153v-375z" />
<glyph unicode="S" horiz-adv-x="1134" d="M70 168l174 207q160 -139 327 -139q186 0 187 129q0 68 -86 112q-23 12 -107 47l-172 74q-117 47 -193.5 138t-76.5 227q0 168 135 282.5t340 114.5q254 0 430 -176l-151 -191q-139 106 -279 107q-78 0 -124 -33t-46 -88q0 -37 27.5 -64.5t55.5 -41t97 -42.5l8 -3 q2 -1 7.5 -3t9.5 -4l170 -69q264 -106 264 -363q0 -174 -136 -294t-366 -120q-286 0 -495 193z" />
<glyph unicode="T" horiz-adv-x="1136" d="M49 1081v254h1036v-254h-366v-1081h-301v1081h-369z" />
<glyph unicode="U" horiz-adv-x="1357" d="M150 618v717h301v-747q0 -190 57 -271t174 -81t177.5 81.5t60.5 270.5v747h290v-717q0 -332 -132 -487.5t-396 -155.5t-398 156.5t-134 486.5z" />
<glyph unicode="V" horiz-adv-x="1136" d="M-16 1335h319l162 -622q18 -66 51 -208.5t55 -219.5h9q23 78 55.5 220t50.5 208l158 622h309l-403 -1335h-363z" />
<glyph unicode="W" horiz-adv-x="1662" d="M27 1335h309l92 -624q18 -139 55 -422h9q29 164 77 422l144 624h256l145 -624q27 -135 80 -422h8q20 170 53 422l93 624h288l-237 -1335h-379l-131 606q-31 150 -53 309h-9q-43 -258 -53 -309l-127 -606h-373z" />
<glyph unicode="X" horiz-adv-x="1159" d="M23 0l368 686l-348 649h338l115 -252q18 -35 52 -110.5t46 -104.5h8q49 137 84 215l107 252h321l-346 -663l369 -672h-336l-131 272q-49 96 -101 220h-8q-43 -111 -92 -220l-125 -272h-321z" />
<glyph unicode="Y" horiz-adv-x="1073" d="M-16 1335h321l121 -307q37 -106 109 -295h8q20 55 58 152.5t54 142.5l119 307h316l-404 -860v-475h-301v475z" />
<glyph unicode="Z" horiz-adv-x="1105" d="M72 0v182l590 899h-535v254h907v-182l-590 -899h594v-254h-966z" />
<glyph unicode="[" horiz-adv-x="704" d="M178 -311v1761h432v-160h-207v-1442h207v-159h-432z" />
<glyph unicode="\" horiz-adv-x="694" d="M57 1454h197l414 -1782h-199z" />
<glyph unicode="]" horiz-adv-x="704" d="M94 -152h209v1442h-209v160h432v-1761h-432v159z" />
<glyph unicode="^" horiz-adv-x="1081" d="M102 561l318 811h242l317 -811h-248l-94 262l-92 277h-8l-93 -277l-94 -262h-248z" />
<glyph unicode="_" horiz-adv-x="1024" d="M25 -117h974v-170h-974v170z" />
<glyph unicode="`" horiz-adv-x="1136" d="M262 1483h291l182 -307h-219z" />
<glyph unicode="a" horiz-adv-x="1093" d="M96 283q0 162 136.5 251t435.5 119q-10 147 -160 148q-113 0 -270 -92l-107 198q221 133 434 133q403 0 404 -458v-582h-246l-23 104h-6q-147 -129 -297 -129q-135 0 -218 88.5t-83 219.5zM383 305q0 -96 117 -96q82 0 168 86v178q-285 -39 -285 -168z" />
<glyph unicode="b" horiz-adv-x="1173" d="M133 0v1436h301v-353l-8 -155q124 112 265 112h3q184 0 292 -140t108 -374q0 -252 -127 -401.5t-301 -149.5q-143 0 -265 131h-8l-24 -106h-236zM434 287q72 -66 162 -66q84 0 136 75t52 224q0 274 -176 275q-90 0 -174 -93v-415z" />
<glyph unicode="c" horiz-adv-x="956" d="M74 508q0 244 153.5 388t374.5 144q184 0 297 -116l-137 -187q-72 59 -141 60q-109 0 -173.5 -78t-64.5 -211q0 -131 63.5 -210t163.5 -79q90 0 183 74l120 -191q-145 -127 -338 -127q-219 0 -360 142.5t-141 390.5z" />
<glyph unicode="d" horiz-adv-x="1173" d="M80 508q0 240 126 386t296 146q137 0 250 -106l-13 156v346h301v-1436h-245l-21 100h-8q-125 -125 -270 -125q-190 0 -303 142.5t-113 390.5zM389 512q0 -291 184 -291q98 0 166 92v416q-72 66 -168 66q-78 0 -130 -73t-52 -210z" />
<glyph unicode="e" horiz-adv-x="1056" d="M74 508q0 238 143 385t336 147q209 0 320.5 -135t111.5 -352q0 -78 -12 -127h-608q39 -221 264 -221q109 0 219 67l100 -182q-168 -115 -360 -115q-223 0 -368.5 143.5t-145.5 389.5zM362 612h367q0 199 -170 199q-74 0 -128.5 -50.5t-68.5 -148.5z" />
<glyph unicode="f" horiz-adv-x="698" d="M49 780v224l135 10v55q0 176 90.5 283.5t284.5 107.5q101 0 203 -37l-55 -221q-57 20 -105 21q-117 0 -117 -146v-61h183v-236h-183v-780h-301v780h-135z" />
<glyph unicode="g" horiz-adv-x="1093" d="M70 -174q0 123 145 205v8q-94 61 -94 172q0 113 115 190v9q-59 41 -98.5 110.5t-39.5 153.5q0 174 122 270t298 96q90 0 158 -24h371v-219h-162q33 -55 33 -133q0 -168 -112 -255t-288 -87q-59 0 -123 20q-37 -31 -37 -76q0 -76 154 -76h164q387 0 387 -258 q0 -160 -154.5 -262t-412.5 -102q-190 0 -308 64.5t-118 193.5zM317 -127q0 -55 60.5 -86t165.5 -31q100 0 166.5 36t66.5 89q0 45 -38 62.5t-117 17.5h-105q-94 0 -143 12q-56 -49 -56 -100zM379 674q0 -82 39 -126t100.5 -44t100 44t38.5 126q0 78 -38.5 121t-100 43 t-100.5 -42t-39 -122z" />
<glyph unicode="h" horiz-adv-x="1169" d="M133 0v1436h301v-353l-14 -182q156 139 313 139q315 0 316 -409v-631h-301v592q0 109 -30 150.5t-95 41.5q-53 0 -94.5 -22.5t-94.5 -75.5v-686h-301z" />
<glyph unicode="i" horiz-adv-x="565" d="M109 1323q0 70 49 113t125 43q78 0 126 -43t48 -113t-49.5 -114t-125 -44t-124.5 44t-49 114zM133 0v1016h301v-1016h-301z" />
<glyph unicode="j" horiz-adv-x="569" d="M-104 -373l53 221q47 -14 80 -14q59 0 82.5 39t23.5 125v1018h301v-1010q0 -407 -360 -407h-2q-106 0 -178 28zM113 1323q0 70 49 113t124.5 43t125 -43t49.5 -113t-49.5 -114t-125 -44t-124.5 44t-49 114z" />
<glyph unicode="k" horiz-adv-x="1122" d="M133 0v1436h293v-824h8l322 404h327l-356 -418l383 -598h-326l-229 395l-129 -145v-250h-293z" />
<glyph unicode="l" horiz-adv-x="585" d="M133 315v1121h301v-1133q0 -84 53 -84q20 0 37 4l37 -223q-55 -25 -151 -25q-277 0 -277 340z" />
<glyph unicode="m" horiz-adv-x="1755" d="M133 0v1016h246l20 -131h9q155 155 305 155h2q201 0 280 -170q80 82 154 126t166 44q317 0 317 -409v-631h-301v592q0 109 -29.5 150.5t-95.5 41.5q-76 0 -174 -98v-686h-301v592q0 109 -29.5 150.5t-95.5 41.5q-76 0 -172 -98v-686h-301z" />
<glyph unicode="n" horiz-adv-x="1171" d="M133 0v1016h246l20 -129h9q161 153 323 153h2q315 0 316 -409v-631h-301v592q0 109 -30 150.5t-95 41.5q-53 0 -94.5 -22.5t-94.5 -75.5v-686h-301z" />
<glyph unicode="o" horiz-adv-x="1136" d="M74 508q0 244 145.5 388t349.5 144q203 0 348.5 -144t145.5 -388t-145.5 -388.5t-348.5 -144.5q-205 0 -350 144.5t-145 388.5zM383 508q0 -135 47 -212t139 -77q90 0 138.5 77t48.5 212t-48.5 212t-138.5 77q-92 0 -139 -77t-47 -212z" />
<glyph unicode="p" horiz-adv-x="1173" d="M133 -377v1393h246l20 -101h9q139 125 288 125q184 0 291 -140t107 -376q0 -250 -127 -399.5t-301 -149.5q-129 1 -242 107l10 -162v-297h-301zM434 287q72 -66 162 -66q84 0 136 75t52 224q0 274 -176 275q-88 0 -174 -93v-415z" />
<glyph unicode="q" horiz-adv-x="1171" d="M80 508q0 240 126 386t296 146q154 0 270 -125h8l25 101h235v-1393h-301v309l13 156q-117 -113 -256 -113q-190 0 -303 142.5t-113 390.5zM389 512q0 -291 184 -291q98 0 166 92v416q-72 66 -168 66q-78 0 -130 -73t-52 -210z" />
<glyph unicode="r" horiz-adv-x="815" d="M133 0v1016h246l20 -178h9q53 100 129.5 151t158.5 51q74 0 121 -20l-49 -260q-59 16 -111 16q-63 0 -124.5 -45t-98.5 -141v-590h-301z" />
<glyph unicode="s" horiz-adv-x="907" d="M43 117l135 188q141 -106 262 -106q129 0 129 86q0 10 -3 20t-11 19.5t-15.5 16.5t-22.5 15.5t-25.5 14.5t-30 14t-30.5 12t-33.5 13.5t-35.5 13.5q-268 102 -268 299q0 141 106.5 229t282.5 88q184 0 359 -129l-135 -180q-119 86 -215 86q-115 0 -115 -80q0 -14 5 -25.5 t17.5 -22.5t22.5 -18t32.5 -16.5t35 -14.5t43 -16.5t42.5 -15.5q125 -45 200 -112.5t75 -192.5q0 -143 -109.5 -235.5t-308.5 -92.5q-98 0 -204.5 39.5t-184.5 102.5z" />
<glyph unicode="t" horiz-adv-x="784" d="M35 780v224l155 12l35 270h250v-270h244v-236h-244v-407q0 -162 131 -162q43 0 96 20l48 -219q-119 -37 -226 -37q-350 1 -350 394v411h-139z" />
<glyph unicode="u" horiz-adv-x="1161" d="M119 385v631h301v-592q0 -106 30.5 -149.5t96.5 -43.5q100 0 180 113v672h301v-1016h-246l-20 141h-8q-135 -166 -320 -166q-315 0 -315 410z" />
<glyph unicode="v" horiz-adv-x="1071" d="M25 1016h303l131 -479q27 -100 80 -314h8q35 154 78 314l133 479h289l-332 -1016h-348z" />
<glyph unicode="w" horiz-adv-x="1589" d="M49 1016h299l98 -471q8 -51 22.5 -151.5t23.5 -149.5h8q41 231 59 301l113 471h260l115 -471q18 -74 63 -301h8q8 51 22.5 150.5t24.5 150.5l97 471h278l-244 -1016h-352l-92 406q-23 102 -55 296h-9q-45 -266 -51 -296l-90 -406h-344z" />
<glyph unicode="x" horiz-adv-x="1052" d="M29 0l311 528l-293 488h324l90 -164q12 -29 86 -174h8q12 33 37.5 95.5t32.5 78.5l69 164h312l-295 -522l313 -494h-324l-98 168q-16 29 -48 88t-48 88h-8q-10 -25 -37 -84t-41 -92l-80 -168h-311z" />
<glyph unicode="y" horiz-adv-x="1067" d="M25 1016h303l145 -436q23 -72 80 -289h8q45 193 70 289l123 436h288l-352 -1026q-76 -203 -174 -295t-270 -92q-76 0 -144 20l54 230q55 -12 67 -13q133 0 178 133l15 54z" />
<glyph unicode="z" horiz-adv-x="942" d="M78 0v162l426 618h-379v236h754v-160l-426 -620h440v-236h-815z" />
<glyph unicode="{" horiz-adv-x="704" d="M63 481v176q92 2 134.5 46.5t42.5 105.5t-10.5 168.5t-10.5 181.5q0 160 61.5 225.5t200.5 65.5h129v-160h-39q-63 0 -85.5 -29.5t-22.5 -113.5q0 -53 4 -163t4 -171q0 -113 -36 -167t-116 -73v-8q80 -18 116 -72.5t36 -166.5q0 -63 -4 -172t-4 -162q0 -84 22.5 -114 t85.5 -30h39v-159h-129q-139 0 -200.5 64.5t-61.5 226.5q0 74 10.5 180t10.5 170q0 61 -42 105t-135 46z" />
<glyph unicode="|" horiz-adv-x="548" d="M176 -512v2048h197v-2048h-197z" />
<glyph unicode="}" horiz-adv-x="704" d="M94 -152h39q63 0 86 30t23 114q0 53 -4.5 161.5t-4.5 172.5q0 113 36 167t116 72v8q-80 18 -116 72.5t-36 167.5q0 61 4.5 171t4.5 163q0 84 -22.5 113.5t-86.5 29.5h-39v160h129q139 0 200.5 -65.5t61.5 -225.5q0 -74 -10 -181.5t-10 -168.5t42 -105.5t134 -46.5v-176 q-92 -2 -134 -46t-42 -105q0 -63 10 -170t10 -180q0 -162 -61.5 -226.5t-200.5 -64.5h-129v159z" />
<glyph unicode="~" horiz-adv-x="1081" d="M59 649q137 211 308 211q72 0 136 -39t117.5 -77.5t98.5 -38.5q80 0 147 118l156 -121q-137 -211 -307 -210q-72 0 -136.5 38.5t-117.5 77.5t-99 39q-79 0 -147 -119z" />
<glyph unicode="&#xa1;" horiz-adv-x="696" d="M166 852q0 80 52 134t130 54t130 -54t52 -134q0 -82 -52 -136t-130 -54t-130 54t-52 136zM197 -356l10 272l43 627h196l43 -627l11 -272h-303z" />
<glyph unicode="&#xa2;" horiz-adv-x="1081" d="M123 629q0 211 122 346t318 168v198h166v-190q158 -14 254 -115l-137 -184q-61 49 -117 55v-557q74 13 148 72l120 -191q-117 -100 -268 -120v-195h-166v195q-203 27 -321.5 163t-118.5 355zM416 629q0 -193 147 -256v512q-147 -66 -147 -256z" />
<glyph unicode="&#xa3;" horiz-adv-x="1081" d="M98 0v186q96 43 156.5 126t60.5 188q0 18 -4 55h-205v176l140 10h12q-33 98 -33 164q0 190 123 305t316 115q211 0 354 -166l-164 -164q-72 86 -162 86q-84 0 -131 -48t-47 -144q0 -57 23 -148h303v-186h-265q4 -37 5 -57q-1 -132 -93 -236v-8h531v-254h-920z" />
<glyph unicode="&#xa4;" horiz-adv-x="1081" d="M41 322l125 127q-70 94 -70 227q0 129 68 223l-123 127l149 152l142 -144q98 51 209 51q106 0 209 -51l141 144l149 -152l-125 -127q70 -92 70 -223q0 -127 -70 -227l125 -127l-149 -152l-143 145q-96 -49 -207 -49t-207 49l-144 -145zM365 676q0 -90 50 -145.5 t125.5 -55.5t126 55.5t50.5 145.5t-50.5 145.5t-126 55.5t-125.5 -55.5t-50 -145.5z" />
<glyph unicode="&#xa5;" horiz-adv-x="1081" d="M25 1300h309l104 -272q66 -180 103 -268h8q14 35 48 127t54 141l103 272h303l-301 -600h250v-143h-316v-113h316v-143h-316v-301h-301v301h-313v143h313v113h-313v143h250z" />
<glyph unicode="&#xa6;" horiz-adv-x="548" d="M176 418h197v-930h-197v930zM176 639v897h197v-897h-197z" />
<glyph unicode="&#xa7;" horiz-adv-x="1081" d="M76 668q0 76 44 145.5t120 116.5q-59 70 -60 170q0 141 97.5 227t267.5 86q198 0 368 -133l-137 -188q-113 98 -215 98q-111 0 -110 -80q0 -39 57 -74t139 -69.5t163 -79.5t138.5 -124t57.5 -181q0 -170 -168 -273q47 -72 47 -157q0 -143 -103.5 -233.5t-289.5 -90.5 q-117 0 -223.5 44t-174.5 128l174 154q100 -104 223 -104.5t123 87.5q0 37 -39.5 69t-99 54.5t-130.5 58t-130 75.5t-99 112t-40 162zM330 690q0 -45 35.5 -83t77.5 -59.5t120 -56t119 -55.5q70 43 70 121q0 37 -19.5 66.5t-59.5 54t-78 43t-97.5 44.5t-96.5 44 q-71 -47 -71 -119z" />
<glyph unicode="&#xa8;" horiz-adv-x="1136" d="M223 1312.5q0 61.5 40 101.5t102 40q63 0 103 -40t40 -101.5t-40 -102.5t-103 -41q-61 0 -101.5 41t-40.5 102.5zM629 1313q0 59 40 100t103.5 41t103 -41t39.5 -100q0 -61 -39.5 -102.5t-103 -41.5t-103.5 41t-40 103z" />
<glyph unicode="&#xa9;" horiz-adv-x="1536" d="M92 665.5q0 307.5 196.5 491.5t479.5 184t478.5 -184t195.5 -491q0 -309 -195.5 -496.5t-478.5 -187.5t-479.5 188t-196.5 495.5zM231 665.5q0 -247.5 154 -403.5t383 -156t383 156t154 403.5t-154 400.5t-383 153t-383 -153t-154 -400.5zM397 664q0 174 117 283.5 t279 109.5q150 0 270 -121l-113 -125q-66 70 -139 70q-94 0 -146.5 -61.5t-52.5 -155.5q0 -104 51.5 -166t137.5 -62q76 0 164 70l98 -139q-135 -106 -270 -107q-174 0 -285 110t-111 294z" />
<glyph unicode="&#xaa;" horiz-adv-x="735" d="M59 721q0 109 91.5 167t291.5 79q-10 88 -100 88q-76 0 -184 -62l-76 142q156 88 297 88q133 0 204.5 -76t71.5 -227v-388h-170l-20 68h-8q-85 -84 -191 -84q-92 0 -149.5 59.5t-57.5 145.5zM262 737q0 -59 76 -59q49 0 104 51v115q-180 -23 -180 -107z" />
<glyph unicode="&#xab;" horiz-adv-x="983" d="M100 410v213l275 295l112 -91l-227 -311l227 -311l-112 -90zM485 410v213l277 295l110 -91l-227 -311l227 -311l-110 -90z" />
<glyph unicode="&#xac;" horiz-adv-x="1081" d="M70 569v213h942v-589h-221v376h-721z" />
<glyph unicode="&#xad;" horiz-adv-x="679" d="M88 412v213h504v-213h-504z" />
<glyph unicode="&#xae;" horiz-adv-x="946" d="M66 1050.5q0 178.5 117.5 296t289.5 117.5q170 0 288 -117.5t118 -296t-118 -296t-288 -117.5q-172 0 -289.5 117.5t-117.5 296zM178 1050.5q0 -141.5 82 -227.5t213 -86t212 86t81 227.5t-81 227.5t-212 86t-213 -86t-82 -227.5zM307 852v403h182q74 0 120 -34.5 t46 -100.5q0 -76 -71 -110l84 -158h-123l-62 123h-59v-123h-117zM424 1057h43q29 0 45 16.5t16 40.5q0 53 -61 53h-43v-110z" />
<glyph unicode="&#xaf;" horiz-adv-x="1136" d="M287 1212v191h565v-191h-565z" />
<glyph unicode="&#xb0;" horiz-adv-x="747" d="M80 1110q0 127 85 211t210 84t211 -84t86 -211t-86 -211t-211 -84t-210 84t-85 211zM238 1110q0 -68 39 -110t98 -42q61 0 99 42t38 110q0 66 -38 108t-99 42q-59 0 -98 -42t-39 -108z" />
<glyph unicode="&#xb1;" horiz-adv-x="1081" d="M70 0v213h942v-213h-942zM70 602v213h360v344h221v-344h361v-213h-361v-278h-221v278h-360z" />
<glyph unicode="&#xb2;" horiz-adv-x="770" d="M55 1561q123 164 305 163q135 0 215 -71.5t80 -198.5q0 -61 -33.5 -129t-70.5 -114t-109 -126h242v-184h-592v119q180 147 265 237.5t85 159.5q0 59 -30.5 92t-85.5 33q-72 0 -146 -96z" />
<glyph unicode="&#xb3;" horiz-adv-x="770" d="M55 1038l133 105q72 -98 170 -99q49 0 82 26t33 71q0 104 -190 104v127q162 0 161 98q0 39 -26.5 62.5t-73.5 23.5q-66 0 -131 -79l-125 110q68 72 135.5 104.5t159.5 32.5q115 0 197 -61t82 -162q0 -117 -117 -184q145 -57 145 -193q0 -109 -91 -178t-218 -69 q-217 -1 -326 161z" />
<glyph unicode="&#xb4;" horiz-adv-x="1136" d="M401 1176l183 307h290l-253 -307h-220z" />
<glyph unicode="&#xb5;" horiz-adv-x="1173" d="M133 -410v1426h301v-592q0 -106 30 -149.5t95 -43.5q55 0 96 26t86 87v672h301v-1016h-245l-23 141h-8q-78 -150 -223 -149q-84 0 -127 45l18 -184v-263h-301z" />
<glyph unicode="&#xb6;" horiz-adv-x="1302" d="M80 879q0 242 142.5 349t377.5 107h90v-932h-82q-229 0 -378.5 125t-149.5 351zM805 -164v1499h301v-1499h-301z" />
<glyph unicode="&#xb7;" horiz-adv-x="614" d="M125 655q0 82 52 136.5t130 54.5t130 -54.5t52 -136.5q0 -80 -52 -134t-130 -54t-130 54t-52 134z" />
<glyph unicode="&#xb8;" horiz-adv-x="1136" d="M360 -332q170 18 170 90q1 57 -118 86l82 164h174l-41 -96q121 -39 121 -152q0 -100 -102.5 -152t-262.5 -61z" />
<glyph unicode="&#xb9;" horiz-adv-x="770" d="M156 1477v135q131 18 229 88h176v-799h-223v576h-182z" />
<glyph unicode="&#xba;" horiz-adv-x="763" d="M49 868q0 162 97.5 258.5t234.5 96.5t234.5 -96.5t97.5 -258.5q0 -160 -97.5 -256t-234.5 -96t-234.5 96.5t-97.5 255.5zM266 868q0 -184 115 -184q117 0 117 184q0 186 -117 187q-115 0 -115 -187z" />
<glyph unicode="&#xbb;" horiz-adv-x="983" d="M111 205l227 311l-227 311l112 91l275 -295v-213l-275 -295zM496 205l227 311l-227 311l112 91l277 -295v-213l-277 -295z" />
<glyph unicode="&#xbc;" horiz-adv-x="1656" d="M94 1110v137q131 18 230 88h176v-798h-224v573h-182zM381 -25l721 1385h172l-719 -1385h-174zM956 178v111l289 510h275v-477h118v-144h-118v-178h-195v178h-369zM1161 322h164v84l10 239h-8l-82 -158z" />
<glyph unicode="&#xbd;" horiz-adv-x="1732" d="M94 1110v137q131 18 230 88h176v-798h-224v573h-182zM348 -25l721 1385h174l-721 -1385h-174zM1016 659q123 164 305 164q135 0 215 -71.5t80 -198.5q0 -61 -34 -129t-69.5 -113t-107.5 -127h240v-184h-592v119q180 147 265 237t85 160q0 59 -31 92t-86 33 q-72 0 -145 -96z" />
<glyph unicode="&#xbe;" horiz-adv-x="1675" d="M49 674l133 104q72 -98 168 -98q51 0 84 25.5t33 70.5q0 104 -191 105v127q162 0 162 98q0 39 -27.5 62.5t-72.5 23.5q-65 0 -131 -80l-125 111q68 72 135.5 104.5t159.5 32.5q115 0 195.5 -61.5t80.5 -161.5q0 -115 -114 -185q63 -27 104 -77t41 -117q0 -109 -91 -177.5 t-218 -68.5q-217 0 -326 162zM426 -25l721 1385h172l-719 -1385h-174zM975 178v111l289 510h274v-477h119v-144h-119v-178h-197v178h-366zM1178 322h163v84l13 239h-8l-82 -158z" />
<glyph unicode="&#xbf;" horiz-adv-x="948" d="M86 -29q0 70 32 132.5t76 109.5t87 95t69.5 107.5t20.5 127.5h262q14 -96 -24 -183.5t-90 -140.5t-98 -115.5t-46 -111.5q0 -61 38 -95t99 -34q92 0 186 94l166 -152q-156 -186 -372 -186q-182 0 -294 88t-112 264zM319 852q0 80 52.5 134t130.5 54t130 -54t52 -134 q0 -82 -52 -136t-130 -54t-130.5 54t-52.5 136z" />
<glyph unicode="&#xc0;" horiz-adv-x="1169" d="M-14 0l420 1335h360l420 -1335h-320l-82 317h-409l-82 -317h-307zM246 1683h319l166 -245h-239zM436 553h287l-33 123q-20 72 -56 220t-52 210h-9q-53 -246 -104 -430z" />
<glyph unicode="&#xc1;" horiz-adv-x="1169" d="M-14 0l420 1335h360l420 -1335h-320l-82 317h-409l-82 -317h-307zM426 1438l164 245h319l-243 -245h-240zM436 553h287l-33 123q-20 72 -56 220t-52 210h-9q-53 -246 -104 -430z" />
<glyph unicode="&#xc2;" horiz-adv-x="1169" d="M-14 0l420 1335h360l420 -1335h-320l-82 317h-409l-82 -317h-307zM236 1438l196 245h293l197 -245h-230l-110 125h-9l-108 -125h-229zM436 553h287l-33 123q-20 72 -56 220t-52 210h-9q-53 -246 -104 -430z" />
<glyph unicode="&#xc3;" horiz-adv-x="1169" d="M-14 0l420 1335h360l420 -1335h-320l-82 317h-409l-82 -317h-307zM229 1440q14 135 75 206.5t145 71.5q61 0 141 -46t104 -46q57 0 80 92h154q-16 -135 -76.5 -206.5t-144.5 -71.5q-59 0 -139.5 46t-104.5 46q-59 0 -80 -92h-154zM436 553h287l-33 123q-20 72 -56 220 t-52 210h-9q-53 -246 -104 -430z" />
<glyph unicode="&#xc4;" horiz-adv-x="1169" d="M-14 0l420 1335h360l420 -1335h-320l-82 317h-409l-82 -317h-307zM231 1577q0 61 40 102t103.5 41t103.5 -41t40 -102t-40 -102t-103.5 -41t-103.5 41t-40 102zM436 553h287l-33 123q-20 72 -56 220t-52 210h-9q-53 -246 -104 -430zM639 1577q0 61 40 102t101 41 q63 0 103.5 -41t40.5 -102t-40.5 -102t-103.5 -41q-61 0 -101 41t-40 102z" />
<glyph unicode="&#xc5;" horiz-adv-x="1169" d="M-14 0l420 1335h360l420 -1335h-320l-82 317h-409l-82 -317h-307zM348 1628q0 90 63.5 145.5t166 55.5t167 -55.5t64.5 -145.5q0 -92 -63.5 -146.5t-168 -54.5t-167 54.5t-62.5 146.5zM436 553h287l-33 123q-20 72 -56 220t-52 210h-9q-53 -246 -104 -430zM496 1628 q0 -41 23.5 -64.5t58.5 -23.5q37 0 60.5 23.5t23.5 64.5q0 39 -23.5 63.5t-60.5 24.5q-35 0 -58.5 -24.5t-23.5 -63.5z" />
<glyph unicode="&#xc6;" horiz-adv-x="1728" d="M-29 0l633 1335h998v-254h-510v-268h430v-252h-430v-307h530v-254h-834v305h-362l-139 -305h-316zM532 539h256v569h-8q-135 -322 -162 -379z" />
<glyph unicode="&#xc7;" horiz-adv-x="1187" d="M92 659q0 322 184.5 511.5t452.5 189.5q225 0 395 -174l-166 -187q-111 100 -225 101q-143 0 -237.5 -117t-94.5 -313q0 -203 88.5 -318.5t235.5 -115.5q145 -1 254 118l166 -182q-141 -166 -346 -190l-29 -70q119 -39 119 -152q0 -100 -102.5 -152t-260.5 -61l-22 121 q168 18 168 90q0 57 -119 86l70 138q-236 33 -383.5 209t-147.5 468z" />
<glyph unicode="&#xc8;" horiz-adv-x="1118" d="M156 0v1335h837v-254h-534v-268h454v-252h-454v-307h555v-254h-858zM258 1683h320l165 -245h-241z" />
<glyph unicode="&#xc9;" horiz-adv-x="1118" d="M156 0v1335h837v-254h-534v-268h454v-252h-454v-307h555v-254h-858zM436 1438l166 245h320l-246 -245h-240z" />
<glyph unicode="&#xca;" horiz-adv-x="1118" d="M156 0v1335h837v-254h-534v-268h454v-252h-454v-307h555v-254h-858zM246 1438l196 245h293l197 -245h-230l-108 125h-8l-111 -125h-229z" />
<glyph unicode="&#xcb;" horiz-adv-x="1118" d="M156 0v1335h837v-254h-534v-268h454v-252h-454v-307h555v-254h-858zM244 1577q0 61 40 102t103.5 41t103 -41t39.5 -102t-39.5 -102t-103 -41t-103.5 41t-40 102zM649 1577q0 61 40 102t103.5 41t103.5 -41t40 -102t-40 -102t-103.5 -41t-103.5 41t-40 102z" />
<glyph unicode="&#xcc;" horiz-adv-x="614" d="M-25 1683h320l166 -245h-242zM156 0v1335h303v-1335h-303z" />
<glyph unicode="&#xcd;" horiz-adv-x="614" d="M154 1438l165 245h320l-246 -245h-239zM156 0v1335h303v-1335h-303z" />
<glyph unicode="&#xce;" horiz-adv-x="614" d="M-37 1438l197 245h295l196 -245h-231l-109 125h-8l-108 -125h-232zM156 0v1335h303v-1335h-303z" />
<glyph unicode="&#xcf;" horiz-adv-x="614" d="M-39 1577q0 61 40 102t103.5 41t103.5 -41t40 -102t-40 -102t-103.5 -41t-103.5 41t-40 102zM156 0v1335h303v-1335h-303zM367 1577q0 61 39.5 102t103 41t103.5 -41t40 -102t-40 -102t-103.5 -41t-103 41t-39.5 102z" />
<glyph unicode="&#xd0;" horiz-adv-x="1343" d="M49 616v136l154 10v573h377q317 0 493 -163.5t176 -497.5t-175 -504t-478 -170h-393v616h-154zM504 244h57q379 0 379 430q0 227 -98.5 322.5t-280.5 95.5h-57v-330h258v-146h-258v-372z" />
<glyph unicode="&#xd1;" horiz-adv-x="1359" d="M156 0v1335h309l348 -663l133 -295h8q-39 383 -39 487v471h287v-1335h-309l-348 666l-131 290h-8q39 -399 38 -483v-473h-288zM334 1440q14 135 74.5 206.5t144.5 71.5q59 0 139 -46t105 -46q59 0 80 92h153q-14 -135 -74.5 -206.5t-144.5 -71.5q-61 0 -141 46t-105 46 q-57 0 -80 -92h-151z" />
<glyph unicode="&#xd2;" horiz-adv-x="1398" d="M92 674q0 322 166 504t440.5 182t440.5 -182.5t166 -503.5q0 -324 -166.5 -511.5t-440.5 -187.5q-272 0 -439 187.5t-167 511.5zM367 1683h319l166 -245h-240zM401 674q0 -201 81 -319.5t216 -118.5q137 0 217 118.5t80 319.5q0 199 -79.5 312.5t-217.5 113.5 q-135 0 -216 -114t-81 -312z" />
<glyph unicode="&#xd3;" horiz-adv-x="1398" d="M92 674q0 322 166 504t440.5 182t440.5 -182.5t166 -503.5q0 -324 -166.5 -511.5t-440.5 -187.5q-272 0 -439 187.5t-167 511.5zM401 674q0 -201 81 -319.5t216 -118.5q137 0 217 118.5t80 319.5q0 199 -79.5 312.5t-217.5 113.5q-135 0 -216 -114t-81 -312zM547 1438 l164 245h319l-244 -245h-239z" />
<glyph unicode="&#xd4;" horiz-adv-x="1398" d="M92 674q0 322 166 504t440.5 182t440.5 -182.5t166 -503.5q0 -324 -166.5 -511.5t-440.5 -187.5q-272 0 -439 187.5t-167 511.5zM356 1438l197 245h293l196 -245h-229l-111 125h-8l-108 -125h-230zM401 674q0 -201 81 -319.5t216 -118.5q137 0 217 118.5t80 319.5 q0 199 -79.5 312.5t-217.5 113.5q-135 0 -216 -114t-81 -312z" />
<glyph unicode="&#xd5;" horiz-adv-x="1398" d="M92 674q0 322 166 504t440.5 182t440.5 -182.5t166 -503.5q0 -324 -166.5 -511.5t-440.5 -187.5q-272 0 -439 187.5t-167 511.5zM350 1440q16 135 75.5 206.5t143.5 71.5q61 0 141.5 -46t104.5 -46q59 0 80 92h154q-16 -135 -77 -206.5t-145 -71.5q-59 0 -139 46t-104 46 q-59 0 -80 -92h-154zM401 674q0 -201 81 -319.5t216 -118.5q137 0 217 118.5t80 319.5q0 199 -79.5 312.5t-217.5 113.5q-135 0 -216 -114t-81 -312z" />
<glyph unicode="&#xd6;" horiz-adv-x="1398" d="M92 674q0 322 166 504t440.5 182t440.5 -182.5t166 -503.5q0 -324 -166.5 -511.5t-440.5 -187.5q-272 0 -439 187.5t-167 511.5zM352 1577q0 61 40 102t103.5 41t103.5 -41t40 -102t-40 -102t-103.5 -41t-103.5 41t-40 102zM401 674q0 -201 81 -319.5t216 -118.5 q137 0 217 118.5t80 319.5q0 199 -79.5 312.5t-217.5 113.5q-135 0 -216 -114t-81 -312zM760 1577q0 61 40 102t101 41q63 0 103 -41t40 -102t-40 -102t-103 -41q-61 0 -101 41t-40 102z" />
<glyph unicode="&#xd7;" horiz-adv-x="1081" d="M98 381l291 293l-291 295l150 151l293 -295l293 295l149 -151l-291 -295l291 -293l-149 -152l-293 295l-293 -295z" />
<glyph unicode="&#xd8;" horiz-adv-x="1398" d="M80 35l141 176q-129 184 -129 463q0 322 166 504t440 182q211 0 361 -109l135 168l156 -121l-156 -194q111 -170 111 -430q0 -324 -166 -511.5t-441 -187.5q-193 0 -336 97l-124 -156zM401 674q0 -109 27 -205l451 559q-72 72 -181 72q-135 0 -216 -114t-81 -312z M539 291q72 -55 159 -55q137 0 217 118.5t80 319.5q0 86 -16 164z" />
<glyph unicode="&#xd9;" horiz-adv-x="1357" d="M150 618v717h301v-747q0 -190 57 -271t174 -81t177.5 81.5t60.5 270.5v747h290v-717q0 -332 -132 -487.5t-396 -155.5t-398 156.5t-134 486.5zM348 1683h320l163 -245h-239z" />
<glyph unicode="&#xda;" horiz-adv-x="1357" d="M150 618v717h301v-747q0 -190 57 -271t174 -81t177.5 81.5t60.5 270.5v747h290v-717q0 -332 -132 -487.5t-396 -155.5t-398 156.5t-134 486.5zM526 1438l166 245h320l-246 -245h-240z" />
<glyph unicode="&#xdb;" horiz-adv-x="1357" d="M150 618v717h301v-747q0 -190 57 -271t174 -81t177.5 81.5t60.5 270.5v747h290v-717q0 -332 -132 -487.5t-396 -155.5t-398 156.5t-134 486.5zM336 1438l196 245h293l197 -245h-229l-109 125h-8l-111 -125h-229z" />
<glyph unicode="&#xdc;" horiz-adv-x="1357" d="M150 618v717h301v-747q0 -190 57 -271t174 -81t177.5 81.5t60.5 270.5v747h290v-717q0 -332 -132 -487.5t-396 -155.5t-398 156.5t-134 486.5zM334 1577q0 61 40 102t103 41q61 0 101 -41t40 -102t-40 -102t-101 -41q-63 0 -103 41t-40 102zM739 1577q0 61 40 102 t103.5 41t103.5 -41t40 -102t-40 -102t-103.5 -41t-103.5 41t-40 102z" />
<glyph unicode="&#xdd;" horiz-adv-x="1073" d="M-16 1335h321l121 -307q37 -106 109 -295h8q20 55 58 152.5t54 142.5l119 307h316l-404 -860v-475h-301v475zM383 1438l166 245h319l-245 -245h-240z" />
<glyph unicode="&#xde;" horiz-adv-x="1269" d="M164 0v1335h301v-202h184q524 0 525 -428q0 -225 -147.5 -339t-377.5 -114h-184v-252h-301zM465 492h168q244 0 244 213q0 100 -60.5 144t-183.5 44h-168v-401z" />
<glyph unicode="&#xdf;" horiz-adv-x="1294" d="M133 0v997q0 207 124 333t361 126q199 0 309.5 -100.5t110.5 -241.5q0 -84 -40 -151.5t-79.5 -117.5t-39.5 -91q0 -31 26.5 -57.5t66.5 -47t87 -50.5t87 -63.5t66.5 -92t26.5 -132.5q0 -145 -99.5 -240.5t-277.5 -95.5q-152 0 -309 93l104 204q100 -74 195 -73 q51 0 82 27.5t31 70.5t-37 77t-90.5 61.5t-106.5 60t-90 89t-37 132.5q0 80 73 184.5t73 177.5q0 61 -35 100.5t-97 39.5q-92 0 -140 -68t-48 -188v-963h-297z" />
<glyph unicode="&#xe0;" horiz-adv-x="1093" d="M96 283q0 162 136.5 251t435.5 119q-10 147 -160 148q-113 0 -270 -92l-107 198q221 133 434 133q403 0 404 -458v-582h-246l-23 104h-6q-147 -129 -297 -129q-135 0 -218 88.5t-83 219.5zM268 1483h293l180 -307h-219zM383 305q0 -96 117 -96q82 0 168 86v178 q-285 -39 -285 -168z" />
<glyph unicode="&#xe1;" horiz-adv-x="1093" d="M96 283q0 162 136.5 251t435.5 119q-10 147 -160 148q-113 0 -270 -92l-107 198q221 133 434 133q403 0 404 -458v-582h-246l-23 104h-6q-147 -129 -297 -129q-135 0 -218 88.5t-83 219.5zM383 305q0 -96 117 -96q82 0 168 86v178q-285 -39 -285 -168zM408 1176l182 307 h291l-254 -307h-219z" />
<glyph unicode="&#xe2;" horiz-adv-x="1093" d="M96 283q0 162 136.5 251t435.5 119q-10 147 -160 148q-113 0 -270 -92l-107 198q221 133 434 133q403 0 404 -458v-582h-246l-23 104h-6q-147 -129 -297 -129q-135 0 -218 88.5t-83 219.5zM258 1176l197 307h239l197 -307h-203l-108 161h-9l-110 -161h-203zM383 305 q0 -96 117 -96q82 0 168 86v178q-285 -39 -285 -168z" />
<glyph unicode="&#xe3;" horiz-adv-x="1093" d="M96 283q0 162 136.5 251t435.5 119q-10 147 -160 148q-113 0 -270 -92l-107 198q221 133 434 133q403 0 404 -458v-582h-246l-23 104h-6q-147 -129 -297 -129q-135 0 -218 88.5t-83 219.5zM236 1178q14 135 71.5 205.5t138.5 70.5q59 0 139.5 -45t104.5 -45q49 0 70 90 h153q-14 -135 -70.5 -205.5t-140.5 -70.5q-59 0 -139 46t-102 46q-51 0 -72 -92h-153zM383 305q0 -96 117 -96q82 0 168 86v178q-285 -39 -285 -168z" />
<glyph unicode="&#xe4;" horiz-adv-x="1093" d="M96 283q0 162 136.5 251t435.5 119q-10 147 -160 148q-113 0 -270 -92l-107 198q221 133 434 133q403 0 404 -458v-582h-246l-23 104h-6q-147 -129 -297 -129q-135 0 -218 88.5t-83 219.5zM229 1312.5q0 61.5 40 101.5t104 40q61 0 101 -40t40 -101.5t-40 -102.5 t-101 -41q-63 0 -103.5 41t-40.5 102.5zM383 305q0 -96 117 -96q82 0 168 86v178q-285 -39 -285 -168zM635 1313q0 59 41 100t102.5 41t102.5 -41t41 -100q0 -61 -40 -102.5t-103.5 -41.5t-103.5 41t-40 103z" />
<glyph unicode="&#xe5;" horiz-adv-x="1093" d="M96 283q0 162 136.5 251t435.5 119q-10 147 -160 148q-113 0 -270 -92l-107 198q221 133 434 133q403 0 404 -458v-582h-246l-23 104h-6q-147 -129 -297 -129q-135 0 -218 88.5t-83 219.5zM344 1331q0 94 63.5 151.5t167.5 57.5q102 0 166 -57.5t64 -151.5t-64 -151.5 t-166 -57.5q-104 0 -167.5 57.5t-63.5 151.5zM383 305q0 -96 117 -96q82 0 168 86v178q-285 -39 -285 -168zM492 1331q0 -43 23 -69.5t60 -26.5q35 0 58.5 26.5t23.5 69.5t-23.5 69.5t-58.5 26.5q-37 0 -60 -26.5t-23 -69.5z" />
<glyph unicode="&#xe6;" horiz-adv-x="1605" d="M96 281q0 164 134.5 254t431.5 120q-10 145 -158 146q-108 0 -266 -92l-107 198q221 133 416 133q188 0 282 -153q135 154 301 153q195 0 299.5 -138t104.5 -355q0 -78 -12 -127h-586q16 -102 81.5 -155.5t162.5 -53.5q88 0 215 74l102 -195q-168 -115 -358 -115 q-207 0 -351 158q-197 -158 -391 -158q-135 0 -218 87.5t-83 218.5zM383 305q0 -96 117 -96q100 0 190 86q-23 63 -28 135l-3 43q-276 -39 -276 -168zM936 604h342q0 207 -158 207q-74 0 -123 -52.5t-61 -154.5z" />
<glyph unicode="&#xe7;" horiz-adv-x="956" d="M74 508q0 244 153.5 388t374.5 144q184 0 297 -116l-137 -187q-72 59 -141 60q-109 0 -173.5 -78t-64.5 -211q0 -131 63.5 -210t163.5 -79q90 0 183 74l120 -191q-102 -91 -247 -118l-31 -72q119 -39 119 -152q0 -100 -102.5 -152t-260.5 -61l-22 121q168 18 168 90 q0 57 -119 86l69 138q-184 29 -298.5 168t-114.5 358z" />
<glyph unicode="&#xe8;" horiz-adv-x="1056" d="M74 508q0 238 143 385t336 147q209 0 320.5 -135t111.5 -352q0 -78 -12 -127h-608q39 -221 264 -221q109 0 219 67l100 -182q-168 -115 -360 -115q-223 0 -368.5 143.5t-145.5 389.5zM248 1483h291l182 -307h-221zM362 612h367q0 199 -170 199q-74 0 -128.5 -50.5 t-68.5 -148.5z" />
<glyph unicode="&#xe9;" horiz-adv-x="1056" d="M74 508q0 238 143 385t336 147q209 0 320.5 -135t111.5 -352q0 -78 -12 -127h-608q39 -221 264 -221q109 0 219 67l100 -182q-168 -115 -360 -115q-223 0 -368.5 143.5t-145.5 389.5zM362 612h367q0 199 -170 199q-74 0 -128.5 -50.5t-68.5 -148.5zM385 1176l182 307h291 l-254 -307h-219z" />
<glyph unicode="&#xea;" horiz-adv-x="1056" d="M74 508q0 238 143 385t336 147q209 0 320.5 -135t111.5 -352q0 -78 -12 -127h-608q39 -221 264 -221q109 0 219 67l100 -182q-168 -115 -360 -115q-223 0 -368.5 143.5t-145.5 389.5zM238 1176l194 307h240l196 -307h-202l-109 161h-8l-109 -161h-202zM362 612h367 q0 199 -170 199q-74 0 -128.5 -50.5t-68.5 -148.5z" />
<glyph unicode="&#xeb;" horiz-adv-x="1056" d="M74 508q0 238 143 385t336 147q209 0 320.5 -135t111.5 -352q0 -78 -12 -127h-608q39 -221 264 -221q109 0 219 67l100 -182q-168 -115 -360 -115q-223 0 -368.5 143.5t-145.5 389.5zM207 1313q0 59 40 100t103.5 41t103.5 -41t40 -100q0 -61 -40 -102.5t-103.5 -41.5 t-103.5 41t-40 103zM362 612h367q0 199 -170 199q-74 0 -128.5 -50.5t-68.5 -148.5zM612 1313q0 59 40 100t103.5 41t103.5 -41t40 -100q0 -61 -40 -102.5t-103.5 -41.5t-103.5 41t-40 103z" />
<glyph unicode="&#xec;" horiz-adv-x="565" d="M-23 1483h291l183 -307h-220zM133 0v1016h301v-1016h-301z" />
<glyph unicode="&#xed;" horiz-adv-x="565" d="M117 1176l180 307h291l-252 -307h-219zM133 0v1016h301v-1016h-301z" />
<glyph unicode="&#xee;" horiz-adv-x="565" d="M-33 1176l197 307h239l195 -307h-203l-108 161h-8l-109 -161h-203zM133 0v1016h301v-1016h-301z" />
<glyph unicode="&#xef;" horiz-adv-x="565" d="M-63 1313q0 59 39.5 100t103 41t103.5 -41t40 -100q0 -61 -40 -102.5t-103.5 -41.5t-103 41t-39.5 103zM133 0v1016h301v-1016h-301zM342 1313q0 59 40 100t103.5 41t103.5 -41t40 -100q0 -61 -40 -102.5t-103.5 -41.5t-103.5 41t-40 103z" />
<glyph unicode="&#xf0;" horiz-adv-x="1146" d="M86 467q0 211 124 338t292 127q137 0 217 -86q-53 158 -174 272l-291 -145l-78 133l238 119q-72 51 -185 108l131 183q158 -80 283 -175l293 148l78 -133l-246 -125q276 -281 276 -686q0 -252 -131 -411t-354 -159q-197 0 -335 136.5t-138 355.5zM360 467 q0 -117 60.5 -182.5t148.5 -65.5q90 0 142.5 78t52.5 231q0 61 -2 93q-80 88 -199 88q-92 0 -147.5 -61.5t-55.5 -180.5z" />
<glyph unicode="&#xf1;" horiz-adv-x="1171" d="M133 0v1016h246l20 -129h9q162 154 325 153q315 0 316 -409v-631h-301v592q0 109 -30 150.5t-95 41.5q-53 0 -94.5 -22.5t-94.5 -75.5v-686h-301zM291 1178q14 135 71.5 205.5t141.5 70.5q61 0 139 -45t102 -45q49 0 72 90h154q-16 -135 -72.5 -205.5t-140.5 -70.5 q-61 0 -139 46t-103 46q-51 0 -72 -92h-153z" />
<glyph unicode="&#xf2;" horiz-adv-x="1136" d="M74 508q0 244 145.5 388t349.5 144q203 0 348.5 -144t145.5 -388t-145.5 -388.5t-348.5 -144.5q-205 0 -350 144.5t-145 388.5zM262 1483h291l182 -307h-219zM383 508q0 -135 47 -212t139 -77q90 0 138.5 77t48.5 212t-48.5 212t-138.5 77q-92 0 -139 -77t-47 -212z" />
<glyph unicode="&#xf3;" horiz-adv-x="1136" d="M74 508q0 244 145.5 388t349.5 144q203 0 348.5 -144t145.5 -388t-145.5 -388.5t-348.5 -144.5q-205 0 -350 144.5t-145 388.5zM383 508q0 -135 47 -212t139 -77q90 0 138.5 77t48.5 212t-48.5 212t-138.5 77q-92 0 -139 -77t-47 -212zM401 1176l183 307h290l-253 -307 h-220z" />
<glyph unicode="&#xf4;" horiz-adv-x="1136" d="M74 508q0 244 145.5 388t349.5 144q203 0 348.5 -144t145.5 -388t-145.5 -388.5t-348.5 -144.5q-205 0 -350 144.5t-145 388.5zM252 1176l197 307h239l197 -307h-203l-109 161h-8l-110 -161h-203zM383 508q0 -135 47 -212t139 -77q90 0 138.5 77t48.5 212t-48.5 212 t-138.5 77q-92 0 -139 -77t-47 -212z" />
<glyph unicode="&#xf5;" horiz-adv-x="1136" d="M74 508q0 244 145.5 388t349.5 144q203 0 348.5 -144t145.5 -388t-145.5 -388.5t-348.5 -144.5q-205 0 -350 144.5t-145 388.5zM229 1178q14 135 71.5 205.5t139.5 70.5q59 0 139 -45t105 -45q49 0 70 90h153q-14 -135 -70.5 -205.5t-140.5 -70.5q-61 0 -139 46t-102 46 q-51 0 -72 -92h-154zM383 508q0 -135 47 -212t139 -77q90 0 138.5 77t48.5 212t-48.5 212t-138.5 77q-92 0 -139 -77t-47 -212z" />
<glyph unicode="&#xf6;" horiz-adv-x="1136" d="M74 508q0 244 145.5 388t349.5 144q203 0 348.5 -144t145.5 -388t-145.5 -388.5t-348.5 -144.5q-205 0 -350 144.5t-145 388.5zM223 1312.5q0 61.5 40 101.5t102 40q63 0 103 -40t40 -101.5t-40 -102.5t-103 -41q-61 0 -101.5 41t-40.5 102.5zM383 508q0 -135 47 -212 t139 -77q90 0 138.5 77t48.5 212t-48.5 212t-138.5 77q-92 0 -139 -77t-47 -212zM629 1313q0 59 40 100t103.5 41t103 -41t39.5 -100q0 -61 -39.5 -102.5t-103 -41.5t-103.5 41t-40 103z" />
<glyph unicode="&#xf7;" horiz-adv-x="1081" d="M70 569v213h942v-213h-942zM375 307.5q0 69.5 47 113.5t118.5 44t119 -44t47.5 -113.5t-47.5 -113.5t-119 -44t-118.5 44t-47 113.5zM375 1044.5q0 69.5 47 113.5t118.5 44t119 -44t47.5 -113.5t-47.5 -113.5t-119 -44t-118.5 44t-47 113.5z" />
<glyph unicode="&#xf8;" horiz-adv-x="1136" d="M74 508q0 244 145.5 388t349.5 144q145 0 271 -79l90 110l112 -88l-96 -119q117 -147 117 -356q0 -244 -145.5 -388.5t-348.5 -144.5q-152 0 -274 82l-88 -108l-113 86l96 119q-117 143 -116 354zM365 524q0 -82 14 -137l305 381q-45 39 -115 39q-94 0 -149 -78t-55 -205 zM451 250q47 -41 118 -41q92 0 147.5 78t55.5 205q0 84 -14 139z" />
<glyph unicode="&#xf9;" horiz-adv-x="1161" d="M119 385v631h301v-592q0 -106 30.5 -149.5t96.5 -43.5q100 0 180 113v672h301v-1016h-246l-20 141h-8q-135 -166 -320 -166q-315 0 -315 410zM274 1483h291l183 -307h-220z" />
<glyph unicode="&#xfa;" horiz-adv-x="1161" d="M119 385v631h301v-592q0 -106 30.5 -149.5t96.5 -43.5q100 0 180 113v672h301v-1016h-246l-20 141h-8q-135 -166 -320 -166q-315 0 -315 410zM414 1176l182 307h291l-254 -307h-219z" />
<glyph unicode="&#xfb;" horiz-adv-x="1161" d="M119 385v631h301v-592q0 -106 30.5 -149.5t96.5 -43.5q100 0 180 113v672h301v-1016h-246l-20 141h-8q-135 -166 -320 -166q-315 0 -315 410zM264 1176l197 307h239l197 -307h-203l-108 161h-8l-111 -161h-203z" />
<glyph unicode="&#xfc;" horiz-adv-x="1161" d="M119 385v631h301v-592q0 -106 30.5 -149.5t96.5 -43.5q100 0 180 113v672h301v-1016h-246l-20 141h-8q-135 -166 -320 -166q-315 0 -315 410zM236 1312.5q0 61.5 39.5 101.5t101.5 40q63 0 103 -40t40 -101.5t-40 -102.5t-103 -41q-61 0 -101 41t-40 102.5zM641 1313 q0 59 40 100t103.5 41t103.5 -41t40 -100q0 -61 -40 -102.5t-103.5 -41.5t-103.5 41t-40 103z" />
<glyph unicode="&#xfd;" horiz-adv-x="1067" d="M25 1016h303l145 -436q23 -72 80 -289h8q45 193 70 289l123 436h288l-352 -1026q-76 -203 -174 -295t-270 -92q-76 0 -144 20l54 230q55 -12 67 -13q133 0 178 133l15 54zM379 1176l182 307h291l-254 -307h-219z" />
<glyph unicode="&#xfe;" horiz-adv-x="1173" d="M133 -377v1813h301v-353l-8 -143q117 100 254 100q190 0 302 -140t112 -376q0 -250 -127 -399.5t-301 -149.5q-131 0 -240 97l8 -152v-297h-301zM434 287q72 -66 162 -66q84 0 136 75t52 224q0 274 -176 275q-88 0 -174 -93v-415z" />
<glyph unicode="&#xff;" horiz-adv-x="1067" d="M25 1016h303l145 -436q23 -72 80 -289h8q45 193 70 289l123 436h288l-352 -1026q-76 -203 -174 -295t-270 -92q-76 0 -144 20l54 230q55 -12 67 -13q133 0 178 133l15 54zM201 1313q0 59 41 100t102.5 41t102 -41t40.5 -100q0 -61 -39.5 -102.5t-103 -41.5t-103.5 41 t-40 103zM606 1313q0 59 41 100t102.5 41t102.5 -41t41 -100q0 -61 -40 -102.5t-103.5 -41.5t-103.5 41t-40 103z" />
<glyph unicode="&#x100;" horiz-adv-x="1169" d="M-14 0l420 1335h360l420 -1335h-320l-82 317h-409l-82 -317h-307zM289 1475v190h579v-190h-579zM436 553h287l-33 123q-20 72 -56 220t-52 210h-9q-53 -246 -104 -430z" />
<glyph unicode="&#x101;" horiz-adv-x="1093" d="M96 283q0 162 136.5 251t435.5 119q-10 147 -160 148q-113 0 -270 -92l-107 198q221 133 434 133q403 0 404 -458v-582h-246l-23 104h-6q-147 -129 -297 -129q-135 0 -218 88.5t-83 219.5zM293 1212v191h565v-191h-565zM383 305q0 -96 117 -96q82 0 168 86v178 q-285 -39 -285 -168z" />
<glyph unicode="&#x102;" horiz-adv-x="1169" d="M-14 0l420 1335h360l420 -1335h-320l-82 317h-409l-82 -317h-307zM299 1683h164q23 -94 115 -94q93 0 116 94h164q-29 -246 -280 -245q-129 0 -199 65.5t-80 179.5zM436 553h287l-33 123q-20 72 -56 220t-52 210h-9q-53 -246 -104 -430z" />
<glyph unicode="&#x103;" horiz-adv-x="1093" d="M96 283q0 162 136.5 251t435.5 119q-10 147 -160 148q-113 0 -270 -92l-107 198q221 133 434 133q403 0 404 -458v-582h-246l-23 104h-6q-147 -129 -297 -129q-135 0 -218 88.5t-83 219.5zM291 1460h168q14 -119 116 -119q98 0 117 119h168q-4 -121 -76.5 -202.5 t-208 -81.5t-208 81.5t-76.5 202.5zM383 305q0 -96 117 -96q82 0 168 86v178q-285 -39 -285 -168z" />
<glyph unicode="&#x104;" horiz-adv-x="1169" d="M-14 0l420 1335h360l420 -1335q-82 -8 -134.5 -63.5t-52.5 -120.5q0 -37 22.5 -57.5t57.5 -20.5q39 0 80 29l70 -152q-94 -72 -213 -72q-102 0 -169 51.5t-67 141.5q0 86 52.5 156.5t113.5 107.5h-80l-82 317h-409l-82 -317h-307zM436 553h287l-33 123q-20 72 -56 220 t-52 210h-9q-53 -246 -104 -430z" />
<glyph unicode="&#x105;" horiz-adv-x="1093" d="M96 281q0 162 136.5 252t435.5 120q-10 147 -160 148q-113 0 -270 -92l-107 198q221 133 434 133q403 0 404 -458v-582q-92 -27 -136.5 -75t-44.5 -99q0 -39 26 -58.5t60 -19.5q37 0 74 25l62 -135q-84 -68 -207 -68q-94 0 -155.5 49t-61.5 137q0 80 44 142.5t97 97.5 l-27 108h-6q-147 -129 -297 -129q-135 0 -218 87.5t-83 218.5zM383 305q0 -96 117 -96q82 0 168 86v178q-285 -39 -285 -168z" />
<glyph unicode="&#x106;" horiz-adv-x="1187" d="M92 659q0 322 184.5 511.5t452.5 189.5q225 0 395 -174l-166 -187q-111 100 -225 101q-143 0 -237.5 -117t-94.5 -313q0 -203 88.5 -318.5t235.5 -115.5q145 0 254 118l166 -182q-168 -197 -424 -197q-272 0 -450.5 180t-178.5 504zM549 1438l164 245h319l-244 -245h-239 z" />
<glyph unicode="&#x107;" horiz-adv-x="956" d="M74 508q0 244 153.5 388t374.5 144q184 0 297 -116l-137 -187q-72 59 -141 60q-109 0 -173.5 -78t-64.5 -211q0 -131 63.5 -210t163.5 -79q90 0 183 74l120 -191q-145 -127 -338 -127q-219 0 -360 142.5t-141 390.5zM428 1176l180 307h293l-254 -307h-219z" />
<glyph unicode="&#x108;" horiz-adv-x="1187" d="M92 659q0 322 184.5 511.5t452.5 189.5q225 0 395 -174l-166 -187q-111 100 -225 101q-143 0 -237.5 -117t-94.5 -313q0 -203 88.5 -318.5t235.5 -115.5q145 0 254 118l166 -182q-168 -197 -424 -197q-272 0 -450.5 180t-178.5 504zM358 1438l197 245h293l196 -245h-229 l-110 125h-9l-108 -125h-230z" />
<glyph unicode="&#x109;" horiz-adv-x="956" d="M74 508q0 244 153.5 388t374.5 144q184 0 297 -116l-137 -187q-72 59 -141 60q-109 0 -173.5 -78t-64.5 -211q0 -131 63.5 -210t163.5 -79q90 0 183 74l120 -191q-145 -127 -338 -127q-219 0 -360 142.5t-141 390.5zM279 1176l196 307h240l196 -307h-202l-111 161h-8 l-109 -161h-202z" />
<glyph unicode="&#x10a;" horiz-adv-x="1187" d="M92 659q0 322 184.5 511.5t452.5 189.5q225 0 395 -174l-166 -187q-111 100 -225 101q-143 0 -237.5 -117t-94.5 -313q0 -203 88.5 -318.5t235.5 -115.5q145 0 254 118l166 -182q-168 -197 -424 -197q-272 0 -450.5 180t-178.5 504zM526 1593.5q0 69.5 49.5 113.5t125 44 t124.5 -44t49 -113.5t-49 -113.5t-124.5 -44t-125 44t-49.5 113.5z" />
<glyph unicode="&#x10b;" horiz-adv-x="956" d="M74 508q0 244 153.5 388t374.5 144q184 0 297 -116l-137 -187q-72 59 -141 60q-109 0 -173.5 -78t-64.5 -211q0 -131 63.5 -210t163.5 -79q90 0 183 74l120 -191q-145 -127 -338 -127q-219 0 -360 142.5t-141 390.5zM428 1323q0 70 47 114t119 44q74 0 121 -44t47 -114 t-47 -114t-121 -44q-72 0 -119 44t-47 114z" />
<glyph unicode="&#x10c;" horiz-adv-x="1187" d="M92 659q0 322 184.5 511.5t452.5 189.5q225 0 395 -174l-166 -187q-111 100 -225 101q-143 0 -237.5 -117t-94.5 -313q0 -203 88.5 -318.5t235.5 -115.5q145 0 254 118l166 -182q-168 -197 -424 -197q-272 0 -450.5 180t-178.5 504zM358 1683h230l108 -124h9l110 124h229 l-196 -245h-293z" />
<glyph unicode="&#x10d;" horiz-adv-x="956" d="M74 508q0 244 153.5 388t374.5 144q184 0 297 -116l-137 -187q-72 59 -141 60q-109 0 -173.5 -78t-64.5 -211q0 -131 63.5 -210t163.5 -79q90 0 183 74l120 -191q-145 -127 -338 -127q-219 0 -360 142.5t-141 390.5zM279 1483h202l109 -162h8l111 162h202l-196 -307h-240 z" />
<glyph unicode="&#x10e;" horiz-adv-x="1282" d="M139 0v1335h379q317 0 493.5 -163.5t176.5 -497.5t-175 -504t-478 -170h-396zM291 1683h229l111 -124h8l109 124h229l-197 -245h-293zM442 244h58q379 0 379 430q0 227 -98.5 322.5t-280.5 95.5h-58v-848z" />
<glyph unicode="&#x10f;" horiz-adv-x="1257" d="M80 508q0 240 126 386t296 146q137 0 250 -106l-13 156v346h301v-1436h-245l-21 100h-8q-125 -125 -270 -125q-190 0 -303 142.5t-113 390.5zM389 512q0 -291 184 -291q98 0 166 92v416q-72 66 -168 66q-78 0 -130 -73t-52 -210zM1118 1577h195l-4 -141l-49 -314h-130z " />
<glyph unicode="&#x110;" horiz-adv-x="1343" d="M49 616v136l154 10v573h377q317 0 493 -163.5t176 -497.5t-175 -504t-478 -170h-393v616h-154zM504 244h57q379 0 379 430q0 227 -98.5 322.5t-280.5 95.5h-57v-330h258v-146h-258v-372z" />
<glyph unicode="&#x111;" horiz-adv-x="1173" d="M80 487q0 227 126 369.5t296 142.5q137 0 250 -106l-13 156v90h-305v145h305v152h301v-152h140v-133l-140 -10v-1141h-252l-18 90h-8q-119 -115 -266 -115q-190 0 -303 136.5t-113 375.5zM389 492q0 -270 184 -271q98 0 166 92v375q-72 66 -168 66q-78 0 -130 -68 t-52 -194z" />
<glyph unicode="&#x112;" horiz-adv-x="1118" d="M156 0v1335h837v-254h-534v-268h454v-252h-454v-307h555v-254h-858zM299 1475v190h580v-190h-580z" />
<glyph unicode="&#x113;" horiz-adv-x="1056" d="M74 508q0 238 143 385t336 147q209 0 320.5 -135t111.5 -352q0 -78 -12 -127h-608q39 -221 264 -221q109 0 219 67l100 -182q-168 -115 -360 -115q-223 0 -368.5 143.5t-145.5 389.5zM270 1212v191h566v-191h-566zM362 612h367q0 199 -170 199q-74 0 -128.5 -50.5 t-68.5 -148.5z" />
<glyph unicode="&#x114;" horiz-adv-x="1118" d="M156 0v1335h837v-254h-534v-268h454v-252h-454v-307h555v-254h-858zM309 1683h164q23 -94 117 -94q92 0 115 94h163q-10 -115 -79.5 -180t-198.5 -65q-252 0 -281 245z" />
<glyph unicode="&#x115;" horiz-adv-x="1056" d="M74 508q0 238 143 385t336 147q209 0 320.5 -135t111.5 -352q0 -78 -12 -127h-608q39 -221 264 -221q109 0 219 67l100 -182q-168 -115 -360 -115q-223 0 -368.5 143.5t-145.5 389.5zM268 1460h168q14 -119 117 -119q51 0 81 33t36 86h168q-4 -121 -77 -202.5t-208 -81.5 t-208 81.5t-77 202.5zM362 612h367q0 199 -170 199q-74 0 -128.5 -50.5t-68.5 -148.5z" />
<glyph unicode="&#x116;" horiz-adv-x="1118" d="M156 0v1335h837v-254h-534v-268h454v-252h-454v-307h555v-254h-858zM416 1593.5q0 69.5 49 113.5t125 44t125 -44t49 -113.5t-49 -113.5t-125 -44t-125 44t-49 113.5z" />
<glyph unicode="&#x117;" horiz-adv-x="1056" d="M74 508q0 238 143 385t336 147q209 0 320.5 -135t111.5 -352q0 -78 -12 -127h-608q39 -221 264 -221q109 0 219 67l100 -182q-168 -115 -360 -115q-223 0 -368.5 143.5t-145.5 389.5zM362 612h367q0 199 -170 199q-74 0 -128.5 -50.5t-68.5 -148.5zM385 1323q0 70 47 114 t121 44t120 -44t46 -114t-46 -114t-120 -44t-121 44t-47 114z" />
<glyph unicode="&#x118;" horiz-adv-x="1118" d="M156 0v1335h837v-254h-534v-268h454v-252h-454v-307h555v-254h-13q-70 -2 -123 -59.5t-53 -124.5q0 -37 26 -57.5t60 -20.5q33 0 74 29l70 -152q-92 -72 -215 -72q-100 0 -167 51.5t-67 141.5q0 86 49.5 155.5t110.5 108.5h-610z" />
<glyph unicode="&#x119;" horiz-adv-x="1056" d="M74 508q0 238 143 385t336 147q209 0 320.5 -135t111.5 -352q0 -78 -12 -127h-608q39 -221 264 -221q109 0 219 67l100 -182q-131 -90 -176 -146.5t-45 -117.5q0 -78 88 -78q31 0 72 25l61 -135q-84 -68 -207 -68q-94 0 -153.5 48t-59.5 138q0 125 115 226q-25 -6 -55 -7 q-223 0 -368.5 143.5t-145.5 389.5zM362 612h367q0 199 -170 199q-74 0 -128.5 -50.5t-68.5 -148.5z" />
<glyph unicode="&#x11a;" horiz-adv-x="1118" d="M156 0v1335h837v-254h-534v-268h454v-252h-454v-307h555v-254h-858zM246 1683h229l111 -124h8l108 124h230l-197 -245h-293z" />
<glyph unicode="&#x11b;" horiz-adv-x="1056" d="M74 508q0 238 143 385t336 147q209 0 320.5 -135t111.5 -352q0 -78 -12 -127h-608q39 -221 264 -221q109 0 219 67l100 -182q-168 -115 -360 -115q-223 0 -368.5 143.5t-145.5 389.5zM238 1483h202l109 -162h8l109 162h202l-196 -307h-240zM362 612h367q0 199 -170 199 q-74 0 -128.5 -50.5t-68.5 -148.5z" />
<glyph unicode="&#x11c;" horiz-adv-x="1302" d="M92 659q0 322 188.5 511.5t469.5 189.5q242 0 415 -174l-166 -187q-111 100 -245 101q-156 0 -254.5 -116t-98.5 -314q0 -209 95.5 -321.5t281.5 -112.5q90 0 142 40v230h-222v246h490v-615q-80 -70 -199 -116t-250 -46q-283 0 -465 179t-182 505zM408 1438l196 245h293 l197 -245h-232l-108 125h-9l-108 -125h-229z" />
<glyph unicode="&#x11d;" horiz-adv-x="1093" d="M70 -174q0 123 145 205v8q-94 61 -94 172q0 113 115 190v9q-59 41 -98.5 110.5t-39.5 153.5q0 174 122 270t298 96q90 0 158 -24h371v-219h-162q33 -55 33 -133q0 -168 -112 -255t-288 -87q-59 0 -123 20q-37 -31 -37 -76q0 -76 154 -76h164q387 0 387 -258 q0 -160 -154.5 -262t-412.5 -102q-190 0 -308 64.5t-118 193.5zM199 1176l196 307h240l196 -307h-202l-111 161h-8l-109 -161h-202zM317 -127q0 -55 60.5 -86t165.5 -31q100 0 166.5 36t66.5 89q0 45 -38 62.5t-117 17.5h-105q-94 0 -143 12q-56 -49 -56 -100zM379 674 q0 -82 39 -126t100.5 -44t100 44t38.5 126q0 78 -38.5 121t-100 43t-100.5 -42t-39 -122z" />
<glyph unicode="&#x11e;" horiz-adv-x="1302" d="M92 659q0 322 188.5 511.5t469.5 189.5q242 0 415 -174l-166 -187q-111 100 -245 101q-156 0 -254.5 -116t-98.5 -314q0 -209 95.5 -321.5t281.5 -112.5q90 0 142 40v230h-222v246h490v-615q-80 -70 -199 -116t-250 -46q-283 0 -465 179t-182 505zM469 1683h166 q23 -94 115 -94q94 0 116 94h164q-29 -245 -280.5 -245t-280.5 245z" />
<glyph unicode="&#x11f;" horiz-adv-x="1093" d="M70 -174q0 123 145 205v8q-94 61 -94 172q0 113 115 190v9q-59 41 -98.5 110.5t-39.5 153.5q0 174 122 270t298 96q90 0 158 -24h371v-219h-162q33 -55 33 -133q0 -168 -112 -255t-288 -87q-59 0 -123 20q-37 -31 -37 -76q0 -76 154 -76h164q387 0 387 -258 q0 -160 -154.5 -262t-412.5 -102q-190 0 -308 64.5t-118 193.5zM229 1460h168q18 -119 117 -119q102 0 117 119h168q-4 -121 -77 -202.5t-208 -81.5t-208 81.5t-77 202.5zM317 -127q0 -55 60.5 -86t165.5 -31q100 0 166.5 36t66.5 89q0 45 -38 62.5t-117 17.5h-105 q-94 0 -143 12q-56 -49 -56 -100zM379 674q0 -82 39 -126t100.5 -44t100 44t38.5 126q0 78 -38.5 121t-100 43t-100.5 -42t-39 -122z" />
<glyph unicode="&#x120;" horiz-adv-x="1302" d="M92 659q0 322 188.5 511.5t469.5 189.5q242 0 415 -174l-166 -187q-111 100 -245 101q-156 0 -254.5 -116t-98.5 -314q0 -209 95.5 -321.5t281.5 -112.5q90 0 142 40v230h-222v246h490v-615q-80 -70 -199 -116t-250 -46q-283 0 -465 179t-182 505zM575 1593.5 q0 69.5 49.5 113.5t125 44t125 -44t49.5 -113.5t-49.5 -113.5t-125 -44t-125 44t-49.5 113.5z" />
<glyph unicode="&#x121;" horiz-adv-x="1093" d="M70 -174q0 123 145 205v8q-94 61 -94 172q0 113 115 190v9q-59 41 -98.5 110.5t-39.5 153.5q0 174 122 270t298 96q90 0 158 -24h371v-219h-162q33 -55 33 -133q0 -168 -112 -255t-288 -87q-59 0 -123 20q-37 -31 -37 -76q0 -76 154 -76h164q387 0 387 -258 q0 -160 -154.5 -262t-412.5 -102q-190 0 -308 64.5t-118 193.5zM317 -127q0 -55 60.5 -86t165.5 -31q100 0 166.5 36t66.5 89q0 45 -38 62.5t-117 17.5h-105q-94 0 -143 12q-56 -49 -56 -100zM348 1323q0 70 47 114t119 44q74 0 121 -44t47 -114t-47 -114t-121 -44 q-72 0 -119 44t-47 114zM379 674q0 -82 39 -126t100.5 -44t100 44t38.5 126q0 78 -38.5 121t-100 43t-100.5 -42t-39 -122z" />
<glyph unicode="&#x122;" horiz-adv-x="1302" d="M92 659q0 322 188.5 511.5t469.5 189.5q242 0 415 -174l-166 -187q-111 100 -245 101q-156 0 -254.5 -116t-98.5 -314q0 -209 95.5 -321.5t281.5 -112.5q90 0 142 40v230h-222v246h490v-615q-80 -70 -199 -116t-250 -46q-283 0 -465 179t-182 505zM530 -348 q168 18 168 76q0 53 -88 75l58 111q135 -14 191 -54t56 -118q0 -98 -102 -150.5t-260 -60.5z" />
<glyph unicode="&#x123;" horiz-adv-x="1093" d="M70 -174q0 123 145 205v8q-94 61 -94 172q0 113 115 190v9q-59 41 -98.5 110.5t-39.5 153.5q0 174 122 270t298 96q90 0 158 -24h371v-219h-162q33 -55 33 -133q0 -168 -112 -255t-288 -87q-59 0 -123 20q-37 -31 -37 -76q0 -76 154 -76h164q387 0 387 -258 q0 -160 -154.5 -262t-412.5 -102q-190 0 -308 64.5t-118 193.5zM317 -127q0 -55 60.5 -86t165.5 -31q100 0 166.5 36t66.5 89q0 45 -38 62.5t-117 17.5h-105q-94 0 -143 12q-56 -49 -56 -100zM340 1286q0 98 101.5 151.5t260.5 61.5l23 -121q-168 -18 -168 -78q0 -53 88 -73 l-57 -111q-135 12 -191.5 52t-56.5 118zM379 674q0 -82 39 -126t100.5 -44t100 44t38.5 126q0 78 -38.5 121t-100 43t-100.5 -42t-39 -122z" />
<glyph unicode="&#x124;" horiz-adv-x="1376" d="M156 0v1335h303v-514h461v514h301v-1335h-301v557h-461v-557h-303zM344 1438l197 245h293l196 -245h-229l-111 125h-8l-109 -125h-229z" />
<glyph unicode="&#x125;" horiz-adv-x="1169" d="M-63 1536l196 246h295l197 -246h-232l-108 123h-9l-108 -123h-231zM133 0v1436h301v-353l-14 -182q156 139 313 139q315 0 316 -409v-631h-301v592q0 109 -30 150.5t-95 41.5q-53 0 -94.5 -22.5t-94.5 -75.5v-686h-301z" />
<glyph unicode="&#x126;" horiz-adv-x="1456" d="M49 995v133l148 13v194h301v-194h460v194h302v-194h147v-146h-147v-995h-302v557h-460v-557h-301v995h-148zM498 821h460v174h-460v-174z" />
<glyph unicode="&#x127;" horiz-adv-x="1169" d="M-6 1139v133l139 10v154h301v-152h346v-145h-346v-97l-14 -182q156 139 313 139q315 0 316 -409v-590h-301v551q0 109 -30 150.5t-95 41.5q-53 0 -94.5 -22.5t-94.5 -75.5v-645h-301v1139h-139z" />
<glyph unicode="&#x128;" horiz-adv-x="614" d="M-41 1440q14 135 74.5 206.5t144.5 71.5q61 0 140 -46t106 -46q57 0 78 92h153q-14 -135 -74.5 -206.5t-144.5 -71.5q-61 0 -140 46t-106 46q-57 0 -79 -92h-152zM156 0v1335h303v-1335h-303z" />
<glyph unicode="&#x129;" horiz-adv-x="565" d="M-57 1178q16 137 72.5 206.5t140.5 69.5q59 0 138 -45t103 -45q51 0 72 90h154q-14 -135 -71.5 -205.5t-141.5 -70.5q-59 0 -138 46t-104 46q-49 0 -72 -92h-153zM133 0v1016h301v-1016h-301z" />
<glyph unicode="&#x12a;" horiz-adv-x="614" d="M18 1475v190h578v-190h-578zM156 0v1335h303v-1335h-303z" />
<glyph unicode="&#x12b;" horiz-adv-x="565" d="M0 1212v191h565v-191h-565zM133 0v1016h301v-1016h-301z" />
<glyph unicode="&#x12e;" horiz-adv-x="614" d="M86 -264q0 154 152 264h-82v1335h303v-1335q-154 -63 -154 -184q0 -37 24.5 -57.5t59.5 -20.5q39 0 76 29l70 -152q-92 -72 -216 -72q-102 0 -167.5 51.5t-65.5 141.5z" />
<glyph unicode="&#x12f;" horiz-adv-x="565" d="M84 -244q0 137 133 244h-84v1016h301v-1016q-147 -55 -147 -174q0 -39 25.5 -58.5t62.5 -19.5q23 0 71 25l62 -135q-37 -31 -97.5 -49.5t-109.5 -18.5q-94 0 -155.5 49t-61.5 137zM109 1323q0 70 49 113t124.5 43t125 -43t49.5 -113t-49.5 -114t-125 -44t-124.5 44 t-49 114z" />
<glyph unicode="&#x130;" horiz-adv-x="614" d="M133 1593.5q0 69.5 49 113.5t125 44t125 -44t49 -113.5t-49 -113.5t-125 -44t-125 44t-49 113.5zM156 0v1335h303v-1335h-303z" />
<glyph unicode="&#x131;" horiz-adv-x="565" d="M133 0v1016h301v-1016h-301z" />
<glyph unicode="&#x134;" horiz-adv-x="1038" d="M31 217l205 152q76 -133 186 -133q86 0 126 52t40 181v866h303v-891q0 -207 -108.5 -338t-319.5 -131q-295 0 -432 242zM391 1438l197 245h293l196 -245h-229l-109 125h-8l-110 -125h-230z" />
<glyph unicode="&#x135;" horiz-adv-x="569" d="M-104 -373l53 221q47 -14 80 -14q59 0 82.5 39t23.5 125v1018h301v-1010q0 -408 -362 -407q-106 0 -178 28zM-29 1176l195 307h240l196 -307h-203l-108 161h-8l-109 -161h-203z" />
<glyph unicode="&#x136;" horiz-adv-x="1255" d="M156 0v1335h303v-547h6l399 547h330l-403 -532l479 -803h-332l-324 563l-155 -205v-358h-303zM467 -348q170 18 170 76q0 51 -90 75l57 111q135 -14 191.5 -54t56.5 -118q0 -98 -101.5 -150.5t-261.5 -60.5z" />
<glyph unicode="&#x137;" horiz-adv-x="1122" d="M133 0v1436h293v-824h8l322 404h327l-356 -418l383 -598h-326l-229 395l-129 -145v-250h-293zM393 -348q168 18 168 76q0 53 -88 75l57 111q135 -14 191.5 -54t56.5 -118q0 -98 -102.5 -150.5t-259.5 -60.5z" />
<glyph unicode="&#x138;" horiz-adv-x="1122" d="M133 0v1016h301v-410h6l316 410h327l-348 -418l375 -598h-326l-229 387l-121 -147v-240h-301z" />
<glyph unicode="&#x139;" horiz-adv-x="1056" d="M156 0v1335h303v-1081h526v-254h-829zM162 1438l166 245h319l-246 -245h-239z" />
<glyph unicode="&#x13a;" horiz-adv-x="585" d="M133 315v1121h301v-1133q0 -84 53 -84q20 0 37 4l37 -223q-55 -25 -151 -25q-277 0 -277 340zM135 1550l166 246h320l-246 -246h-240z" />
<glyph unicode="&#x13b;" horiz-adv-x="1056" d="M156 0v1335h303v-1081h526v-254h-829zM381 -348q170 18 170 76q0 51 -88 75l57 111q135 -14 191.5 -54t56.5 -118q0 -98 -102.5 -150.5t-262.5 -60.5z" />
<glyph unicode="&#x13c;" horiz-adv-x="585" d="M133 315v1121h301v-1133q0 -84 53 -84q20 0 37 4l37 -223q-55 -25 -151 -25q-277 0 -277 340zM178 -348q170 18 170 76q0 51 -88 75l57 111q135 -14 191.5 -54t56.5 -118q0 -98 -102.5 -150.5t-261.5 -60.5z" />
<glyph unicode="&#x13d;" horiz-adv-x="1056" d="M156 0v1335h303v-1081h526v-254h-829zM711 1499h192l-4 -143l-49 -312h-129z" />
<glyph unicode="&#x13e;" horiz-adv-x="651" d="M133 315v1121h301v-1133q0 -84 53 -84q20 0 37 4l37 -223q-55 -25 -151 -25q-277 0 -277 340zM512 1577h193l-5 -141l-49 -314h-129z" />
<glyph unicode="&#x13f;" horiz-adv-x="1056" d="M156 0v1335h303v-1081h526v-254h-829zM657 674q0 80 51.5 134t129 54t130 -54t52.5 -134t-52.5 -135.5t-130 -55.5t-129 55.5t-51.5 135.5z" />
<glyph unicode="&#x140;" horiz-adv-x="927" d="M133 315v1121h301v-1133q0 -84 53 -84q20 0 37 4l37 -223q-55 -25 -151 -25q-277 0 -277 340zM565 674q0 80 51.5 134t129 54t130 -54t52.5 -134t-52.5 -135.5t-130 -55.5t-129 55.5t-51.5 135.5z" />
<glyph unicode="&#x141;" horiz-adv-x="1071" d="M20 342v233l150 80v680h301v-532l356 194v-233l-356 -195v-315h526v-254h-827v422z" />
<glyph unicode="&#x142;" horiz-adv-x="620" d="M31 492v239l123 76v629h301v-480l133 80v-241l-133 -80v-412q0 -84 53 -84q20 0 37 4l37 -223q-59 -25 -152 -25q-276 0 -276 340v250z" />
<glyph unicode="&#x143;" horiz-adv-x="1359" d="M156 0v1335h309l348 -663l133 -295h8q-39 383 -39 487v471h287v-1335h-309l-348 666l-131 290h-8q39 -399 38 -483v-473h-288zM528 1438l166 245h320l-246 -245h-240z" />
<glyph unicode="&#x144;" horiz-adv-x="1171" d="M133 0v1016h246l20 -129h9q162 154 325 153q315 0 316 -409v-631h-301v592q0 109 -30 150.5t-95 41.5q-53 0 -94.5 -22.5t-94.5 -75.5v-686h-301zM463 1176l182 307h291l-254 -307h-219z" />
<glyph unicode="&#x145;" horiz-adv-x="1359" d="M156 0v1335h309l348 -663l133 -295h8q-39 383 -39 487v471h287v-1335h-309l-348 666l-131 290h-8q39 -399 38 -483v-473h-288zM492 -348q170 18 170 76q0 51 -91 75l60 111q135 -14 190.5 -54t55.5 -118q0 -98 -101.5 -150.5t-261.5 -60.5z" />
<glyph unicode="&#x146;" horiz-adv-x="1171" d="M133 0v1016h246l20 -129h9q162 154 325 153q315 0 316 -409v-631h-301v592q0 109 -30 150.5t-95 41.5q-53 0 -94.5 -22.5t-94.5 -75.5v-686h-301zM385 -348q170 18 170 76q0 51 -88 75l57 111q135 -14 191.5 -54t56.5 -118q0 -98 -102.5 -150.5t-261.5 -60.5z" />
<glyph unicode="&#x147;" horiz-adv-x="1359" d="M156 0v1335h309l348 -663l133 -295h8q-39 383 -39 487v471h287v-1335h-309l-348 666l-131 290h-8q39 -399 38 -483v-473h-288zM338 1683h229l111 -124h8l109 124h229l-197 -245h-292z" />
<glyph unicode="&#x148;" horiz-adv-x="1171" d="M133 0v1016h246l20 -129h9q162 154 325 153q315 0 316 -409v-631h-301v592q0 109 -30 150.5t-95 41.5q-53 0 -94.5 -22.5t-94.5 -75.5v-686h-301zM315 1483h203l109 -162h8l108 162h203l-196 -307h-240z" />
<glyph unicode="&#x149;" horiz-adv-x="1744" d="M145 852q184 92 185 260q-6 -2 -19 -2q-68 0 -112.5 41t-44.5 109q0 76 44 121.5t113 45.5q92 0 142.5 -69.5t50.5 -198.5q0 -295 -293 -438zM702 0v1016h246l23 -129h6q162 154 328 153q315 0 315 -409v-631h-301v592q0 106 -29.5 149t-97.5 43q-53 0 -94 -22.5 t-94 -75.5v-686h-302z" />
<glyph unicode="&#x14c;" horiz-adv-x="1398" d="M92 674q0 322 166 504t440.5 182t440.5 -182.5t166 -503.5q0 -324 -166.5 -511.5t-440.5 -187.5q-272 0 -439 187.5t-167 511.5zM401 674q0 -201 81 -319.5t216 -118.5q137 0 217 118.5t80 319.5q0 199 -79.5 312.5t-217.5 113.5q-135 0 -216 -114t-81 -312zM410 1475 v190h579v-190h-579z" />
<glyph unicode="&#x14d;" horiz-adv-x="1136" d="M74 508q0 244 145.5 388t349.5 144q203 0 348.5 -144t145.5 -388t-145.5 -388.5t-348.5 -144.5q-205 0 -350 144.5t-145 388.5zM287 1212v191h565v-191h-565zM383 508q0 -135 47 -212t139 -77q90 0 138.5 77t48.5 212t-48.5 212t-138.5 77q-92 0 -139 -77t-47 -212z" />
<glyph unicode="&#x150;" horiz-adv-x="1398" d="M92 674q0 322 166 504t440.5 182t440.5 -182.5t166 -503.5q0 -324 -166.5 -511.5t-440.5 -187.5q-272 0 -439 187.5t-167 511.5zM401 674q0 -201 81 -319.5t216 -118.5q137 0 217 118.5t80 319.5q0 199 -79.5 312.5t-217.5 113.5q-135 0 -216 -114t-81 -312zM418 1438 l129 245h258l-184 -245h-203zM786 1438l129 245h256l-182 -245h-203z" />
<glyph unicode="&#x151;" horiz-adv-x="1136" d="M74 508q0 244 145.5 388t349.5 144q203 0 348.5 -144t145.5 -388t-145.5 -388.5t-348.5 -144.5q-205 0 -350 144.5t-145 388.5zM311 1174l142 309h239l-196 -309h-185zM383 508q0 -135 47 -212t139 -77q90 0 138.5 77t48.5 212t-48.5 212t-138.5 77q-92 0 -139 -77 t-47 -212zM662 1174l141 309h237l-194 -309h-184z" />
<glyph unicode="&#x152;" horiz-adv-x="1779" d="M92 674q0 330 187.5 495.5t498.5 165.5h877v-254h-508v-268h428v-252h-428v-307h528v-254h-913q-299 0 -484.5 172t-185.5 502zM401 674q0 -430 396 -430h49v848h-49q-190 0 -293 -95.5t-103 -322.5z" />
<glyph unicode="&#x153;" horiz-adv-x="1679" d="M74 508q0 244 138 388t341 144q205 0 330 -178q129 178 321 178q195 0 300.5 -138t105.5 -355q0 -78 -13 -127h-587q16 -102 81.5 -155.5t161.5 -53.5q88 0 215 74l105 -195q-168 -115 -361 -115q-195 0 -327 179q-129 -178 -338 -179q-203 0 -338 143.5t-135 389.5z M379 508q0 -133 46 -211t128 -78t130 78t48 211t-48 211t-130 78t-128 -78t-46 -211zM1010 604h342q0 207 -158 207q-74 0 -123 -52.5t-61 -154.5z" />
<glyph unicode="&#x154;" horiz-adv-x="1259" d="M156 0v1335h481q516 0 516 -415q0 -279 -238 -385l302 -535h-338l-256 481h-164v-481h-303zM459 721h153q244 0 244 199q0 94 -60.5 135t-183.5 41h-153v-375zM479 1438l166 245h320l-244 -245h-242z" />
<glyph unicode="&#x155;" horiz-adv-x="815" d="M133 0v1016h246l20 -178h9q53 100 129.5 151t158.5 51q74 0 121 -20l-49 -260q-59 16 -111 16q-63 0 -124.5 -45t-98.5 -141v-590h-301zM338 1176l182 307h291l-254 -307h-219z" />
<glyph unicode="&#x156;" horiz-adv-x="1259" d="M156 0v1335h481q516 0 516 -415q0 -279 -238 -385l302 -535h-338l-256 481h-164v-481h-303zM457 -348q170 18 170 76q0 50 -88 75l57 111q135 -14 191.5 -54t56.5 -118q0 -98 -102.5 -150.5t-262.5 -60.5zM459 721h153q244 0 244 199q0 94 -60.5 135t-183.5 41h-153v-375 z" />
<glyph unicode="&#x157;" horiz-adv-x="815" d="M72 -348q168 18 168 76q0 53 -88 75l57 111q135 -14 191.5 -54t56.5 -118q0 -98 -102.5 -150.5t-260.5 -60.5zM133 0v1016h246l20 -178h9q53 100 129.5 151t158.5 51q74 0 121 -20l-49 -260q-59 16 -111 16q-63 0 -124.5 -45t-98.5 -141v-590h-301z" />
<glyph unicode="&#x158;" horiz-adv-x="1259" d="M156 0v1335h481q516 0 516 -415q0 -279 -238 -385l302 -535h-338l-256 481h-164v-481h-303zM289 1683h231l109 -124h8l108 124h232l-197 -245h-295zM459 721h153q244 0 244 199q0 94 -60.5 135t-183.5 41h-153v-375z" />
<glyph unicode="&#x159;" horiz-adv-x="815" d="M133 0v1016h246l20 -178h9q53 100 129.5 151t158.5 51q74 0 121 -20l-49 -260q-59 16 -111 16q-63 0 -124.5 -45t-98.5 -141v-590h-301zM190 1483h201l111 -162h8l108 162h203l-196 -307h-240z" />
<glyph unicode="&#x15a;" horiz-adv-x="1134" d="M70 168l174 207q160 -139 327 -139q186 0 187 129q0 68 -86 112q-23 12 -107 47l-172 74q-117 47 -193.5 138t-76.5 227q0 168 135 282.5t340 114.5q254 0 430 -176l-151 -191q-139 106 -279 107q-78 0 -124 -33t-46 -88q0 -37 27.5 -64.5t55.5 -41t97 -42.5l8 -3 q2 -1 7.5 -3t9.5 -4l170 -69q264 -106 264 -363q0 -174 -136 -294t-366 -120q-286 0 -495 193zM442 1438l166 245h320l-246 -245h-240z" />
<glyph unicode="&#x15b;" horiz-adv-x="907" d="M43 117l135 188q141 -106 262 -106q129 0 129 86q0 10 -3 20t-11 19.5t-15.5 16.5t-22.5 15.5t-25.5 14.5t-30 14t-30.5 12t-33.5 13.5t-35.5 13.5q-268 102 -268 299q0 141 106.5 229t282.5 88q184 0 359 -129l-135 -180q-119 86 -215 86q-115 0 -115 -80q0 -14 5 -25.5 t17.5 -22.5t22.5 -18t32.5 -16.5t35 -14.5t43 -16.5t42.5 -15.5q125 -45 200 -112.5t75 -192.5q0 -143 -109.5 -235.5t-308.5 -92.5q-98 0 -204.5 39.5t-184.5 102.5zM315 1176l183 307h290l-253 -307h-220z" />
<glyph unicode="&#x15c;" horiz-adv-x="1134" d="M70 168l174 207q160 -139 327 -139q186 0 187 129q0 68 -86 112q-23 12 -107 47l-172 74q-117 47 -193.5 138t-76.5 227q0 168 135 282.5t340 114.5q254 0 430 -176l-151 -191q-139 106 -279 107q-78 0 -124 -33t-46 -88q0 -37 27.5 -64.5t55.5 -41t97 -42.5l8 -3 q2 -1 7.5 -3t9.5 -4l170 -69q264 -106 264 -363q0 -174 -136 -294t-366 -120q-286 0 -495 193zM252 1438l197 245h292l197 -245h-229l-109 125h-8l-111 -125h-229z" />
<glyph unicode="&#x15d;" horiz-adv-x="907" d="M43 117l135 188q141 -106 262 -106q129 0 129 86q0 10 -3 20t-11 19.5t-15.5 16.5t-22.5 15.5t-25.5 14.5t-30 14t-30.5 12t-33.5 13.5t-35.5 13.5q-268 102 -268 299q0 141 106.5 229t282.5 88q184 0 359 -129l-135 -180q-119 86 -215 86q-115 0 -115 -80q0 -14 5 -25.5 t17.5 -22.5t22.5 -18t32.5 -16.5t35 -14.5t43 -16.5t42.5 -15.5q125 -45 200 -112.5t75 -192.5q0 -143 -109.5 -235.5t-308.5 -92.5q-98 0 -204.5 39.5t-184.5 102.5zM168 1176l194 307h240l197 -307h-203l-109 161h-8l-108 -161h-203z" />
<glyph unicode="&#x15e;" horiz-adv-x="1134" d="M70 168l174 207q160 -139 327 -139q186 0 187 129q0 68 -86 112q-23 12 -107 47l-172 74q-117 47 -193.5 138t-76.5 227q0 168 135 282.5t340 114.5q254 0 430 -176l-151 -191q-139 106 -279 107q-78 0 -124 -33t-46 -88q0 -37 27.5 -64.5t55.5 -41t97 -42.5l8 -3 q2 -1 7.5 -3t9.5 -4l170 -69q264 -106 264 -363q0 -154 -110.5 -268.5t-301.5 -138.5l-28 -70q119 -39 118 -152q0 -100 -102 -152t-260 -61l-23 121q168 18 168 90q0 57 -118 86l67 138q-236 27 -407 186z" />
<glyph unicode="&#x15f;" horiz-adv-x="907" d="M43 117l135 188q141 -106 262 -106q129 0 129 86q0 10 -3 20t-11 19.5t-15.5 16.5t-22.5 15.5t-25.5 14.5t-30 14t-30.5 12t-33.5 13.5t-35.5 13.5q-268 102 -268 299q0 141 106.5 229t282.5 88q185 0 359 -129l-135 -180q-119 86 -215 86q-115 0 -115 -80q0 -14 5 -25.5 t17.5 -22.5t22.5 -18t32.5 -16.5t35 -14.5t43 -16.5t42.5 -15.5q125 -45 200 -112.5t75 -192.5q0 -115 -71.5 -199t-205.5 -114l-32 -78q119 -39 118 -152q0 -100 -102 -152t-260 -61l-23 121q168 18 168 90q0 57 -118 86l65 133q-197 16 -346 140z" />
<glyph unicode="&#x160;" horiz-adv-x="1134" d="M70 168l174 207q160 -139 327 -139q186 0 187 129q0 68 -86 112q-23 12 -107 47l-172 74q-117 47 -193.5 138t-76.5 227q0 168 135 282.5t340 114.5q254 0 430 -176l-151 -191q-139 106 -279 107q-78 0 -124 -33t-46 -88q0 -37 27.5 -64.5t55.5 -41t97 -42.5l8 -3 q2 -1 7.5 -3t9.5 -4l170 -69q264 -106 264 -363q0 -174 -136 -294t-366 -120q-286 0 -495 193zM252 1683h229l111 -124h8l109 124h229l-197 -245h-292z" />
<glyph unicode="&#x161;" horiz-adv-x="907" d="M43 117l135 188q141 -106 262 -106q129 0 129 86q0 10 -3 20t-11 19.5t-15.5 16.5t-22.5 15.5t-25.5 14.5t-30 14t-30.5 12t-33.5 13.5t-35.5 13.5q-268 102 -268 299q0 141 106.5 229t282.5 88q184 0 359 -129l-135 -180q-119 86 -215 86q-115 0 -115 -80q0 -14 5 -25.5 t17.5 -22.5t22.5 -18t32.5 -16.5t35 -14.5t43 -16.5t42.5 -15.5q125 -45 200 -112.5t75 -192.5q0 -143 -109.5 -235.5t-308.5 -92.5q-98 0 -204.5 39.5t-184.5 102.5zM168 1483h203l108 -162h8l109 162h203l-197 -307h-240z" />
<glyph unicode="&#x162;" horiz-adv-x="1136" d="M49 1081v254h1036v-254h-366v-1081h-55l-37 -88q121 -39 121 -152q0 -100 -102.5 -152t-262.5 -61l-23 121q170 18 170 90q0 57 -118 86l77 156h-71v1081h-369z" />
<glyph unicode="&#x163;" horiz-adv-x="784" d="M35 780v224l155 12l35 270h250v-270h244v-236h-244v-407q0 -162 131 -162q43 0 96 20l48 -219q-82 -27 -172 -35l-29 -65q119 -39 119 -152q0 -100 -102.5 -152t-260.5 -61l-22 121q168 18 168 90q0 57 -119 86l74 146q-231 59 -232 379v411h-139z" />
<glyph unicode="&#x164;" horiz-adv-x="1136" d="M49 1081v254h1036v-254h-366v-1081h-301v1081h-369zM225 1683h230l108 -124h8l111 124h229l-196 -245h-293z" />
<glyph unicode="&#x165;" horiz-adv-x="784" d="M35 780v224l155 12l35 270h250v-270h244v-236h-244v-407q0 -162 131 -162q43 0 96 20l48 -219q-119 -37 -226 -37q-350 1 -350 394v411h-139zM561 1577h193l-2 -141l-52 -314h-129z" />
<glyph unicode="&#x168;" horiz-adv-x="1357" d="M150 618v717h301v-747q0 -190 57 -271t174 -81t177.5 81.5t60.5 270.5v747h290v-717q0 -332 -132 -487.5t-396 -155.5t-398 156.5t-134 486.5zM330 1440q16 135 76.5 206.5t144.5 71.5q59 0 139 -46t105 -46q59 0 79 92h154q-14 -135 -74.5 -206.5t-144.5 -71.5 q-61 0 -141 46t-105 46q-59 0 -80 -92h-153z" />
<glyph unicode="&#x169;" horiz-adv-x="1161" d="M119 385v631h301v-592q0 -106 30.5 -149.5t96.5 -43.5q100 0 180 113v672h301v-1016h-246l-20 141h-8q-135 -166 -320 -166q-315 0 -315 410zM242 1178q14 135 71.5 205.5t139.5 70.5q59 0 139 -45t104 -45q49 0 70 90h154q-14 -135 -70.5 -205.5t-140.5 -70.5 q-61 0 -139 46t-103 46q-51 0 -72 -92h-153z" />
<glyph unicode="&#x16a;" horiz-adv-x="1357" d="M150 618v717h301v-747q0 -190 57 -271t174 -81t177.5 81.5t60.5 270.5v747h290v-717q0 -332 -132 -487.5t-396 -155.5t-398 156.5t-134 486.5zM389 1475v190h580v-190h-580z" />
<glyph unicode="&#x16b;" horiz-adv-x="1161" d="M119 385v631h301v-592q0 -106 30.5 -149.5t96.5 -43.5q100 0 180 113v672h301v-1016h-246l-20 141h-8q-135 -166 -320 -166q-315 0 -315 410zM297 1212v191h565v-191h-565z" />
<glyph unicode="&#x16c;" horiz-adv-x="1357" d="M150 618v717h301v-747q0 -190 57 -271t174 -81t177.5 81.5t60.5 270.5v747h290v-717q0 -332 -132 -487.5t-396 -155.5t-398 156.5t-134 486.5zM399 1683h164q23 -94 117 -94q92 0 115 94h163q-10 -115 -79.5 -180t-198.5 -65q-252 0 -281 245z" />
<glyph unicode="&#x16d;" horiz-adv-x="1161" d="M119 385v631h301v-592q0 -106 30.5 -149.5t96.5 -43.5q100 0 180 113v672h301v-1016h-246l-20 141h-8q-135 -166 -320 -166q-315 0 -315 410zM295 1460h168q18 -119 119 -119q98 0 116 119h168q-4 -121 -76.5 -202.5t-208 -81.5t-209 81.5t-77.5 202.5z" />
<glyph unicode="&#x16e;" horiz-adv-x="1357" d="M150 618v717h301v-747q0 -190 57 -271t174 -81t177.5 81.5t60.5 270.5v747h290v-717q0 -332 -132 -487.5t-396 -155.5t-398 156.5t-134 486.5zM449 1628q0 90 64.5 145.5t166.5 55.5t165.5 -55.5t63.5 -145.5q0 -92 -63.5 -146.5t-165.5 -54.5q-104 0 -167.5 54.5 t-63.5 146.5zM596 1628q0 -41 23.5 -64.5t60.5 -23.5q35 0 58.5 23.5t23.5 64.5q0 39 -23.5 63.5t-58.5 24.5q-37 0 -60.5 -24.5t-23.5 -63.5z" />
<glyph unicode="&#x16f;" horiz-adv-x="1161" d="M119 385v631h301v-592q0 -106 30.5 -149.5t96.5 -43.5q100 0 180 113v672h301v-1016h-246l-20 141h-8q-135 -166 -320 -166q-315 0 -315 410zM350 1331q0 94 63.5 151.5t168.5 57.5q102 0 165.5 -57.5t63.5 -151.5t-63.5 -151.5t-165.5 -57.5q-104 0 -168 57.5t-64 151.5 zM498 1331q0 -43 23.5 -69.5t60.5 -26.5q35 0 58.5 26.5t23.5 69.5t-24 69.5t-58 26.5q-37 0 -60.5 -26.5t-23.5 -69.5z" />
<glyph unicode="&#x170;" horiz-adv-x="1357" d="M150 618v717h301v-747q0 -190 57 -271t174 -81t177.5 81.5t60.5 270.5v747h290v-717q0 -332 -132 -487.5t-396 -155.5t-398 156.5t-134 486.5zM399 1438l129 245h256l-184 -245h-201zM766 1438l129 245h256l-182 -245h-203z" />
<glyph unicode="&#x171;" horiz-adv-x="1161" d="M119 385v631h301v-592q0 -106 30.5 -149.5t96.5 -43.5q100 0 180 113v672h301v-1016h-246l-20 141h-8q-135 -166 -320 -166q-315 0 -315 410zM324 1174l141 309h240l-197 -309h-184zM674 1174l141 309h238l-195 -309h-184z" />
<glyph unicode="&#x172;" horiz-adv-x="1357" d="M150 618v717h301v-747q0 -190 57 -271t174 -81t177.5 81.5t60.5 270.5v747h290v-717q0 -274 -79.5 -408t-270.5 -220q-72 -33 -108.5 -81t-36.5 -93q0 -37 25.5 -57.5t60.5 -20.5q33 0 73 29l70 -152q-92 -72 -215 -72q-100 0 -166.5 51.5t-66.5 141.5q0 121 131 244 q-477 28 -477 638z" />
<glyph unicode="&#x173;" horiz-adv-x="1161" d="M119 385v631h301v-592q0 -106 29.5 -149.5t97.5 -43.5q100 0 180 113v672h301v-1016q-92 -29 -135 -76t-43 -98q0 -37 24.5 -57.5t59.5 -20.5q37 0 74 25l63 -135q-88 -68 -209 -68q-94 0 -155.5 49t-61.5 137q0 141 141 240l-24 145h-8q-135 -166 -320 -166 q-315 0 -315 410z" />
<glyph unicode="&#x174;" horiz-adv-x="1662" d="M27 1335h309l92 -624q18 -139 55 -422h9q29 164 77 422l144 624h256l145 -624q27 -135 80 -422h8q20 170 53 422l93 624h288l-237 -1335h-379l-131 606q-31 150 -53 309h-9q-43 -258 -53 -309l-127 -606h-373zM487 1438l197 245h295l197 -245h-232l-108 125h-9l-108 -125 h-232z" />
<glyph unicode="&#x175;" horiz-adv-x="1589" d="M49 1016h299l98 -471q8 -51 22.5 -151.5t23.5 -149.5h8q41 231 59 301l113 471h260l115 -471q18 -74 63 -301h8q8 51 22.5 150.5t24.5 150.5l97 471h278l-244 -1016h-352l-92 406q-23 102 -55 296h-9q-45 -266 -51 -296l-90 -406h-344zM481 1176l195 307h239l197 -307 h-203l-108 161h-8l-109 -161h-203z" />
<glyph unicode="&#x176;" horiz-adv-x="1073" d="M-16 1335h321l121 -307q37 -106 109 -295h8q20 55 58 152.5t54 142.5l119 307h316l-404 -860v-475h-301v475zM193 1438l196 245h293l197 -245h-230l-108 125h-9l-108 -125h-231z" />
<glyph unicode="&#x177;" horiz-adv-x="1067" d="M25 1016h303l145 -436q23 -72 80 -289h8q45 193 70 289l123 436h288l-352 -1026q-76 -203 -174 -295t-270 -92q-76 0 -144 20l54 230q55 -12 67 -13q133 0 178 133l15 54zM231 1176l195 307h240l196 -307h-203l-108 161h-8l-109 -161h-203z" />
<glyph unicode="&#x178;" horiz-adv-x="1073" d="M-16 1335h321l121 -307q37 -106 109 -295h8q20 55 58 152.5t54 142.5l119 307h316l-404 -860v-475h-301v475zM190 1577q0 61 40 102t103.5 41t103.5 -41t40 -102t-40 -102t-103.5 -41t-103.5 41t-40 102zM596 1577q0 61 40 102t103.5 41t103.5 -41t40 -102t-40 -102 t-103.5 -41t-103.5 41t-40 102z" />
<glyph unicode="&#x179;" horiz-adv-x="1105" d="M72 0v182l590 899h-535v254h907v-182l-590 -899h594v-254h-966zM426 1438l164 245h319l-243 -245h-240z" />
<glyph unicode="&#x17a;" horiz-adv-x="942" d="M78 0v162l426 618h-379v236h754v-160l-426 -620h440v-236h-815zM336 1176l182 307h291l-254 -307h-219z" />
<glyph unicode="&#x17b;" horiz-adv-x="1105" d="M72 0v182l590 899h-535v254h907v-182l-590 -899h594v-254h-966zM403 1593.5q0 69.5 49.5 113.5t125.5 44q78 0 127 -44t49 -113.5t-49 -113.5t-127 -44q-76 0 -125.5 44t-49.5 113.5z" />
<glyph unicode="&#x17c;" horiz-adv-x="942" d="M78 0v162l426 618h-379v236h754v-160l-426 -620h440v-236h-815zM336 1323q0 70 47 114t119 44q74 0 121 -44t47 -114t-47 -114t-121 -44q-72 0 -119 44t-47 114z" />
<glyph unicode="&#x17d;" horiz-adv-x="1105" d="M72 0v182l590 899h-535v254h907v-182l-590 -899h594v-254h-966zM236 1683h229l108 -124h9l110 124h230l-197 -245h-293z" />
<glyph unicode="&#x17e;" horiz-adv-x="942" d="M78 0v162l426 618h-379v236h754v-160l-426 -620h440v-236h-815zM186 1483h203l109 -162h8l110 162h203l-196 -307h-240z" />
<glyph unicode="&#x18f;" horiz-adv-x="1431" d="M143 662q0 14 1 30.5t3.5 37t2.5 32.5h878q-35 342 -326 342q-153 0 -290 -117l-131 207q180 166 458 166q264 0 428 -184.5t164 -506t-166 -508t-434 -186.5q-266 0 -427 183.5t-161 503.5zM453 541q14 -150 88.5 -230t189.5 -80q111 0 188.5 80t102.5 230h-569z" />
<glyph unicode="&#x192;" horiz-adv-x="1081" d="M61 -166l41 223q35 -14 91 -18q74 4 106.5 61.5t50.5 229.5l35 299h-154v207l152 12h27l10 88q25 227 120 325.5t296 98.5q94 0 176 -37l-58 -225q-68 23 -94 22q-133 0 -149 -159l-15 -113h211v-219h-235l-47 -387q-25 -209 -110 -324t-277 -115q-125 0 -177 31z" />
<glyph unicode="&#x1a0;" horiz-adv-x="1398" d="M92 674q0 322 166 504t440 182q156 0 287 -64q61 14 91 42t30 83q0 42 -31 95l205 90q59 -72 59 -164q0 -184 -217 -246q182 -188 183 -522q0 -324 -166 -511.5t-441 -187.5q-272 0 -439 187.5t-167 511.5zM401 674q0 -201 81 -319.5t216 -118.5q137 0 217 118.5 t80 319.5q0 199 -79.5 312.5t-217.5 113.5q-135 0 -216 -114t-81 -312z" />
<glyph unicode="&#x1a1;" horiz-adv-x="1136" d="M74 508q0 244 145.5 388t349.5 144q98 0 195 -39q113 25 113 121q0 46 -31 95l205 90q59 -72 59 -164q0 -184 -199 -242q152 -147 152 -393q0 -244 -145.5 -388.5t-348.5 -144.5q-205 0 -350 144.5t-145 388.5zM383 508q0 -135 47 -212t139 -77q90 0 138.5 77t48.5 212 t-48.5 212t-138.5 77q-92 0 -139 -77t-47 -212z" />
<glyph unicode="&#x1af;" horiz-adv-x="1394" d="M150 618v717h301v-747q0 -190 57 -271t174 -81t177.5 81.5t60.5 270.5v747h143q76 4 122 30t46 97q0 45 -33 94l205 91q61 -70 61 -164q0 -109 -69.5 -172.5t-184.5 -85.5v-607q0 -332 -132 -487.5t-396 -155.5t-398 157t-134 486z" />
<glyph unicode="&#x1b0;" horiz-adv-x="1204" d="M119 385v631h301v-592q0 -106 30.5 -149.5t96.5 -43.5q100 0 180 113v672h102q166 8 166 127q1 49 -32 94l206 90q59 -72 60 -164q0 -182 -201 -241v-922h-246l-20 141h-8q-135 -166 -320 -166q-315 0 -315 410z" />
<glyph unicode="&#x1cd;" horiz-adv-x="1169" d="M-14 0l420 1335h360l420 -1335h-320l-82 317h-409l-82 -317h-307zM236 1683h229l108 -124h9l110 124h230l-197 -245h-293zM436 553h287l-33 123q-20 72 -56 220t-52 210h-9q-53 -246 -104 -430z" />
<glyph unicode="&#x1ce;" horiz-adv-x="1093" d="M96 283q0 162 136.5 251t435.5 119q-10 147 -160 148q-113 0 -270 -92l-107 198q221 133 434 133q403 0 404 -458v-582h-246l-23 104h-6q-147 -129 -297 -129q-135 0 -218 88.5t-83 219.5zM258 1483h203l110 -162h9l108 162h203l-197 -307h-239zM383 305q0 -96 117 -96 q82 0 168 86v178q-285 -39 -285 -168z" />
<glyph unicode="&#x1cf;" horiz-adv-x="614" d="M-37 1683h232l108 -124h8l109 124h231l-196 -245h-295zM156 0v1335h303v-1335h-303z" />
<glyph unicode="&#x1d0;" horiz-adv-x="565" d="M-33 1483h203l109 -162h8l108 162h203l-195 -307h-239zM133 0v1016h301v-1016h-301z" />
<glyph unicode="&#x1d1;" horiz-adv-x="1398" d="M92 674q0 322 166 504t440.5 182t440.5 -182.5t166 -503.5q0 -324 -166.5 -511.5t-440.5 -187.5q-272 0 -439 187.5t-167 511.5zM356 1683h230l108 -124h8l111 124h229l-196 -245h-293zM401 674q0 -201 81 -319.5t216 -118.5q137 0 217 118.5t80 319.5q0 199 -79.5 312.5 t-217.5 113.5q-135 0 -216 -114t-81 -312z" />
<glyph unicode="&#x1d2;" horiz-adv-x="1136" d="M74 508q0 244 145.5 388t349.5 144q203 0 348.5 -144t145.5 -388t-145.5 -388.5t-348.5 -144.5q-205 0 -350 144.5t-145 388.5zM252 1483h203l110 -162h8l109 162h203l-197 -307h-239zM383 508q0 -135 47 -212t139 -77q90 0 138.5 77t48.5 212t-48.5 212t-138.5 77 q-92 0 -139 -77t-47 -212z" />
<glyph unicode="&#x1d3;" horiz-adv-x="1357" d="M150 618v717h301v-747q0 -190 57 -271t174 -81t177.5 81.5t60.5 270.5v747h290v-717q0 -332 -132 -487.5t-396 -155.5t-398 156.5t-134 486.5zM336 1683h229l111 -124h8l109 124h229l-197 -245h-293z" />
<glyph unicode="&#x1d4;" horiz-adv-x="1161" d="M119 385v631h301v-592q0 -106 30.5 -149.5t96.5 -43.5q100 0 180 113v672h301v-1016h-246l-20 141h-8q-135 -166 -320 -166q-315 0 -315 410zM264 1483h203l111 -162h8l108 162h203l-197 -307h-239z" />
<glyph unicode="&#x1d5;" horiz-adv-x="1357" d="M150 618v717h301v-747q0 -190 57 -271t174 -81t177.5 81.5t60.5 270.5v747h290v-717q0 -332 -132 -487.5t-396 -155.5t-398 156.5t-134 486.5zM350 1561q0 53 36 89t91 36t90 -36t35 -89q0 -55 -35 -91t-90 -36t-91 35.5t-36 91.5zM389 1786v141h580v-141h-580z M756 1560.5q0 53.5 35.5 89.5t91 36t90.5 -36t35 -89q0 -55 -35 -91t-90.5 -36t-91 36.5t-35.5 90z" />
<glyph unicode="&#x1d6;" horiz-adv-x="1161" d="M119 385v631h301v-592q0 -106 30.5 -149.5t96.5 -43.5q100 0 180 113v672h301v-1016h-246l-20 141h-8q-135 -166 -320 -166q-315 0 -315 410zM252 1294q0 55 35 91t90 36t91 -35.5t36 -91.5q0 -53 -36 -89t-91 -36t-90 36t-35 89zM297 1548v142h567v-142h-567zM657 1294 q0 55 36 91t91.5 36t90 -35.5t34.5 -91.5q0 -53 -34.5 -89t-90 -36t-91.5 36t-36 89z" />
<glyph unicode="&#x1d7;" horiz-adv-x="1357" d="M150 618v717h301v-747q0 -190 57 -271t174 -81t177.5 81.5t60.5 270.5v747h290v-717q0 -332 -132 -487.5t-396 -155.5t-398 156.5t-134 486.5zM350 1561q0 53 36 89t91 36t90 -36t35 -89q0 -55 -35 -91t-90 -36t-91 35.5t-36 91.5zM526 1749l166 246h316l-242 -246h-240z M756 1560.5q0 53.5 35.5 89.5t91 36t90.5 -36t35 -89q0 -55 -35 -91t-90.5 -36t-91 36.5t-35.5 90z" />
<glyph unicode="&#x1d8;" horiz-adv-x="1161" d="M119 385v631h301v-592q0 -106 30.5 -149.5t96.5 -43.5q100 0 180 113v672h301v-1016h-246l-20 141h-8q-135 -166 -320 -166q-315 0 -315 410zM252 1294q0 55 35 91t90 36t91 -35.5t36 -91.5q0 -53 -36 -89t-91 -36t-90 36t-35 89zM442 1509l170 228h258l-237 -228h-191z M657 1294q0 55 36 91t91.5 36t90 -35.5t34.5 -91.5q0 -53 -34.5 -89t-90 -36t-91.5 36t-36 89z" />
<glyph unicode="&#x1d9;" horiz-adv-x="1357" d="M150 618v717h301v-747q0 -190 57 -271t174 -81t177.5 81.5t60.5 270.5v747h290v-717q0 -332 -132 -487.5t-396 -155.5t-398 156.5t-134 486.5zM336 1995h229l111 -123h8l109 123h229l-197 -246h-293zM350 1561q0 53 36 89t91 36t90 -36t35 -89q0 -55 -35 -91t-90 -36 t-91 35.5t-36 91.5zM756 1560.5q0 53.5 35.5 89.5t91 36t90.5 -36t35 -89q0 -55 -35 -91t-90.5 -36t-91 36.5t-35.5 90z" />
<glyph unicode="&#x1da;" horiz-adv-x="1161" d="M119 385v631h301v-592q0 -106 30.5 -149.5t96.5 -43.5q100 0 180 113v672h301v-1016h-246l-20 141h-8q-135 -166 -320 -166q-315 0 -315 410zM252 1294q0 55 35 91t90 36t91 -35.5t36 -91.5q0 -53 -36 -89t-91 -36t-90 36t-35 89zM279 1737h202l97 -119h8l94 119h203 l-176 -228h-252zM657 1294q0 55 36 91t91.5 36t90 -35.5t34.5 -91.5q0 -53 -34.5 -89t-90 -36t-91.5 36t-36 89z" />
<glyph unicode="&#x1db;" horiz-adv-x="1357" d="M150 618v717h301v-747q0 -190 57 -271t174 -81t177.5 81.5t60.5 270.5v747h290v-717q0 -332 -132 -487.5t-396 -155.5t-398 156.5t-134 486.5zM350 1561q0 53 36 89t91 36t90 -36t35 -89q0 -55 -35 -91t-90 -36t-91 35.5t-36 91.5zM352 1995h314l165 -246h-239z M756 1560.5q0 53.5 35.5 89.5t91 36t90.5 -36t35 -89q0 -55 -35 -91t-90.5 -36t-91 36.5t-35.5 90z" />
<glyph unicode="&#x1dc;" horiz-adv-x="1161" d="M119 385v631h301v-592q0 -106 30.5 -149.5t96.5 -43.5q100 0 180 113v672h301v-1016h-246l-20 141h-8q-135 -166 -320 -166q-315 0 -315 410zM252 1294q0 55 35 91t90 36t91 -35.5t36 -91.5q0 -53 -36 -89t-91 -36t-90 36t-35 89zM291 1737h258l172 -228h-193zM657 1294 q0 55 36 91t91.5 36t90 -35.5t34.5 -91.5q0 -53 -34.5 -89t-90 -36t-91.5 36t-36 89z" />
<glyph unicode="&#x1e6;" horiz-adv-x="1302" d="M92 659q0 322 188.5 511.5t469.5 189.5q242 0 415 -174l-166 -187q-111 100 -245 101q-156 0 -254.5 -116t-98.5 -314q0 -209 95.5 -321.5t281.5 -112.5q90 0 142 40v230h-222v246h490v-615q-80 -70 -199 -116t-250 -46q-283 0 -465 179t-182 505zM408 1683h229l108 -124 h9l108 124h232l-197 -245h-293z" />
<glyph unicode="&#x1e7;" horiz-adv-x="1093" d="M70 -174q0 123 145 205v8q-94 61 -94 172q0 113 115 190v9q-59 41 -98.5 110.5t-39.5 153.5q0 174 122 270t298 96q90 0 158 -24h371v-219h-162q33 -55 33 -133q0 -168 -112 -255t-288 -87q-59 0 -123 20q-37 -31 -37 -76q0 -76 154 -76h164q387 0 387 -258 q0 -160 -154.5 -262t-412.5 -102q-190 0 -308 64.5t-118 193.5zM199 1483h202l109 -162h8l111 162h202l-196 -307h-240zM317 -127q0 -55 60.5 -86t165.5 -31q100 0 166.5 36t66.5 89q0 45 -38 62.5t-117 17.5h-105q-94 0 -143 12q-56 -49 -56 -100zM379 674q0 -82 39 -126 t100.5 -44t100 44t38.5 126q0 78 -38.5 121t-100 43t-100.5 -42t-39 -122z" />
<glyph unicode="&#x1ea;" horiz-adv-x="1398" d="M92 674q0 322 166 504t440.5 182t440.5 -182.5t166 -503.5q0 -270 -106.5 -429t-317.5 -255q-72 -33 -108 -80t-36 -94q0 -37 25.5 -57.5t60.5 -20.5q33 0 74 29l68 -152q-90 -72 -213 -72q-102 0 -169 51.5t-67 141.5q0 133 131 244q-256 18 -405.5 202.5t-149.5 491.5z M401 674q0 -201 81 -319.5t216 -118.5q137 0 217 118.5t80 319.5q0 199 -79.5 312.5t-217.5 113.5q-135 0 -216 -114t-81 -312z" />
<glyph unicode="&#x1eb;" horiz-adv-x="1136" d="M74 508q0 244 145.5 388t349.5 144q203 0 348.5 -144t145.5 -388q0 -193 -86 -312.5t-246 -195.5q-137 -61 -137 -174q0 -39 25.5 -58.5t60.5 -19.5q33 0 74 25l61 -135q-84 -68 -207 -68q-94 0 -155.5 49t-61.5 137q0 125 113 224q-182 23 -306 164t-124 364zM383 508 q0 -135 47 -212t139 -77q90 0 138.5 77t48.5 212t-48.5 212t-138.5 77q-92 0 -139 -77t-47 -212z" />
<glyph unicode="&#x218;" horiz-adv-x="1134" d="M70 168l174 207q160 -139 327 -139q186 0 187 129q0 68 -86 112q-23 12 -107 47l-172 74q-117 47 -193.5 138t-76.5 227q0 168 135 282.5t340 114.5q254 0 430 -176l-151 -191q-139 106 -279 107q-78 0 -124 -33t-46 -88q0 -37 27.5 -64.5t55.5 -41t97 -42.5l8 -3 q2 -1 7.5 -3t9.5 -4l170 -69q264 -106 264 -363q0 -174 -136 -294t-366 -120q-286 0 -495 193zM360 -348q168 18 168 76q0 53 -88 75l58 111q135 -14 191 -54t56 -118q0 -98 -102 -150.5t-260 -60.5z" />
<glyph unicode="&#x219;" horiz-adv-x="907" d="M43 117l135 188q141 -106 262 -106q129 0 129 86q0 10 -3 20t-11 19.5t-15.5 16.5t-22.5 15.5t-25.5 14.5t-30 14t-30.5 12t-33.5 13.5t-35.5 13.5q-268 102 -268 299q0 141 106.5 229t282.5 88q184 0 359 -129l-135 -180q-119 86 -215 86q-115 0 -115 -80q0 -14 5 -25.5 t17.5 -22.5t22.5 -18t32.5 -16.5t35 -14.5t43 -16.5t42.5 -15.5q125 -45 200 -112.5t75 -192.5q0 -143 -109.5 -235.5t-308.5 -92.5q-98 0 -204.5 39.5t-184.5 102.5zM264 -348q170 18 170 76q0 51 -88 75l57 111q135 -14 191.5 -54t56.5 -118q0 -98 -102.5 -150.5 t-261.5 -60.5z" />
<glyph unicode="&#x21a;" horiz-adv-x="1136" d="M49 1081v254h1036v-254h-366v-1081h-301v1081h-369zM358 -348q168 18 168 76q0 53 -88 75l58 111q135 -14 191 -54t56 -118q0 -98 -102 -150.5t-260 -60.5z" />
<glyph unicode="&#x21b;" horiz-adv-x="784" d="M35 780v224l155 12l35 270h250v-270h244v-236h-244v-407q0 -162 131 -162q43 0 96 20l48 -219q-119 -37 -226 -37q-350 1 -350 394v411h-139zM270 -348q170 18 170 76q0 51 -88 75l58 111q135 -14 191 -54t56 -118q0 -98 -102 -150.5t-262 -60.5z" />
<glyph unicode="&#x237;" horiz-adv-x="569" d="M-104 -373l53 221q47 -14 80 -14q59 0 82.5 39t23.5 125v1018h301v-1010q0 -408 -362 -407q-106 0 -178 28z" />
<glyph unicode="&#x251;" horiz-adv-x="1173" d="M80 508q0 238 129 385t299 147q147 0 264 -125h8l25 101h235v-1016h-245l-21 100h-8q-125 -125 -270 -125q-190 0 -303 142.5t-113 390.5zM389 512q0 -291 184 -291q98 0 166 92v416q-72 66 -168 66q-78 0 -130 -73t-52 -210z" />
<glyph unicode="&#x259;" horiz-adv-x="1056" d="M70 467q0 70 14 127h606q-33 217 -233 217q-109 0 -221 -68l-101 183q176 115 373 114q207 0 341 -144t134 -388q0 -240 -139 -386.5t-336 -146.5q-209 0 -323.5 136.5t-114.5 355.5zM328 408q0 -203 172 -203q166 0 194 203h-366z" />
<glyph unicode="&#x261;" horiz-adv-x="1193" d="M90 526q0 223 130 368.5t298 145.5q154 0 260 -118h8l23 94h242v-1006q0 -197 -134.5 -302t-381.5 -105q-205 0 -379 112l98 199q137 -76 281 -76q197 0 215 164l8 127q-113 -102 -252 -102q-188 0 -302 139t-114 360zM395 530q0 -125 50.5 -193.5t138.5 -68.5 q94 0 166 97v364q-72 66 -168 66q-80 0 -133.5 -71t-53.5 -194z" />
<glyph unicode="&#x2b0;" horiz-adv-x="786" d="M86 532v947h213v-230l-14 -125q94 98 211 99q213 0 213 -277v-414h-213v390q0 68 -15.5 95t-67 27t-114.5 -63v-449h-213z" />
<glyph unicode="&#x2b2;" horiz-adv-x="389" d="M-68 270l37 160q20 -10 54 -10q39 0 53 23.5t14 80.5v682h213v-674q0 -278 -248 -278q-66 0 -123 16zM76 1407q0 47 33.5 76.5t87 29.5t87 -30.5t33.5 -75.5q0 -47 -33.5 -78t-87 -31t-87 31t-33.5 78z" />
<glyph unicode="&#x2b3;" horiz-adv-x="557" d="M86 532v674h172l16 -116h5q78 133 192 133q53 0 86 -15l-37 -182q-45 10 -74 10q-98 0 -147 -118v-386h-213z" />
<glyph unicode="&#x2b7;" horiz-adv-x="1071" d="M33 1206h211l59 -303l31 -203h6l37 203l78 303h170l82 -303l38 -203h7l32 203l60 303h194l-159 -674h-248l-60 259l-32 186h-4l-33 -186l-58 -259h-243z" />
<glyph unicode="&#x2b8;" horiz-adv-x="722" d="M16 1206h213l93 -278q2 -6 51 -193h8q4 16 47 193l76 278h203l-230 -671q-53 -135 -120.5 -195.5t-186.5 -60.5q-55 0 -100 12l36 160q29 -10 48 -11q88 0 116 84l11 31z" />
<glyph unicode="&#x2bb;" horiz-adv-x="614" d="M113 961q-1 295 290 438l66 -131q-184 -92 -184 -260q6 2 20 2q66 0 112 -41t46 -109q0 -76 -44 -122t-114 -46q-94 0 -143 71t-49 198z" />
<glyph unicode="&#x2bc;" horiz-adv-x="614" d="M145 852q184 92 185 260q-6 -2 -19 -2q-68 0 -112.5 41t-44.5 109q0 76 44 121.5t113 45.5q92 0 142.5 -69.5t50.5 -198.5q0 -295 -293 -438z" />
<glyph unicode="&#x2be;" horiz-adv-x="335" d="M53 1122v111q117 0 117 98.5t-117 98.5v110q129 6 196.5 -51t67.5 -157.5t-67.5 -158t-196.5 -51.5z" />
<glyph unicode="&#x2bf;" horiz-adv-x="344" d="M27 1331.5q0 100.5 66.5 157.5t197.5 51v-110q-117 0 -117 -98.5t117 -98.5v-111q-131 -6 -197.5 51.5t-66.5 158z" />
<glyph unicode="&#x2c6;" horiz-adv-x="1136" d="M252 1176l197 307h239l197 -307h-203l-109 161h-8l-110 -161h-203z" />
<glyph unicode="&#x2c7;" horiz-adv-x="1136" d="M252 1483h203l110 -162h8l109 162h203l-197 -307h-239z" />
<glyph unicode="&#x2c8;" horiz-adv-x="301" d="M31 1516h241l-12 -410h-217z" />
<glyph unicode="&#x2c9;" horiz-adv-x="630" d="M33 1212v191h565v-191h-565z" />
<glyph unicode="&#x2ca;" horiz-adv-x="483" d="M74 1176l182 307h291l-254 -307h-219z" />
<glyph unicode="&#x2cb;" horiz-adv-x="483" d="M-66 1483h291l183 -307h-220z" />
<glyph unicode="&#x2cc;" horiz-adv-x="301" d="M31 -543l12 412h217l12 -412h-241z" />
<glyph unicode="&#x2d8;" horiz-adv-x="1136" d="M283 1460h168q18 -119 118 -119q98 0 117 119h168q-4 -121 -76.5 -202.5t-208 -81.5t-209 81.5t-77.5 202.5z" />
<glyph unicode="&#x2d9;" horiz-adv-x="1136" d="M401 1323q0 70 47.5 114t120.5 44q72 0 119 -44t47 -114t-47 -114t-119 -44q-74 0 -121 44t-47 114z" />
<glyph unicode="&#x2da;" horiz-adv-x="1136" d="M338 1331q0 94 63.5 151.5t167.5 57.5q102 0 166 -57.5t64 -151.5t-64 -151.5t-166 -57.5q-104 0 -167.5 57.5t-63.5 151.5zM485 1331q0 -43 23.5 -69.5t60.5 -26.5q35 0 58.5 26.5t23.5 69.5t-23.5 69.5t-58.5 26.5q-37 0 -60.5 -26.5t-23.5 -69.5z" />
<glyph unicode="&#x2db;" horiz-adv-x="1136" d="M391 -244q0 80 46 145.5t100 102.5h168q-111 -90 -111 -178q0 -39 25.5 -58.5t60.5 -19.5q37 0 74 25l61 -135q-84 -68 -207 -68q-94 0 -155.5 49t-61.5 137z" />
<glyph unicode="&#x2dc;" horiz-adv-x="1136" d="M229 1178q14 135 71.5 205.5t139.5 70.5q59 0 139 -45t105 -45q49 0 70 90h153q-14 -135 -70.5 -205.5t-140.5 -70.5q-61 0 -139 46t-102 46q-51 0 -72 -92h-154z" />
<glyph unicode="&#x2dd;" horiz-adv-x="1136" d="M311 1174l142 309h239l-196 -309h-185zM662 1174l141 309h237l-194 -309h-184z" />
<glyph unicode="&#x2e1;" horiz-adv-x="397" d="M86 752v727h213v-736q0 -59 35 -59q14 0 26 4l25 -153q-45 -18 -104 -19q-195 0 -195 236z" />
<glyph unicode="&#x2e2;" horiz-adv-x="608" d="M31 606l92 133q98 -70 176 -69q80 0 80 53q0 12 -6 21.5t-22.5 18.5t-28 14t-39 16.5t-39.5 15.5q-180 70 -181 201q0 94 73 153.5t190 59.5q131 0 243 -86l-94 -125q-86 57 -143 57q-72 0 -72 -51q0 -8 3 -15.5t11.5 -13.5t16.5 -11t22.5 -10t24.5 -9.5t28.5 -10.5 t28.5 -10q180 -66 180 -201q0 -98 -74.5 -159.5t-207.5 -61.5q-141 0 -262 90z" />
<glyph unicode="&#x2e3;" horiz-adv-x="712" d="M16 532l213 351l-198 323h227l55 -104l58 -105h8l41 105l45 104h221l-199 -348l209 -326h-225l-59 105l-66 104h-8l-51 -104l-49 -105h-222z" />
<glyph unicode="&#x300;" d="M-305 1483h291l182 -307h-219z" />
<glyph unicode="&#x301;" d="M-168 1176l182 307h291l-254 -307h-219z" />
<glyph unicode="&#x302;" d="M-315 1176l196 307h238l196 -307h-202l-109 161h-8l-109 -161h-202z" />
<glyph unicode="&#x303;" d="M-340 1178q14 135 71.5 205.5t141.5 70.5q59 0 138 -45t104 -45q49 0 71 90h154q-14 -135 -71.5 -205.5t-141.5 -70.5q-59 0 -138 46t-104 46q-49 0 -71 -92h-154z" />
<glyph unicode="&#x304;" d="M-283 1212v191h566v-191h-566z" />
<glyph unicode="&#x306;" d="M-285 1460h168q6 -53 36 -86t81 -33t81 33t36 86h168q-4 -121 -77 -202.5t-208 -81.5t-208 81.5t-77 202.5z" />
<glyph unicode="&#x307;" d="M-166 1323q0 70 46 114t120 44t120 -44t46 -114t-46 -114t-120 -44t-120 44t-46 114z" />
<glyph unicode="&#x308;" d="M-346 1313q0 59 40 100t103.5 41t103.5 -41t40 -100q0 -61 -40 -102.5t-103.5 -41.5t-103.5 41t-40 103zM59 1313q0 59 40 100t103.5 41t103.5 -41t40 -100q0 -61 -40 -102.5t-103.5 -41.5t-103.5 41t-40 103z" />
<glyph unicode="&#x309;" d="M-166 1389l35 151q344 -10 344 -188q0 -98 -80 -150.5t-205 -60.5l-22 119q90 14 90 61q0 59 -162 68z" />
<glyph unicode="&#x30a;" d="M-231 1331q0 94 63.5 151.5t167.5 57.5t167.5 -57.5t63.5 -151.5t-63.5 -151.5t-167.5 -57.5t-167.5 57.5t-63.5 151.5zM-84 1331q0 -43 23.5 -69.5t60.5 -26.5t60.5 26.5t23.5 69.5t-23.5 69.5t-60.5 26.5t-60.5 -26.5t-23.5 -69.5z" />
<glyph unicode="&#x30b;" d="M-256 1174l139 309h240l-195 -309h-184zM92 1174l141 309h240l-194 -309h-187z" />
<glyph unicode="&#x30c;" d="M-315 1483h202l109 -162h8l109 162h202l-196 -307h-238z" />
<glyph unicode="&#x30f;" d="M-473 1483h240l141 -309h-187zM-123 1483h240l139 -309h-184z" />
<glyph unicode="&#x312;" d="M-139 1284q-1 186 202 264l46 -92q-115 -41 -127 -121q4 2 14 2q45 0 76.5 -29.5t31.5 -76.5q0 -53 -31.5 -85t-76.5 -32q-135 0 -135 170z" />
<glyph unicode="&#x313;" d="M-115 1200q115 43 127 123q-4 -2 -16 -2q-45 0 -76 28.5t-31 75.5q0 53 31 85t78 32q135 0 135 -170q0 -186 -203 -264z" />
<glyph unicode="&#x31b;" d="M-20 995q68 12 102.5 40t34.5 87q0 49 -33 95l207 90q59 -72 59 -164q0 -127 -96 -194t-252 -75z" />
<glyph unicode="&#x323;" d="M-166 -305.5q0 69.5 46 114t120 44.5t120 -44.5t46 -114t-46 -113.5t-120 -44t-120 44t-46 113.5z" />
<glyph unicode="&#x324;" d="M-346 -299q0 61 41 102t102.5 41t102.5 -41t41 -102t-40 -102t-103.5 -41t-103.5 41t-40 102zM59 -299q0 61 41 102t102.5 41t102.5 -41t41 -102t-40 -102t-103.5 -41t-103.5 41t-40 102z" />
<glyph unicode="&#x326;" d="M-211 -348q170 18 170 76q0 51 -90 75l57 111q135 -14 191.5 -54t56.5 -118q0 -98 -101.5 -150.5t-260.5 -60.5z" />
<glyph unicode="&#x327;" d="M-211 -332q170 18 170 90q0 57 -121 86l82 164h176l-41 -96q119 -39 119 -152q0 -100 -101.5 -152t-260.5 -61z" />
<glyph unicode="&#x328;" d="M-176 -244q0 80 45 145.5t98 102.5h170q-111 -86 -110 -178q0 -39 25.5 -58.5t60 -19.5t71.5 25l64 -135q-88 -68 -207 -68q-94 0 -155.5 49t-61.5 137z" />
<glyph unicode="&#x32e;" d="M-285 -145h168q14 -121 116.5 -121t117.5 121h168q-4 -121 -77 -203t-208 -82t-208 82t-77 203z" />
<glyph unicode="&#x331;" d="M-283 -195h566v-192h-566v192z" />
<glyph unicode="&#x3c0;" horiz-adv-x="1241" d="M37 778v226l151 12h998v-238h-137v-467q0 -92 61 -92q23 0 41 4l35 -221q-57 -27 -156 -27q-283 0 -282 349v454h-236l-2 -778h-297v778h-176z" />
<glyph unicode="&#x1d43;" horiz-adv-x="735" d="M59 721q0 109 91.5 167t291.5 79q-10 88 -100 88q-76 0 -184 -62l-76 142q156 88 297 88q133 0 204.5 -76t71.5 -227v-388h-170l-20 68h-8q-85 -84 -191 -84q-92 0 -149.5 59.5t-57.5 145.5zM262 737q0 -59 76 -59q49 0 104 51v115q-180 -23 -180 -107z" />
<glyph unicode="&#x1d47;" horiz-adv-x="788" d="M86 532v947h213v-230l-8 -102q86 76 178 76q123 0 194.5 -93.5t71.5 -246.5q0 -168 -83 -267.5t-199 -99.5q-104 0 -179 88h-8l-16 -72h-164zM299 723q47 -39 102 -39q51 0 84 48t33 147q0 174 -110 174q-53 0 -109 -58v-272z" />
<glyph unicode="&#x1d48;" horiz-adv-x="788" d="M53 883q0 152 86 246t197 94q98 0 166 -72l-10 111v217h213v-947h-175l-16 64h-4q-84 -80 -176 -80q-131 0 -206 96.5t-75 270.5zM270 883q0 -199 121 -199q57 0 101 59v271q-49 41 -103 41q-51 0 -85 -45t-34 -127z" />
<glyph unicode="&#x1d49;" horiz-adv-x="708" d="M49 870q0 156 95.5 254.5t228.5 98.5q143 0 217 -93.5t74 -230.5q0 -47 -11 -84h-401q23 -137 172 -137q82 0 147 41l72 -127q-115 -76 -248 -76q-150 0 -248 96.5t-98 257.5zM248 934h237q0 127 -110 127q-107 0 -127 -127z" />
<glyph unicode="&#x1d4d;" horiz-adv-x="739" d="M47 418q0 84 94 131v8q-61 41 -61 115q0 76 76 125v8q-92 57 -93 172q0 117 83 181.5t202 64.5q68 0 109 -17h248v-155h-105q18 -29 18 -80q0 -111 -76.5 -169.5t-193.5 -58.5q-41 0 -80 13q-23 -23 -22 -47q0 -45 100 -45h109q131 0 195.5 -41t64.5 -131 q0 -106 -104.5 -175t-280.5 -69q-127 0 -205 42t-78 128zM219 453q0 -74 146 -74q66 0 106.5 22.5t40.5 55.5q0 47 -98 47h-68q-63 0 -92 8q-35 -24 -35 -59zM260 977q0 -51 24.5 -79t63.5 -28t63.5 28t24.5 79t-24.5 77.5t-63.5 26.5t-63.5 -26.5t-24.5 -77.5z" />
<glyph unicode="&#x1d4f;" horiz-adv-x="759" d="M86 532v947h213v-533h8l199 260h229l-246 -284l263 -390h-230l-151 254l-72 -90v-164h-213z" />
<glyph unicode="&#x1d50;" horiz-adv-x="1181" d="M86 532v674h172l16 -88h5q100 104 204 105q133 0 191 -115q106 115 213 115q109 0 163 -73t54 -204v-414h-213v390q0 63 -18.5 92.5t-65.5 29.5q-41 0 -107 -61v-451h-211v390q0 63 -18 92.5t-65 29.5q-45 0 -107 -61v-451h-213z" />
<glyph unicode="&#x1d52;" horiz-adv-x="763" d="M49 868q0 162 97.5 258.5t234.5 96.5t234.5 -96.5t97.5 -258.5q0 -160 -97.5 -256t-234.5 -96t-234.5 96.5t-97.5 255.5zM266 868q0 -184 115 -184q117 0 117 184q0 186 -117 187q-115 0 -115 -187z" />
<glyph unicode="&#x1d56;" horiz-adv-x="788" d="M86 260v946h170l14 -67h6q88 84 193 84q123 0 194.5 -93.5t71.5 -246.5q0 -168 -83 -267.5t-199 -99.5q-90 0 -166 72l12 -137v-191h-213zM299 723q47 -39 102 -39q51 0 84 48t33 147q0 174 -110 174q-53 0 -109 -58v-272z" />
<glyph unicode="&#x1d57;" horiz-adv-x="530" d="M25 1042v158l102 6l25 176h178v-176h157v-164h-157v-256q0 -106 84 -106q37 0 61 10l37 -149q-78 -25 -158 -25q-237 0 -237 268v258h-92z" />
<glyph unicode="&#x1d58;" horiz-adv-x="784" d="M80 786v420h211v-391q0 -66 16.5 -93.5t69.5 -27.5t112 62v450h213v-674h-170l-22 84h-4q-100 -100 -211 -100q-215 0 -215 270z" />
<glyph unicode="&#x1d5b;" horiz-adv-x="727" d="M16 1206h211l82 -309l58 -209h4l53 209l84 309h203l-224 -674h-245z" />
<glyph unicode="&#x1d9c;" horiz-adv-x="641" d="M49 870q0 160 100.5 256.5t243.5 96.5q139 0 213 -70l-98 -135q-47 37 -96 37q-63 0 -104.5 -51.5t-41.5 -133.5q0 -84 40 -135t104 -51q61 0 118 45l86 -135q-94 -78 -231 -78q-147 0 -240.5 94.5t-93.5 259.5z" />
<glyph unicode="&#x1da0;" horiz-adv-x="475" d="M31 1042v158l92 6v25q0 123 62.5 200.5t195.5 77.5q82 1 137 -24l-39 -150q-45 10 -69 11q-74 0 -74 -107v-33h119v-164h-119v-510h-213v510h-92z" />
<glyph unicode="&#x1dbb;" horiz-adv-x="638" d="M51 532v115l281 395h-246v164h510v-114l-281 -396h289v-164h-553z" />
<glyph unicode="&#x1e0c;" horiz-adv-x="1282" d="M139 0v1335h379q317 0 493.5 -163.5t176.5 -497.5t-175 -504t-478 -170h-396zM442 244h58q379 0 379 430q0 227 -98.5 322.5t-280.5 95.5h-58v-848zM457 -305.5q0 69.5 47 114t119 44.5q74 0 121 -44.5t47 -114t-47 -113.5t-121 -44q-72 0 -119 44t-47 113.5z" />
<glyph unicode="&#x1e0d;" horiz-adv-x="1173" d="M80 508q0 240 126 386t296 146q137 0 250 -106l-13 156v346h301v-1436h-245l-21 100h-8q-125 -125 -270 -125q-190 0 -303 142.5t-113 390.5zM389 512q0 -291 184 -291q98 0 166 92v416q-72 66 -168 66q-78 0 -130 -73t-52 -210zM473 -305.5q0 69.5 46 114t120 44.5 t121 -44.5t47 -114t-47 -113.5t-121 -44t-120 44t-46 113.5z" />
<glyph unicode="&#x1e0e;" horiz-adv-x="1282" d="M139 0v1335h379q317 0 493.5 -163.5t176.5 -497.5t-175 -504t-478 -170h-396zM340 -195h565v-192h-565v192zM442 244h58q379 0 379 430q0 227 -98.5 322.5t-280.5 95.5h-58v-848z" />
<glyph unicode="&#x1e0f;" horiz-adv-x="1173" d="M80 508q0 240 126 386t296 146q137 0 250 -106l-13 156v346h301v-1436h-245l-21 100h-8q-125 -125 -270 -125q-190 0 -303 142.5t-113 390.5zM356 -195h566v-192h-566v192zM389 512q0 -291 184 -291q98 0 166 92v416q-72 66 -168 66q-78 0 -130 -73t-52 -210z" />
<glyph unicode="&#x1e20;" horiz-adv-x="1302" d="M92 659q0 322 188.5 511.5t469.5 189.5q242 0 415 -174l-166 -187q-111 100 -245 101q-156 0 -254.5 -116t-98.5 -314q0 -209 95.5 -321.5t281.5 -112.5q90 0 142 40v230h-222v246h490v-615q-80 -70 -199 -116t-250 -46q-283 0 -465 179t-182 505zM461 1475v190h579v-190 h-579z" />
<glyph unicode="&#x1e21;" horiz-adv-x="1093" d="M70 -174q0 123 145 205v8q-94 61 -94 172q0 113 115 190v9q-59 41 -98.5 110.5t-39.5 153.5q0 174 122 270t298 96q90 0 158 -24h371v-219h-162q33 -55 33 -133q0 -168 -112 -255t-288 -87q-59 0 -123 20q-37 -31 -37 -76q0 -76 154 -76h164q387 0 387 -258 q0 -160 -154.5 -262t-412.5 -102q-190 0 -308 64.5t-118 193.5zM231 1212v191h566v-191h-566zM317 -127q0 -55 60.5 -86t165.5 -31q100 0 166.5 36t66.5 89q0 45 -38 62.5t-117 17.5h-105q-94 0 -143 12q-56 -49 -56 -100zM379 674q0 -82 39 -126t100.5 -44t100 44t38.5 126 q0 78 -38.5 121t-100 43t-100.5 -42t-39 -122z" />
<glyph unicode="&#x1e24;" horiz-adv-x="1376" d="M156 0v1335h303v-514h461v514h301v-1335h-301v557h-461v-557h-303zM520 -305.5q0 69.5 47 114t119 44.5q74 0 121 -44.5t47 -114t-47 -113.5t-121 -44q-72 0 -119 44t-47 113.5z" />
<glyph unicode="&#x1e25;" horiz-adv-x="1169" d="M133 0v1436h301v-353l-14 -182q156 139 313 139q315 0 316 -409v-631h-301v592q0 109 -30 150.5t-95 41.5q-53 0 -94.5 -22.5t-94.5 -75.5v-686h-301zM434 -305.5q0 69.5 47 114t119 44.5q74 0 121 -44.5t47 -114t-47 -113.5t-121 -44q-72 0 -119 44t-47 113.5z" />
<glyph unicode="&#x1e2a;" horiz-adv-x="1376" d="M156 0v1335h303v-514h461v514h301v-1335h-301v557h-461v-557h-303zM401 -145h168q18 -121 117 -121q102 0 117 121h168q-4 -121 -77 -203t-208 -82t-207.5 82t-77.5 203z" />
<glyph unicode="&#x1e2b;" horiz-adv-x="1169" d="M133 0v1436h301v-353l-14 -182q156 139 313 139q315 0 316 -409v-631h-301v592q0 109 -30 150.5t-95 41.5q-53 0 -94.5 -22.5t-94.5 -75.5v-686h-301zM315 -145h168q14 -121 116.5 -121t117.5 121h168q-4 -121 -77 -203t-208 -82t-208 82t-77 203z" />
<glyph unicode="&#x1e36;" horiz-adv-x="1056" d="M156 0v1335h303v-1081h526v-254h-829zM426 -305.5q0 69.5 47 114t119 44.5q74 0 121 -44.5t47 -114t-47 -113.5t-121 -44q-72 0 -119 44t-47 113.5z" />
<glyph unicode="&#x1e37;" horiz-adv-x="585" d="M133 315v1121h301v-1133q0 -84 53 -84q20 0 37 4l37 -223q-55 -25 -151 -25q-277 0 -277 340zM223 -305.5q0 69.5 47 114t119 44.5q74 0 121 -44.5t47 -114t-47 -113.5t-121 -44q-72 0 -119 44t-47 113.5z" />
<glyph unicode="&#x1e38;" horiz-adv-x="1056" d="M25 1475v190h579v-190h-579zM156 0v1335h303v-1081h526v-254h-829zM426 -305.5q0 69.5 47 114t119 44.5q74 0 121 -44.5t47 -114t-47 -113.5t-121 -44q-72 0 -119 44t-47 113.5z" />
<glyph unicode="&#x1e39;" horiz-adv-x="585" d="M-2 1645v192h565v-192h-565zM133 315v1121h301v-1133q0 -84 53 -84q20 0 37 4l37 -223q-55 -25 -151 -25q-277 0 -277 340zM223 -305.5q0 69.5 47 114t119 44.5q74 0 121 -44.5t47 -114t-47 -113.5t-121 -44q-72 0 -119 44t-47 113.5z" />
<glyph unicode="&#x1e3a;" horiz-adv-x="1056" d="M156 0v1335h303v-1081h526v-254h-829zM309 -195h565v-192h-565v192z" />
<glyph unicode="&#x1e3b;" horiz-adv-x="585" d="M106 -195h566v-192h-566v192zM133 315v1121h301v-1133q0 -84 53 -84q20 0 37 4l37 -223q-55 -25 -151 -25q-277 0 -277 340z" />
<glyph unicode="&#x1e42;" horiz-adv-x="1558" d="M156 0v1335h319l223 -600l80 -233h8l80 233l217 600h320v-1335h-283v489q0 104 39 455h-8l-109 -309l-206 -518h-121l-205 518l-107 309h-8q39 -350 39 -455v-489h-278zM616 -305.5q0 69.5 47.5 114t118.5 44.5q74 0 121 -44.5t47 -114t-47 -113.5t-121 -44 q-72 0 -119 44t-47 113.5z" />
<glyph unicode="&#x1e43;" horiz-adv-x="1755" d="M133 0v1016h246l20 -131h9q156 156 307 155q201 0 280 -170q80 82 154 126t166 44q317 0 317 -409v-631h-301v592q0 109 -29.5 150.5t-95.5 41.5q-76 0 -174 -98v-686h-301v592q0 109 -29.5 150.5t-95.5 41.5q-76 0 -172 -98v-686h-301zM733 -305.5q0 69.5 46 114 t120 44.5t121 -44.5t47 -114t-47 -113.5t-121 -44t-120 44t-46 113.5z" />
<glyph unicode="&#x1e44;" horiz-adv-x="1359" d="M156 0v1335h309l348 -663l133 -295h8q-39 383 -39 487v471h287v-1335h-309l-348 666l-131 290h-8q39 -399 38 -483v-473h-288zM508 1593.5q0 69.5 49 113.5t125 44t125 -44t49 -113.5t-49 -113.5t-125 -44t-125 44t-49 113.5z" />
<glyph unicode="&#x1e45;" horiz-adv-x="1171" d="M133 0v1016h246l20 -129h9q162 154 325 153q315 0 316 -409v-631h-301v592q0 109 -30 150.5t-95 41.5q-53 0 -94.5 -22.5t-94.5 -75.5v-686h-301zM463 1323q0 70 47 114t121 44t120 -44t46 -114t-46 -114t-120 -44t-121 44t-47 114z" />
<glyph unicode="&#x1e46;" horiz-adv-x="1359" d="M156 0v1335h309l348 -663l133 -295h8q-39 383 -39 487v471h287v-1335h-309l-348 666l-131 290h-8q39 -399 38 -483v-473h-288zM537 -305.5q0 69.5 46 114t119.5 44.5t120.5 -44.5t47 -114t-47 -113.5t-120.5 -44t-119.5 44t-46 113.5z" />
<glyph unicode="&#x1e47;" horiz-adv-x="1171" d="M133 0v1016h246l20 -129h9q162 154 325 153q315 0 316 -409v-631h-301v592q0 109 -30 150.5t-95 41.5q-53 0 -94.5 -22.5t-94.5 -75.5v-686h-301zM430 -305.5q0 69.5 47 114t119 44.5q74 0 121 -44.5t47 -114t-47 -113.5t-121 -44q-72 0 -119 44t-47 113.5z" />
<glyph unicode="&#x1e48;" horiz-adv-x="1359" d="M156 0v1335h309l348 -663l133 -295h8q-39 383 -39 487v471h287v-1335h-309l-348 666l-131 290h-8q39 -399 38 -483v-473h-288zM420 -195h565v-192h-565v192z" />
<glyph unicode="&#x1e49;" horiz-adv-x="1171" d="M133 0v1016h246l20 -129h9q162 154 325 153q315 0 316 -409v-631h-301v592q0 109 -30 150.5t-95 41.5q-53 0 -94.5 -22.5t-94.5 -75.5v-686h-301zM313 -195h566v-192h-566v192z" />
<glyph unicode="&#x1e5a;" horiz-adv-x="1259" d="M156 0v1335h481q516 0 516 -415q0 -279 -238 -385l302 -535h-338l-256 481h-164v-481h-303zM459 721h153q244 0 244 199q0 94 -60.5 135t-183.5 41h-153v-375zM502 -305.5q0 69.5 47 114t119 44.5q74 0 121 -44.5t47 -114t-47.5 -113.5t-120.5 -44q-72 0 -119 44 t-47 113.5z" />
<glyph unicode="&#x1e5b;" horiz-adv-x="815" d="M115 -305.5q0 69.5 47 114t120.5 44.5t120 -44.5t46.5 -114t-46.5 -113.5t-120 -44t-120.5 44t-47 113.5zM133 0v1016h246l20 -178h9q53 100 129.5 151t158.5 51q74 0 121 -20l-49 -260q-59 16 -111 16q-63 0 -124.5 -45t-98.5 -141v-590h-301z" />
<glyph unicode="&#x1e5c;" horiz-adv-x="1259" d="M156 0v1335h481q516 0 516 -415q0 -279 -238 -385l302 -535h-338l-256 481h-164v-481h-303zM344 1475v190h578v-190h-578zM459 721h153q244 0 244 199q0 94 -60.5 135t-183.5 41h-153v-375zM502 -305.5q0 69.5 47 114t119 44.5q74 0 121 -44.5t47 -114t-47.5 -113.5 t-120.5 -44q-72 0 -119 44t-47 113.5z" />
<glyph unicode="&#x1e5d;" horiz-adv-x="815" d="M115 -305.5q0 69.5 47 114t120.5 44.5t120 -44.5t46.5 -114t-46.5 -113.5t-120 -44t-120.5 44t-47 113.5zM133 0v1016h246l20 -178h9q53 100 129.5 151t158.5 51q74 0 121 -20l-49 -260q-59 16 -111 16q-63 0 -124.5 -45t-98.5 -141v-590h-301zM223 1212v191h565v-191 h-565z" />
<glyph unicode="&#x1e5e;" horiz-adv-x="1259" d="M156 0v1335h481q516 0 516 -415q0 -279 -238 -385l302 -535h-338l-256 481h-164v-481h-303zM385 -195h565v-192h-565v192zM459 721h153q244 0 244 199q0 94 -60.5 135t-183.5 41h-153v-375z" />
<glyph unicode="&#x1e5f;" horiz-adv-x="815" d="M-2 -195h567v-192h-567v192zM133 0v1016h246l20 -178h9q53 100 129.5 151t158.5 51q74 0 121 -20l-49 -260q-59 16 -111 16q-63 0 -124.5 -45t-98.5 -141v-590h-301z" />
<glyph unicode="&#x1e60;" horiz-adv-x="1134" d="M70 168l174 207q160 -139 327 -139q186 0 187 129q0 68 -86 112q-23 12 -107 47l-172 74q-117 47 -193.5 138t-76.5 227q0 168 135 282.5t340 114.5q254 0 430 -176l-151 -191q-139 106 -279 107q-78 0 -124 -33t-46 -88q0 -37 27.5 -64.5t55.5 -41t97 -42.5l8 -3 q2 -1 7.5 -3t9.5 -4l170 -69q264 -106 264 -363q0 -174 -136 -294t-366 -120q-286 0 -495 193zM420 1593.5q0 69.5 49 113.5t127 44q76 0 125 -44t49 -113.5t-49 -113.5t-125 -44q-78 0 -127 44t-49 113.5z" />
<glyph unicode="&#x1e61;" horiz-adv-x="907" d="M43 117l135 188q141 -106 262 -106q129 0 129 86q0 10 -3 20t-11 19.5t-15.5 16.5t-22.5 15.5t-25.5 14.5t-30 14t-30.5 12t-33.5 13.5t-35.5 13.5q-268 102 -268 299q0 141 106.5 229t282.5 88q184 0 359 -129l-135 -180q-119 86 -215 86q-115 0 -115 -80q0 -14 5 -25.5 t17.5 -22.5t22.5 -18t32.5 -16.5t35 -14.5t43 -16.5t42.5 -15.5q125 -45 200 -112.5t75 -192.5q0 -143 -109.5 -235.5t-308.5 -92.5q-98 0 -204.5 39.5t-184.5 102.5zM315 1323q0 70 47.5 114t121 44t119.5 -44t46 -114t-46 -114t-119.5 -44t-121 44t-47.5 114z" />
<glyph unicode="&#x1e62;" horiz-adv-x="1134" d="M70 168l174 207q160 -139 327 -139q186 0 187 129q0 68 -86 112q-23 12 -107 47l-172 74q-117 47 -193.5 138t-76.5 227q0 168 135 282.5t340 114.5q254 0 430 -176l-151 -191q-139 106 -279 107q-78 0 -124 -33t-46 -88q0 -37 27.5 -64.5t55.5 -41t97 -42.5l8 -3 q2 -1 7.5 -3t9.5 -4l170 -69q264 -106 264 -363q0 -174 -136 -294t-366 -120q-286 0 -495 193zM403 -305.5q0 69.5 47.5 114t120.5 44.5q72 0 119 -44.5t47 -114t-47 -113.5t-119 -44q-74 0 -121 44t-47 113.5z" />
<glyph unicode="&#x1e63;" horiz-adv-x="907" d="M43 117l135 188q141 -106 262 -106q129 0 129 86q0 10 -3 20t-11 19.5t-15.5 16.5t-22.5 15.5t-25.5 14.5t-30 14t-30.5 12t-33.5 13.5t-35.5 13.5q-268 102 -268 299q0 141 106.5 229t282.5 88q184 0 359 -129l-135 -180q-119 86 -215 86q-115 0 -115 -80q0 -14 5 -25.5 t17.5 -22.5t22.5 -18t32.5 -16.5t35 -14.5t43 -16.5t42.5 -15.5q125 -45 200 -112.5t75 -192.5q0 -143 -109.5 -235.5t-308.5 -92.5q-98 0 -204.5 39.5t-184.5 102.5zM309 -305.5q0 69.5 47 114t119 44.5q74 0 121 -44.5t47 -114t-47 -113.5t-121 -44q-72 0 -119 44 t-47 113.5z" />
<glyph unicode="&#x1e6c;" horiz-adv-x="1136" d="M49 1081v254h1036v-254h-366v-1081h-301v1081h-369zM401 -305.5q0 69.5 47.5 114t120.5 44.5q72 0 119 -44.5t47 -114t-47 -113.5t-119 -44q-74 0 -121 44t-47 113.5z" />
<glyph unicode="&#x1e6d;" horiz-adv-x="784" d="M35 780v224l155 12l35 270h250v-270h244v-236h-244v-407q0 -162 131 -162q43 0 96 20l48 -219q-119 -37 -226 -37q-350 1 -350 394v411h-139zM315 -305.5q0 69.5 47.5 114t120.5 44.5q72 0 119 -44.5t47 -114t-47 -113.5t-119 -44q-74 0 -121 44t-47 113.5z" />
<glyph unicode="&#x1e6e;" horiz-adv-x="1136" d="M49 1081v254h1036v-254h-366v-1081h-301v1081h-369zM285 -195h567v-192h-567v192z" />
<glyph unicode="&#x1e6f;" horiz-adv-x="784" d="M35 780v224l155 12l35 270h250v-270h244v-236h-244v-407q0 -162 131 -162q43 0 96 20l48 -219q-119 -37 -226 -37q-350 1 -350 394v411h-139zM199 -195h565v-192h-565v192z" />
<glyph unicode="&#x1e80;" horiz-adv-x="1662" d="M27 1335h309l92 -624q18 -139 55 -422h9q29 164 77 422l144 624h256l145 -624q27 -135 80 -422h8q20 170 53 422l93 624h288l-237 -1335h-379l-131 606q-31 150 -53 309h-9q-43 -258 -53 -309l-127 -606h-373zM500 1683h319l166 -245h-240z" />
<glyph unicode="&#x1e81;" horiz-adv-x="1589" d="M49 1016h299l98 -471q8 -51 22.5 -151.5t23.5 -149.5h8q41 231 59 301l113 471h260l115 -471q18 -74 63 -301h8q8 51 22.5 150.5t24.5 150.5l97 471h278l-244 -1016h-352l-92 406q-23 102 -55 296h-9q-45 -266 -51 -296l-90 -406h-344zM492 1483h290l183 -307h-222z" />
<glyph unicode="&#x1e82;" horiz-adv-x="1662" d="M27 1335h309l92 -624q18 -139 55 -422h9q29 164 77 422l144 624h256l145 -624q27 -135 80 -422h8q20 170 53 422l93 624h288l-237 -1335h-379l-131 606q-31 150 -53 309h-9q-43 -258 -53 -309l-127 -606h-373zM678 1438l166 245h319l-243 -245h-242z" />
<glyph unicode="&#x1e83;" horiz-adv-x="1589" d="M49 1016h299l98 -471q8 -51 22.5 -151.5t23.5 -149.5h8q41 231 59 301l113 471h260l115 -471q18 -74 63 -301h8q8 51 22.5 150.5t24.5 150.5l97 471h278l-244 -1016h-352l-92 406q-23 102 -55 296h-9q-45 -266 -51 -296l-90 -406h-344zM629 1176l182 307h291l-254 -307 h-219z" />
<glyph unicode="&#x1e84;" horiz-adv-x="1662" d="M27 1335h309l92 -624q18 -139 55 -422h9q29 164 77 422l144 624h256l145 -624q27 -135 80 -422h8q20 170 53 422l93 624h288l-237 -1335h-379l-131 606q-31 150 -53 309h-9q-43 -258 -53 -309l-127 -606h-373zM485 1577q0 61 40 102t103.5 41t103.5 -41t40 -102t-40 -102 t-103.5 -41t-103.5 41t-40 102zM891 1577q0 61 40 102t103.5 41t103.5 -41t40 -102t-40 -102t-103.5 -41t-103.5 41t-40 102z" />
<glyph unicode="&#x1e85;" horiz-adv-x="1589" d="M49 1016h299l98 -471q8 -51 22.5 -151.5t23.5 -149.5h8q41 231 59 301l113 471h260l115 -471q18 -74 63 -301h8q8 51 22.5 150.5t24.5 150.5l97 471h278l-244 -1016h-352l-92 406q-23 102 -55 296h-9q-45 -266 -51 -296l-90 -406h-344zM451 1313q0 59 40.5 100t102 41 t102.5 -41t41 -100q0 -61 -40 -102.5t-103.5 -41.5t-103 41t-39.5 103zM856 1313q0 59 41 100t102.5 41t102.5 -41t41 -100q0 -61 -40 -102.5t-103.5 -41.5t-103.5 41t-40 103z" />
<glyph unicode="&#x1e8e;" horiz-adv-x="1073" d="M-16 1335h321l121 -307q37 -106 109 -295h8q20 55 58 152.5t54 142.5l119 307h316l-404 -860v-475h-301v475zM362 1593.5q0 69.5 49.5 113.5t125 44t125 -44t49.5 -113.5t-49.5 -113.5t-125 -44t-125 44t-49.5 113.5z" />
<glyph unicode="&#x1e8f;" horiz-adv-x="1067" d="M25 1016h303l145 -436q23 -72 80 -289h8q45 193 70 289l123 436h288l-352 -1026q-76 -203 -174 -295t-270 -92q-76 0 -144 20l54 230q55 -12 67 -13q133 0 178 133l15 54zM379 1323q0 70 47 114t121 44t120 -44t46 -114t-46 -114t-120 -44t-121 44t-47 114z" />
<glyph unicode="&#x1e92;" horiz-adv-x="1105" d="M72 0v182l590 899h-535v254h907v-182l-590 -899h594v-254h-966zM410 -305.5q0 69.5 46 114t119.5 44.5t120.5 -44.5t47 -114t-47 -113.5t-120.5 -44t-119.5 44t-46 113.5z" />
<glyph unicode="&#x1e93;" horiz-adv-x="942" d="M78 0v162l426 618h-379v236h754v-160l-426 -620h440v-236h-815zM336 -305.5q0 69.5 47 114t119 44.5q74 0 121 -44.5t47 -114t-47 -113.5t-121 -44q-72 0 -119 44t-47 113.5z" />
<glyph unicode="&#x1e97;" horiz-adv-x="784" d="M-4 1599.5q0 61.5 41 102.5t102.5 41t102.5 -41t41 -102.5t-40 -102.5t-103.5 -41t-103.5 41t-40 102.5zM35 780v224l155 12l35 270h250v-270h244v-236h-244v-407q0 -162 131 -162q43 0 96 20l48 -219q-119 -37 -226 -37q-350 1 -350 394v411h-139zM401 1599.5 q0 61.5 41 102.5t102.5 41t102.5 -41t41 -102.5t-40 -102.5t-103.5 -41t-103.5 41t-40 102.5z" />
<glyph unicode="&#x1e9e;" horiz-adv-x="1441" d="M164 0v838q0 233 142.5 377.5t430.5 144.5q197 0 329 -101.5t179 -273.5l-221 -250q338 -106 338 -370q0 -170 -109.5 -280t-306.5 -110q-233 0 -381 148l158 184q88 -88 186 -88q66 0 105 41t39 107q0 141 -310 196l-18 176l223 256q-66 121 -219 121q-264 0 -264 -319 v-797h-301z" />
<glyph unicode="&#x1ea0;" horiz-adv-x="1169" d="M-14 0l420 1335h360l420 -1335h-320l-82 317h-409l-82 -317h-307zM412 -305.5q0 69.5 47 114t119 44.5q74 0 120.5 -44.5t46.5 -114t-47 -113.5t-120 -44q-72 0 -119 44t-47 113.5zM436 553h287l-33 123q-20 72 -56 220t-52 210h-9q-53 -246 -104 -430z" />
<glyph unicode="&#x1ea1;" horiz-adv-x="1093" d="M96 283q0 162 136.5 251t435.5 119q-10 147 -160 148q-113 0 -270 -92l-107 198q221 133 434 133q403 0 404 -458v-582h-246l-23 104h-6q-147 -129 -297 -129q-135 0 -218 88.5t-83 219.5zM373 -305.5q0 69.5 47 114t121 44.5q72 0 119 -44.5t47 -114t-47 -113.5 t-119 -44q-74 0 -121 44t-47 113.5zM383 305q0 -96 117 -96q82 0 168 86v178q-285 -39 -285 -168z" />
<glyph unicode="&#x1ea2;" horiz-adv-x="1169" d="M-14 0l420 1335h360l420 -1335h-320l-82 317h-409l-82 -317h-307zM412 1665l34 150q344 -8 345 -187q0 -100 -79 -151.5t-206 -61.5l-23 119q90 18 90 61q0 57 -161 70zM436 553h287l-33 123q-20 72 -56 220t-52 210h-9q-53 -246 -104 -430z" />
<glyph unicode="&#x1ea3;" horiz-adv-x="1093" d="M96 283q0 162 136.5 251t435.5 119q-10 147 -160 148q-113 0 -270 -92l-107 198q221 133 434 133q403 0 404 -458v-582h-246l-23 104h-6q-147 -129 -297 -129q-135 0 -218 88.5t-83 219.5zM383 305q0 -96 117 -96q82 0 168 86v178q-285 -39 -285 -168zM408 1389l34 151 q346 -10 346 -188q0 -98 -79.5 -150.5t-206.5 -60.5l-23 119q92 14 92 61q0 59 -163 68z" />
<glyph unicode="&#x1ea4;" horiz-adv-x="1169" d="M-14 0l420 1335h360l420 -1335h-320l-82 317h-409l-82 -317h-307zM254 1438l195 233h260l194 -233h-213l-108 112h-9l-106 -112h-213zM436 553h287l-33 123q-20 72 -56 220t-52 210h-9q-53 -246 -104 -430zM809 1577l141 246h234l-203 -246h-172z" />
<glyph unicode="&#x1ea5;" horiz-adv-x="1093" d="M96 283q0 162 136.5 251t435.5 119q-10 147 -160 148q-113 0 -270 -92l-107 198q221 133 434 133q403 0 404 -458v-582h-246l-23 104h-6q-147 -129 -297 -129q-135 0 -218 88.5t-83 219.5zM289 1176l166 262h239l166 -262h-186l-94 133h-9l-96 -133h-186zM383 305 q0 -96 117 -96q82 0 168 86v178q-285 -39 -285 -168zM795 1323l139 242h223l-194 -242h-168z" />
<glyph unicode="&#x1ea6;" horiz-adv-x="1169" d="M-14 0l420 1335h360l420 -1335h-320l-82 317h-409l-82 -317h-307zM254 1438l195 233h260l194 -233h-213l-108 112h-9l-106 -112h-213zM436 553h287l-33 123q-20 72 -56 220t-52 210h-9q-53 -246 -104 -430zM692 1823h234l139 -246h-170z" />
<glyph unicode="&#x1ea7;" horiz-adv-x="1093" d="M96 283q0 162 136.5 251t435.5 119q-10 147 -160 148q-113 0 -270 -92l-107 198q221 133 434 133q403 0 404 -458v-582h-246l-23 104h-6q-147 -129 -297 -129q-135 0 -218 88.5t-83 219.5zM289 1176l166 262h239l166 -262h-186l-94 133h-9l-96 -133h-186zM383 305 q0 -96 117 -96q82 0 168 86v178q-285 -39 -285 -168zM723 1565h223l139 -242h-167z" />
<glyph unicode="&#x1ea8;" horiz-adv-x="1169" d="M-14 0l420 1335h360l420 -1335h-320l-82 317h-409l-82 -317h-307zM254 1438l195 233h260l194 -233h-213l-108 112h-9l-106 -112h-213zM436 553h287l-33 123q-20 72 -56 220t-52 210h-9q-53 -246 -104 -430zM768 1755l29 123q299 -8 299 -164q0 -160 -236 -178l-24 96 q68 14 67 56q0 57 -135 67z" />
<glyph unicode="&#x1ea9;" horiz-adv-x="1093" d="M96 283q0 162 136.5 251t435.5 119q-10 147 -160 148q-113 0 -270 -92l-107 198q221 133 434 133q403 0 404 -458v-582h-246l-23 104h-6q-147 -129 -297 -129q-135 0 -218 88.5t-83 219.5zM289 1176l166 262h239l166 -262h-186l-94 133h-9l-96 -133h-186zM383 305 q0 -96 117 -96q82 0 168 86v178q-285 -39 -285 -168zM766 1513l27 127q303 -8 303 -161q0 -92 -62.5 -134.5t-177.5 -58.5l-18 103q61 14 61 57q0 59 -133 67z" />
<glyph unicode="&#x1eaa;" horiz-adv-x="1169" d="M-14 0l420 1335h360l420 -1335h-320l-82 317h-409l-82 -317h-307zM254 1438l195 233h260l194 -233h-213l-108 112h-9l-106 -112h-213zM272 1745q12 115 63.5 173t123.5 58q61 0 130.5 -37.5t92.5 -37.5q54 -1 72 75h131q-12 -115 -63.5 -173t-123.5 -58q-61 0 -130.5 39 t-92.5 39q-57 0 -72 -78h-131zM436 553h287l-33 123q-20 72 -56 220t-52 210h-9q-53 -246 -104 -430z" />
<glyph unicode="&#x1eab;" horiz-adv-x="1093" d="M96 283q0 162 136.5 251t435.5 119q-10 147 -160 148q-113 0 -270 -92l-107 198q221 133 434 133q403 0 404 -458v-582h-246l-23 104h-6q-147 -129 -297 -129q-135 0 -218 88.5t-83 219.5zM272 1174l166 227h273l166 -227h-197l-100 120h-9l-102 -120h-197zM276 1475 q12 117 62.5 175t124.5 58q61 0 123.5 -39t85.5 -39q55 0 71 78h131q-12 -115 -63 -174t-123 -59q-61 0 -124.5 38.5t-84.5 38.5q-57 1 -73 -77h-130zM383 305q0 -96 117 -96q82 0 168 86v178q-285 -39 -285 -168z" />
<glyph unicode="&#x1eac;" horiz-adv-x="1169" d="M-14 0l420 1335h360l420 -1335h-320l-82 317h-409l-82 -317h-307zM236 1438l196 245h293l197 -245h-230l-110 125h-9l-108 -125h-229zM412 -305.5q0 69.5 47 114t119 44.5q74 0 120.5 -44.5t46.5 -114t-47 -113.5t-120 -44q-72 0 -119 44t-47 113.5zM436 553h287l-33 123 q-20 72 -56 220t-52 210h-9q-53 -246 -104 -430z" />
<glyph unicode="&#x1ead;" horiz-adv-x="1093" d="M96 283q0 162 136.5 251t435.5 119q-10 147 -160 148q-113 0 -270 -92l-107 198q221 133 434 133q403 0 404 -458v-582h-246l-23 104h-6q-147 -129 -297 -129q-135 0 -218 88.5t-83 219.5zM258 1176l197 307h239l197 -307h-203l-108 161h-9l-110 -161h-203zM373 -305.5 q0 69.5 47 114t121 44.5q72 0 119 -44.5t47 -114t-47 -113.5t-119 -44q-74 0 -121 44t-47 113.5zM383 305q0 -96 117 -96q82 0 168 86v178q-285 -39 -285 -168z" />
<glyph unicode="&#x1eae;" horiz-adv-x="1169" d="M-14 0l420 1335h360l420 -1335h-320l-82 317h-409l-82 -317h-307zM299 1683h137q27 -111 141.5 -111t143.5 111h137q-27 -246 -280 -245q-127 0 -197 65.5t-82 179.5zM436 553h287l-33 123q-20 72 -56 220t-52 210h-9q-53 -246 -104 -430zM487 1655l131 243h226 l-205 -243h-152z" />
<glyph unicode="&#x1eaf;" horiz-adv-x="1093" d="M96 283q0 162 136.5 251t435.5 119q-10 147 -160 148q-113 0 -270 -92l-107 198q221 133 434 133q403 0 404 -458v-582h-246l-23 104h-6q-147 -129 -297 -129q-135 0 -218 88.5t-83 219.5zM291 1460h133q23 -137 151 -137q127 0 150 137h135q-4 -121 -76.5 -202.5 t-208 -81.5t-208 81.5t-76.5 202.5zM383 305q0 -96 117 -96q82 0 168 86v178q-285 -39 -285 -168zM479 1417l119 242h217l-184 -242h-152z" />
<glyph unicode="&#x1eb0;" horiz-adv-x="1169" d="M-14 0l420 1335h360l420 -1335h-320l-82 317h-409l-82 -317h-307zM299 1683h137q27 -111 141.5 -111t143.5 111h137q-27 -246 -280 -245q-127 0 -197 65.5t-82 179.5zM311 1898h228l131 -243h-152zM436 553h287l-33 123q-20 72 -56 220t-52 210h-9q-53 -246 -104 -430z " />
<glyph unicode="&#x1eb1;" horiz-adv-x="1093" d="M96 283q0 162 136.5 251t435.5 119q-10 147 -160 148q-113 0 -270 -92l-107 198q221 133 434 133q403 0 404 -458v-582h-246l-23 104h-6q-147 -129 -297 -129q-135 0 -218 88.5t-83 219.5zM291 1460h133q23 -137 151 -137q127 0 150 137h135q-4 -121 -76.5 -202.5 t-208 -81.5t-208 81.5t-76.5 202.5zM336 1659h215l119 -242h-152zM383 305q0 -96 117 -96q82 0 168 86v178q-285 -39 -285 -168z" />
<glyph unicode="&#x1eb2;" horiz-adv-x="1169" d="M-14 0l420 1335h360l420 -1335h-320l-82 317h-409l-82 -317h-307zM299 1683h137q27 -111 141.5 -111t143.5 111h137q-27 -246 -280 -245q-127 0 -197 65.5t-82 179.5zM420 1870l29 125q299 -10 299 -166q0 -160 -236 -178l-25 96q68 14 68 55q0 31 -29.5 46.5 t-105.5 21.5zM436 553h287l-33 123q-20 72 -56 220t-52 210h-9q-53 -246 -104 -430z" />
<glyph unicode="&#x1eb3;" horiz-adv-x="1093" d="M96 283q0 162 136.5 251t435.5 119q-10 147 -160 148q-113 0 -270 -92l-107 198q221 133 434 133q403 0 404 -458v-582h-246l-23 104h-6q-147 -129 -297 -129q-135 0 -218 88.5t-83 219.5zM291 1460h133q23 -137 151 -137q127 0 150 137h135q-4 -121 -76.5 -202.5 t-208 -81.5t-208 81.5t-76.5 202.5zM383 305q0 -96 117 -96q82 0 168 86v178q-285 -39 -285 -168zM412 1657l28 127q303 -10 303 -164q0 -92 -63 -134t-176 -56l-21 102q63 14 64 57q0 31 -30 46.5t-105 21.5z" />
<glyph unicode="&#x1eb4;" horiz-adv-x="1169" d="M-14 0l420 1335h360l420 -1335h-320l-82 317h-409l-82 -317h-307zM266 1745q12 115 64.5 174t124.5 59q51 0 121.5 -40t95.5 -40q58 0 76 80h133q-12 -115 -64.5 -174t-126.5 -59q-51 0 -120.5 39t-94.5 39q-59 0 -76 -78h-133zM299 1683h137q27 -111 141.5 -110.5 t143.5 110.5h137q-27 -246 -280 -245q-127 0 -197 65t-82 180zM436 553h287l-33 123q-20 72 -56 220t-52 210h-9q-53 -246 -104 -430z" />
<glyph unicode="&#x1eb5;" horiz-adv-x="1093" d="M96 283q0 162 136.5 251t435.5 119q-10 147 -160 148q-113 0 -270 -92l-107 198q221 133 434 133q403 0 404 -458v-582h-246l-23 104h-6q-147 -129 -297 -129q-135 0 -218 88.5t-83 219.5zM276 1475q12 117 62.5 175t124.5 58q61 0 123.5 -39t85.5 -39q55 0 71 78h131 q-12 -115 -63 -174t-123 -59q-61 0 -124.5 38.5t-84.5 38.5q-57 0 -73 -77h-130zM291 1419h141q25 -102 143 -102q117 0 142 102h141q-4 -104 -76 -173.5t-207 -69.5q-137 0 -208.5 69.5t-75.5 173.5zM383 305q0 -96 117 -96q82 0 168 86v178q-285 -39 -285 -168z" />
<glyph unicode="&#x1eb6;" horiz-adv-x="1169" d="M-14 0l420 1335h360l420 -1335h-320l-82 317h-409l-82 -317h-307zM299 1683h164q23 -94 115 -94q93 0 116 94h164q-29 -246 -280 -245q-129 0 -199 65.5t-80 179.5zM412 -305.5q0 69.5 47 114t119 44.5q74 0 120.5 -44.5t46.5 -114t-47 -113.5t-120 -44q-72 0 -119 44 t-47 113.5zM436 553h287l-33 123q-20 72 -56 220t-52 210h-9q-53 -246 -104 -430z" />
<glyph unicode="&#x1eb7;" horiz-adv-x="1093" d="M96 283q0 162 136.5 251t435.5 119q-10 147 -160 148q-113 0 -270 -92l-107 198q221 133 434 133q403 0 404 -458v-582h-246l-23 104h-6q-147 -129 -297 -129q-135 0 -218 88.5t-83 219.5zM291 1460h168q14 -119 116 -119q98 0 117 119h168q-4 -121 -76.5 -202.5 t-208 -81.5t-208 81.5t-76.5 202.5zM373 -305.5q0 69.5 47 114t121 44.5q72 0 119 -44.5t47 -114t-47 -113.5t-119 -44q-74 0 -121 44t-47 113.5zM383 305q0 -96 117 -96q82 0 168 86v178q-285 -39 -285 -168z" />
<glyph unicode="&#x1eb8;" horiz-adv-x="1118" d="M156 0v1335h837v-254h-534v-268h454v-252h-454v-307h555v-254h-858zM434 -305.5q0 69.5 47 114t121 44.5q72 0 119 -44.5t47 -114t-47 -113.5t-119 -44q-74 0 -121 44t-47 113.5z" />
<glyph unicode="&#x1eb9;" horiz-adv-x="1056" d="M74 508q0 238 143 385t336 147q209 0 320.5 -135t111.5 -352q0 -78 -12 -127h-608q39 -221 264 -221q109 0 219 67l100 -182q-168 -115 -360 -115q-223 0 -368.5 143.5t-145.5 389.5zM362 612h367q0 199 -170 199q-74 0 -128.5 -50.5t-68.5 -148.5zM385 -305.5 q0 69.5 47 114t119 44.5q74 0 121 -44.5t47 -114t-47 -113.5t-121 -44q-72 0 -119 44t-47 113.5z" />
<glyph unicode="&#x1eba;" horiz-adv-x="1118" d="M156 0v1335h837v-254h-534v-268h454v-252h-454v-307h555v-254h-858zM422 1665l35 150q346 -8 346 -187q0 -100 -79 -151.5t-206 -61.5l-24 119q92 18 92 61q0 57 -164 70z" />
<glyph unicode="&#x1ebb;" horiz-adv-x="1056" d="M74 508q0 238 143 385t336 147q209 0 320.5 -135t111.5 -352q0 -78 -12 -127h-608q39 -221 264 -221q109 0 219 67l100 -182q-168 -115 -360 -115q-223 0 -368.5 143.5t-145.5 389.5zM362 612h367q0 199 -170 199q-74 0 -128.5 -50.5t-68.5 -148.5zM387 1389l33 151 q346 -10 346 -188q0 -98 -80 -150.5t-205 -60.5l-24 119q92 14 92 61q0 59 -162 68z" />
<glyph unicode="&#x1ebc;" horiz-adv-x="1118" d="M156 0v1335h837v-254h-534v-268h454v-252h-454v-307h555v-254h-858zM242 1440q14 135 74.5 206.5t144.5 71.5q59 0 139 -46t105 -46q59 0 79 92h154q-14 -135 -74.5 -206.5t-144.5 -71.5q-61 0 -141 46t-105 46q-57 0 -80 -92h-151z" />
<glyph unicode="&#x1ebd;" horiz-adv-x="1056" d="M74 508q0 238 143 385t336 147q209 0 320.5 -135t111.5 -352q0 -78 -12 -127h-608q39 -221 264 -221q109 0 219 67l100 -182q-168 -115 -360 -115q-223 0 -368.5 143.5t-145.5 389.5zM213 1178q14 135 71.5 205.5t141.5 70.5q59 0 138 -45t104 -45q49 0 71 90h154 q-16 -135 -72.5 -205.5t-140.5 -70.5q-61 0 -139 46t-103 46q-51 0 -71 -92h-154zM362 612h367q0 199 -170 199q-74 0 -128.5 -50.5t-68.5 -148.5z" />
<glyph unicode="&#x1ebe;" horiz-adv-x="1118" d="M156 0v1335h837v-254h-534v-268h454v-252h-454v-307h555v-254h-858zM264 1438l195 233h260l194 -233h-213l-106 112h-8l-109 -112h-213zM819 1577l142 246h233l-203 -246h-172z" />
<glyph unicode="&#x1ebf;" horiz-adv-x="1056" d="M74 508q0 238 143 385t336 147q209 0 320.5 -135t111.5 -352q0 -78 -12 -127h-608q39 -221 264 -221q109 0 219 67l100 -182q-168 -115 -360 -115q-223 0 -368.5 143.5t-145.5 389.5zM268 1176l164 262h240l166 -262h-187l-94 133h-8l-96 -133h-185zM362 612h367 q0 199 -170 199q-74 0 -128.5 -50.5t-68.5 -148.5zM772 1323l139 242h224l-195 -242h-168z" />
<glyph unicode="&#x1ec0;" horiz-adv-x="1118" d="M156 0v1335h837v-254h-534v-268h454v-252h-454v-307h555v-254h-858zM264 1438l195 233h260l194 -233h-213l-106 112h-8l-109 -112h-213zM702 1823h234l141 -246h-172z" />
<glyph unicode="&#x1ec1;" horiz-adv-x="1056" d="M74 508q0 238 143 385t336 147q209 0 320.5 -135t111.5 -352q0 -78 -12 -127h-608q39 -221 264 -221q109 0 219 67l100 -182q-168 -115 -360 -115q-223 0 -368.5 143.5t-145.5 389.5zM268 1176l164 262h240l166 -262h-187l-94 133h-8l-96 -133h-185zM362 612h367 q0 199 -170 199q-74 0 -128.5 -50.5t-68.5 -148.5zM700 1565h224l139 -242h-168z" />
<glyph unicode="&#x1ec2;" horiz-adv-x="1118" d="M156 0v1335h837v-254h-534v-268h454v-252h-454v-307h555v-254h-858zM264 1438l195 233h260l194 -233h-213l-106 112h-8l-109 -112h-213zM778 1755l29 123q299 -8 299 -164q0 -160 -236 -178l-24 96q68 14 67 56q0 31 -29.5 46t-105.5 21z" />
<glyph unicode="&#x1ec3;" horiz-adv-x="1056" d="M74 508q0 238 143 385t336 147q209 0 320.5 -135t111.5 -352q0 -78 -12 -127h-608q39 -221 264 -221q109 0 219 67l100 -182q-168 -115 -360 -115q-223 0 -368.5 143.5t-145.5 389.5zM268 1176l164 262h240l166 -262h-187l-94 133h-8l-96 -133h-185zM362 612h367 q0 199 -170 199q-74 0 -128.5 -50.5t-68.5 -148.5zM743 1513l27 127q303 -8 303 -161q0 -92 -62 -134.5t-177 -58.5l-19 103q61 14 62 57q0 59 -134 67z" />
<glyph unicode="&#x1ec4;" horiz-adv-x="1118" d="M156 0v1335h837v-254h-534v-268h454v-252h-454v-307h555v-254h-858zM264 1438l195 233h260l194 -233h-213l-106 112h-8l-109 -112h-213zM283 1745q12 115 63 173t123 58q61 0 131 -37.5t92 -37.5q57 0 72 75h131q-12 -115 -63.5 -173t-122.5 -58q-61 0 -131 39t-93 39 q-55 0 -71 -78h-131z" />
<glyph unicode="&#x1ec5;" horiz-adv-x="1056" d="M74 508q0 238 143 385t336 147q209 0 320.5 -135t111.5 -352q0 -78 -12 -127h-608q39 -221 264 -221q109 0 219 67l100 -182q-168 -115 -360 -115q-223 0 -368.5 143.5t-145.5 389.5zM252 1174l164 227h274l164 -227h-195l-102 120h-8l-103 -120h-194zM254 1475 q12 117 62.5 175t123.5 58q61 0 124 -39t85 -39q57 0 72 78h131q-12 -115 -63.5 -174t-122.5 -59q-61 0 -124 38.5t-85 38.5q-58 1 -74 -77h-129zM362 612h367q0 199 -170 199q-74 0 -128.5 -50.5t-68.5 -148.5z" />
<glyph unicode="&#x1ec6;" horiz-adv-x="1118" d="M156 0v1335h837v-254h-534v-268h454v-252h-454v-307h555v-254h-858zM246 1438l196 245h293l197 -245h-230l-108 125h-8l-111 -125h-229zM434 -305.5q0 69.5 47 114t121 44.5q72 0 119 -44.5t47 -114t-47 -113.5t-119 -44q-74 0 -121 44t-47 113.5z" />
<glyph unicode="&#x1ec7;" horiz-adv-x="1056" d="M74 508q0 238 143 385t336 147q209 0 320.5 -135t111.5 -352q0 -78 -12 -127h-608q39 -221 264 -221q109 0 219 67l100 -182q-168 -115 -360 -115q-223 0 -368.5 143.5t-145.5 389.5zM238 1176l194 307h240l196 -307h-202l-109 161h-8l-109 -161h-202zM362 612h367 q0 199 -170 199q-74 0 -128.5 -50.5t-68.5 -148.5zM385 -305.5q0 69.5 47 114t119 44.5q74 0 121 -44.5t47 -114t-47 -113.5t-121 -44q-72 0 -119 44t-47 113.5z" />
<glyph unicode="&#x1ec8;" horiz-adv-x="614" d="M141 1665l33 150q346 -8 346 -187q0 -100 -78.5 -151.5t-205.5 -61.5l-25 119q92 18 92 61q0 57 -162 70zM156 0v1335h303v-1335h-303z" />
<glyph unicode="&#x1ec9;" horiz-adv-x="565" d="M117 1389l35 151q344 -10 344 -188q0 -98 -80 -150.5t-205 -60.5l-23 119q90 14 91 61q0 59 -162 68zM133 0v1016h301v-1016h-301z" />
<glyph unicode="&#x1eca;" horiz-adv-x="614" d="M141 -305.5q0 69.5 46 114t120 44.5t121 -44.5t47 -114t-47 -113.5t-121 -44t-120 44t-46 113.5zM156 0v1335h303v-1335h-303z" />
<glyph unicode="&#x1ecb;" horiz-adv-x="565" d="M109 1323q0 70 49 113t125 43q78 0 126 -43t48 -113t-49.5 -114t-125 -44t-124.5 44t-49 114zM117 -305.5q0 69.5 47 114t119 44.5q74 0 121 -44.5t47 -114t-47 -113.5t-121 -44q-72 0 -119 44t-47 113.5zM133 0v1016h301v-1016h-301z" />
<glyph unicode="&#x1ecc;" horiz-adv-x="1398" d="M92 674q0 322 166 504t440.5 182t440.5 -182.5t166 -503.5q0 -324 -166.5 -511.5t-440.5 -187.5q-272 0 -439 187.5t-167 511.5zM401 674q0 -201 81 -319.5t216 -118.5q137 0 217 118.5t80 319.5q0 199 -79.5 312.5t-217.5 113.5q-135 0 -216 -114t-81 -312zM532 -305.5 q0 69.5 47.5 114t118.5 44.5q74 0 121 -44.5t47 -114t-47 -113.5t-121 -44q-72 0 -119 44t-47 113.5z" />
<glyph unicode="&#x1ecd;" horiz-adv-x="1136" d="M74 508q0 244 145.5 388t349.5 144q203 0 348.5 -144t145.5 -388t-145.5 -388.5t-348.5 -144.5q-205 0 -350 144.5t-145 388.5zM383 508q0 -135 47 -212t139 -77q90 0 138.5 77t48.5 212t-48.5 212t-138.5 77q-92 0 -139 -77t-47 -212zM401 -305.5q0 69.5 47.5 114 t120.5 44.5q72 0 119 -44.5t47 -114t-47 -113.5t-119 -44q-74 0 -121 44t-47 113.5z" />
<glyph unicode="&#x1ece;" horiz-adv-x="1398" d="M92 674q0 322 166 504t440.5 182t440.5 -182.5t166 -503.5q0 -324 -166.5 -511.5t-440.5 -187.5q-272 0 -439 187.5t-167 511.5zM401 674q0 -201 81 -319.5t216 -118.5q137 0 217 118.5t80 319.5q0 199 -79.5 312.5t-217.5 113.5q-135 0 -216 -114t-81 -312zM532 1665 l35 150q344 -8 344 -187q1 -190 -284 -213l-23 119q92 18 92 61q0 57 -164 70z" />
<glyph unicode="&#x1ecf;" horiz-adv-x="1136" d="M74 508q0 244 145.5 388t349.5 144q203 0 348.5 -144t145.5 -388t-145.5 -388.5t-348.5 -144.5q-205 0 -350 144.5t-145 388.5zM383 508q0 -135 47 -212t139 -77q90 0 138.5 77t48.5 212t-48.5 212t-138.5 77q-92 0 -139 -77t-47 -212zM401 1389l35 151q344 -10 344 -188 q0 -98 -78.5 -150.5t-205.5 -60.5l-23 119q92 14 92 61q0 59 -164 68z" />
<glyph unicode="&#x1ed0;" horiz-adv-x="1398" d="M92 674q0 322 166 504t440.5 182t440.5 -182.5t166 -503.5q0 -324 -166.5 -511.5t-440.5 -187.5q-272 0 -439 187.5t-167 511.5zM375 1438l194 233h260l195 -233h-213l-109 112h-8l-106 -112h-213zM401 674q0 -201 81 -319.5t216 -118.5q137 0 217 118.5t80 319.5 q0 199 -79.5 312.5t-217.5 113.5q-135 0 -216 -114t-81 -312zM930 1577l141 246h234l-203 -246h-172z" />
<glyph unicode="&#x1ed1;" horiz-adv-x="1136" d="M74 508q0 244 145.5 388t349.5 144q203 0 348.5 -144t145.5 -388t-145.5 -388.5t-348.5 -144.5q-205 0 -350 144.5t-145 388.5zM283 1176l166 262h239l166 -262h-186l-95 133h-8l-96 -133h-186zM383 508q0 -135 47 -212t139 -77q90 0 138.5 77t48.5 212t-48.5 212 t-138.5 77q-92 0 -139 -77t-47 -212zM786 1323l142 242h221l-193 -242h-170z" />
<glyph unicode="&#x1ed2;" horiz-adv-x="1398" d="M92 674q0 322 166 504t440.5 182t440.5 -182.5t166 -503.5q0 -324 -166.5 -511.5t-440.5 -187.5q-272 0 -439 187.5t-167 511.5zM375 1438l194 233h260l195 -233h-213l-109 112h-8l-106 -112h-213zM401 674q0 -201 81 -319.5t216 -118.5q137 0 217 118.5t80 319.5 q0 199 -79.5 312.5t-217.5 113.5q-135 0 -216 -114t-81 -312zM813 1823h234l139 -246h-170z" />
<glyph unicode="&#x1ed3;" horiz-adv-x="1136" d="M74 508q0 244 145.5 388t349.5 144q203 0 348.5 -144t145.5 -388t-145.5 -388.5t-348.5 -144.5q-205 0 -350 144.5t-145 388.5zM283 1176l166 262h239l166 -262h-186l-95 133h-8l-96 -133h-186zM383 508q0 -135 47 -212t139 -77q90 0 138.5 77t48.5 212t-48.5 212 t-138.5 77q-92 0 -139 -77t-47 -212zM717 1565h223l139 -242h-168z" />
<glyph unicode="&#x1ed4;" horiz-adv-x="1398" d="M92 674q0 322 166 504t440.5 182t440.5 -182.5t166 -503.5q0 -324 -166.5 -511.5t-440.5 -187.5q-272 0 -439 187.5t-167 511.5zM375 1438l194 233h260l195 -233h-213l-109 112h-8l-106 -112h-213zM401 674q0 -201 81 -319.5t216 -118.5q137 0 217 118.5t80 319.5 q0 199 -79.5 312.5t-217.5 113.5q-135 0 -216 -114t-81 -312zM889 1755l29 123q299 -8 299 -164q0 -160 -236 -178l-25 96q68 14 68 56q0 57 -135 67z" />
<glyph unicode="&#x1ed5;" horiz-adv-x="1136" d="M74 508q0 244 145.5 388t349.5 144q203 0 348.5 -144t145.5 -388t-145.5 -388.5t-348.5 -144.5q-205 0 -350 144.5t-145 388.5zM283 1176l166 262h239l166 -262h-186l-95 133h-8l-96 -133h-186zM383 508q0 -135 47 -212t139 -77q90 0 138.5 77t48.5 212t-48.5 212 t-138.5 77q-92 0 -139 -77t-47 -212zM760 1513l26 127q303 -8 304 -161q0 -92 -62.5 -134.5t-177.5 -58.5l-21 103q63 14 64 57q0 59 -133 67z" />
<glyph unicode="&#x1ed6;" horiz-adv-x="1398" d="M92 674q0 322 166 504t440.5 182t440.5 -182.5t166 -503.5q0 -324 -166.5 -511.5t-440.5 -187.5q-272 0 -439 187.5t-167 511.5zM375 1438l194 233h260l195 -233h-213l-109 112h-8l-106 -112h-213zM393 1745q12 115 63.5 173t123.5 58q61 0 130.5 -37.5t92.5 -37.5 q57 0 71 75h132q-12 -115 -63.5 -173t-123.5 -58q-61 0 -131 39t-92 39q-58 0 -72 -78h-131zM401 674q0 -201 81 -319.5t216 -118.5q137 0 217 118.5t80 319.5q0 199 -79.5 312.5t-217.5 113.5q-135 0 -216 -114t-81 -312z" />
<glyph unicode="&#x1ed7;" horiz-adv-x="1136" d="M74 508q0 244 145.5 388t349.5 144q203 0 348.5 -144t145.5 -388t-145.5 -388.5t-348.5 -144.5q-205 0 -350 144.5t-145 388.5zM266 1174l166 227h273l165 -227h-196l-101 120h-8l-102 -120h-197zM270 1475q12 117 62.5 175t124.5 58q61 0 123.5 -39t85.5 -39q55 0 71 78 h131q-12 -115 -64 -174t-124 -59q-59 0 -122.5 38.5t-86.5 38.5q-56 1 -72 -77h-129zM383 508q0 -135 47 -212t139 -77q90 0 138.5 77t48.5 212t-48.5 212t-138.5 77q-92 0 -139 -77t-47 -212z" />
<glyph unicode="&#x1ed8;" horiz-adv-x="1398" d="M92 674q0 322 166 504t440.5 182t440.5 -182.5t166 -503.5q0 -324 -166.5 -511.5t-440.5 -187.5q-272 0 -439 187.5t-167 511.5zM356 1438l197 245h293l196 -245h-229l-111 125h-8l-108 -125h-230zM401 674q0 -201 81 -319.5t216 -118.5q137 0 217 118.5t80 319.5 q0 199 -79.5 312.5t-217.5 113.5q-135 0 -216 -114t-81 -312zM532 -305.5q0 69.5 47.5 114t118.5 44.5q74 0 121 -44.5t47 -114t-47 -113.5t-121 -44q-72 0 -119 44t-47 113.5z" />
<glyph unicode="&#x1ed9;" horiz-adv-x="1136" d="M74 508q0 244 145.5 388t349.5 144q203 0 348.5 -144t145.5 -388t-145.5 -388.5t-348.5 -144.5q-205 0 -350 144.5t-145 388.5zM252 1176l197 307h239l197 -307h-203l-109 161h-8l-110 -161h-203zM383 508q0 -135 47 -212t139 -77q90 0 138.5 77t48.5 212t-48.5 212 t-138.5 77q-92 0 -139 -77t-47 -212zM401 -305.5q0 69.5 47.5 114t120.5 44.5q72 0 119 -44.5t47 -114t-47 -113.5t-119 -44q-74 0 -121 44t-47 113.5z" />
<glyph unicode="&#x1eda;" horiz-adv-x="1398" d="M92 674q0 322 166 504t440 182q156 0 287 -64q61 14 91 42t30 83q0 42 -31 95l205 90q59 -72 59 -164q0 -184 -217 -246q182 -188 183 -522q0 -324 -166 -511.5t-441 -187.5q-272 0 -439 187.5t-167 511.5zM401 674q0 -201 81 -319.5t216 -118.5q137 0 217 118.5 t80 319.5q0 199 -79.5 312.5t-217.5 113.5q-135 0 -216 -114t-81 -312zM547 1438l164 245h319l-244 -245h-239z" />
<glyph unicode="&#x1edb;" horiz-adv-x="1136" d="M74 508q0 244 145.5 388t349.5 144q98 0 195 -39q113 25 113 121q0 46 -31 95l205 90q59 -72 59 -164q0 -184 -199 -242q152 -147 152 -393q0 -244 -145.5 -388.5t-348.5 -144.5q-205 0 -350 144.5t-145 388.5zM383 508q0 -135 47 -212t139 -77q90 0 138.5 77t48.5 212 t-48.5 212t-138.5 77q-92 0 -139 -77t-47 -212zM401 1176l183 307h290l-253 -307h-220z" />
<glyph unicode="&#x1edc;" horiz-adv-x="1398" d="M92 674q0 322 166 504t440 182q156 0 287 -64q61 14 91 42t30 83q0 42 -31 95l205 90q59 -72 59 -164q0 -184 -217 -246q182 -188 183 -522q0 -324 -166 -511.5t-441 -187.5q-272 0 -439 187.5t-167 511.5zM367 1683h319l166 -245h-240zM401 674q0 -201 81 -319.5 t216 -118.5q137 0 217 118.5t80 319.5q0 199 -79.5 312.5t-217.5 113.5q-135 0 -216 -114t-81 -312z" />
<glyph unicode="&#x1edd;" horiz-adv-x="1136" d="M74 508q0 244 145.5 388t349.5 144q98 0 195 -39q113 25 113 121q0 46 -31 95l205 90q59 -72 59 -164q0 -184 -199 -242q152 -147 152 -393q0 -244 -145.5 -388.5t-348.5 -144.5q-205 0 -350 144.5t-145 388.5zM262 1483h291l182 -307h-219zM383 508q0 -135 47 -212 t139 -77q90 0 138.5 77t48.5 212t-48.5 212t-138.5 77q-92 0 -139 -77t-47 -212z" />
<glyph unicode="&#x1ede;" horiz-adv-x="1398" d="M92 674q0 322 166 504t440 182q156 0 287 -64q61 14 91 42t30 83q0 42 -31 95l205 90q59 -72 59 -164q0 -184 -217 -246q182 -188 183 -522q0 -324 -166 -511.5t-441 -187.5q-272 0 -439 187.5t-167 511.5zM401 674q0 -201 81 -319.5t216 -118.5q137 0 217 118.5 t80 319.5q0 199 -79.5 312.5t-217.5 113.5q-135 0 -216 -114t-81 -312zM532 1665l35 150q344 -8 344 -187q1 -190 -284 -213l-23 119q92 18 92 61q0 57 -164 70z" />
<glyph unicode="&#x1edf;" horiz-adv-x="1136" d="M74 508q0 244 145.5 388t349.5 144q98 0 195 -39q113 25 113 121q0 46 -31 95l205 90q59 -72 59 -164q0 -184 -199 -242q152 -147 152 -393q0 -244 -145.5 -388.5t-348.5 -144.5q-205 0 -350 144.5t-145 388.5zM383 508q0 -135 47 -212t139 -77q90 0 138.5 77t48.5 212 t-48.5 212t-138.5 77q-92 0 -139 -77t-47 -212zM401 1389l35 151q344 -10 344 -188q0 -98 -78.5 -150.5t-205.5 -60.5l-23 119q92 14 92 61q0 59 -164 68z" />
<glyph unicode="&#x1ee0;" horiz-adv-x="1398" d="M92 674q0 322 166 504t440 182q156 0 287 -64q61 14 91 42t30 83q0 42 -31 95l205 90q59 -72 59 -164q0 -184 -217 -246q182 -188 183 -522q0 -324 -166 -511.5t-441 -187.5q-272 0 -439 187.5t-167 511.5zM350 1440q16 135 75.5 206.5t143.5 71.5q61 0 141.5 -46 t104.5 -46q60 0 80 92h154q-16 -135 -77 -206.5t-145 -71.5q-59 0 -139 46t-104 46q-59 0 -80 -92h-154zM401 674q0 -201 81 -319.5t216 -118.5q137 0 217 118.5t80 319.5q0 199 -79.5 312.5t-217.5 113.5q-135 0 -216 -114t-81 -312z" />
<glyph unicode="&#x1ee1;" horiz-adv-x="1136" d="M74 508q0 244 145.5 388t349.5 144q98 0 195 -39q113 25 113 121q0 46 -31 95l205 90q59 -72 59 -164q0 -184 -199 -242q152 -147 152 -393q0 -244 -145.5 -388.5t-348.5 -144.5q-205 0 -350 144.5t-145 388.5zM229 1178q14 135 71.5 205.5t139.5 70.5q59 0 139 -45 t105 -45q50 0 70 90h153q-14 -135 -70.5 -205.5t-140.5 -70.5q-61 0 -139 46t-102 46q-51 0 -72 -92h-154zM383 508q0 -135 47 -212t139 -77q90 0 138.5 77t48.5 212t-48.5 212t-138.5 77q-92 0 -139 -77t-47 -212z" />
<glyph unicode="&#x1ee2;" horiz-adv-x="1398" d="M92 674q0 322 166 504t440 182q156 0 287 -64q61 14 91 42t30 83q0 42 -31 95l205 90q59 -72 59 -164q0 -184 -217 -246q182 -188 183 -522q0 -324 -166 -511.5t-441 -187.5q-272 0 -439 187.5t-167 511.5zM401 674q0 -201 81 -319.5t216 -118.5q137 0 217 118.5 t80 319.5q0 199 -79.5 312.5t-217.5 113.5q-135 0 -216 -114t-81 -312zM532 -305.5q0 69.5 47 114t119 44.5q74 0 121 -44.5t47 -114t-47 -113.5t-121 -44q-72 0 -119 44t-47 113.5z" />
<glyph unicode="&#x1ee3;" horiz-adv-x="1136" d="M74 508q0 244 145.5 388t349.5 144q98 0 195 -39q113 25 113 121q0 46 -31 95l205 90q59 -72 59 -164q0 -184 -199 -242q152 -147 152 -393q0 -244 -145.5 -388.5t-348.5 -144.5q-205 0 -350 144.5t-145 388.5zM383 508q0 -135 47 -212t139 -77q90 0 138.5 77t48.5 212 t-48.5 212t-138.5 77q-92 0 -139 -77t-47 -212zM401 -305.5q0 69.5 47 114t121 44.5q72 0 119 -44.5t47 -114t-47 -113.5t-119 -44q-74 0 -121 44t-47 113.5z" />
<glyph unicode="&#x1ee4;" horiz-adv-x="1357" d="M150 618v717h301v-747q0 -190 57 -271t174 -81t177.5 81.5t60.5 270.5v747h290v-717q0 -332 -132 -487.5t-396 -155.5t-398 156.5t-134 486.5zM512 -305.5q0 69.5 47 114t121 44.5q72 0 119 -44.5t47 -114t-47 -113.5t-119 -44q-74 0 -121 44t-47 113.5z" />
<glyph unicode="&#x1ee5;" horiz-adv-x="1161" d="M119 385v631h301v-592q0 -106 30.5 -149.5t96.5 -43.5q100 0 180 113v672h301v-1016h-246l-20 141h-8q-135 -166 -320 -166q-315 0 -315 410zM451 -305.5q0 69.5 47 114t120 44.5q72 0 119 -44.5t47 -114t-47 -113.5t-119 -44q-74 0 -120.5 44t-46.5 113.5z" />
<glyph unicode="&#x1ee6;" horiz-adv-x="1357" d="M150 618v717h301v-747q0 -190 57 -271t174 -81t177.5 81.5t60.5 270.5v747h290v-717q0 -332 -132 -487.5t-396 -155.5t-398 156.5t-134 486.5zM512 1665l35 150q346 -8 346 -187q0 -100 -79 -151.5t-208 -61.5l-22 119q92 18 92 61q0 57 -164 70z" />
<glyph unicode="&#x1ee7;" horiz-adv-x="1161" d="M119 385v631h301v-592q0 -106 30.5 -149.5t96.5 -43.5q100 0 180 113v672h301v-1016h-246l-20 141h-8q-135 -166 -320 -166q-315 0 -315 410zM414 1389l35 151q344 -10 344 -188q0 -98 -79 -150.5t-206 -60.5l-23 119q92 14 93 61q0 59 -164 68z" />
<glyph unicode="&#x1ee8;" horiz-adv-x="1394" d="M150 618v717h301v-747q0 -190 57 -271t174 -81t177.5 81.5t60.5 270.5v747h143q76 4 122 30t46 97q0 45 -33 94l205 91q61 -70 61 -164q0 -109 -69.5 -172.5t-184.5 -85.5v-607q0 -332 -132 -487.5t-396 -155.5t-398 157t-134 486zM526 1438l164 245h320l-244 -245h-240z " />
<glyph unicode="&#x1ee9;" horiz-adv-x="1204" d="M119 385v631h301v-592q0 -106 30.5 -149.5t96.5 -43.5q100 0 180 113v672h102q166 8 166 127q1 49 -32 94l206 90q59 -72 60 -164q0 -182 -201 -241v-922h-246l-20 141h-8q-135 -166 -320 -166q-315 0 -315 410zM414 1176l180 307h293l-254 -307h-219z" />
<glyph unicode="&#x1eea;" horiz-adv-x="1394" d="M150 618v717h301v-747q0 -190 57 -271t174 -81t177.5 81.5t60.5 270.5v747h143q76 4 122 30t46 97q0 45 -33 94l205 91q61 -70 61 -164q0 -109 -69.5 -172.5t-184.5 -85.5v-607q0 -332 -132 -487.5t-396 -155.5t-398 157t-134 486zM346 1683h320l165 -245h-239z" />
<glyph unicode="&#x1eeb;" horiz-adv-x="1204" d="M119 385v631h301v-592q0 -106 30.5 -149.5t96.5 -43.5q100 0 180 113v672h102q166 8 166 127q1 49 -32 94l206 90q59 -72 60 -164q0 -182 -201 -241v-922h-246l-20 141h-8q-135 -166 -320 -166q-315 0 -315 410zM274 1483h291l183 -307h-220z" />
<glyph unicode="&#x1eec;" horiz-adv-x="1394" d="M150 618v717h301v-747q0 -190 57 -271t174 -81t177.5 81.5t60.5 270.5v747h143q76 4 122 30t46 97q0 45 -33 94l205 91q61 -70 61 -164q0 -109 -69.5 -172.5t-184.5 -85.5v-607q0 -332 -132 -487.5t-396 -155.5t-398 157t-134 486zM512 1665l35 150q344 -8 344 -187 q0 -190 -285 -213l-22 119q92 18 92 61q0 57 -164 70z" />
<glyph unicode="&#x1eed;" horiz-adv-x="1204" d="M119 385v631h301v-592q0 -106 30.5 -149.5t96.5 -43.5q100 0 180 113v672h102q166 8 166 127q1 49 -32 94l206 90q59 -72 60 -164q0 -182 -201 -241v-922h-246l-20 141h-8q-135 -166 -320 -166q-315 0 -315 410zM414 1389l35 151q344 -10 344 -188q0 -98 -80 -150.5 t-205 -60.5l-23 119q90 14 90 61q0 59 -161 68z" />
<glyph unicode="&#x1eee;" horiz-adv-x="1394" d="M150 618v717h301v-747q0 -190 57 -271t174 -81t177.5 81.5t60.5 270.5v747h143q76 4 122 30t46 97q0 45 -33 94l205 91q61 -70 61 -164q0 -109 -69.5 -172.5t-184.5 -85.5v-607q0 -332 -132 -487.5t-396 -155.5t-398 157t-134 486zM330 1440q16 135 75.5 206.5 t143.5 71.5q61 0 141 -46t105 -46q59 0 79 92h154q-16 -135 -76.5 -206.5t-144.5 -71.5q-59 0 -139 46t-105 46q-59 0 -80 -92h-153z" />
<glyph unicode="&#x1eef;" horiz-adv-x="1204" d="M119 385v631h301v-592q0 -106 30.5 -149.5t96.5 -43.5q100 0 180 113v672h102q166 8 166 127q1 49 -32 94l206 90q59 -72 60 -164q0 -182 -201 -241v-922h-246l-20 141h-8q-135 -166 -320 -166q-315 0 -315 410zM242 1178q14 135 70.5 205.5t140.5 70.5q59 0 139 -45 t102 -45q52 0 72 90h154q-14 -135 -71.5 -205.5t-139.5 -70.5q-59 0 -139.5 46t-104.5 46q-49 0 -70 -92h-153z" />
<glyph unicode="&#x1ef0;" horiz-adv-x="1394" d="M150 618v717h301v-747q0 -190 57 -271t174 -81t177.5 81.5t60.5 270.5v747h143q76 4 122 30t46 97q0 45 -33 94l205 91q61 -70 61 -164q0 -109 -69.5 -172.5t-184.5 -85.5v-607q0 -332 -132 -487.5t-396 -155.5t-398 157t-134 486zM512 -305.5q0 69.5 47 114t119 44.5 q74 0 121 -44.5t47 -114t-47 -113.5t-121 -44q-72 0 -119 44t-47 113.5z" />
<glyph unicode="&#x1ef1;" horiz-adv-x="1204" d="M119 385v631h301v-592q0 -106 30.5 -149.5t96.5 -43.5q100 0 180 113v672h102q166 8 166 127q1 49 -32 94l206 90q59 -72 60 -164q0 -182 -201 -241v-922h-246l-20 141h-8q-135 -166 -320 -166q-315 0 -315 410zM451 -305.5q0 69.5 46.5 114t120.5 44.5q72 0 119 -44.5 t47 -114t-47 -113.5t-119 -44q-74 0 -120.5 44t-46.5 113.5z" />
<glyph unicode="&#x1ef2;" horiz-adv-x="1073" d="M-16 1335h321l121 -307q37 -106 109 -295h8q20 55 58 152.5t54 142.5l119 307h316l-404 -860v-475h-301v475zM205 1683h319l166 -245h-241z" />
<glyph unicode="&#x1ef3;" horiz-adv-x="1067" d="M25 1016h303l145 -436q23 -72 80 -289h8q45 193 70 289l123 436h288l-352 -1026q-76 -203 -174 -295t-270 -92q-76 0 -144 20l54 230q55 -12 67 -13q133 0 178 133l15 54zM242 1483h290l183 -307h-221z" />
<glyph unicode="&#x1ef4;" horiz-adv-x="1073" d="M-16 1335h321l121 -307q37 -106 109 -295h8q20 55 58 152.5t54 142.5l119 307h316l-404 -860v-475h-301v475zM373 -305.5q0 69.5 47 114t121 44.5q72 0 119 -44.5t47 -114t-47 -113.5t-119 -44q-74 0 -121 44t-47 113.5z" />
<glyph unicode="&#x1ef5;" horiz-adv-x="1067" d="M25 1016h303l145 -436q23 -72 80 -289h8q45 193 70 289l123 436h288l-352 -1026q-76 -203 -174 -295t-270 -92q-76 0 -144 20l54 230q55 -12 67 -13q133 0 178 133l15 54zM748 -288.5q0 69.5 47 113.5t120.5 44t119.5 -44t46 -113.5t-46 -113.5t-119.5 -44t-120.5 44 t-47 113.5z" />
<glyph unicode="&#x1ef6;" horiz-adv-x="1073" d="M-16 1335h321l121 -307q37 -106 109 -295h8q20 55 58 152.5t54 142.5l119 307h316l-404 -860v-475h-301v475zM369 1665l34 150q346 -8 347 -187q0 -100 -79 -151.5t-206 -61.5l-25 119q92 18 92 61q0 57 -163 70z" />
<glyph unicode="&#x1ef7;" horiz-adv-x="1067" d="M25 1016h303l145 -436q23 -72 80 -289h8q45 193 70 289l123 436h288l-352 -1026q-76 -203 -174 -295t-270 -92q-76 0 -144 20l54 230q55 -12 67 -13q133 0 178 133l15 54zM381 1389l33 151q346 -10 346 -188q0 -98 -80 -150.5t-205 -60.5l-24 119q92 14 92 61 q0 59 -162 68z" />
<glyph unicode="&#x1ef8;" horiz-adv-x="1073" d="M-16 1335h321l121 -307q37 -106 109 -295h8q20 55 58 152.5t54 142.5l119 307h316l-404 -860v-475h-301v475zM188 1440q14 135 75 206.5t145 71.5q59 0 139 -46t104 -46q59 0 80 92h154q-14 -135 -74.5 -206.5t-144.5 -71.5q-61 0 -140.5 46t-105.5 46q-57 0 -80 -92 h-152z" />
<glyph unicode="&#x1ef9;" horiz-adv-x="1067" d="M25 1016h303l145 -436q23 -72 80 -289h8q45 193 70 289l123 436h288l-352 -1026q-76 -203 -174 -295t-270 -92q-76 0 -144 20l54 230q55 -12 67 -13q133 0 178 133l15 54zM207 1178q14 135 71.5 205.5t141.5 70.5q59 0 139 -45t103 -45q49 0 71 90h154 q-16 -135 -72.5 -205.5t-140.5 -70.5q-59 0 -138 46t-104 46q-51 0 -72 -92h-153z" />
<glyph unicode="&#x2000;" horiz-adv-x="997" />
<glyph unicode="&#x2001;" horiz-adv-x="1995" />
<glyph unicode="&#x2002;" horiz-adv-x="997" />
<glyph unicode="&#x2003;" horiz-adv-x="1995" />
<glyph unicode="&#x2004;" horiz-adv-x="665" />
<glyph unicode="&#x2005;" horiz-adv-x="498" />
<glyph unicode="&#x2006;" horiz-adv-x="332" />
<glyph unicode="&#x2007;" horiz-adv-x="1081" />
<glyph unicode="&#x2008;" horiz-adv-x="249" />
<glyph unicode="&#x2009;" horiz-adv-x="399" />
<glyph unicode="&#x200a;" horiz-adv-x="110" />
<glyph unicode="&#x2010;" horiz-adv-x="679" d="M88 412v213h504v-213h-504z" />
<glyph unicode="&#x2011;" horiz-adv-x="679" d="M88 412v213h504v-213h-504z" />
<glyph unicode="&#x2012;" horiz-adv-x="1081" d="M88 422v192h905v-192h-905z" />
<glyph unicode="&#x2013;" horiz-adv-x="983" d="M88 422v192h807v-192h-807z" />
<glyph unicode="&#x2014;" horiz-adv-x="1638" d="M88 422v192h1462v-192h-1462z" />
<glyph unicode="&#x2015;" horiz-adv-x="1638" d="M88 422v192h1462v-192h-1462z" />
<glyph unicode="&#x2018;" horiz-adv-x="614" d="M113 961q-1 295 290 438l66 -131q-184 -92 -184 -260q6 2 20 2q66 0 112 -41t46 -109q0 -76 -44 -122t-114 -46q-94 0 -143 71t-49 198z" />
<glyph unicode="&#x2019;" horiz-adv-x="614" d="M145 852q184 92 185 260q-6 -2 -19 -2q-68 0 -112.5 41t-44.5 109q0 76 44 121.5t113 45.5q92 0 142.5 -69.5t50.5 -198.5q0 -295 -293 -438z" />
<glyph unicode="&#x201a;" horiz-adv-x="614" d="M145 -215q184 92 185 260q-6 -2 -19 -2q-68 0 -112.5 41t-44.5 109q0 76 44 121.5t113 45.5q92 0 142.5 -69.5t50.5 -198.5q0 -295 -293 -438z" />
<glyph unicode="&#x201c;" horiz-adv-x="1099" d="M113 961q-1 295 290 438l66 -131q-184 -92 -184 -260q6 2 20 2q66 0 112 -41t46 -109q0 -76 -44 -122t-114 -46q-94 0 -143 71t-49 198zM596 961q0 295 293 438l65 -131q-184 -92 -184 -260q6 2 21 2q66 0 110.5 -41t44.5 -109q0 -76 -44 -122t-111 -46q-94 0 -144.5 71 t-50.5 198z" />
<glyph unicode="&#x201d;" horiz-adv-x="1099" d="M145 852q184 92 185 260q-6 -2 -19 -2q-68 0 -112.5 41t-44.5 109q0 76 44 121.5t113 45.5q92 0 142.5 -69.5t50.5 -198.5q0 -295 -293 -438zM631 852q184 92 184 260q-6 -2 -20 -2q-66 0 -112 41t-46 109q0 76 44 121.5t114 45.5q94 0 143 -69.5t49 -198.5 q0 -295 -291 -438z" />
<glyph unicode="&#x201e;" horiz-adv-x="1099" d="M145 -215q184 92 185 260q-6 -2 -19 -2q-68 0 -112.5 41t-44.5 109q0 76 44 121.5t113 45.5q92 0 142.5 -69.5t50.5 -198.5q0 -295 -293 -438zM631 -215q184 92 184 260q-6 -2 -20 -2q-66 0 -112 41t-46 109q0 76 44 121.5t114 45.5q94 0 143 -69.5t49 -198.5 q0 -295 -291 -438z" />
<glyph unicode="&#x2020;" horiz-adv-x="1044" d="M90 881v241l330 -18l-19 354h242l-18 -354l329 18v-241l-329 16l18 -1061h-242l19 1061z" />
<glyph unicode="&#x2021;" horiz-adv-x="1044" d="M90 172v242l330 -25l-19 258l19 258l-330 -24v241l330 -18l-19 354h242l-18 -354l329 18v-241l-329 24l18 -258l-18 -258l329 25v-242l-329 18l18 -354h-242l19 354z" />
<glyph unicode="&#x2022;" horiz-adv-x="706" d="M82 537q0 123 78 203.5t192 80.5q117 0 195 -81t78 -203q0 -121 -79 -203t-193.5 -82t-192.5 82t-78 203z" />
<glyph unicode="&#x2026;" horiz-adv-x="2002" d="M158 164q0 82 51 136t129 54t130 -54t52 -136q0 -80 -52 -134.5t-130 -54.5t-129 54.5t-51 134.5zM836 164q0 82 52 136t130 54t130 -54t52 -136q0 -80 -52 -134.5t-130 -54.5t-130 54.5t-52 134.5zM1516 164q0 82 51 136t129 54t130 -54t52 -136q0 -80 -52 -134.5 t-130 -54.5t-129 54.5t-51 134.5z" />
<glyph unicode="&#x202f;" horiz-adv-x="399" />
<glyph unicode="&#x2030;" horiz-adv-x="2557" d="M53 938q0 197 92.5 309.5t239.5 112.5t240.5 -112.5t93.5 -309.5t-93.5 -311.5t-240.5 -114.5t-239.5 114.5t-92.5 311.5zM262 938q0 -258 123 -258t123 258q0 254 -123 254t-123 -254zM430 -25l721 1385h174l-721 -1385h-174zM1036 401.5q0 196.5 92.5 309t239.5 112.5 q150 0 242 -112.5t92 -309.5q0 -199 -92 -312.5t-242 -113.5q-147 0 -239.5 115t-92.5 311.5zM1245 401q0 -258 123 -258q125 0 125 258q0 254 -125 254q-123 0 -123 -254zM1839 401q0 197 92 309.5t242 112.5q147 0 239.5 -112.5t92.5 -309t-92.5 -311.5t-239.5 -115 q-150 0 -242 114t-92 312zM2048 401q0 -258 125 -258q123 0 123 258q0 254 -123 254q-125 0 -125 -254z" />
<glyph unicode="&#x2032;" horiz-adv-x="614" d="M164 727l43 678h301l-53 -297l-97 -381h-194z" />
<glyph unicode="&#x2033;" horiz-adv-x="1099" d="M164 727l43 678h301l-53 -297l-97 -381h-194zM647 727l45 678h299l-51 -297l-96 -381h-197z" />
<glyph unicode="&#x2039;" horiz-adv-x="598" d="M100 410v213l275 295l112 -91l-227 -311l227 -311l-112 -90z" />
<glyph unicode="&#x203a;" horiz-adv-x="598" d="M111 205l227 311l-227 311l112 91l275 -295v-213l-275 -295z" />
<glyph unicode="&#x2044;" horiz-adv-x="196" d="M-350 -25l721 1385h174l-721 -1385h-174z" />
<glyph unicode="&#x205f;" horiz-adv-x="498" />
<glyph unicode="&#x2070;" horiz-adv-x="770" d="M53 1302.5q0 196.5 92.5 309t239.5 112.5t240.5 -112.5t93.5 -309t-93.5 -311t-240.5 -114.5t-239.5 114.5t-92.5 311zM262 1303q0 -259 123 -259t123 259q0 254 -123 253.5t-123 -253.5z" />
<glyph unicode="&#x2071;" horiz-adv-x="385" d="M72 1407q0 47 33.5 76.5t87 29.5t87 -30.5t33.5 -75.5q0 -47 -33.5 -78t-87 -31t-87 31t-33.5 78zM86 532v674h213v-674h-213z" />
<glyph unicode="&#x2074;" horiz-adv-x="770" d="M72 1079v111l288 510h275v-477h119v-144h-119v-178h-197v178h-366zM274 1223h164v84l13 239h-9l-82 -157z" />
<glyph unicode="&#x2075;" horiz-adv-x="770" d="M55 1038l133 105q74 -98 170 -99q49 0 83 36t34 85q0 55 -34.5 87t-86.5 32q-63 0 -118 -47l-95 66l35 397h483v-187h-309l-12 -110q53 12 94 12q111 0 185.5 -70.5t74.5 -189.5q0 -121 -87 -199.5t-222 -78.5q-217 -1 -328 161z" />
<glyph unicode="&#x2076;" horiz-adv-x="770" d="M74 1296q0 195 98 311.5t274 116.5q140 0 236 -84l-86 -137q-72 53 -135 53q-162 0 -185 -215q74 70 170 70q115 0 182.5 -68.5t67.5 -183.5q0 -121 -80.5 -201.5t-201.5 -80.5q-160 0 -250 113.5t-90 305.5zM276 1204q8 -82 43 -121t84 -39q41 0 69 28t28 81 q0 109 -105 109q-61 0 -119 -58z" />
<glyph unicode="&#x2077;" horiz-adv-x="770" d="M102 1516v184h603v-119q-129 -164 -174.5 -310.5t-57.5 -369.5h-233q10 180 60 314.5t159 300.5h-357z" />
<glyph unicode="&#x2078;" horiz-adv-x="770" d="M78 1104q0 125 147 207v8q-119 84 -119 186q0 100 80 159.5t199 59.5q121 0 201 -59t80 -160q0 -106 -119 -176v-8q143 -78 143 -215q0 -96 -87 -162.5t-218 -66.5q-133 0 -220 66.5t-87 160.5zM279 1126q0 -43 30.5 -72.5t75.5 -29.5t76 28.5t31 69.5q0 16 -6.5 28.5 t-12.5 22t-23.5 19.5t-27.5 15t-36 17.5t-38 18.5q-69 -47 -69 -117zM301 1499q0 -39 29 -62t88 -48q51 49 51 102q0 37 -24.5 59.5t-61.5 22.5q-35 0 -58.5 -20.5t-23.5 -53.5z" />
<glyph unicode="&#x2079;" horiz-adv-x="770" d="M72 1442q0 121 82 201.5t202 80.5q160 0 250 -113.5t90 -306t-99 -310t-273 -117.5q-140 0 -236 84l86 137q72 -53 135 -54q162 0 185 216q-74 -70 -172 -70q-115 0 -182.5 68.5t-67.5 183.5zM268 1448q1 -109 105 -109q63 0 121 60q-20 158 -129 157q-41 0 -69 -27.5 t-28 -80.5z" />
<glyph unicode="&#x207d;" horiz-adv-x="548" d="M129 1302.5q0 174.5 45 306.5t141 277l162 -65q-139 -250 -139 -518q0 -266 139 -521l-162 -65q-96 145 -141 278t-45 307.5z" />
<glyph unicode="&#x207e;" horiz-adv-x="548" d="M72 782q139 254 139 521q0 268 -139 518l164 65q94 -145 139 -278t45 -305q0 -174 -45 -307.5t-139 -278.5z" />
<glyph unicode="&#x207f;" horiz-adv-x="786" d="M86 532v674h170l18 -88h5q104 104 217 105q213 0 213 -277v-414h-213v390q0 68 -15.5 95t-64.5 27q-53 0 -117 -63v-449h-213z" />
<glyph unicode="&#x2080;" horiz-adv-x="770" d="M53 -118.5q0 196.5 92.5 309t239.5 112.5t240.5 -112.5t93.5 -309t-93.5 -311.5t-240.5 -115t-239.5 115t-92.5 311.5zM262 -119q0 -258 123 -258t123 258q0 254 -123 254t-123 -254z" />
<glyph unicode="&#x2081;" horiz-adv-x="770" d="M156 55v135q131 18 229 89h176v-799h-223v575h-182z" />
<glyph unicode="&#x2082;" horiz-adv-x="770" d="M55 139q123 164 305 164q135 0 215 -71.5t80 -198.5q0 -61 -33.5 -129t-70.5 -114t-109 -126h242v-184h-592v119q180 147 265 237t85 160q0 59 -30.5 92t-85.5 33q-72 0 -146 -96z" />
<glyph unicode="&#x2083;" horiz-adv-x="770" d="M55 -383l133 104q72 -98 170 -98q49 0 82 25.5t33 70.5q0 104 -190 105v127q162 0 161 98q0 39 -26.5 62.5t-73.5 23.5q-66 0 -131 -80l-125 111q68 72 135.5 104.5t159.5 32.5q115 0 197 -61.5t82 -161.5q0 -117 -117 -184q145 -57 145 -193q0 -109 -91 -178.5 t-218 -69.5q-217 0 -326 162z" />
<glyph unicode="&#x2084;" horiz-adv-x="770" d="M72 -231l288 510h275v-478h119v-143h-119v-178h-197v178h-366v111zM274 -199h164v84l13 240h-9l-82 -158z" />
<glyph unicode="&#x2085;" horiz-adv-x="770" d="M55 -383l133 104q74 -98 170 -98q49 0 83 36t34 85q0 55 -34.5 87t-86.5 32q-63 0 -118 -47l-95 65l35 398h483v-187h-309l-12 -110q51 12 94 12q111 0 185.5 -70.5t74.5 -189.5q0 -121 -87 -200t-222 -79q-217 0 -328 162z" />
<glyph unicode="&#x2086;" horiz-adv-x="770" d="M74 -125q0 195 98 311.5t274 116.5q140 0 236 -84l-86 -137q-72 53 -135 53q-162 0 -185 -215q74 70 170 70q115 0 182.5 -68.5t67.5 -183.5q0 -121 -80.5 -202t-201.5 -81q-160 0 -250 114t-90 306zM276 -217q8 -82 43 -121t84 -39q41 0 69 27.5t28 81.5q0 109 -105 108 q-61 0 -119 -57z" />
<glyph unicode="&#x2087;" horiz-adv-x="770" d="M102 94v185h603v-119q-129 -164 -174.5 -310.5t-57.5 -369.5h-233q10 180 60 314t159 300h-357z" />
<glyph unicode="&#x2088;" horiz-adv-x="770" d="M78 -317q0 125 147 206v9q-119 84 -119 186q0 100 80 159.5t199 59.5q121 0 201 -59.5t80 -159.5q0 -106 -119 -176v-8q143 -78 143 -215q0 -96 -87 -163t-218 -67q-133 0 -220 67t-87 161zM279 -297q0 -41 30.5 -70.5t75.5 -29.5t76 28.5t31 69.5q0 16 -6.5 28.5 t-12.5 21.5t-23.5 19.5t-27.5 15.5t-36 17.5t-38 18.5q-69 -47 -69 -119zM301 78q0 -39 29 -62.5t88 -48.5q51 49 51 101q0 39 -24.5 61.5t-61.5 22.5q-35 0 -58.5 -20.5t-23.5 -53.5z" />
<glyph unicode="&#x2089;" horiz-adv-x="770" d="M72 20q0 121 82 202t202 81q160 0 250 -113.5t90 -306t-99 -310.5t-273 -118q-140 0 -236 84l86 137q72 -53 135 -53q162 0 185 215q-74 -70 -172 -69q-115 0 -182.5 68.5t-67.5 182.5zM268 27q1 -109 105 -109q63 0 121 59q-20 158 -129 158q-41 0 -69 -27.5t-28 -80.5z " />
<glyph unicode="&#x208d;" horiz-adv-x="548" d="M129 -119q0 174 45 306t141 278l162 -66q-139 -250 -139 -518q0 -266 139 -520l-162 -66q-96 145 -141 278.5t-45 307.5z" />
<glyph unicode="&#x208e;" horiz-adv-x="548" d="M72 399l164 66q94 -145 139 -278.5t45 -305.5q0 -174 -45 -307t-139 -279l-164 66q139 254 139 520q0 268 -139 518z" />
<glyph unicode="&#x2094;" horiz-adv-x="708" d="M43 842q0 39 12 86h402q-25 133 -152 133q-80 0 -145 -41l-74 127q115 76 246 76q147 0 237 -96.5t90 -256.5q0 -158 -94 -256t-229 -98q-143 0 -218 94.5t-75 231.5zM223 807q0 -129 110.5 -129t125.5 129h-236z" />
<glyph unicode="&#x20a1;" horiz-adv-x="1081" d="M111 643q0 276 127 452.5t342 217.5l24 213h103l-25 -201h23q18 0 59 -4l24 205h103l-29 -232q115 -49 193 -145l-166 -164q-28 31 -55 55l-99 -827q86 20 154 106l168 -155q-150 -172 -350 -187l-25 -202h-102l24 202q-53 8 -80 15l-26 -217h-103l31 252 q-147 72 -231 228.5t-84 387.5zM414 653q0 -178 51 -293l82 684q-133 -102 -133 -391zM555 248q31 -23 78 -33l102 872q-25 4 -39 5q-29 0 -41 -2z" />
<glyph unicode="&#x20a4;" horiz-adv-x="1081" d="M98 0v186q82 37 140.5 104.5t72.5 153.5h-205v142l152 10h45q-8 33 -29 98h-168v142l119 12h6q-6 29 -6 57q0 190 123 305t316 115q211 0 354 -166l-164 -164q-72 86 -162 86q-84 0 -131 -48t-47 -144q0 -27 2 -41h324v-154h-291q8 -33 20 -98h271v-152h-262 q-15 -98 -91 -182v-8h531v-254h-920z" />
<glyph unicode="&#x20a6;" horiz-adv-x="1081" d="M6 483v107l144 12v98h-144v107l144 12v481h278l164 -481h123v481h217v-481h141v-119h-141v-98h141v-119h-141v-483h-279l-164 483h-122v-483h-217v483h-144zM311 1077l27 -258h55l-74 258h-8zM350 700l8 -98h97l-29 98h-76zM627 700l28 -98h76l-8 98h-96zM688 483 l74 -260h8l-27 260h-55z" />
<glyph unicode="&#x20a7;" horiz-adv-x="1081" d="M6 778v174l127 11v337h352q403 0 457 -335h121v-187h-119q-29 -168 -155.5 -256t-303.5 -88h-67v-434h-285v778h-127zM418 625h51q156 0 193 153h-244v-153zM418 965h244q-35 147 -193 147h-51v-147z" />
<glyph unicode="&#x20ab;" horiz-adv-x="1081" d="M133 627q0 164 102.5 265t235.5 101q113 0 199 -80l-8 138v30h-295v152h295v100h247v-100h150v-139l-150 -13v-823h-204l-19 74h-6q-88 -94 -217 -94q-152 0 -241 102t-89 287zM160 0v152h817v-152h-817zM387 625q0 -188 137 -189q77 0 138 74v227q-59 53 -130 54 q-59 0 -102 -45.5t-43 -120.5z" />
<glyph unicode="&#x20ac;" horiz-adv-x="1081" d="M43 440v142l111 8q-2 18 -2 53t2 53h-111v140l127 10q47 227 191.5 353t351.5 126q197 0 334 -160l-168 -161q-88 88 -177 88q-86 0 -145 -63.5t-84 -180.5h438v-152h-456v-43q0 -41 2 -59h372v-154h-352q57 -231 232 -231q106 -1 188 110l166 -155q-154 -188 -373 -189 q-197 0 -336 121t-184 344h-127z" />
<glyph unicode="&#x20b1;" horiz-adv-x="1081" d="M6 709v106l127 10v95h-127v106l127 10v264h352q352 0 441 -262h137v-118h-115q2 -18 2 -56q0 -25 -2 -37h115v-118h-137q-45 -135 -164 -205t-277 -70h-67v-434h-285v709h-127zM418 625h51q113 0 164 84h-215v-84zM418 827h252q2 12 2 37q0 39 -2 56h-252v-93zM418 1038 h213q-49 74 -162 74h-51v-74z" />
<glyph unicode="&#x20b2;" horiz-adv-x="1081" d="M78 643q0 276 122 451.5t328 218.5v213h201v-207q160 -27 285 -160l-166 -164q-100 96 -205 97q-127 0 -195.5 -116t-68.5 -323q0 -211 70.5 -322.5t199.5 -111.5q59 0 96 27v250h-141v245h410v-614q-125 -113 -285 -143v-209h-201v209q-205 35 -327.5 205.5 t-122.5 453.5z" />
<glyph unicode="&#x20b5;" horiz-adv-x="1081" d="M111 643q0 281 129 457t348 215v192h166v-184q168 -23 284 -158l-166 -161q-55 63 -118 79v-864q74 24 135 100l168 -155q-127 -150 -303 -180v-209h-166v205q-217 29 -347 200.5t-130 462.5zM414 653q0 -344 174 -424v840q-174 -80 -174 -416z" />
<glyph unicode="&#x20b9;" horiz-adv-x="1081" d="M141 412v239h133q195 0 236 146h-369v139l152 12h215q-39 113 -234 113h-133v239h811v-151h-270q98 -70 125 -201h145v-151h-143q-29 -240 -242 -334l351 -463h-338l-293 412h-146z" />
<glyph unicode="&#x20ba;" horiz-adv-x="1081" d="M29 367v165l155 84v113l-155 -84v166l155 84v405h301v-258l299 158v-166l-299 -157v-113l299 158v-166l-299 -158v-342q117 12 198 85t81 179q0 31 -4 62l248 57q14 -57 14 -104q0 -279 -219 -424.5t-619 -135.5v476z" />
<glyph unicode="&#x2113;" horiz-adv-x="962" d="M20 401q98 59 201 125v451q0 248 104.5 373t278.5 125q152 0 241 -93.5t89 -255.5q0 -190 -98.5 -342.5t-321.5 -318.5v-51q0 -96 44 -142.5t114 -46.5q90 0 192 90l109 -182q-178 -158 -348 -158q-145 0 -254 78t-140 223q-10 -6 -43.5 -26.5t-54.5 -32.5zM514 750 q178 172 178 376q0 129 -78 129q-43 0 -71.5 -58t-28.5 -179v-268z" />
<glyph unicode="&#x2117;" horiz-adv-x="1536" d="M92 665.5q0 307.5 196.5 491.5t479.5 184t478.5 -184t195.5 -491q0 -309 -195.5 -496.5t-478.5 -187.5t-479.5 188t-196.5 495.5zM231 665.5q0 -247.5 154 -403.5t383 -156t383 156t154 403.5t-154 400.5t-383 153t-383 -153t-154 -400.5zM489 285v747h297 q160 0 256.5 -63.5t96.5 -202.5q0 -145 -99.5 -220t-253.5 -75h-79v-186h-218zM707 627h63q156 0 156 131q0 113 -156 112h-63v-243z" />
<glyph unicode="&#x2120;" horiz-adv-x="1396" d="M37 817l100 123q84 -76 164 -76q59 0 59 43q0 4 -1 9.5t-2 8.5t-4 7t-5 6t-8 6t-8 5t-10.5 5t-11.5 6.5t-12 6.5t-13 6l-88 39q-127 59 -127 190q0 86 67.5 145.5t177.5 59.5q115 0 224 -82l-93 -125q-86 57 -141 57q-59 0 -59 -45q0 -29 76 -59l86 -37q133 -51 133 -188 q0 -86 -70.5 -148.5t-183.5 -62.5q-137 0 -250 100zM647 741v643h227l78 -184l41 -137h8l43 137l76 184h230v-643h-191v197l23 236h-8l-109 -338h-133l-109 338h-8l23 -236v-197h-191z" />
<glyph unicode="&#x2122;" horiz-adv-x="1396" d="M8 1206v178h551v-178h-178v-465h-195v465h-178zM647 741v643h227l78 -184l41 -137h8l43 137l76 184h230v-643h-191v197l23 236h-8l-109 -338h-133l-109 338h-8l23 -236v-197h-191z" />
<glyph unicode="&#x2126;" horiz-adv-x="1490" d="M86 0v244h233v8q-82 82 -141 208t-59 275q0 297 172 469t454.5 172t454.5 -172t172 -469q0 -150 -60.5 -275.5t-140.5 -207.5v-8h232v-244h-565v199q225 184 225 518q0 182 -86 290.5t-231.5 108.5t-231.5 -108.5t-86 -290.5q0 -336 225 -518v-199h-567z" />
<glyph unicode="&#x212e;" horiz-adv-x="1638" d="M94 665.5q0 284.5 213 486.5t514 202t513 -201t212 -487v-19h-1177q-8 0 -9 -8v-375q1 -18 17 -43q180 -203 446 -203q137 0 259 60.5t208 167.5h107q-102 -125 -253 -197t-323 -72q-301 0 -514 202t-213 486.5zM360 696q1 -10 9 -10h903q10 0 10 10v377q0 23 -18 45 q-188 195 -441 195q-260 0 -444 -201q-18 -23 -19 -47v-369z" />
<glyph unicode="&#x2153;" horiz-adv-x="1714" d="M94 1110v137q131 18 230 88h176v-798h-224v573h-182zM336 -25l721 1385h174l-721 -1385h-174zM999 137l134 105q72 -98 170 -99q49 0 81.5 26t32.5 71q0 104 -190 104v127q162 0 162 98q0 39 -28 62.5t-73 23.5q-66 0 -131 -80l-125 111q125 137 295 137q115 0 196 -61.5 t81 -161.5q0 -117 -115 -184q145 -57 145 -193q0 -109 -91 -178.5t-218 -69.5q-217 0 -326 162z" />
<glyph unicode="&#x2154;" horiz-adv-x="1738" d="M59 1196q127 164 306 164q135 0 214.5 -71.5t79.5 -198.5q0 -61 -33.5 -130t-69.5 -114t-110 -125h242v-184h-594v118q180 145 266 236.5t86 159.5q0 59 -30.5 93t-85.5 34q-72 0 -146 -97zM438 -25l721 1385h174l-721 -1385h-174zM1024 137l133 105q72 -98 168 -99 q51 0 84 26t33 71q0 104 -191 104v127q160 0 160 98q0 39 -26.5 62.5t-71.5 23.5q-66 0 -131 -80l-125 111q125 137 293 137q117 0 197.5 -61.5t80.5 -161.5q0 -115 -115 -184q145 -59 146 -193q0 -109 -92 -178.5t-219 -69.5q-215 0 -324 162z" />
<glyph unicode="&#x215b;" horiz-adv-x="1714" d="M94 1110v137q131 18 230 88h176v-798h-224v573h-182zM356 -25l721 1385h174l-721 -1385h-174zM1022 203q0 123 145 207v8q-119 84 -118 186q0 100 80.5 159.5t199.5 59.5q121 0 201 -59t80 -160q0 -109 -121 -176v-8q145 -76 145 -215q0 -96 -87 -163t-218 -67 q-133 0 -220 67t-87 161zM1223 225q0 -43 29.5 -72.5t76.5 -29.5q45 0 76 28.5t31 69.5q0 16 -6.5 28.5t-12.5 22t-23.5 19.5t-27.5 15t-35.5 17.5t-38.5 18.5q-69 -47 -69 -117zM1245 598q0 -39 29 -62.5t88 -48.5q51 49 51 103q0 37 -24.5 59.5t-61.5 22.5 q-35 0 -58.5 -20.5t-23.5 -53.5z" />
<glyph unicode="&#x215c;" horiz-adv-x="1738" d="M55 674l133 104q72 -98 170 -98q49 0 82 25.5t33 70.5q0 104 -190 105v127q162 0 161 98q0 39 -26.5 62.5t-73.5 23.5q-66 0 -131 -80l-125 111q131 137 295 137q115 0 197 -61.5t82 -161.5q0 -117 -117 -185q66 -27 105.5 -77t39.5 -117q0 -109 -91 -177.5t-218 -68.5 q-217 0 -326 162zM422 -25l721 1385h172l-719 -1385h-174zM1047 203q0 123 145 207v8q-119 84 -119 186q0 100 80 159.5t199 59.5q123 0 202.5 -59t79.5 -160q0 -109 -121 -176v-8q145 -76 146 -215q0 -96 -87 -163t-220 -67q-131 0 -218 67t-87 161zM1247 225 q0 -43 30 -72.5t75 -29.5t75.5 28.5t30.5 69.5q0 14 -3 24.5t-11 20.5t-15.5 16.5t-23.5 15.5t-25.5 14t-32 15.5t-32.5 14.5q-68 -49 -68 -117zM1270 598q0 -39 28.5 -62.5t87.5 -48.5q51 49 52 103q0 37 -24.5 59.5t-61.5 22.5q-35 0 -58.5 -20.5t-23.5 -53.5z" />
<glyph unicode="&#x215d;" horiz-adv-x="1738" d="M55 674l133 104q74 -98 170 -98q49 0 83 35t34 84q0 55 -34.5 88t-86.5 33q-63 0 -118 -48l-95 66l35 397h483v-186h-309l-12 -113q49 14 94 15q111 0 185.5 -72t74.5 -190.5t-87 -197.5t-222 -79q-217 0 -328 162zM422 -25l721 1385h172l-719 -1385h-174zM1047 203 q0 123 145 207v8q-119 84 -119 186q0 100 80 159.5t199 59.5q123 0 202.5 -59t79.5 -160q0 -109 -121 -176v-8q145 -76 146 -215q0 -96 -87 -163t-220 -67q-131 0 -218 67t-87 161zM1247 225q0 -43 30 -72.5t75 -29.5t75.5 28.5t30.5 69.5q0 14 -3 24.5t-11 20.5t-15.5 16.5 t-23.5 15.5t-25.5 14t-32 15.5t-32.5 14.5q-68 -49 -68 -117zM1270 598q0 -39 28.5 -62.5t87.5 -48.5q51 49 52 103q0 37 -24.5 59.5t-61.5 22.5q-35 0 -58.5 -20.5t-23.5 -53.5z" />
<glyph unicode="&#x215e;" horiz-adv-x="1697" d="M61 1149v186h603v-118q-129 -164 -174.5 -310.5t-57.5 -369.5h-233q10 180 60 314t159 298h-357zM319 -25l721 1385h172l-718 -1385h-175zM1006 203q0 123 145 207v8q-119 84 -119 186q0 100 80 159.5t199 59.5q123 0 202.5 -59t79.5 -160q0 -109 -120 -176v-8 q145 -76 145 -215q0 -96 -87 -163t-220 -67q-131 0 -218 67t-87 161zM1206 225q0 -43 30 -72.5t75 -29.5t75.5 28.5t30.5 69.5q0 14 -3 24.5t-11 20.5t-15.5 16.5t-23.5 15.5t-25.5 14t-32 15.5t-32.5 14.5q-68 -49 -68 -117zM1229 598q0 -39 29 -62.5t88 -48.5 q51 49 51 103q0 37 -24.5 59.5t-61.5 22.5q-35 0 -58.5 -20.5t-23.5 -53.5z" />
<glyph unicode="&#x2190;" horiz-adv-x="1263" d="M45 512v8l569 547l142 -162l-307 -270h733v-238h-733l307 -270l-142 -162z" />
<glyph unicode="&#x2191;" horiz-adv-x="1263" d="M80 514l547 569h8l549 -569l-164 -141l-268 307v-733h-240v733l-270 -307z" />
<glyph unicode="&#x2192;" horiz-adv-x="1263" d="M82 397v238h731l-307 270l143 162l570 -547v-8l-570 -547l-143 162l307 270h-731z" />
<glyph unicode="&#x2193;" horiz-adv-x="1263" d="M80 516l162 143l270 -307v731h240v-731l268 307l164 -143l-549 -569h-8z" />
<glyph unicode="&#x2202;" horiz-adv-x="1181" d="M98 379q0 211 123 343t318 132q150 0 260 -123v33q0 369 -224 369q-112 -1 -210 -93l-129 185q170 152 372 151q231 0 353 -167t122 -453q0 -350 -161.5 -565.5t-421.5 -215.5q-170 0 -286 112t-116 292zM375 397q0 -84 45.5 -131t111.5 -47q186 0 244 285 q-78 121 -203 121q-90 0 -144 -58.5t-54 -169.5z" />
<glyph unicode="&#x2206;" horiz-adv-x="1331" d="M70 0v182l415 1170h361l416 -1170v-182h-1192zM410 254h510l-154 467l-96 348h-8l-97 -348z" />
<glyph unicode="&#x220f;" horiz-adv-x="1454" d="M164 -246v1546h1126v-1546h-301v1284h-524v-1284h-301z" />
<glyph unicode="&#x2211;" horiz-adv-x="1093" d="M53 -68l424 594l-401 596v178h950v-253h-586v-9l344 -512l-358 -510v-8h649v-254h-1022v178z" />
<glyph unicode="&#x2212;" horiz-adv-x="1081" d="M70 569v213h942v-213h-942z" />
<glyph unicode="&#x2215;" horiz-adv-x="196" d="M-350 -25l721 1385h174l-721 -1385h-174z" />
<glyph unicode="&#x2219;" horiz-adv-x="1083" d="M358 674q0 80 52.5 134t130 54t129 -54t51.5 -134t-51.5 -135.5t-129 -55.5t-130 55.5t-52.5 135.5z" />
<glyph unicode="&#x221a;" horiz-adv-x="1204" d="M55 756l357 145l202 -602q23 -78 43 -168h9q12 90 30 168l322 1380h201l-443 -1843h-209l-307 842l-151 -64z" />
<glyph unicode="&#x221e;" horiz-adv-x="1667" d="M76 649q0 197 106.5 309.5t282.5 112.5q197 0 336 -188h8q170 221 393 221q164 0 276.5 -116t112.5 -292q0 -215 -115.5 -340t-289.5 -125q-127 0 -224.5 57.5t-193.5 184.5h-8q-143 -188 -336 -188q-145 0 -246.5 108.5t-101.5 255.5zM297 655.5q0 -61.5 42 -106.5 t112 -45q117 0 208 135q-100 154 -219 154q-70 0 -106.5 -38t-36.5 -99.5zM909 717q76 -102 137.5 -154.5t139.5 -52.5q84 0 134 52t50 128q0 90 -54 142.5t-145 52.5q-143 0 -262 -168z" />
<glyph unicode="&#x222b;" horiz-adv-x="798" d="M86 -307l29 217q41 -8 73 -8q78 0 103.5 60.5t25.5 211.5q0 154 -38.5 461t-38.5 479q0 244 81.5 375t305.5 131q63 0 116 -14l-30 -220q-25 8 -72 9q-78 0 -103.5 -60.5t-25.5 -212.5q0 -154 38 -461t38 -479q0 -119 -15.5 -202.5t-55.5 -156.5t-119 -110t-195 -37 q-72 0 -117 17z" />
<glyph unicode="&#x2248;" horiz-adv-x="1081" d="M59 410q135 211 308 211q57 0 110 -24t87 -53.5t76 -53t79 -23.5q80 0 147 117l156 -119q-137 -211 -307 -211q-72 0 -136.5 39t-117.5 77t-99 38q-79 0 -147 -117zM59 887q137 211 308 211q72 0 136 -39t117.5 -77t98.5 -38q80 0 147 117l156 -119q-135 -211 -307 -211 q-57 0 -110.5 23.5t-87.5 53.5t-76 53.5t-79 23.5q-79 0 -147 -117z" />
<glyph unicode="&#x2260;" horiz-adv-x="1081" d="M70 332v211h301l149 266h-450v211h567l147 250h193l-148 -250h183v-211h-301l-150 -266h451v-211h-568l-147 -250h-191l146 250h-182z" />
<glyph unicode="&#x2264;" horiz-adv-x="1081" d="M70 0v213h942v-213h-942zM70 606v250l942 291v-248l-353 -94l-284 -70v-8l284 -70l353 -94v-248z" />
<glyph unicode="&#x2265;" horiz-adv-x="1081" d="M70 0v213h942v-213h-942zM70 315v248l352 94l285 70v8l-285 70l-352 94v248l942 -291v-250z" />
<glyph unicode="&#x25a0;" horiz-adv-x="706" d="M111 291v493h485v-493h-485z" />
<glyph unicode="&#x25b2;" horiz-adv-x="1212" d="M39 43v4l563 1069h8l561 -1069v-4h-1132z" />
<glyph unicode="&#x25b3;" horiz-adv-x="1212" d="M39 43v4l563 1069h8l561 -1069v-4h-1132zM379 238h457l-230 456z" />
<glyph unicode="&#x25b6;" horiz-adv-x="1212" d="M109 10v1133h4l1071 -561v-9l-1071 -563h-4z" />
<glyph unicode="&#x25b7;" horiz-adv-x="1212" d="M109 10v1133h4l1071 -561v-9l-1071 -563h-4zM305 348l455 230l-455 227v-457z" />
<glyph unicode="&#x25bc;" horiz-adv-x="1212" d="M39 1108v4h1132v-4l-561 -1069h-8z" />
<glyph unicode="&#x25bd;" horiz-adv-x="1212" d="M39 1108v4h1132v-4l-561 -1071h-8zM379 915l227 -454l230 454h-457z" />
<glyph unicode="&#x25c0;" horiz-adv-x="1212" d="M29 573v9l1069 561h4v-1133h-4z" />
<glyph unicode="&#x25c1;" horiz-adv-x="1212" d="M29 573v9l1069 561h4v-1133h-4zM453 578l454 -230v457z" />
<glyph unicode="&#x25c6;" horiz-adv-x="706" d="M16 537l338 337l336 -337l-336 -336z" />
<glyph unicode="&#x25c9;" horiz-adv-x="993" d="M82 536.5q0 182.5 118.5 301t295 118.5t295 -118.5t118.5 -301t-118.5 -300t-295 -117.5t-295 117.5t-118.5 300zM242 537q0 -117 72.5 -192t181 -75t181.5 75t73 192q0 119 -73 192.5t-181.5 73.5t-181 -74t-72.5 -192zM360 537q0 61 39 102t97 41q59 0 98 -41t39 -102 q0 -59 -40 -100.5t-97.5 -41.5t-96.5 41t-39 101z" />
<glyph unicode="&#x25ca;" horiz-adv-x="1122" d="M106 676l332 696h246l332 -696l-332 -696h-246zM354 676l92 -197l111 -248h8l111 248l92 197l-92 196l-111 248h-8l-111 -248z" />
<glyph unicode="&#x2610;" horiz-adv-x="1652" d="M152 -20v1269l153 133h1196v-1249l-133 -153h-1216zM270 98h1049v1102h-1049v-1102z" />
<glyph unicode="&#x2611;" horiz-adv-x="1652" d="M152 -20v1269l153 133h938q105 152 230 283l184 -162q-86 -84 -156 -166v-1204l-133 -153h-1216zM270 98h1049v992q-236 -369 -365 -836l-282 -33q-106 291 -287 557l193 125q113 -182 210 -457h9q119 401 329 754h-856v-1102z" />
<glyph unicode="&#x266a;" horiz-adv-x="1114" d="M51 119q0 111 101.5 190.5t246.5 79.5q84 0 121 -24v1056h160q18 -35 44 -58.5t103 -76.5q141 -96 198.5 -191.5t57.5 -222.5q0 -162 -100 -303l-100 41q29 88 28 189q0 94 -60 175t-165 116v-740q0 -197 -108.5 -302t-296.5 -105q-94 0 -162 45t-68 131z" />
<glyph unicode="&#x2713;" horiz-adv-x="1325" d="M14 571l193 125q141 -221 256 -512h8q109 367 286 690.5t386 534.5l184 -160q-483 -454 -706 -1257l-283 -33q-125 334 -324 612z" />
<glyph unicode="&#x2752;" horiz-adv-x="849" d="M111 209v520l137 117h491v-500l-116 -137h-512zM211 309h362v371h-362v-371z" />
<glyph unicode="&#xe000;" horiz-adv-x="1014" d="M0 1015h1015v-1015h-1015v1015z" />
<glyph unicode="&#xfb01;" horiz-adv-x="1300" d="M49 780v224l135 10v55q0 176 90.5 283.5t284.5 107.5q100 0 203 -37l-55 -221q-57 20 -105 21q-117 0 -117 -146v-61h183v-236h-183v-780h-301v780h-135zM844 1323q0 70 49 113t125 43q78 0 126 -43t48 -113t-49 -114t-125 -44t-125 44t-49 114zM868 0v1016h301v-1016 h-301z" />
<glyph unicode="&#xfb02;" horiz-adv-x="1284" d="M49 780v224l135 10v55q0 176 90.5 283.5t284.5 107.5q100 0 203 -37l-55 -221q-57 20 -105 21q-117 0 -117 -146v-61h183v-236h-183v-780h-301v780h-135zM831 315v1121h302v-1133q0 -84 53 -84q21 0 37 4l37 -223q-55 -25 -152 -25q-276 0 -277 340z" />
<glyph horiz-adv-x="1302" d="M92 659q0 322 188.5 511.5t469.5 189.5q242 0 415 -174l-166 -187q-111 100 -245 101q-156 0 -254.5 -116t-98.5 -314q0 -209 95.5 -321.5t281.5 -112.5q90 0 142 40v230h-222v246h490v-615q-80 -70 -199 -116t-250 -46q-283 0 -465 179t-182 505zM401 1440 q14 135 75 206.5t145 71.5q61 0 140 -46t105 -46q57 0 80 92h152q-14 -135 -74.5 -206.5t-144.5 -71.5q-61 0 -140.5 46t-105.5 46q-57 0 -78 -92h-154z" />
<glyph horiz-adv-x="1093" d="M70 -174q0 123 145 205v8q-94 61 -94 172q0 113 115 190v9q-59 41 -98.5 110.5t-39.5 153.5q0 174 122 270t298 96q90 0 158 -24h371v-219h-162q33 -55 33 -133q0 -168 -112 -255t-288 -87q-59 0 -123 20q-37 -31 -37 -76q0 -76 154 -76h164q387 0 387 -258 q0 -160 -154.5 -262t-412.5 -102q-190 0 -308 64.5t-118 193.5zM176 1178q14 135 70.5 205.5t140.5 70.5q61 0 140 -45t102 -45q51 0 71 90h154q-14 -135 -71.5 -205.5t-139.5 -70.5q-59 0 -139 46t-105 46q-49 0 -69 -92h-154zM317 -127q0 -55 60.5 -86t165.5 -31 q100 0 166.5 36t66.5 89q0 45 -38 62.5t-117 17.5h-105q-94 0 -143 12q-56 -49 -56 -100zM379 674q0 -82 39 -126t100.5 -44t100 44t38.5 126q0 78 -38.5 121t-100 43t-100.5 -42t-39 -122z" />
<glyph horiz-adv-x="565" d="M84 -244q0 137 133 244h-84v1016h301v-1016q-147 -55 -147 -174q0 -39 25.5 -58.5t62.5 -19.5q23 0 71 25l62 -135q-37 -31 -97.5 -49.5t-109.5 -18.5q-94 0 -155.5 49t-61.5 137z" />
<glyph horiz-adv-x="811" d="M106 0v254h148v827h-148v254h599v-254h-150v-827h150v-254h-599z" />
<glyph horiz-adv-x="811" d="M74 1683h319l166 -245h-242zM106 0v254h148v827h-148v254h599v-254h-150v-827h150v-254h-599z" />
<glyph horiz-adv-x="811" d="M106 0v254h148v827h-148v254h599v-254h-150v-827h150v-254h-599zM252 1438l166 245h319l-245 -245h-240z" />
<glyph horiz-adv-x="811" d="M61 1438l197 245h295l197 -245h-232l-108 125h-9l-108 -125h-232zM106 0v254h148v827h-148v254h599v-254h-150v-827h150v-254h-599z" />
<glyph horiz-adv-x="811" d="M57 1440q14 135 75 206.5t144 71.5q61 0 140.5 -46t105.5 -46q57 0 78 92h154q-14 -135 -74.5 -206.5t-144.5 -71.5q-61 0 -140.5 46t-105.5 46q-57 0 -78 -92h-154zM106 0v254h148v827h-148v254h599v-254h-150v-827h150v-254h-599z" />
<glyph horiz-adv-x="811" d="M59 1577q0 61 40 102t103.5 41t103.5 -41t40 -102t-40 -102t-103.5 -41t-103.5 41t-40 102zM106 0v254h148v827h-148v254h599v-254h-150v-827h150v-254h-599zM465 1577q0 61 40 102t103.5 41t103.5 -41t40 -102t-40 -102t-103.5 -41t-103.5 41t-40 102z" />
<glyph horiz-adv-x="811" d="M106 0v254h148v827h-148v254h599v-254h-150v-827h150v-254h-599zM117 1475v190h577v-190h-577z" />
<glyph horiz-adv-x="811" d="M106 0v254h148v827h-148v254h599v-254h-150v-827h150v-254h-599zM231 1593.5q0 69.5 49.5 113.5t125 44t125 -44t49.5 -113.5t-49.5 -113.5t-125 -44t-125 44t-49.5 113.5z" />
<glyph horiz-adv-x="811" d="M61 1683h232l108 -124h9l108 124h232l-197 -245h-295zM106 0v254h148v827h-148v254h599v-254h-150v-827h150v-254h-599z" />
<glyph horiz-adv-x="811" d="M106 0v254h148v827h-148v254h599v-254h-150v-827h150v-254h-599zM240 1665l32 150q346 -8 346 -187q0 -100 -78.5 -151.5t-205.5 -61.5l-25 119q92 18 92 61q0 57 -161 70z" />
<glyph horiz-adv-x="811" d="M106 0v254h148v827h-148v254h599v-254h-150v-827h150v-254h-599zM240 -305.5q0 69.5 47 114t119 44.5q74 0 120.5 -44.5t46.5 -114t-46.5 -113.5t-120.5 -44q-72 0 -119 44t-47 113.5z" />
<glyph horiz-adv-x="811" d="M106 0v254h148v827h-148v254h599v-254h-150v-827h150v-254h-191q-111 -90 -111 -184q0 -37 26 -57.5t60 -20.5q33 0 74 29l68 -152q-90 -72 -213 -72q-102 0 -169 51.5t-67 141.5q0 84 46 153.5t102 110.5h-224z" />
<glyph horiz-adv-x="1173" d="M80 508q0 238 129 385t299 147q147 0 264 -125h8l25 101h235v-1016h-245l-21 100h-8q-125 -125 -270 -125q-190 0 -303 142.5t-113 390.5zM389 512q0 -291 184 -291q98 0 166 92v416q-72 66 -168 66q-78 0 -130 -73t-52 -210z" />
<glyph horiz-adv-x="1173" d="M80 508q0 238 129 385t299 147q147 0 264 -125h8l25 101h235v-1016h-245l-21 100h-8q-125 -125 -270 -125q-190 0 -303 142.5t-113 390.5zM307 1483h291l182 -307h-219zM389 512q0 -291 184 -291q98 0 166 92v416q-72 66 -168 66q-78 0 -130 -73t-52 -210z" />
<glyph horiz-adv-x="1173" d="M80 508q0 238 129 385t299 147q147 0 264 -125h8l25 101h235v-1016h-245l-21 100h-8q-125 -125 -270 -125q-190 0 -303 142.5t-113 390.5zM389 512q0 -291 184 -291q98 0 166 92v416q-72 66 -168 66q-78 0 -130 -73t-52 -210zM446 1176l183 307h291l-254 -307h-220z" />
<glyph horiz-adv-x="1173" d="M80 508q0 238 129 385t299 147q147 0 264 -125h8l25 101h235v-1016h-245l-21 100h-8q-125 -125 -270 -125q-190 0 -303 142.5t-113 390.5zM297 1176l197 307h239l197 -307h-203l-111 161h-8l-108 -161h-203zM389 512q0 -291 184 -291q98 0 166 92v416q-72 66 -168 66 q-78 0 -130 -73t-52 -210z" />
<glyph horiz-adv-x="1173" d="M80 508q0 238 129 385t299 147q147 0 264 -125h8l25 101h235v-1016h-245l-21 100h-8q-125 -125 -270 -125q-190 0 -303 142.5t-113 390.5zM274 1178q14 135 70.5 205.5t140.5 70.5q59 0 139.5 -45t102.5 -45q51 0 72 90h153q-14 -135 -71.5 -205.5t-139.5 -70.5 q-59 0 -139 46t-104 46q-49 0 -70 -92h-154zM389 512q0 -291 184 -291q98 0 166 92v416q-72 66 -168 66q-78 0 -130 -73t-52 -210z" />
<glyph horiz-adv-x="1173" d="M80 508q0 238 129 385t299 147q147 0 264 -125h8l25 101h235v-1016h-245l-21 100h-8q-125 -125 -270 -125q-190 0 -303 142.5t-113 390.5zM268 1312.5q0 61.5 40 101.5t101.5 40t102.5 -41t41 -100q0 -61 -40 -102.5t-103 -41.5q-61 0 -101.5 41t-40.5 102.5zM389 512 q0 -291 184 -291q98 0 166 92v416q-72 66 -168 66q-78 0 -130 -73t-52 -210zM674 1312.5q0 61.5 40 101.5t103 40q61 0 101 -40t40 -101.5t-40 -102.5t-101 -41q-63 0 -103 41t-40 102.5z" />
<glyph horiz-adv-x="1173" d="M80 508q0 238 129 385t299 147q147 0 264 -125h8l25 101h235v-1016h-245l-21 100h-8q-125 -125 -270 -125q-190 0 -303 142.5t-113 390.5zM330 1212v191h567v-191h-567zM389 512q0 -291 184 -291q98 0 166 92v416q-72 66 -168 66q-78 0 -130 -73t-52 -210z" />
<glyph horiz-adv-x="1173" d="M80 508q0 238 129 385t299 147q147 0 264 -125h8l25 101h235v-1016h-245l-21 100h-8q-125 -125 -270 -125q-190 0 -303 142.5t-113 390.5zM328 1460h168q18 -119 116 -119q100 0 119 119h168q-4 -121 -77.5 -202.5t-209 -81.5t-208 81.5t-76.5 202.5zM389 512 q0 -291 184 -291q98 0 166 92v416q-72 66 -168 66q-78 0 -130 -73t-52 -210z" />
<glyph horiz-adv-x="1173" d="M80 508q0 238 129 385t299 147q147 0 264 -125h8l25 101h235v-1016h-245l-21 100h-8q-125 -125 -270 -125q-190 0 -303 142.5t-113 390.5zM383 1331q0 94 63.5 151.5t165.5 57.5q104 0 168 -57.5t64 -151.5t-64 -151.5t-168 -57.5q-102 0 -165.5 57.5t-63.5 151.5z M389 512q0 -291 184 -291q98 0 166 92v416q-72 66 -168 66q-78 0 -130 -73t-52 -210zM530 1331q0 -43 23.5 -69.5t58.5 -26.5q37 0 60.5 26.5t23.5 69.5t-23.5 69.5t-60.5 26.5q-35 0 -58.5 -26.5t-23.5 -69.5z" />
<glyph horiz-adv-x="1173" d="M80 508q0 238 129 385t299 147q147 0 264 -125h8l25 101h235v-1016h-245l-21 100h-8q-125 -125 -270 -125q-190 0 -303 142.5t-113 390.5zM297 1483h203l108 -162h8l111 162h203l-197 -307h-239zM389 512q0 -291 184 -291q98 0 166 92v416q-72 66 -168 66q-78 0 -130 -73 t-52 -210z" />
<glyph horiz-adv-x="1173" d="M80 508q0 238 129 385t299 147q147 0 264 -125h8l25 101h235v-1016h-245l-21 100h-8q-125 -125 -270 -125q-190 0 -303 142.5t-113 390.5zM389 512q0 -291 184 -291q98 0 166 92v416q-72 66 -168 66q-78 0 -130 -73t-52 -210zM451 -305.5q0 69.5 47 114t118 44.5 q74 0 121 -44.5t47 -114t-47 -113.5t-121 -44q-72 0 -118.5 44t-46.5 113.5z" />
<glyph horiz-adv-x="1173" d="M80 508q0 238 129 385t299 147q147 0 264 -125h8l25 101h235v-1016h-245l-21 100h-8q-125 -125 -270 -125q-190 0 -303 142.5t-113 390.5zM389 512q0 -291 184 -291q98 0 166 92v416q-72 66 -168 66q-78 0 -130 -73t-52 -210zM446 1389l35 151q344 -10 344 -188 q0 -98 -78.5 -150.5t-205.5 -60.5l-23 119q92 14 92 61q0 59 -164 68z" />
<glyph horiz-adv-x="1173" d="M80 508q0 238 129 385t299 147q147 0 264 -125h8l25 101h235v-1016h-245l-21 100h-8q-125 -125 -270 -125q-190 0 -303 142.5t-113 390.5zM328 1176l166 262h239l166 -262h-186l-97 133h-8l-94 -133h-186zM389 512q0 -291 184 -291q98 0 166 92v416q-72 66 -168 66 q-78 0 -130 -73t-52 -210zM831 1323l142 242h221l-195 -242h-168z" />
<glyph horiz-adv-x="1173" d="M80 508q0 238 129 385t299 147q147 0 264 -125h8l25 101h235v-1016h-245l-21 100h-8q-125 -125 -270 -125q-190 0 -303 142.5t-113 390.5zM328 1176l166 262h239l166 -262h-186l-97 133h-8l-94 -133h-186zM389 512q0 -291 184 -291q98 0 166 92v416q-72 66 -168 66 q-78 0 -130 -73t-52 -210zM762 1565h223l139 -242h-168z" />
<glyph horiz-adv-x="1173" d="M80 508q0 238 129 385t299 147q147 0 264 -125h8l25 101h235v-1016h-245l-21 100h-8q-125 -125 -270 -125q-190 0 -303 142.5t-113 390.5zM328 1176l166 262h239l166 -262h-186l-97 133h-8l-94 -133h-186zM389 512q0 -291 184 -291q98 0 166 92v416q-72 66 -168 66 q-78 0 -130 -73t-52 -210zM805 1513l26 127q303 -8 304 -161q0 -92 -62.5 -134.5t-177.5 -58.5l-21 103q63 14 64 57q0 59 -133 67z" />
<glyph horiz-adv-x="1173" d="M80 508q0 238 129 385t299 147q147 0 264 -125h8l25 101h235v-1016h-245l-21 100h-8q-125 -125 -270 -125q-190 0 -303 142.5t-113 390.5zM311 1174l166 227h273l165 -227h-196l-103 120h-8l-100 -120h-197zM313 1475q12 117 63.5 175t125.5 58q59 0 122.5 -39t86.5 -39 q55 0 71 78h131q-12 -115 -64 -174t-124 -59q-61 0 -123.5 38.5t-85.5 38.5q-56 1 -72 -77h-131zM389 512q0 -291 184 -291q98 0 166 92v416q-72 66 -168 66q-78 0 -130 -73t-52 -210z" />
<glyph horiz-adv-x="1173" d="M80 508q0 238 129 385t299 147q147 0 264 -125h8l25 101h235v-1016h-245l-21 100h-8q-125 -125 -270 -125q-190 0 -303 142.5t-113 390.5zM297 1176l197 307h239l197 -307h-203l-111 161h-8l-108 -161h-203zM389 512q0 -291 184 -291q98 0 166 92v416q-72 66 -168 66 q-78 0 -130 -73t-52 -210zM451 -305.5q0 69.5 47 114t118 44.5q74 0 121 -44.5t47 -114t-47 -113.5t-121 -44q-72 0 -118.5 44t-46.5 113.5z" />
<glyph horiz-adv-x="1173" d="M80 508q0 238 129 385t299 147q147 0 264 -125h8l25 101h235v-1016h-245l-21 100h-8q-125 -125 -270 -125q-190 0 -303 142.5t-113 390.5zM328 1460h135q23 -137 149 -137q129 0 152 137h135q-4 -121 -77.5 -202.5t-209 -81.5t-208 81.5t-76.5 202.5zM389 512 q0 -291 184 -291q98 0 166 92v416q-72 66 -168 66q-78 0 -130 -73t-52 -210zM518 1417l119 242h215l-182 -242h-152z" />
<glyph horiz-adv-x="1173" d="M80 508q0 238 129 385t299 147q147 0 264 -125h8l25 101h235v-1016h-245l-21 100h-8q-125 -125 -270 -125q-190 0 -303 142.5t-113 390.5zM328 1460h135q23 -137 149 -137q129 0 152 137h135q-4 -121 -77.5 -202.5t-209 -81.5t-208 81.5t-76.5 202.5zM375 1659h215 l119 -242h-152zM389 512q0 -291 184 -291q98 0 166 92v416q-72 66 -168 66q-78 0 -130 -73t-52 -210z" />
<glyph horiz-adv-x="1173" d="M80 508q0 238 129 385t299 147q147 0 264 -125h8l25 101h235v-1016h-245l-21 100h-8q-125 -125 -270 -125q-190 0 -303 142.5t-113 390.5zM328 1460h135q23 -137 149 -137q129 0 152 137h135q-4 -121 -77.5 -202.5t-209 -81.5t-208 81.5t-76.5 202.5zM389 512 q0 -291 184 -291q98 0 166 92v416q-72 66 -168 66q-78 0 -130 -73t-52 -210zM451 1657l28 127q303 -10 303 -164q0 -92 -63 -134t-176 -56l-21 102q63 14 64 57q0 31 -30 46.5t-105 21.5z" />
<glyph horiz-adv-x="1173" d="M80 508q0 238 129 385t299 147q147 0 264 -125h8l25 101h235v-1016h-245l-21 100h-8q-125 -125 -270 -125q-190 0 -303 142.5t-113 390.5zM313 1475q12 117 63.5 175t125.5 58q59 0 122.5 -39t86.5 -39q55 0 71 78h131q-12 -115 -64 -174t-124 -59q-61 0 -123.5 38.5 t-85.5 38.5q-55 0 -72 -77h-131zM330 1419h141q25 -102 141 -102q119 0 144 102h141q-4 -104 -76 -173.5t-209 -69.5q-135 0 -206.5 69.5t-75.5 173.5zM389 512q0 -291 184 -291q98 0 166 92v416q-72 66 -168 66q-78 0 -130 -73t-52 -210z" />
<glyph horiz-adv-x="1173" d="M80 508q0 238 129 385t299 147q147 0 264 -125h8l25 101h235v-1016h-245l-21 100h-8q-125 -125 -270 -125q-190 0 -303 142.5t-113 390.5zM328 1460h168q18 -119 116 -119q100 0 119 119h168q-4 -121 -77.5 -202.5t-209 -81.5t-208 81.5t-76.5 202.5zM389 512 q0 -291 184 -291q98 0 166 92v416q-72 66 -168 66q-78 0 -130 -73t-52 -210zM451 -305.5q0 69.5 47 114t118 44.5q74 0 121 -44.5t47 -114t-47 -113.5t-121 -44q-72 0 -118.5 44t-46.5 113.5z" />
<glyph horiz-adv-x="1173" d="M80 508q0 238 129 385t299 147q147 0 264 -125h8l25 101h235v-1016q-92 -29 -135 -76t-43 -98q0 -37 24.5 -57.5t59.5 -20.5q37 0 74 25l63 -135q-88 -68 -209 -68q-94 0 -155.5 49t-61.5 137q0 141 142 240l-25 104h-8q-125 -125 -270 -125q-190 0 -303 142.5 t-113 390.5zM389 512q0 -291 184 -291q98 0 166 92v416q-72 66 -168 66q-78 0 -130 -73t-52 -210z" />
<glyph horiz-adv-x="1193" d="M90 526q0 223 130 368.5t298 145.5q154 0 260 -118h8l23 94h242v-1006q0 -197 -134.5 -302t-381.5 -105q-205 0 -379 112l98 199q137 -76 281 -76q197 0 215 164l8 127q-113 -102 -252 -102q-188 0 -302 139t-114 360zM395 530q0 -125 50.5 -193.5t138.5 -68.5 q94 0 166 97v364q-72 66 -168 66q-80 0 -133.5 -71t-53.5 -194z" />
<glyph horiz-adv-x="1193" d="M90 526q0 223 130 368.5t298 145.5q154 0 260 -118h8l23 94h242v-1006q0 -197 -134.5 -302t-381.5 -105q-205 0 -379 112l98 199q137 -76 281 -76q197 0 215 164l8 127q-113 -102 -252 -102q-188 0 -302 139t-114 360zM301 1176l195 307h239l197 -307h-203l-108 161h-9 l-108 -161h-203zM395 530q0 -125 50.5 -193.5t138.5 -68.5q94 0 166 97v364q-72 66 -168 66q-80 0 -133.5 -71t-53.5 -194z" />
<glyph horiz-adv-x="1193" d="M90 526q0 223 130 368.5t298 145.5q154 0 260 -118h8l23 94h242v-1006q0 -197 -134.5 -302t-381.5 -105q-205 0 -379 112l98 199q137 -76 281 -76q197 0 215 164l8 127q-113 -102 -252 -102q-188 0 -302 139t-114 360zM332 1460h168q14 -119 116 -119q51 0 81 33t36 86 h168q-4 -121 -76.5 -202.5t-208 -81.5t-208 81.5t-76.5 202.5zM395 530q0 -125 50.5 -193.5t138.5 -68.5q94 0 166 97v364q-72 66 -168 66q-80 0 -133.5 -71t-53.5 -194z" />
<glyph horiz-adv-x="1193" d="M90 526q0 223 130 368.5t298 145.5q154 0 260 -118h8l23 94h242v-1006q0 -197 -134.5 -302t-381.5 -105q-205 0 -379 112l98 199q137 -76 281 -76q197 0 215 164l8 127q-113 -102 -252 -102q-188 0 -302 139t-114 360zM395 530q0 -125 50.5 -193.5t138.5 -68.5 q94 0 166 97v364q-72 66 -168 66q-80 0 -133.5 -71t-53.5 -194zM449 1323q0 70 47 114t120.5 44t119.5 -44t46 -114t-46 -114t-119.5 -44t-120.5 44t-47 114z" />
<glyph horiz-adv-x="1193" d="M90 526q0 223 130 368.5t298 145.5q154 0 260 -118h8l23 94h242v-1006q0 -197 -134.5 -302t-381.5 -105q-205 0 -379 112l98 199q137 -76 281 -76q197 0 215 164l8 127q-113 -102 -252 -102q-188 0 -302 139t-114 360zM395 530q0 -125 50.5 -193.5t138.5 -68.5 q94 0 166 97v364q-72 66 -168 66q-80 0 -133.5 -71t-53.5 -194zM440 1286q0 98 102.5 151.5t262.5 61.5l22 -121q-170 -18 -170 -78q0 -53 88 -73l-57 -111q-135 12 -191.5 52t-56.5 118z" />
<glyph horiz-adv-x="1193" d="M90 526q0 223 130 368.5t298 145.5q154 0 260 -118h8l23 94h242v-1006q0 -197 -134.5 -302t-381.5 -105q-205 0 -379 112l98 199q137 -76 281 -76q197 0 215 164l8 127q-113 -102 -252 -102q-188 0 -302 139t-114 360zM301 1483h203l108 -162h9l108 162h203l-197 -307 h-239zM395 530q0 -125 50.5 -193.5t138.5 -68.5q94 0 166 97v364q-72 66 -168 66q-80 0 -133.5 -71t-53.5 -194z" />
<glyph horiz-adv-x="1193" d="M90 526q0 223 130 368.5t298 145.5q154 0 260 -118h8l23 94h242v-1006q0 -197 -134.5 -302t-381.5 -105q-205 0 -379 112l98 199q137 -76 281 -76q197 0 215 164l8 127q-113 -102 -252 -102q-188 0 -302 139t-114 360zM334 1212v191h565v-191h-565zM395 530 q0 -125 50.5 -193.5t138.5 -68.5q94 0 166 97v364q-72 66 -168 66q-80 0 -133.5 -71t-53.5 -194z" />
<glyph horiz-adv-x="1193" d="M90 526q0 223 130 368.5t298 145.5q154 0 260 -118h8l23 94h242v-1006q0 -197 -134.5 -302t-381.5 -105q-205 0 -379 112l98 199q137 -76 281 -76q197 0 215 164l8 127q-113 -102 -252 -102q-188 0 -302 139t-114 360zM276 1178q14 135 72 205.5t141 70.5q59 0 139.5 -45 t102.5 -45q49 0 72 90h153q-16 -135 -72.5 -205.5t-140.5 -70.5q-59 0 -139 46t-102 46q-51 0 -72 -92h-154zM395 530q0 -125 50.5 -193.5t138.5 -68.5q94 0 166 97v364q-72 66 -168 66q-80 0 -133.5 -71t-53.5 -194z" />
<glyph horiz-adv-x="565" d="M133 0v1436h301v-1436h-301z" />
<glyph horiz-adv-x="565" d="M133 0v1436h301v-1436h-301zM135 1550l166 246h320l-244 -246h-242z" />
<glyph horiz-adv-x="651" d="M133 0v1436h301v-1436h-301zM512 1577h193l-5 -141l-49 -314h-129z" />
<glyph horiz-adv-x="927" d="M133 0v1436h301v-1436h-301zM565 674q0 80 52.5 134t130 54t129 -54t51.5 -134t-51.5 -135.5t-129 -55.5t-130 55.5t-52.5 135.5z" />
<glyph horiz-adv-x="565" d="M70 -348q170 18 170 76q0 51 -88 75l57 111q135 -14 191.5 -54t56.5 -118q0 -98 -102.5 -150.5t-262.5 -60.5zM133 0v1436h301v-1436h-301z" />
<glyph horiz-adv-x="565" d="M115 -305.5q0 69.5 47 114t121 44.5q72 0 119 -44.5t47 -114t-47 -113.5t-119 -44q-74 0 -121 44t-47 113.5zM133 0v1436h301v-1436h-301z" />
<glyph horiz-adv-x="565" d="M-2 1645v192h565v-192h-565zM115 -305.5q0 69.5 47 114t121 44.5q72 0 119 -44.5t47 -114t-47 -113.5t-119 -44q-74 0 -121 44t-47 113.5zM133 0v1436h301v-1436h-301z" />
<glyph horiz-adv-x="565" d="M-2 -195h565v-192h-565v192zM133 0v1436h301v-1436h-301z" />
<glyph horiz-adv-x="612" d="M31 492v239l102 64v641h301v-492l154 92v-241l-154 -93v-702h-301v553z" />
<glyph horiz-adv-x="1300" d="M49 780v224l135 10v55q0 176 90.5 283.5t284.5 107.5q100 0 203 -37l-55 -221q-57 20 -105 21q-117 0 -117 -146v-61h183v-236h-183v-780h-301v780h-135zM868 0v1436h301v-1436h-301z" />
<glyph horiz-adv-x="1187" d="M109 655.5q0 317.5 131 493.5t354 176q221 0 353 -177t132 -492.5t-132 -498t-353 -182.5t-353 181.5t-132 499zM410 655.5q0 -241.5 47 -339t137 -97.5t137 97.5t47 339t-47 333.5t-137 92t-137 -92t-47 -333.5z" />
<glyph horiz-adv-x="839" d="M80 995v187q186 35 321 118h224v-1300h-301v995h-244z" />
<glyph horiz-adv-x="1077" d="M68 1118q102 109 203.5 158t236.5 49q193 0 306.5 -112.5t113.5 -301.5q0 -147 -105.5 -308t-294.5 -365q131 16 217 16h228v-254h-881v172q293 281 421 438.5t128 282.5q0 96 -45 146.5t-129 50.5q-111 0 -236 -134z" />
<glyph horiz-adv-x="1081" d="M45 160l139 190q135 -131 285 -131q96 0 153.5 41t57.5 113q0 94 -75 140t-275 46v213q307 0 307 174q0 68 -42 106t-118 38q-113 0 -244 -115l-151 184q193 166 410 166q205 0 326.5 -94t121.5 -262q0 -197 -217 -289v-8q117 -35 187.5 -116t70.5 -202 q0 -174 -139.5 -276.5t-343.5 -102.5q-295 1 -453 185z" />
<glyph horiz-adv-x="1146" d="M76 311v207l475 782h369v-759h149v-230h-149v-311h-281v311h-563zM365 541h274v211q0 86 10 290h-8q-33 -72 -106 -219z" />
<glyph horiz-adv-x="1081" d="M47 158l135 190q139 -129 281 -129q102 0 160.5 52.5t58.5 150.5q0 96 -56.5 148.5t-148.5 52.5q-55 0 -93 -13.5t-99 -52.5l-135 86l36 657h738v-253h-478l-22 -244q68 31 145 31q178 0 296 -103.5t118 -300.5q0 -209 -139 -332t-338 -123q-277 1 -459 183z" />
<glyph horiz-adv-x="1150" d="M117 621q0 344 152.5 524t373.5 180q229 0 381 -156l-160 -180q-33 39 -89 65.5t-111 26.5q-254 0 -269 -405q49 61 123 99t137 38q174 0 280.5 -101.5t106.5 -299.5q0 -197 -124.5 -317t-307.5 -120q-207 0 -350 162t-143 484zM401 471q35 -270 203 -270q72 0 118 53 t46 158q0 188 -172 188q-117 0 -195 -129z" />
<glyph horiz-adv-x="1056" d="M90 1047v253h877v-184q-211 -258 -275.5 -480t-83.5 -636h-303q18 336 91 567.5t249 479.5h-555z" />
<glyph horiz-adv-x="1124" d="M104 332q0 201 224 319v8q-174 131 -174 308q0 164 115.5 261t299.5 97q178 0 287 -97.5t109 -258.5q0 -170 -170 -285v-8q223 -121 223 -340q0 -156 -128 -258.5t-331 -102.5q-197 0 -326 99.5t-129 257.5zM365 367q0 -84 58 -133.5t142 -49.5q78 0 126 42t48 120 q0 41 -16 72t-63.5 60.5t-79 44t-115.5 50.5q-100 -91 -100 -206zM418 967q0 -74 55 -120t168 -89q80 92 80 190q0 76 -43 122t-117 46q-61 0 -102 -39t-41 -110z" />
<glyph horiz-adv-x="1150" d="M102 889q0 197 125 316.5t310 119.5q207 0 349 -162t142 -483q0 -344 -151.5 -524.5t-374.5 -180.5q-225 0 -381 156l160 180q84 -92 202 -92q254 0 271 410q-49 -66 -124 -104t-138 -38q-176 0 -283 101.5t-107 300.5zM379 889q0 -189 170 -189q115 0 196 129 q-35 270 -204 271q-72 0 -117 -53.5t-45 -157.5z" />
<glyph horiz-adv-x="1081" d="M76 592q0 293 127 454.5t338 161.5t338 -161.5t127 -454.5q0 -291 -127 -454t-338 -163t-338 163t-127 454zM360 592q0 -178 46.5 -280.5t134.5 -102.5t134 102.5t46 280.5t-46 281.5t-134 103.5t-134.5 -103.5t-46.5 -281.5z" />
<glyph horiz-adv-x="1081" d="M143 0v244h283v635h-244v186q182 35 324 119h221v-940h244v-244h-828z" />
<glyph horiz-adv-x="1081" d="M61 1001q100 106 200.5 156.5t236.5 50.5q188 0 304 -112.5t116 -292.5q0 -131 -91.5 -254t-289.5 -311q135 16 217 16h237v-254h-915v172q291 229 423 366.5t132 252.5q0 84 -47 133t-125 49q-104 0 -234 -133z" />
<glyph horiz-adv-x="1081" d="M45 0l139 190q137 -133 285 -133q94 0 152.5 47.5t58.5 122.5q0 94 -76 144.5t-274 50.5v213q307 0 307 188q0 70 -42 110t-118 40q-113 0 -244 -115l-151 184q193 166 410 166q203 0 325.5 -97t122.5 -265q0 -211 -217 -303v-8q117 -33 187.5 -118t70.5 -210 q0 -176 -140.5 -283.5t-342.5 -107.5q-295 0 -453 184z" />
<glyph horiz-adv-x="1081" d="M39 170v207l475 807h369v-785h149v-229h-149v-330h-281v330h-563zM328 399h274v236q0 45 12 291h-8q-66 -147 -106 -230z" />
<glyph horiz-adv-x="1081" d="M47 2l135 186q141 -131 281 -131q100 0 159.5 57.5t59.5 161.5q0 98 -56.5 154.5t-148.5 56.5q-55 0 -94 -14t-98 -53l-135 88l36 676h738v-252h-478l-22 -264q70 29 145 28q178 0 296 -106.5t118 -306.5q0 -215 -138 -341t-339 -126q-273 0 -459 186z" />
<glyph horiz-adv-x="1081" d="M84 621q0 344 151.5 524t374.5 180q225 0 381 -156l-160 -180q-35 39 -91 65.5t-111 26.5q-254 0 -271 -409q49 66 124 103.5t139 37.5q176 0 282.5 -101.5t106.5 -299.5q0 -197 -126 -317t-309 -120q-207 0 -349 162t-142 484zM367 471q34 -270 202 -270q72 0 118 53 t46 158q0 188 -170 188q-115 0 -196 -129z" />
<glyph horiz-adv-x="1081" d="M90 932v252h905v-185q-213 -260 -280.5 -498.5t-85.5 -660.5h-303q18 344 94 593t254 499h-584z" />
<glyph horiz-adv-x="1081" d="M86 332q0 201 221 319v8q-174 131 -174 308q0 164 116 261t300 97q178 0 286.5 -97.5t108.5 -258.5q0 -172 -170 -285v-8q225 -123 225 -340q0 -156 -128 -258.5t-332 -102.5q-197 0 -325 99.5t-128 257.5zM344 367q0 -84 58.5 -133.5t142.5 -49.5q78 0 126 42t48 120 q0 41 -16.5 72t-63.5 60.5t-79 44t-116 50.5q-100 -91 -100 -206zM397 967q0 -74 55.5 -120t168.5 -89q80 92 79 190q0 76 -42 122t-115 46q-63 0 -104.5 -39t-41.5 -110z" />
<glyph horiz-adv-x="1081" d="M53 762q0 201 126 323.5t310 122.5q238 0 377.5 -180t139.5 -487q0 -332 -144.5 -528.5t-417.5 -196.5q-104 0 -180 24.5t-162 83.5l109 207q102 -74 211 -74q137 0 213 94.5t86 311.5q-53 -63 -132 -101t-147 -38q-182 0 -285.5 115.5t-103.5 322.5zM328 762 q0 -225 172 -225q129 0 217 135q-31 311 -221 311q-74 0 -121 -57.5t-47 -163.5z" />
<glyph horiz-adv-x="1116" d="M92 592q0 293 127 454.5t338 161.5t338 -161.5t127 -454.5q0 -291 -127 -454t-338 -163t-338 163t-127 454zM377 592q0 -178 46 -280.5t134 -102.5t134 102.5t46 280.5t-46 281.5t-134 103.5t-134 -103.5t-46 -281.5z" />
<glyph horiz-adv-x="839" d="M80 879v186q186 35 321 119h224v-1184h-301v879h-244z" />
<glyph horiz-adv-x="1060" d="M66 1001q100 109 194 158t227 49q186 0 302 -111.5t116 -293.5q0 -133 -88 -260t-276 -305q131 16 217 16h198v-254h-864v172q268 211 396 355.5t128 263.5q0 86 -43 134t-122 48q-45 0 -88.5 -22.5t-67 -43t-68.5 -67.5z" />
<glyph horiz-adv-x="1081" d="M45 0l139 190q137 -133 285 -133q94 0 152.5 47.5t58.5 122.5q0 94 -76 144.5t-274 50.5v213q307 0 307 188q0 70 -42 110t-118 40q-113 0 -244 -115l-151 184q193 166 410 166q203 0 325.5 -97t122.5 -265q0 -211 -217 -303v-8q117 -33 187.5 -118t70.5 -210 q0 -176 -140.5 -283.5t-342.5 -107.5q-295 0 -453 184z" />
<glyph horiz-adv-x="1116" d="M55 170v207l475 807h369v-785h150v-229h-150v-330h-281v330h-563zM344 399h274v236q0 45 13 291h-8q-66 -147 -107 -230z" />
<glyph horiz-adv-x="1081" d="M47 2l135 186q141 -131 281 -131q100 0 159.5 57.5t59.5 161.5q0 98 -56.5 154.5t-148.5 56.5q-55 0 -94 -14t-98 -53l-135 88l36 676h738v-252h-478l-22 -264q70 29 145 28q178 0 296 -106.5t118 -306.5q0 -215 -138 -341t-339 -126q-273 0 -459 186z" />
<glyph horiz-adv-x="1116" d="M100 621q0 344 151.5 524t375.5 180q225 0 381 -156l-160 -180q-35 39 -91.5 65.5t-111.5 26.5q-254 0 -270 -409q49 66 123.5 103.5t138.5 37.5q176 0 282.5 -101.5t106.5 -299.5q0 -197 -126 -317t-308 -120q-207 0 -349.5 162t-142.5 484zM383 471q35 -270 203 -270 q72 0 118 53t46 158q0 188 -170 188q-115 0 -197 -129z" />
<glyph horiz-adv-x="1056" d="M90 932v252h877v-185q-211 -266 -281 -501.5t-88 -657.5h-303q18 342 95 588t255 504h-555z" />
</font>
</defs>
</svg>
