<?xml version="1.0" standalone="no"?>
<!DOCTYPE svg PUBLIC "-//W3C//DTD SVG 1.1//EN" "http://www.w3.org/Graphics/SVG/1.1/DTD/svg11.dtd" >
<svg xmlns="http://www.w3.org/2000/svg">
<metadata>
This is a custom SVG webfont generated by Font Squirrel.
Copyright   : Copyright 2010 2012 Adobe Systems Incorporated All Rights Reserved
Designer    : Paul D Hunt
Foundry     : Adobe Systems Incorporated
Foundry URL : httpwwwadobecomtype
</metadata>
<defs>
<font id="SourceCodeProBold" horiz-adv-x="1228" >
<font-face units-per-em="2048" ascent="1536" descent="-512" />
<missing-glyph horiz-adv-x="500" />
<glyph unicode=" " />
<glyph unicode="!" d="M410 184q0 90 58 147.5t146 57.5t146.5 -57.5t58.5 -147.5q0 -92 -58.5 -150.5t-146.5 -58.5t-146 58.5t-58 150.5zM465 1372h299l-10 -272l-41 -578h-197l-41 578z" />
<glyph unicode="&#x22;" d="M168 1403h348l-10 -297l-72 -485h-184l-72 485zM713 1403h348l-10 -297l-72 -485h-184l-72 485z" />
<glyph unicode="#" d="M143 383v192h174l29 226h-162v192h187l43 338h172l-41 -338h213l43 338h172l-41 -338h162v-192h-187l-26 -226h172v-192h-195l-47 -383h-174l45 383h-211l-47 -383h-174l45 383h-152zM494 575h211l28 226h-213z" />
<glyph unicode="$" d="M131 236l131 204q205 -127 371 -127q152 0 151 93q0 47 -61 82.5t-149.5 66.5t-176.5 72t-149.5 116.5t-61.5 180.5q0 131 90.5 220t245.5 113v269h201v-266q189 -25 328 -168l-150 -172q-145 102 -285 102q-141 0 -141 -94q0 -39 61.5 -71t148.5 -62.5t175 -70.5 t149.5 -116t61.5 -180q0 -131 -90 -225t-258 -123v-305h-201v299q-104 10 -210.5 53t-180.5 109z" />
<glyph unicode="%" d="M35 207l383 354l104 -96l-332 -408zM49 985q0 156 86 248t217 92q133 0 219 -92t86 -248t-86 -251t-219 -95q-131 0 -217 95t-86 251zM256 985q0 -186 96 -186q98 0 99 186q0 178 -99 178q-96 0 -96 -178zM571 324q0 156 86 248t220 92q131 0 217 -92.5t86 -247.5 q0 -158 -86 -253.5t-217 -95.5q-133 0 -219.5 95.5t-86.5 253.5zM711 870l331 408l154 -150l-381 -356zM778 324q1 -187 99 -187q96 0 96 187q0 178 -96 178q-98 0 -99 -178z" />
<glyph unicode="&#x26;" d="M47 356q0 209 215 367q-86 162 -86 287q0 147 91 248.5t239 101.5q150 0 235.5 -82t85.5 -221q0 -80 -42 -154t-86 -114.5t-126 -104.5q90 -117 240 -238q78 136 113 308h274q-63 -252 -186 -451q104 -66 186 -84l-72 -244q-138 34 -282 129q-162 -129 -371 -129 q-201 0 -314.5 110t-113.5 271zM332 375q0 -76 50 -123t132 -47q66 0 131 47q-152 131 -254 272q-59 -71 -59 -149zM424 1012q0 -70 39 -154q133 96 133 199q0 104 -84 104q-39 0 -63.5 -40.5t-24.5 -108.5z" />
<glyph unicode="'" d="M440 1403h348l-10 -297l-71 -485h-185l-71 485z" />
<glyph unicode="(" d="M371 569q0 553 432 936l168 -133q-182 -178 -265 -368.5t-83 -434t82.5 -434t265.5 -368.5l-168 -134q-432 383 -432 936z" />
<glyph unicode=")" d="M258 -233q182 178 265 368.5t83 434t-83 434t-265 368.5l168 133q432 -383 432 -936t-432 -936z" />
<glyph unicode="*" d="M172 1063l47 147l289 -63l27 311h159l27 -311l289 63l47 -147l-271 -117l166 -284l-131 -91l-207 252l-206 -252l-132 91l166 284z" />
<glyph unicode="+" d="M143 528v213h361v377h221v-377h360v-213h-360v-376h-221v376h-361z" />
<glyph unicode="," d="M373 -268q266 92 266 291q-8 -2 -23 -3q-92 0 -156.5 56.5t-64.5 152.5q0 94 66.5 152.5t163.5 58.5q125 0 189.5 -92t64.5 -260q0 -197 -109.5 -333t-320.5 -199z" />
<glyph unicode="-" d="M254 489v228h721v-228h-721z" />
<glyph unicode="." d="M377 215q0 102 66.5 172t171 70t171 -70t66.5 -172t-66.5 -171t-171 -69t-171 69t-66.5 171z" />
<glyph unicode="/" d="M152 -328l673 1782h252l-674 -1782h-251z" />
<glyph unicode="0" d="M115 655.5q0 325.5 134 497.5t365.5 172t365.5 -172t134 -497.5t-135 -503t-364.5 -177.5t-364.5 177.5t-135 503zM383 655q0 -446 231.5 -446t231.5 446q0 437 -231.5 437t-231.5 -437zM461 659.5q0 69.5 44 112.5t109.5 43t109.5 -43t44 -112.5t-44 -112.5t-109.5 -43 t-109.5 43t-44 112.5z" />
<glyph unicode="1" d="M168 0v244h336v751h-268v187q203 35 348 118h221v-1056h295v-244h-932z" />
<glyph unicode="2" d="M104 1118q106 106 213 156.5t252 50.5q205 0 332 -113.5t127 -300.5q0 -150 -127 -313.5t-350 -359.5q147 16 235 16h310v-254h-977v172q166 139 259 222t187 181.5t135 174t41 143.5q0 94 -55 145.5t-158 51.5q-121 0 -262 -134z" />
<glyph unicode="3" d="M86 160l139 190q150 -131 318 -131q109 0 176 41t67 113q0 92 -88 139t-305 47v213q350 0 350 174q0 68 -51 106t-141 38q-133 0 -277 -115l-151 184q205 166 442 166q217 0 348 -94t131 -262q0 -195 -247 -289v-8q131 -35 210.5 -116t79.5 -202q0 -174 -150.5 -276.5 t-365.5 -102.5q-317 1 -485 185z" />
<glyph unicode="4" d="M72 311v207l542 782h365v-759h164v-230h-164v-311h-281v311h-626zM362 541h336v219q0 80 11 284h-9q-23 -41 -72.5 -115.5t-68.5 -105.5z" />
<glyph unicode="5" d="M94 158l135 190q156 -129 308 -129q115 0 183 52.5t68 150.5q0 96 -65.5 148.5t-171.5 52.5q-102 0 -219 -66l-133 86l34 657h797v-253h-536l-23 -244q82 31 172 31q193 0 320 -103.5t127 -300.5q0 -209 -149.5 -332t-360.5 -123q-296 1 -486 183z" />
<glyph unicode="6" d="M123 621q0 342 164 523t397 181q250 0 414 -156l-158 -180q-104 92 -229 92q-131 0 -216 -97t-94 -312q145 141 314 141q180 0 290.5 -102.5t110.5 -299t-136 -316.5t-331 -120q-102 0 -194.5 38t-168 113t-119.5 202t-44 293zM410 473q40 -272 233 -272q84 0 141.5 53 t57.5 158q0 188 -193 188q-129 0 -239 -127z" />
<glyph unicode="7" d="M127 1047v253h977v-184q-123 -137 -199 -254t-119 -253t-60 -268t-28 -341h-303q18 334 101.5 564.5t283.5 482.5h-653z" />
<glyph unicode="8" d="M125 332q0 201 246 319v8q-190 133 -191 308q0 164 123 261t320 97q195 0 310.5 -97.5t115.5 -258.5q0 -166 -187 -285v-8q244 -121 244 -340q0 -158 -131 -259.5t-363 -101.5q-223 0 -355 98.5t-132 258.5zM385 367q0 -84 66.5 -133.5t169.5 -49.5q94 0 149 41t55 121 q0 76 -63.5 118t-214.5 96q-23 9 -35 13q-127 -91 -127 -206zM444 967q0 -74 63.5 -120t194.5 -89q98 89 99 190q0 76 -48 122t-137 46q-76 0 -124 -39t-48 -110z" />
<glyph unicode="9" d="M109 888.5q0 196.5 136 316.5t330 120q221 0 374 -162t153 -483q0 -344 -163 -524.5t-396 -180.5q-244 0 -416 156l160 180q100 -92 229 -92q131 0 216 98.5t93 313.5q-70 -68 -154.5 -106t-158.5 -38q-180 0 -291.5 102.5t-111.5 299zM383 889q0 -189 195 -189 q131 0 239 129q-23 143 -86 207t-149 64q-84 0 -141.5 -53.5t-57.5 -157.5z" />
<glyph unicode=":" d="M377 215q0 102 66.5 172t171 70t171 -70t66.5 -172t-66.5 -171t-171 -69t-171 69t-66.5 171zM377 878.5q0 102.5 66.5 171t171 68.5t171 -68.5t66.5 -171t-66.5 -172t-171 -69.5t-171 69.5t-66.5 172z" />
<glyph unicode=";" d="M373 -268q266 92 266 291q-8 -2 -23 -3q-92 0 -156.5 56.5t-64.5 152.5q0 94 66.5 152.5t163.5 58.5q125 0 189.5 -92t64.5 -260q0 -197 -109.5 -333t-320.5 -199zM377 878.5q0 102.5 66.5 171t171 68.5t171 -68.5t66.5 -171t-66.5 -172t-171 -69.5t-171 69.5t-66.5 172z " />
<glyph unicode="&#x3c;" d="M238 535v208l790 512v-272l-543 -340v-8l543 -340v-272z" />
<glyph unicode="=" d="M143 291v211h942v-211h-942zM143 768v211h942v-211h-942z" />
<glyph unicode="&#x3e;" d="M201 23v272l542 340v8l-542 340v272l790 -512v-208z" />
<glyph unicode="?" d="M201 1212q168 184 397 185q186 0 303 -86t117 -248q0 -74 -34 -135.5t-82 -104.5t-95 -84t-76 -96t-22 -121h-263q-12 76 12.5 141.5t68.5 111.5t89.5 85t79 81t33.5 83q0 61 -42 95t-109 34q-104 0 -209 -94zM381 184q0 90 58.5 147.5t146.5 57.5t146.5 -57.5 t58.5 -147.5q0 -92 -58.5 -150.5t-146.5 -58.5t-146.5 58.5t-58.5 150.5z" />
<glyph unicode="@" d="M63 518q0 395 173.5 598t441.5 203q223 0 335.5 -138.5t112.5 -363.5v-612h-159l-23 104h-8q-88 -129 -246 -129q-111 0 -185.5 83t-74.5 204q0 158 130 239.5t380 112.5v33q0 121 -69.5 204t-198.5 83q-164 0 -283 -158t-119 -471q0 -303 127 -466t308 -163 q141 0 272 78l86 -149q-188 -111 -369 -111q-264 0 -447.5 212t-183.5 607zM649 475q0 -45 29 -71.5t80 -26.5q78 0 151 74v188q-143 -23 -201.5 -59.5t-58.5 -104.5z" />
<glyph unicode="A" d="M18 0l416 1335h361l415 -1335h-319l-80 317h-403l-82 -317h-308zM469 553h281l-31 123q-20 78 -58 234.5t-49 195.5h-8q-63 -270 -104 -430z" />
<glyph unicode="B" d="M172 0v1335h418q489 0 489 -331q0 -96 -58 -178.5t-171 -110.5v-8q291 -53 291 -314q0 -195 -141.5 -294t-370.5 -99h-457zM473 233h131q242 0 242 183q0 88 -58.5 128t-183.5 40h-131v-351zM473 797h102q209 0 209 164q0 74 -50 107.5t-156 33.5h-105v-305z" />
<glyph unicode="C" d="M113 659.5q0 323.5 180 512t457 188.5q221 0 395 -170l-166 -186q-106 96 -229 96q-143 0 -235.5 -117t-92.5 -313q0 -203 93 -318.5t247 -115.5q129 0 237 118l166 -182q-168 -197 -422 -197q-270 0 -450 180.5t-180 504z" />
<glyph unicode="D" d="M133 0v1335h363q301 0 472 -163.5t171 -497.5t-169 -504t-458 -170h-379zM436 244h43q350 0 350 430q0 227 -91 322.5t-259 95.5h-43v-848z" />
<glyph unicode="E" d="M193 0v1335h880v-254h-579v-268h491v-252h-491v-307h600v-254h-901z" />
<glyph unicode="F" d="M221 0v1335h881v-254h-580v-309h494v-254h-494v-518h-301z" />
<glyph unicode="G" d="M90 659.5q0 325.5 174 513t443 187.5q221 0 391 -170l-166 -186q-96 96 -225 96q-133 0 -219.5 -117t-86.5 -313q0 -209 81 -321.5t237 -112.5q86 0 131 40v230h-195v246h465v-615q-74 -68 -185.5 -115t-232.5 -47q-268 0 -440 179.5t-172 505z" />
<glyph unicode="H" d="M131 0v1335h301v-514h365v514h301v-1335h-301v557h-365v-557h-301z" />
<glyph unicode="I" d="M152 0v254h311v827h-311v254h925v-254h-311v-827h311v-254h-925z" />
<glyph unicode="J" d="M121 197l174 186q119 -147 254 -147q106 0 156.5 55t50.5 188v604h-523v252h824v-880q0 -215 -119 -347.5t-379 -132.5q-280 1 -438 222z" />
<glyph unicode="K" d="M139 0v1335h305v-547h7l395 547h332l-400 -532l439 -803h-334l-283 563l-156 -205v-358h-305z" />
<glyph unicode="L" d="M219 0v1335h301v-1081h594v-254h-895z" />
<glyph unicode="M" d="M133 0v1335h301l135 -473l45 -184h7l45 184l129 473h301v-1335h-244v436q0 215 39 604h-6l-105 -366l-102 -318h-133l-103 318l-100 366h-8q39 -389 39 -604v-436h-240z" />
<glyph unicode="N" d="M135 0v1335h307l283 -665l115 -293h8q-2 29 -15.5 141.5t-20.5 193.5t-7 150v473h289v-1335h-308l-282 666l-115 290h-8q4 -41 16.5 -145t19.5 -186t7 -152v-473h-289z" />
<glyph unicode="O" d="M78 674q0 322 147.5 504t389 182t389 -182.5t147.5 -503.5q0 -324 -147.5 -511.5t-389 -187.5t-389 187.5t-147.5 511.5zM387 674q0 -201 61.5 -319.5t166 -118.5t166 118.5t61.5 319.5q0 199 -61.5 312.5t-166 113.5t-166 -114t-61.5 -312z" />
<glyph unicode="P" d="M152 0v1335h487q238 0 380 -101t142 -329q0 -223 -147.5 -337.5t-374.5 -114.5h-186v-453h-301zM453 692h168q243 0 243 211q0 104 -60.5 148.5t-182.5 44.5h-168v-404z" />
<glyph unicode="Q" d="M74 674q0 322 145.5 504t388.5 182q242 0 387.5 -182.5t145.5 -503.5q0 -258 -96.5 -433t-262.5 -237q61 -127 244 -127q56 0 109 27l53 -226q-78 -43 -197 -43q-188 0 -323.5 97.5t-200.5 261.5q-182 51 -287.5 229t-105.5 451zM383 674q0 -203 60.5 -320.5t165 -117.5 t165 118.5t60.5 319.5q0 199 -61 312.5t-165 113.5q-106 0 -165.5 -113t-59.5 -313z" />
<glyph unicode="R" d="M143 0v1335h473q516 0 517 -415q0 -279 -238 -385l301 -535h-338l-256 481h-158v-481h-301zM444 721h148q244 0 244 199q0 96 -59.5 136t-184.5 40h-148v-375z" />
<glyph unicode="S" d="M102 168l174 207q170 -139 342 -139q201 0 201 129q0 55 -43 84.5t-151 69.5q-9 3 -13 5l-172 74q-125 47 -204.5 138t-79.5 227q0 168 138 282.5t351 114.5q258 0 445 -176l-154 -191q-145 106 -291 107q-88 0 -136 -32t-48 -89q0 -53 47 -83t154 -68q12 -5 18 -7 l162 -69q286 -106 286 -361q0 -176 -139 -296t-379 -120q-291 0 -508 193z" />
<glyph unicode="T" d="M63 1081v254h1102v-254h-399v-1081h-303v1081h-400z" />
<glyph unicode="U" d="M131 514v821h301v-852q0 -247 185 -247h1q188 0 189 247v852h291v-821q0 -262 -120 -400.5t-360 -138.5q-242 0 -364.5 138.5t-122.5 400.5z" />
<glyph unicode="V" d="M31 1335h319l160 -622q23 -80 56.5 -223.5t49.5 -204.5h9q23 80 57.5 221t50.5 207l158 622h307l-401 -1335h-363z" />
<glyph unicode="W" d="M8 1335h307l43 -710q2 -57 5.5 -171t3.5 -169h6q12 63 37.5 180t33.5 160l93 370h182l88 -370q8 -47 33.5 -163t36.5 -177h8q2 55 5 168.5t5 171.5l39 710h287l-166 -1335h-316l-84 420q-29 145 -37 256h-6q-14 -141 -37 -256l-79 -420h-310z" />
<glyph unicode="X" d="M37 0l389 686l-367 649h338l129 -252q16 -33 49 -103.5t54 -111.5h8q53 133 90 215l119 252h323l-366 -663l389 -672h-336l-145 272q-53 98 -107 220h-8q-27 -68 -98 -220l-140 -272h-321z" />
<glyph unicode="Y" d="M33 1335h323l136 -321q20 -53 61 -153.5t59 -151.5h9q20 49 61 149t63 156l136 321h315l-430 -884v-451h-303v451z" />
<glyph unicode="Z" d="M115 0v182l626 901h-567v252h938v-182l-625 -899h633v-254h-1005z" />
<glyph unicode="[" d="M412 -311v1761h604v-160h-375v-1442h375v-159h-604z" />
<glyph unicode="\" d="M152 1454h251l674 -1782h-252z" />
<glyph unicode="]" d="M215 -152h373v1442h-373v160h604v-1761h-604v159z" />
<glyph unicode="^" d="M176 561l318 811h241l318 -811h-248l-94 262l-93 277h-8l-92 -277l-94 -262h-248z" />
<glyph unicode="_" d="M123 -111h983v-225h-983v225z" />
<glyph unicode="`" d="M293 1518h307l182 -342h-219z" />
<glyph unicode="a" d="M125 283q0 172 156.5 261t513.5 109q-16 147 -217 148q-121 0 -310 -94l-106 196q240 137 475 137q219 0 339 -114.5t120 -343.5v-582h-246l-23 115h-8q-182 -139 -360 -140q-150 0 -242 88.5t-92 219.5zM414 305q0 -96 141 -96q115 0 240 96v168q-211 -12 -296 -54 t-85 -114z" />
<glyph unicode="b" d="M147 0v1436h302v-353l-9 -159q126 116 280 116h3q188 0 299 -139t111 -375q0 -252 -130.5 -401.5t-310.5 -149.5q-147 0 -276 136h-8l-25 -111h-236zM449 289q78 -68 176 -68q88 0 143 75t55 224q0 274 -186 275q-96 0 -188 -95v-411z" />
<glyph unicode="c" d="M137 508q0 244 171 388t417 144q233 0 381 -137l-139 -186q-113 80 -226 80q-131 0 -213 -79t-82 -210t79 -210t206 -79q133 0 268 96l123 -190q-180 -150 -420 -150q-248 0 -406.5 142.5t-158.5 390.5z" />
<glyph unicode="d" d="M96 508q0 240 130 386t304 146q141 0 261 -108l-11 158v346h301v-1436h-245l-23 104h-6q-133 -129 -283 -129q-195 0 -311.5 142.5t-116.5 390.5zM406 512q0 -291 196 -291q104 0 178 94v412q-76 68 -170 68q-88 0 -146 -73t-58 -210z" />
<glyph unicode="e" d="M113 508q0 240 157.5 386t370.5 146q227 0 352 -136t125 -351q0 -53 -12 -127h-684q20 -111 99 -166t196 -55q123 0 262 69l98 -180q-184 -119 -401 -119q-244 0 -403.5 143.5t-159.5 389.5zM418 612h428q0 92 -50.5 145.5t-148.5 53.5q-86 0 -148.5 -51.5t-80.5 -147.5z " />
<glyph unicode="f" d="M168 780v224l268 12v26q0 186 114 302t341 116q141 0 307 -55l-57 -221q-100 39 -213 39q-190 0 -191 -179v-28h350v-236h-350v-780h-301v780h-268z" />
<glyph unicode="g" d="M106 -172q0 125 158 203v8q-102 63 -102 174q0 49 32.5 101.5t88.5 88.5v9q-133 88 -133 260q0 174 125.5 271t308.5 97q94 0 168 -24h411v-219h-207q47 -59 48 -135q0 -168 -117 -254t-303 -86q-66 0 -140 20q-45 -33 -45 -74q0 -78 172 -78h189q411 0 411 -255 q0 -82 -41 -148t-124 -117q-166 -102 -439 -102q-209 0 -335 64.5t-126 195.5zM352 -127q0 -55 68.5 -86t189.5 -31t198 36t77 89q0 47 -42 63.5t-136 16.5h-127q-100 0 -156 12q-72 -45 -72 -100zM432 672q0 -80 43 -124t108.5 -44t110.5 44t45 124q0 78 -45 122t-110.5 44 t-108.5 -44t-43 -122z" />
<glyph unicode="h" d="M147 0v1436h302v-353l-17 -194q155 151 342 151h2q166 0 248 -108.5t82 -304.5v-627h-301v588q0 102 -34 149t-116 47q-57 0 -103 -24.5t-103 -81.5v-678h-302z" />
<glyph unicode="i" d="M162 780v236h708v-1016h-301v780h-407zM506 1348q0 82 56 135t144.5 53t144.5 -53t56 -135t-56 -132.5t-144.5 -50.5t-144.5 50.5t-56 132.5z" />
<glyph unicode="j" d="M86 -332l88 215q109 -49 207 -49q106 0 147 50t41 165v731h-407v236h708v-955q0 -462 -469 -462h-2q-164 0 -313 69zM506 1348q0 82 56 135t144.5 53t144.5 -53t56 -135t-56 -132.5t-144.5 -50.5t-144.5 50.5t-56 132.5z" />
<glyph unicode="k" d="M156 0v1436h301v-824l6 2l375 402h329l-385 -418l416 -598h-326l-264 399l-151 -147v-252h-301z" />
<glyph unicode="l" d="M127 1198v238h596v-1051q0 -86 46 -126t118 -40q76 0 160 33l67 -221q-180 -55 -305 -56q-188 0 -287.5 113t-99.5 309v801h-295z" />
<glyph unicode="m" d="M74 0v1016h225l23 -127h8q70 151 215 151h2q141 0 178 -166q66 166 223 166q106 0 166 -88t60 -239v-713h-283v690q0 94 -57 94q-55 0 -95 -98v-686h-231v690q0 94 -59 94q-49 0 -93 -98v-686h-282z" />
<glyph unicode="n" d="M147 0v1016h246l23 -135h8q163 159 348 159h2q168 0 250 -107.5t82 -305.5v-627h-301v588q0 102 -34 149t-116 47q-57 0 -103 -24.5t-103 -81.5v-678h-302z" />
<glyph unicode="o" d="M96 508q0 244 152.5 388t365.5 144t366 -144t153 -388t-153 -388.5t-366 -144.5t-365.5 144.5t-152.5 388.5zM406 508q0 -135 53 -212t155.5 -77t155.5 77t53 212t-53 212t-155.5 77t-155.5 -77t-53 -212z" />
<glyph unicode="p" d="M147 -377v1393h246l23 -103h6q141 127 303 127q188 0 298 -140t110 -376q0 -250 -130.5 -399.5t-310.5 -149.5q-139 0 -254 111l11 -166v-297h-302zM449 289q78 -68 174 -68q90 0 145 75t55 224q0 274 -186 275q-96 0 -188 -95v-411z" />
<glyph unicode="q" d="M96 508q0 240 130 386t304 146q162 0 283 -129h8l25 105h235v-1393h-301v314l13 155q-123 -117 -269 -117q-195 0 -311.5 142.5t-116.5 390.5zM406 512q0 -291 196 -291q104 0 178 94v412q-76 68 -170 68q-88 0 -146 -73t-58 -210z" />
<glyph unicode="r" d="M238 0v1016h245l25 -221h6q149 245 410 245h2q104 0 196 -41l-61 -251q-95 28 -175 28h-5q-225 0 -342 -248v-528h-301z" />
<glyph unicode="s" d="M109 131l135 188q188 -120 365 -120h3q195 0 195 86q0 43 -64.5 72.5t-207.5 68.5q-362 100 -363 297q0 143 127 230t342 87q219 0 438 -139l-135 -180q-160 96 -297 96q-176 0 -176 -80q0 -41 62.5 -67.5t197.5 -61.5q176 -47 275.5 -115.5t99.5 -189.5 q0 -143 -132 -235.5t-368 -92.5q-264 0 -497 156z" />
<glyph unicode="t" d="M102 780v224l269 12l39 270h247v-270h428v-236h-428v-356q0 -115 50.5 -164t162.5 -49q98 0 205 37l53 -217q-186 -55 -333 -56q-439 1 -439 447v358h-254z" />
<glyph unicode="u" d="M127 389v627h301v-588q0 -104 33 -150.5t114 -46.5q59 0 103.5 26t95.5 91v668h301v-1016h-246l-22 145h-8q-150 -170 -342 -170q-330 0 -330 414z" />
<glyph unicode="v" d="M63 1016h304l159 -479q18 -55 92 -314h9q10 37 27.5 100.5t32.5 116t30 97.5l160 479h288l-372 -1016h-347z" />
<glyph unicode="w" d="M6 1016h295l64 -471q8 -51 18 -150.5t16 -150.5h7q23 182 47 301l65 336h207l72 -336q20 -113 47 -301h8q6 51 15.5 150.5t17.5 150.5l63 471h275l-158 -1016h-350l-58 338q-12 86 -41 297h-8q-23 -211 -35 -297l-55 -338h-344z" />
<glyph unicode="x" d="M76 0l352 528l-330 488h324l104 -164q18 -35 60.5 -100.5t46.5 -73.5h8q12 25 26.5 55.5t32 65.5t25.5 53l90 164h315l-331 -522l352 -494h-324l-116 168q-18 29 -58.5 88t-58.5 88h-8q-90 -168 -94 -176l-101 -168h-315z" />
<glyph unicode="y" d="M63 1016h299l170 -436q43 -113 103 -306h8q8 31 92 306l150 436h284l-401 -1026q-78 -203 -184.5 -295t-290.5 -92q-84 0 -156 20l53 230q40 -12 80 -13q158 0 213 133l21 54z" />
<glyph unicode="z" d="M143 0v162l533 618h-467v236h883v-160l-533 -620h549v-236h-965z" />
<glyph unicode="{" d="M217 481v176q281 6 281 152q0 61 -10.5 168.5t-10.5 181.5q0 162 89 226.5t292 64.5h158v-160h-84q-127 0 -168 -28.5t-41 -114.5q0 -53 5 -163t5 -171q0 -115 -47 -168t-158 -72v-8q111 -18 158 -71.5t47 -167.5q0 -63 -5 -172t-5 -162q0 -86 41 -115t168 -29h84v-159 h-158q-203 0 -292 64.5t-89 226.5q0 74 10.5 180t10.5 170q0 145 -281 151z" />
<glyph unicode="|" d="M516 -512v2048h197v-2048h-197z" />
<glyph unicode="}" d="M215 -152h84q125 0 166 29t41 115q0 53 -4 161.5t-4 172.5q0 115 46 168t158 71v8q-113 18 -158.5 71.5t-45.5 168.5q0 61 4 171t4 163q0 86 -41 114.5t-166 28.5h-84v160h158q203 0 292 -64.5t89 -226.5q0 -74 -11.5 -181.5t-11.5 -168.5q0 -145 283 -152v-176 q-283 -6 -283 -151q0 -63 11.5 -170t11.5 -180q0 -162 -89.5 -226.5t-291.5 -64.5h-158v159z" />
<glyph unicode="~" d="M106 522q121 297 334 297q72 0 136.5 -39t118 -77.5t98.5 -38.5q92 0 149 167l180 -83q-121 -297 -334 -297q-72 0 -136 38.5t-117.5 77.5t-98.5 39q-92 0 -149 -168z" />
<glyph unicode="&#xa0;" />
<glyph unicode="&#xa1;" d="M410 831q0 92 58 150.5t146 58.5t146.5 -58.5t58.5 -150.5q0 -90 -58.5 -147t-146.5 -57t-146 57t-58 147zM465 -356l10 272l41 578h197l41 -578l10 -272h-299z" />
<glyph unicode="&#xa2;" d="M197 629q0 211 121.5 346t318.5 168v198h166v-190q158 -14 254 -115l-137 -184q-61 49 -117 55v-557q73 13 147 72l121 -191q-117 -100 -268 -120v-195h-166v195q-203 27 -321.5 163t-118.5 355zM489 629q1 -193 148 -256v512q-147 -66 -148 -256z" />
<glyph unicode="&#xa3;" d="M137 0v186q111 43 176.5 125t65.5 189q0 28 -6 55h-230v176l172 10q-39 104 -39 164q0 190 130.5 305t336.5 115q231 0 381 -166l-161 -164q-82 86 -191 86q-211 0 -211 -192q0 -55 27 -148h346v-186h-299q4 -37 4 -57q0 -131 -111 -236v-8h598v-254h-989z" />
<glyph unicode="&#xa4;" d="M74 281l166 168q-70 94 -70 227q0 129 68 223l-164 168l149 152l183 -185q98 51 208 51q106 0 209 -51l183 185l149 -152l-166 -168q70 -92 70 -223q0 -129 -72 -227l168 -168l-149 -152l-185 186q-96 -49 -206.5 -49t-206.5 49l-185 -186zM438 676q0 -90 50.5 -145.5 t126 -55.5t126 55.5t50.5 145.5t-50.5 145.5t-126 55.5t-126 -55.5t-50.5 -145.5z" />
<glyph unicode="&#xa5;" d="M63 1300h310l125 -272q104 -242 116 -268h9q78 180 116 268l125 272h301l-334 -600h281v-143h-348v-113h348v-143h-348v-301h-301v301h-346v143h346v113h-346v143h280z" />
<glyph unicode="&#xa6;" d="M516 418h197v-930h-197v930zM516 639v897h197v-897h-197z" />
<glyph unicode="&#xa7;" d="M145 668q0 76 45.5 145.5t122.5 116.5q-59 72 -59 170q0 141 97.5 227t266.5 86q199 0 373 -133l-139 -188q-113 98 -217 98q-111 0 -111 -80q0 -39 57.5 -74t139.5 -69.5t165 -79.5t140 -124t57 -181q0 -170 -172 -273q47 -72 47 -157q0 -143 -103 -233.5t-290 -90.5 q-117 0 -225.5 44t-173.5 128l172 154q104 -104 227 -104.5t123 87.5q0 43 -56.5 78t-135 67.5t-158.5 75.5t-136.5 123t-56.5 187zM399 690q0 -45 36 -83t79 -59.5t122 -56t120 -57.5q74 47 73 123q0 37 -19 67.5t-60 55.5t-79 42t-98.5 43t-97.5 44q-76 -45 -76 -119z" />
<glyph unicode="&#xa8;" d="M229 1331q0 68 46.5 114t116 46t114.5 -46t45 -114q0 -70 -45 -116t-114.5 -46t-116 46.5t-46.5 115.5zM678 1331q0 68 45 114t114.5 46t115.5 -46t46 -114q0 -70 -46 -116t-115.5 -46t-114.5 46.5t-45 115.5z" />
<glyph unicode="&#xa9;" d="M39 666q0 307 167 491t408.5 184t408.5 -184t167 -491q0 -309 -167 -496.5t-408.5 -187.5t-408.5 187.5t-167 496.5zM170 666q0 -252 122 -406t322.5 -154t322.5 154t122 406t-122 402.5t-322.5 150.5t-322.5 -150.5t-122 -402.5zM285 664q0 174 104.5 283.5t249.5 109.5 q129 0 229 -101l-112 -125q-49 49 -99 50q-74 0 -114.5 -61.5t-40.5 -155.5q0 -104 39 -166t106 -62q55 0 123 49l96 -139q-106 -86 -227 -86q-156 0 -255 111t-99 293z" />
<glyph unicode="&#xaa;" d="M315 719q0 109 95.5 168t304.5 80q-6 88 -115 88q-78 0 -186 -60l-76 138q152 90 305 90q135 0 210 -77t75 -233v-381h-174l-15 68h-4q-102 -84 -205 -84q-94 0 -154.5 59.5t-60.5 143.5zM520 737q0 -59 78 -59q63 0 117 53v109q-195 -25 -195 -103z" />
<glyph unicode="&#xab;" d="M86 367v299l350 315l127 -113l-260 -352l260 -352l-127 -113zM631 367v299l350 315l127 -113l-260 -352l260 -352l-127 -113z" />
<glyph unicode="&#xac;" d="M143 528v213h942v-589h-221v376h-721z" />
<glyph unicode="&#xad;" d="M254 489v228h721v-228h-721z" />
<glyph unicode="&#xae;" d="M207 1050.5q0 178.5 117.5 296t287.5 117.5t288 -117.5t118 -296t-118 -296t-288 -117.5t-287.5 117.5t-117.5 296zM317 1050.5q0 -141.5 82 -227.5t213 -86t213 86t82 227.5t-82 227.5t-213 86t-213 -86t-82 -227.5zM446 852v403h183q76 0 121 -33.5t45 -101.5 q0 -78 -72 -110l86 -158h-123l-61 123h-60v-123h-119zM565 1057h41q63 0 64 57q0 53 -62 53h-43v-110z" />
<glyph unicode="&#xaf;" d="M332 1212v191h565v-191h-565z" />
<glyph unicode="&#xb0;" d="M319 1110q0 127 86.5 211t211 84t209.5 -84t85 -211t-85 -211t-209.5 -84t-211 84t-86.5 211zM479 1110q0 -68 38 -110t99.5 -42t99.5 42t38 110q0 66 -38 108t-99.5 42t-99.5 -42t-38 -108z" />
<glyph unicode="&#xb1;" d="M143 0v213h942v-213h-942zM143 594v213h361v311h221v-311h360v-213h-360v-277h-221v277h-361z" />
<glyph unicode="&#xb2;" d="M324 1432q127 133 272 133q123 0 195.5 -59.5t72.5 -164.5q0 -106 -168 -262h191v-178h-535v113q301 197 301 291q0 84 -90 84q-63 0 -112 -72z" />
<glyph unicode="&#xb3;" d="M338 963l84 135q84 -59 168 -60q86 0 86 60q0 72 -150 71v113q125 0 125 66q0 55 -80 55q-49 0 -135 -51l-86 127q106 86 271 86q102 0 172.5 -51.5t70.5 -131.5q0 -57 -25.5 -91t-84.5 -54q135 -37 135 -156q0 -90 -79 -147t-194 -57q-163 0 -278 86z" />
<glyph unicode="&#xb4;" d="M446 1176l183 342h307l-270 -342h-220z" />
<glyph unicode="&#xb5;" d="M131 -410v1426h301v-592q0 -106 35 -149.5t115 -43.5q102 0 188 113v672h301v-1016h-246l-22 143h-8q-80 -152 -230 -151q-102 0 -151 47l18 -186v-263h-301z" />
<glyph unicode="&#xb6;" d="M98 879q0 242 134.5 349t353.5 107h86v-932h-82q-211 0 -351.5 125t-140.5 351zM778 -164v1499h299v-1499h-299z" />
<glyph unicode="&#xb7;" d="M377 725q0 102 66.5 171t171 69t171 -69t66.5 -171t-66.5 -172t-171 -70t-171 70t-66.5 172z" />
<glyph unicode="&#xb8;" d="M408 -332q168 18 167 90q1 57 -118 86l82 164h176l-41 -96q119 -39 119 -152q0 -100 -102.5 -152t-260.5 -61z" />
<glyph unicode="&#xb9;" d="M401 1335v131q121 16 215 74h170v-639h-219v434h-166z" />
<glyph unicode="&#xba;" d="M272 868.5q0 161.5 100.5 258t242 96.5t241.5 -96.5t100 -258t-100 -257t-241.5 -95.5t-242 95.5t-100.5 257zM489 868.5q0 -184.5 125 -184.5t125 184.5t-125 184.5t-125 -184.5z" />
<glyph unicode="&#xbb;" d="M121 164l260 352l-260 352l127 113l350 -315v-299l-350 -316zM666 164l260 352l-260 352l127 113l350 -315v-299l-350 -316z" />
<glyph unicode="&#xbc;" d="M35 207l381 354l104 -96l-332 -408zM141 1098v131q123 14 215 71h170v-636h-219v434h-166zM590 125v104l246 410h274v-379h104v-135h-104v-125h-192v125h-328zM709 870l331 408l154 -150l-381 -356zM784 260h134v45l10 203h-6l-70 -127z" />
<glyph unicode="&#xbd;" d="M35 207l381 354l104 -96l-332 -408zM141 1098v131q123 14 215 71h170v-636h-219v434h-166zM584 530q127 133 272 134q123 0 194.5 -59.5t71.5 -164.5q0 -109 -166 -262h191v-178h-535v113q301 199 301 290q0 39 -23.5 61.5t-66.5 22.5q-61 0 -114 -71zM709 870l331 408 l154 -150l-381 -356z" />
<glyph unicode="&#xbe;" d="M49 207l381 354l105 -96l-332 -408zM76 723l84 135q84 -59 170 -59q37 0 61.5 15t24.5 44q0 72 -150 72v114q123 0 123 66q0 53 -78 53q-57 0 -135 -51l-88 129q109 84 272 84q102 0 172 -50t70 -130q0 -57 -24.5 -92t-85.5 -56q137 -37 137 -155q0 -88 -80 -145.5 t-193 -57.5q-164 0 -280 84zM592 125v104l246 410h272v-379h107v-135h-107v-125h-190v125h-328zM723 870l332 408l153 -150l-381 -356zM786 260h134v45l10 203h-6l-70 -127z" />
<glyph unicode="&#xbf;" d="M211 -47q0 74 34 135.5t82 104.5t95 83.5t75.5 96t22.5 121.5h264q12 -76 -12 -141.5t-69.5 -111.5t-90.5 -85t-78.5 -81t-33.5 -83q0 -61 42 -95t109 -34q102 0 211 94l166 -152q-166 -186 -397 -186q-186 0 -303 86t-117 248zM440 831q0 92 57.5 150.5t145.5 58.5 q90 0 147.5 -58.5t57.5 -150.5q0 -90 -57.5 -147t-147.5 -57q-88 0 -145.5 57t-57.5 147z" />
<glyph unicode="&#xc0;" d="M18 0l416 1335h361l415 -1335h-319l-80 317h-403l-82 -317h-308zM283 1683h319l166 -245h-240zM469 553h281l-31 123q-20 78 -58 234.5t-49 195.5h-8q-63 -270 -104 -430z" />
<glyph unicode="&#xc1;" d="M18 0l416 1335h361l415 -1335h-319l-80 317h-403l-82 -317h-308zM461 1438l166 245h319l-246 -245h-239zM469 553h281l-31 123q-20 78 -58 234.5t-49 195.5h-8q-63 -270 -104 -430z" />
<glyph unicode="&#xc2;" d="M18 0l416 1335h361l415 -1335h-319l-80 317h-403l-82 -317h-308zM270 1438l197 245h295l196 -245h-231l-109 125h-8l-108 -125h-232zM469 553h281l-31 123q-20 78 -58 234.5t-49 195.5h-8q-63 -270 -104 -430z" />
<glyph unicode="&#xc3;" d="M18 0l416 1335h361l415 -1335h-319l-80 317h-403l-82 -317h-308zM266 1440q14 135 74.5 206.5t144.5 71.5q61 0 140.5 -46t105.5 -46q58 0 78 92h154q-14 -135 -75 -206.5t-145 -71.5q-61 0 -140 46t-105 46q-57 0 -78 -92h-154zM469 553h281l-31 123q-20 78 -58 234.5 t-49 195.5h-8q-63 -270 -104 -430z" />
<glyph unicode="&#xc4;" d="M18 0l416 1335h361l415 -1335h-319l-80 317h-403l-82 -317h-308zM268 1577q0 61 40 102t103.5 41t103.5 -41t40 -102t-40 -102t-103.5 -41t-103.5 41t-40 102zM469 553h281l-31 123q-20 78 -58 234.5t-49 195.5h-8q-63 -270 -104 -430zM674 1577q0 61 40 102t103.5 41 t103.5 -41t40 -102t-40 -102t-103.5 -41t-103.5 41t-40 102z" />
<glyph unicode="&#xc5;" d="M18 0l416 1335h361l415 -1335h-319l-80 317h-403l-82 -317h-308zM383 1628q0 90 64.5 145.5t167 55.5t167 -55.5t64.5 -145.5q0 -92 -63.5 -146.5t-168 -54.5t-168 54.5t-63.5 146.5zM469 553h281l-31 123q-20 78 -58 234.5t-49 195.5h-8q-63 -270 -104 -430zM530 1628 q0 -41 24 -64.5t60 -23.5q35 0 58.5 23.5t23.5 64.5q0 39 -23.5 63.5t-58.5 24.5q-37 0 -60.5 -24.5t-23.5 -63.5z" />
<glyph unicode="&#xc6;" d="M-6 0l428 1335h778v-254h-297v-264h242v-254h-242v-309h316v-254h-582v305h-242l-92 -305h-309zM465 539h172v569h-6q-20 -78 -59.5 -212t-49.5 -167z" />
<glyph unicode="&#xc7;" d="M113 659q0 324 180 512.5t457 188.5q221 0 395 -170l-166 -186q-106 96 -229 96q-143 0 -235.5 -117t-92.5 -313q0 -203 93 -318.5t247 -115.5q128 -1 237 118l166 -182q-152 -176 -372 -195l-29 -65q121 -39 121 -152q0 -100 -102.5 -152t-262.5 -61l-22 121 q170 18 170 90q0 57 -119 86l72 142q-225 41 -366.5 215t-141.5 458z" />
<glyph unicode="&#xc8;" d="M193 0v1335h880v-254h-579v-268h491v-252h-491v-307h600v-254h-901zM326 1683h321l164 -245h-240z" />
<glyph unicode="&#xc9;" d="M193 0v1335h880v-254h-579v-268h491v-252h-491v-307h600v-254h-901zM506 1438l164 245h321l-246 -245h-239z" />
<glyph unicode="&#xca;" d="M193 0v1335h880v-254h-579v-268h491v-252h-491v-307h600v-254h-901zM315 1438l197 245h293l196 -245h-229l-108 125h-9l-110 -125h-230z" />
<glyph unicode="&#xcb;" d="M193 0v1335h880v-254h-579v-268h491v-252h-491v-307h600v-254h-901zM313 1577q0 61 40 102t102 41q63 0 103 -41t40 -102t-40 -102t-103 -41q-61 0 -101.5 41t-40.5 102zM719 1577q0 61 40 102t103 41q61 0 101.5 -41t40.5 -102t-40.5 -102t-101.5 -41q-63 0 -103 41 t-40 102z" />
<glyph unicode="&#xcc;" d="M152 0v254h311v827h-311v254h925v-254h-311v-827h311v-254h-925zM283 1683h319l166 -245h-240z" />
<glyph unicode="&#xcd;" d="M152 0v254h311v827h-311v254h925v-254h-311v-827h311v-254h-925zM461 1438l166 245h319l-246 -245h-239z" />
<glyph unicode="&#xce;" d="M152 0v254h311v827h-311v254h925v-254h-311v-827h311v-254h-925zM270 1438l197 245h295l196 -245h-231l-109 125h-8l-108 -125h-232z" />
<glyph unicode="&#xcf;" d="M152 0v254h311v827h-311v254h925v-254h-311v-827h311v-254h-925zM268 1577q0 61 40 102t103.5 41t103.5 -41t40 -102t-40 -102t-103.5 -41t-103.5 41t-40 102zM674 1577q0 61 40 102t103.5 41t103.5 -41t40 -102t-40 -102t-103.5 -41t-103.5 41t-40 102z" />
<glyph unicode="&#xd0;" d="M4 616v136l141 10v573h365q301 0 471 -163.5t170 -497.5t-169 -504t-456 -170h-381v616h-141zM449 244h43q350 0 350 430q0 227 -91.5 322.5t-258.5 95.5h-43v-330h219v-146h-219v-372z" />
<glyph unicode="&#xd1;" d="M135 0v1335h307l283 -665l115 -293h8q-2 29 -15.5 141.5t-20.5 193.5t-7 150v473h289v-1335h-308l-282 666l-115 290h-8q4 -41 16.5 -145t19.5 -186t7 -152v-473h-289zM279 1440q14 135 74.5 206.5t144.5 71.5q61 0 140 -46t105 -46q57 0 78 92h154 q-14 -135 -74.5 -206.5t-144.5 -71.5q-61 0 -140 46t-106 46q-57 0 -78 -92h-153z" />
<glyph unicode="&#xd2;" d="M78 674q0 322 147.5 504t389 182t389 -182.5t147.5 -503.5q0 -324 -147.5 -511.5t-389 -187.5t-389 187.5t-147.5 511.5zM283 1683h319l166 -245h-240zM387 674q0 -201 61.5 -319.5t166 -118.5t166 118.5t61.5 319.5q0 199 -61.5 312.5t-166 113.5t-166 -114t-61.5 -312z " />
<glyph unicode="&#xd3;" d="M78 674q0 322 147.5 504t389 182t389 -182.5t147.5 -503.5q0 -324 -147.5 -511.5t-389 -187.5t-389 187.5t-147.5 511.5zM387 674q0 -201 61.5 -319.5t166 -118.5t166 118.5t61.5 319.5q0 199 -61.5 312.5t-166 113.5t-166 -114t-61.5 -312zM461 1438l166 245h319 l-246 -245h-239z" />
<glyph unicode="&#xd4;" d="M78 674q0 322 147.5 504t389 182t389 -182.5t147.5 -503.5q0 -324 -147.5 -511.5t-389 -187.5t-389 187.5t-147.5 511.5zM270 1438l197 245h295l196 -245h-231l-109 125h-8l-108 -125h-232zM387 674q0 -201 61.5 -319.5t166 -118.5t166 118.5t61.5 319.5 q0 199 -61.5 312.5t-166 113.5t-166 -114t-61.5 -312z" />
<glyph unicode="&#xd5;" d="M78 674q0 322 147.5 504t389 182t389 -182.5t147.5 -503.5q0 -324 -147.5 -511.5t-389 -187.5t-389 187.5t-147.5 511.5zM266 1440q14 135 74.5 206.5t144.5 71.5q61 0 140.5 -46t105.5 -46q57 0 78 92h154q-14 -135 -75 -206.5t-145 -71.5q-61 0 -140 46t-105 46 q-57 0 -78 -92h-154zM387 674q0 -201 61.5 -319.5t166 -118.5t166 118.5t61.5 319.5q0 199 -61.5 312.5t-166 113.5t-166 -114t-61.5 -312z" />
<glyph unicode="&#xd6;" d="M78 674q0 322 147.5 504t389 182t389 -182.5t147.5 -503.5q0 -324 -147.5 -511.5t-389 -187.5t-389 187.5t-147.5 511.5zM268 1577q0 61 40 102t103.5 41t103.5 -41t40 -102t-40 -102t-103.5 -41t-103.5 41t-40 102zM387 674q0 -201 61.5 -319.5t166 -118.5t166 118.5 t61.5 319.5q0 199 -61.5 312.5t-166 113.5t-166 -114t-61.5 -312zM674 1577q0 61 40 102t103.5 41t103.5 -41t40 -102t-40 -102t-103.5 -41t-103.5 41t-40 102z" />
<glyph unicode="&#xd7;" d="M172 340l291 293l-291 295l150 151l292 -295l293 295l150 -151l-291 -295l291 -293l-150 -152l-293 295l-292 -295z" />
<glyph unicode="&#xd8;" d="M61 18l132 191q-115 182 -115 465q0 322 147.5 504t388.5 182q174 0 304 -98l108 157l160 -102l-139 -203q104 -174 104 -440q0 -324 -147.5 -511.5t-389.5 -187.5q-168 0 -288 91l-105 -150zM387 674q0 -90 12 -164l357 516q-57 74 -142 74q-104 0 -165.5 -114 t-61.5 -312zM485 299q53 -63 129 -63q104 0 166 118.5t62 319.5q0 80 -8 131z" />
<glyph unicode="&#xd9;" d="M131 514v821h301v-852q0 -248 186 -247q188 0 189 247v852h291v-821q0 -262 -120 -400.5t-360 -138.5q-242 0 -364.5 138.5t-122.5 400.5zM283 1683h319l166 -245h-240z" />
<glyph unicode="&#xda;" d="M131 514v821h301v-852q0 -248 186 -247q188 0 189 247v852h291v-821q0 -262 -120 -400.5t-360 -138.5q-242 0 -364.5 138.5t-122.5 400.5zM461 1438l166 245h319l-246 -245h-239z" />
<glyph unicode="&#xdb;" d="M131 514v821h301v-852q0 -248 186 -247q188 0 189 247v852h291v-821q0 -262 -120 -400.5t-360 -138.5q-242 0 -364.5 138.5t-122.5 400.5zM270 1438l197 245h295l196 -245h-231l-109 125h-8l-108 -125h-232z" />
<glyph unicode="&#xdc;" d="M131 514v821h301v-852q0 -248 186 -247q188 0 189 247v852h291v-821q0 -262 -120 -400.5t-360 -138.5q-242 0 -364.5 138.5t-122.5 400.5zM268 1577q0 61 40 102t103.5 41t103.5 -41t40 -102t-40 -102t-103.5 -41t-103.5 41t-40 102zM674 1577q0 61 40 102t103.5 41 t103.5 -41t40 -102t-40 -102t-103.5 -41t-103.5 41t-40 102z" />
<glyph unicode="&#xdd;" d="M33 1335h323l136 -321q20 -53 61 -153.5t59 -151.5h9q20 49 61 149t63 156l136 321h315l-430 -884v-451h-303v451zM461 1438l166 245h319l-246 -245h-239z" />
<glyph unicode="&#xde;" d="M150 0v1335h301v-202h186q522 0 522 -428q0 -225 -147.5 -339t-374.5 -114h-186v-252h-301zM451 492h167q244 0 244 213q0 102 -60.5 145t-183.5 43h-167v-401z" />
<glyph unicode="&#xdf;" d="M125 0v1014q0 199 118.5 322.5t346.5 123.5q186 0 286.5 -101.5t100.5 -244.5q0 -84 -32 -151.5t-62.5 -117.5t-30.5 -91q0 -37 33 -69t80 -61.5t93 -66.5t78.5 -100.5t32.5 -145.5q0 -145 -94 -240.5t-262 -95.5q-143 0 -285 76l101 205q88 -57 174 -57q41 0 64.5 23.5 t23.5 64.5q0 43 -33 77.5t-79 64.5t-93 63.5t-80 91t-33 133.5q0 82 61.5 192.5t61.5 188.5q0 53 -29.5 89t-78.5 36q-162 0 -162 -228v-995h-301z" />
<glyph unicode="&#xe0;" d="M125 283q0 172 156.5 261t513.5 109q-16 147 -217 148q-121 0 -310 -94l-106 196q240 137 475 137q219 0 339 -114.5t120 -343.5v-582h-246l-23 115h-8q-182 -139 -360 -140q-150 0 -242 88.5t-92 219.5zM309 1518h307l183 -342h-219zM414 305q0 -96 141 -96 q115 0 240 96v168q-211 -12 -296 -54t-85 -114z" />
<glyph unicode="&#xe1;" d="M125 283q0 172 156.5 261t513.5 109q-16 147 -217 148q-121 0 -310 -94l-106 196q240 137 475 137q219 0 339 -114.5t120 -343.5v-582h-246l-23 115h-8q-182 -139 -360 -140q-150 0 -242 88.5t-92 219.5zM414 305q0 -96 141 -96q115 0 240 96v168q-211 -12 -296 -54 t-85 -114zM463 1176l182 342h309l-270 -342h-221z" />
<glyph unicode="&#xe2;" d="M125 283q0 172 156.5 261t513.5 109q-16 147 -217 148q-121 0 -310 -94l-106 196q240 137 475 137q219 0 339 -114.5t120 -343.5v-582h-246l-23 115h-8q-182 -139 -360 -140q-150 0 -242 88.5t-92 219.5zM299 1176l205 342h254l205 -342h-220l-108 194h-8l-109 -194h-219 zM414 305q0 -96 141 -96q115 0 240 96v168q-211 -12 -296 -54t-85 -114z" />
<glyph unicode="&#xe3;" d="M125 283q0 172 156.5 261t513.5 109q-16 147 -217 148q-121 0 -310 -94l-106 196q240 137 475 137q219 0 339 -114.5t120 -343.5v-582h-246l-23 115h-8q-182 -139 -360 -140q-150 0 -242 88.5t-92 219.5zM281 1178q18 145 80.5 218.5t158.5 73.5q55 0 126 -53t93 -53 q63 0 88 106h154q-18 -145 -80.5 -218.5t-159.5 -73.5q-57 0 -126.5 54t-92.5 54q-63 0 -88 -108h-153zM414 305q0 -96 141 -96q115 0 240 96v168q-211 -12 -296 -54t-85 -114z" />
<glyph unicode="&#xe4;" d="M125 283q0 172 156.5 261t513.5 109q-16 147 -217 148q-121 0 -310 -94l-106 196q240 137 475 137q219 0 339 -114.5t120 -343.5v-582h-246l-23 115h-8q-182 -139 -360 -140q-150 0 -242 88.5t-92 219.5zM248 1331q0 68 45 114t114.5 46t115.5 -46t46 -114 q0 -70 -46 -116t-115.5 -46t-114.5 46.5t-45 115.5zM414 305q0 -96 141 -96q115 0 240 96v168q-211 -12 -296 -54t-85 -114zM694 1331q0 68 45 114t115 46q72 0 117 -46t45 -114q0 -70 -45 -116t-117 -46q-70 0 -115 46.5t-45 115.5z" />
<glyph unicode="&#xe5;" d="M125 283q0 172 156.5 261t513.5 109q-16 147 -217 148q-121 0 -310 -94l-106 196q240 137 475 137q219 0 339 -114.5t120 -343.5v-582h-246l-23 115h-8q-182 -139 -360 -140q-150 0 -242 88.5t-92 219.5zM401 1331q0 94 63.5 151.5t166.5 57.5q104 0 167.5 -57.5 t63.5 -151.5t-63.5 -151.5t-167.5 -57.5q-102 0 -166 57.5t-64 151.5zM414 305q0 -96 141 -96q115 0 240 96v168q-211 -12 -296 -54t-85 -114zM547 1331q0 -43 24.5 -69.5t59.5 -26.5q37 0 60.5 26.5t23.5 69.5t-23.5 69.5t-60.5 26.5q-35 0 -59.5 -26.5t-24.5 -69.5z" />
<glyph unicode="&#xe6;" d="M33 283q0 154 111.5 240.5t349.5 131.5q-12 145 -117 146q-94 0 -211 -70l-107 197q188 113 338 112q160 0 238 -149q53 78 114.5 113.5t147.5 35.5q150 0 233.5 -139t83.5 -350q0 -70 -14 -131h-465q33 -209 187 -209q80 0 159 53l103 -192q-123 -96 -273 -97 q-195 0 -309 158q-152 -158 -287 -158q-133 0 -207.5 87.5t-74.5 220.5zM303 307q0 -98 94 -98q68 0 125 70q-20 55 -28 151l-2 43q-189 -41 -189 -166zM731 604h244q0 207 -107 207q-53 0 -90 -52.5t-47 -154.5z" />
<glyph unicode="&#xe7;" d="M137 508q0 244 171 388t417 144q233 0 381 -137l-139 -186q-113 80 -226 80q-131 0 -213 -79t-82 -210t79 -210t206 -79q133 0 268 96l123 -190q-139 -116 -340 -145l-30 -68q121 -39 120 -152q0 -100 -102 -152t-260 -61l-23 121q168 18 168 90q0 57 -118 86l69 138 q-211 29 -340 167t-129 359z" />
<glyph unicode="&#xe8;" d="M113 508q0 240 157.5 386t370.5 146q227 0 352 -136t125 -351q0 -53 -12 -127h-684q20 -111 99 -166t196 -55q123 0 262 69l98 -180q-184 -119 -401 -119q-244 0 -403.5 143.5t-159.5 389.5zM317 1518h310l180 -342h-219zM418 612h428q0 92 -50.5 145.5t-148.5 53.5 q-86 0 -148.5 -51.5t-80.5 -147.5z" />
<glyph unicode="&#xe9;" d="M113 508q0 240 157.5 386t370.5 146q227 0 352 -136t125 -351q0 -53 -12 -127h-684q20 -111 99 -166t196 -55q123 0 262 69l98 -180q-184 -119 -401 -119q-244 0 -403.5 143.5t-159.5 389.5zM418 612h428q0 92 -50.5 145.5t-148.5 53.5q-86 0 -148.5 -51.5t-80.5 -147.5z M473 1176l182 342h308l-271 -342h-219z" />
<glyph unicode="&#xea;" d="M113 508q0 240 157.5 386t370.5 146q227 0 352 -136t125 -351q0 -53 -12 -127h-684q20 -111 99 -166t196 -55q123 0 262 69l98 -180q-184 -119 -401 -119q-244 0 -403.5 143.5t-159.5 389.5zM307 1176l207 342h252l207 -342h-219l-109 194h-8l-111 -194h-219zM418 612 h428q0 92 -50.5 145.5t-148.5 53.5q-86 0 -148.5 -51.5t-80.5 -147.5z" />
<glyph unicode="&#xeb;" d="M113 508q0 240 157.5 386t370.5 146q227 0 352 -136t125 -351q0 -53 -12 -127h-684q20 -111 99 -166t196 -55q123 0 262 69l98 -180q-184 -119 -401 -119q-244 0 -403.5 143.5t-159.5 389.5zM254 1331q0 68 46 114t115.5 46t114.5 -46t45 -114q0 -70 -45 -116t-114.5 -46 t-115.5 46.5t-46 115.5zM418 612h428q0 92 -50.5 145.5t-148.5 53.5q-86 0 -148.5 -51.5t-80.5 -147.5zM702 1331q0 68 45.5 114t115 46t115.5 -46t46 -114q0 -70 -46 -116t-115.5 -46t-115 46.5t-45.5 115.5z" />
<glyph unicode="&#xec;" d="M162 780v236h708v-1016h-301v780h-407zM385 1518h307l182 -342h-219z" />
<glyph unicode="&#xed;" d="M162 780v236h708v-1016h-301v780h-407zM539 1176l182 342h309l-272 -342h-219z" />
<glyph unicode="&#xee;" d="M162 780v236h708v-1016h-301v780h-407zM375 1176l205 342h254l204 -342h-219l-108 194h-9l-108 -194h-219z" />
<glyph unicode="&#xef;" d="M162 780v236h708v-1016h-301v780h-407zM322 1331q0 68 46 114t115.5 46t114.5 -46t45 -114q0 -70 -45 -116t-114.5 -46t-115.5 46.5t-46 115.5zM770 1331q0 68 45 114t114.5 46t116 -46t46.5 -114q0 -70 -46.5 -116t-116 -46t-114.5 46.5t-45 115.5z" />
<glyph unicode="&#xf0;" d="M96 467q0 211 133 338t320 127q166 0 258 -113q-57 178 -201 307l-305 -153l-78 133l246 123q-88 57 -193 104l132 183q166 -76 297 -168l278 141l78 -133l-227 -115q293 -272 292 -696q0 -252 -140 -411t-382 -159q-213 0 -360.5 136.5t-147.5 355.5zM371 467 q0 -117 69.5 -182.5t173.5 -65.5q109 0 170.5 79t61.5 230q0 47 -2 70q-96 111 -234 111q-113 0 -176 -60.5t-63 -181.5z" />
<glyph unicode="&#xf1;" d="M147 0v1016h246l23 -135h8q164 160 350 159q168 0 250 -107.5t82 -305.5v-627h-301v588q0 102 -34 149t-116 47q-57 0 -103 -24.5t-103 -81.5v-678h-302zM295 1178q18 145 80.5 218.5t159.5 73.5q55 0 125.5 -53t93.5 -53q63 0 88 106h153q-18 -145 -80.5 -218.5 t-158.5 -73.5q-57 0 -127 54t-92 54q-63 0 -88 -108h-154z" />
<glyph unicode="&#xf2;" d="M96 508q0 244 152.5 388t365.5 144t366 -144t153 -388t-153 -388.5t-366 -144.5t-365.5 144.5t-152.5 388.5zM293 1518h307l182 -342h-219zM406 508q0 -135 53 -212t155.5 -77t155.5 77t53 212t-53 212t-155.5 77t-155.5 -77t-53 -212z" />
<glyph unicode="&#xf3;" d="M96 508q0 244 152.5 388t365.5 144t366 -144t153 -388t-153 -388.5t-366 -144.5t-365.5 144.5t-152.5 388.5zM406 508q0 -135 53 -212t155.5 -77t155.5 77t53 212t-53 212t-155.5 77t-155.5 -77t-53 -212zM446 1176l183 342h307l-270 -342h-220z" />
<glyph unicode="&#xf4;" d="M96 508q0 244 152.5 388t365.5 144t366 -144t153 -388t-153 -388.5t-366 -144.5t-365.5 144.5t-152.5 388.5zM283 1176l204 342h254l205 -342h-219l-109 194h-8l-108 -194h-219zM406 508q0 -135 53 -212t155.5 -77t155.5 77t53 212t-53 212t-155.5 77t-155.5 -77 t-53 -212z" />
<glyph unicode="&#xf5;" d="M96 508q0 244 152.5 388t365.5 144t366 -144t153 -388t-153 -388.5t-366 -144.5t-365.5 144.5t-152.5 388.5zM264 1178q18 145 81 218.5t159 73.5q55 0 125.5 -53t93.5 -53q63 0 88 106h154q-18 -145 -81 -218.5t-159 -73.5q-57 0 -127 54t-92 54q-63 0 -88 -108h-154z M406 508q0 -135 53 -212t155.5 -77t155.5 77t53 212t-53 212t-155.5 77t-155.5 -77t-53 -212z" />
<glyph unicode="&#xf6;" d="M96 508q0 244 152.5 388t365.5 144t366 -144t153 -388t-153 -388.5t-366 -144.5t-365.5 144.5t-152.5 388.5zM229 1331q0 68 46.5 114t116 46t114.5 -46t45 -114q0 -70 -45 -116t-114.5 -46t-116 46.5t-46.5 115.5zM406 508q0 -135 53 -212t155.5 -77t155.5 77t53 212 t-53 212t-155.5 77t-155.5 -77t-53 -212zM678 1331q0 68 45 114t114.5 46t115.5 -46t46 -114q0 -70 -46 -116t-115.5 -46t-114.5 46.5t-45 115.5z" />
<glyph unicode="&#xf7;" d="M143 528v213h942v-213h-942zM449 266.5q0 69.5 47 113.5t118.5 44t118.5 -44t47 -113.5t-47 -113.5t-118.5 -44t-118.5 44t-47 113.5zM449 1003.5q0 69.5 47 113.5t118.5 44t118.5 -44t47 -113.5t-47 -113.5t-118.5 -44t-118.5 44t-47 113.5z" />
<glyph unicode="&#xf8;" d="M96 508q0 244 152.5 388t365.5 144q156 0 283 -79l92 110l113 -88l-96 -115q127 -147 127 -360q0 -244 -153 -388.5t-366 -144.5q-156 0 -284 82l-90 -108l-113 86l94 115q-125 145 -125 358zM406 508q0 -72 14 -123l315 381q-51 41 -121 41q-102 0 -155 -81t-53 -218z M492 252q53 -43 122 -43q102 0 155.5 81t53.5 218q0 74 -14 125z" />
<glyph unicode="&#xf9;" d="M127 389v627h301v-588q0 -104 33 -150.5t114 -46.5q59 0 103.5 26t95.5 91v668h301v-1016h-246l-22 145h-8q-150 -170 -342 -170q-330 0 -330 414zM283 1518h309l180 -342h-219z" />
<glyph unicode="&#xfa;" d="M127 389v627h301v-588q0 -104 33 -150.5t114 -46.5q59 0 103.5 26t95.5 91v668h301v-1016h-246l-22 145h-8q-150 -170 -342 -170q-330 0 -330 414zM438 1176l183 342h307l-271 -342h-219z" />
<glyph unicode="&#xfb;" d="M127 389v627h301v-588q0 -104 33 -150.5t114 -46.5q59 0 103.5 26t95.5 91v668h301v-1016h-246l-22 145h-8q-150 -170 -342 -170q-330 0 -330 414zM272 1176l207 342h252l207 -342h-219l-109 194h-8l-110 -194h-220z" />
<glyph unicode="&#xfc;" d="M127 389v627h301v-588q0 -104 33 -150.5t114 -46.5q59 0 103.5 26t95.5 91v668h301v-1016h-246l-22 145h-8q-150 -170 -342 -170q-330 0 -330 414zM221 1331q0 68 45 114t117 46q70 0 115 -46t45 -114q0 -70 -45 -116t-115 -46q-72 0 -117 46.5t-45 115.5zM668 1331 q0 68 45 114t116 46q70 0 115 -46t45 -114q0 -70 -45 -116t-115 -46q-72 0 -116.5 46.5t-44.5 115.5z" />
<glyph unicode="&#xfd;" d="M63 1016h299l170 -436q43 -113 103 -306h8q8 31 92 306l150 436h284l-401 -1026q-78 -203 -184.5 -295t-290.5 -92q-84 0 -156 20l53 230q40 -12 80 -13q158 0 213 133l21 54zM461 1176l182 342h307l-270 -342h-219z" />
<glyph unicode="&#xfe;" d="M147 -377v1813h302v-357l-9 -155q129 117 285 116q188 0 298 -140t110 -376q0 -250 -131.5 -399.5t-307.5 -149.5q-131 0 -252 111l7 -166v-297h-302zM449 289q76 -68 174 -68q88 0 144 75t56 224q0 274 -188 275q-94 0 -186 -95v-411z" />
<glyph unicode="&#xff;" d="M63 1016h299l170 -436q43 -113 103 -306h8q8 31 92 306l150 436h284l-401 -1026q-78 -203 -184.5 -295t-290.5 -92q-84 0 -156 20l53 230q40 -12 80 -13q158 0 213 133l21 54zM244 1331q0 68 46 114t115.5 46t114.5 -46t45 -114q0 -70 -45 -116t-114.5 -46t-115.5 46.5 t-46 115.5zM692 1331q0 68 45 114t115 46t116 -46t46 -114q0 -70 -46 -116t-116 -46t-115 46.5t-45 115.5z" />
<glyph unicode="&#x100;" d="M18 0l416 1335h361l415 -1335h-319l-80 317h-403l-82 -317h-308zM326 1475v190h577v-190h-577zM469 553h281l-31 123q-20 78 -58 234.5t-49 195.5h-8q-63 -270 -104 -430z" />
<glyph unicode="&#x101;" d="M125 283q0 172 156.5 261t513.5 109q-16 147 -217 148q-121 0 -310 -94l-106 196q240 137 475 137q219 0 339 -114.5t120 -343.5v-582h-246l-23 115h-8q-182 -139 -360 -140q-150 0 -242 88.5t-92 219.5zM348 1212v191h565v-191h-565zM414 305q0 -96 141 -96 q115 0 240 96v168q-211 -12 -296 -54t-85 -114z" />
<glyph unicode="&#x102;" d="M18 0l416 1335h361l415 -1335h-319l-80 317h-403l-82 -317h-308zM334 1683h166q23 -94 114.5 -94t114.5 94h166q-29 -246 -281 -245.5t-280 245.5zM469 553h281l-31 123q-20 78 -58 234.5t-49 195.5h-8q-63 -270 -104 -430z" />
<glyph unicode="&#x103;" d="M125 283q0 172 156.5 261t513.5 109q-16 147 -217 148q-121 0 -310 -94l-106 196q240 137 475 137q219 0 339 -114.5t120 -343.5v-582h-246l-23 115h-8q-182 -139 -360 -140q-150 0 -242 88.5t-92 219.5zM330 1495h168q18 -154 132.5 -154t133.5 154h168 q-4 -135 -81 -227t-220.5 -92t-220 92t-80.5 227zM414 305q0 -96 141 -96q115 0 240 96v168q-211 -12 -296 -54t-85 -114z" />
<glyph unicode="&#x104;" d="M18 0l416 1335h361l415 -1335q-80 -8 -132 -63.5t-52 -120.5q0 -37 22.5 -57.5t57.5 -20.5q39 0 80 29l69 -152q-92 -72 -215 -72q-102 0 -167.5 51.5t-65.5 141.5q0 86 52 157.5t114 106.5h-82l-80 317h-403l-82 -317h-308zM469 553h281l-31 123q-20 78 -58 234.5 t-49 195.5h-8q-76 -326 -104 -430z" />
<glyph unicode="&#x105;" d="M125 283q0 172 156.5 261t513.5 109q-16 147 -217 148q-121 0 -310 -94l-106 196q240 137 475 137q219 0 339 -114.5t120 -343.5v-582q-92 -27 -136.5 -75t-44.5 -99q0 -39 26 -58.5t60.5 -19.5t71.5 25l64 -135q-88 -68 -207 -68q-94 0 -155.5 49t-61.5 137 q0 80 43 142.5t96 97.5l-25 119h-8q-182 -139 -360 -140q-150 0 -242 88.5t-92 219.5zM414 305q0 -96 141 -96q115 0 240 96v168q-211 -12 -296 -54t-85 -114z" />
<glyph unicode="&#x106;" d="M113 659.5q0 323.5 180 512t457 188.5q221 0 395 -170l-166 -186q-106 96 -229 96q-143 0 -235.5 -117t-92.5 -313q0 -203 93 -318.5t247 -115.5q129 0 237 118l166 -182q-168 -197 -422 -197q-270 0 -450 180.5t-180 504zM571 1438l166 245h320l-246 -245h-240z" />
<glyph unicode="&#x107;" d="M137 508q0 244 171 388t417 144q233 0 381 -137l-139 -186q-113 80 -226 80q-131 0 -213 -79t-82 -210t79 -210t206 -79q133 0 268 96l123 -190q-180 -150 -420 -150q-248 0 -406.5 142.5t-158.5 390.5zM530 1176l183 342h307l-270 -342h-220z" />
<glyph unicode="&#x108;" d="M113 659.5q0 323.5 180 512t457 188.5q221 0 395 -170l-166 -186q-106 96 -229 96q-143 0 -235.5 -117t-92.5 -313q0 -203 93 -318.5t247 -115.5q129 0 237 118l166 -182q-168 -197 -422 -197q-270 0 -450 180.5t-180 504zM381 1438l197 245h292l197 -245h-229l-109 125 h-8l-111 -125h-229z" />
<glyph unicode="&#x109;" d="M137 508q0 244 171 388t417 144q233 0 381 -137l-139 -186q-113 80 -226 80q-131 0 -213 -79t-82 -210t79 -210t206 -79q133 0 268 96l123 -190q-180 -150 -420 -150q-248 0 -406.5 142.5t-158.5 390.5zM365 1176l206 342h254l205 -342h-219l-109 194h-8l-108 -194h-221z " />
<glyph unicode="&#x10a;" d="M113 659.5q0 323.5 180 512t457 188.5q221 0 395 -170l-166 -186q-106 96 -229 96q-143 0 -235.5 -117t-92.5 -313q0 -203 93 -318.5t247 -115.5q129 0 237 118l166 -182q-168 -197 -422 -197q-270 0 -450 180.5t-180 504zM549 1593.5q0 69.5 49 113.5t127 44 q76 0 125 -44t49 -113.5t-49 -113.5t-125 -44q-78 0 -127 44t-49 113.5z" />
<glyph unicode="&#x10b;" d="M137 508q0 244 171 388t417 144q233 0 381 -137l-139 -186q-113 80 -226 80q-131 0 -213 -79t-82 -210t79 -210t206 -79q133 0 268 96l123 -190q-180 -150 -420 -150q-248 0 -406.5 142.5t-158.5 390.5zM498 1348q0 82 56 135t144 53q86 0 143.5 -53t57.5 -135 t-56.5 -132.5t-144.5 -50.5t-144 50.5t-56 132.5z" />
<glyph unicode="&#x10c;" d="M113 659.5q0 323.5 180 512t457 188.5q221 0 395 -170l-166 -186q-106 96 -229 96q-143 0 -235.5 -117t-92.5 -313q0 -203 93 -318.5t247 -115.5q129 0 237 118l166 -182q-168 -197 -422 -197q-270 0 -450 180.5t-180 504zM381 1683h229l111 -124h8l109 124h229 l-197 -245h-292z" />
<glyph unicode="&#x10d;" d="M137 508q0 244 171 388t417 144q233 0 381 -137l-139 -186q-113 80 -226 80q-131 0 -213 -79t-82 -210t79 -210t206 -79q133 0 268 96l123 -190q-180 -150 -420 -150q-248 0 -406.5 142.5t-158.5 390.5zM365 1518h221l108 -197h8l109 197h219l-205 -342h-254z" />
<glyph unicode="&#x10e;" d="M133 0v1335h363q301 0 472 -163.5t171 -497.5t-169 -504t-458 -170h-379zM264 1683h230l110 -124h8l109 124h229l-196 -245h-293zM436 244h43q350 0 350 430q0 227 -91 322.5t-259 95.5h-43v-848z" />
<glyph unicode="&#x10f;" d="M51 508q0 240 130 386t304 146q141 0 260 -108l-10 158v346h301v-1436h-245l-23 104h-8q-129 -129 -281 -129q-197 0 -312.5 142.5t-115.5 390.5zM358 512q0 -291 199 -291q104 0 178 94v412q-76 68 -172 68q-88 0 -146.5 -73t-58.5 -210zM1102 1577h192l-4 -141 l-49 -314h-129z" />
<glyph unicode="&#x110;" d="M4 616v136l141 10v573h365q301 0 471 -163.5t170 -497.5t-169 -504t-456 -170h-381v616h-141zM449 244h43q350 0 350 430q0 227 -91.5 322.5t-258.5 95.5h-43v-330h219v-146h-219v-372z" />
<glyph unicode="&#x111;" d="M96 487q0 229 130 370.5t304 141.5q141 0 261 -108l-11 158v90h-317v145h317v152h301v-152h136v-133l-136 -10v-1141h-245l-23 104h-6q-133 -129 -283 -129q-195 0 -311.5 137.5t-116.5 374.5zM406 492q0 -270 196 -271q104 0 178 94v371q-80 68 -166 68q-92 0 -150 -68 t-58 -194z" />
<glyph unicode="&#x112;" d="M193 0v1335h880v-254h-579v-268h491v-252h-491v-307h600v-254h-901zM369 1475v190h579v-190h-579z" />
<glyph unicode="&#x113;" d="M113 508q0 240 157.5 386t370.5 146q227 0 352 -136t125 -351q0 -53 -12 -127h-684q20 -111 99 -166t196 -55q123 0 262 69l98 -180q-184 -119 -401 -119q-244 0 -403.5 143.5t-159.5 389.5zM358 1212v191h566v-191h-566zM418 612h428q0 92 -50.5 145.5t-148.5 53.5 q-86 0 -148.5 -51.5t-80.5 -147.5z" />
<glyph unicode="&#x114;" d="M193 0v1335h880v-254h-579v-268h491v-252h-491v-307h600v-254h-901zM379 1683h164q23 -94 116 -94q92 0 115 94h164q-10 -115 -80 -180t-199 -65q-131 0 -199.5 65.5t-80.5 179.5z" />
<glyph unicode="&#x115;" d="M113 508q0 240 157.5 386t370.5 146q227 0 352 -136t125 -351q0 -53 -12 -127h-684q20 -111 99 -166t196 -55q123 0 262 69l98 -180q-184 -119 -401 -119q-244 0 -403.5 143.5t-159.5 389.5zM338 1495h168q23 -154 135 -154q115 0 133 154h168q-4 -135 -81 -227t-220 -92 t-221 92t-82 227zM418 612h428q0 92 -50.5 145.5t-148.5 53.5q-86 0 -148.5 -51.5t-80.5 -147.5z" />
<glyph unicode="&#x116;" d="M193 0v1335h880v-254h-579v-268h491v-252h-491v-307h600v-254h-901zM483 1593.5q0 69.5 49.5 113.5t126.5 44q76 0 125.5 -44t49.5 -113.5t-49.5 -113.5t-125.5 -44q-78 0 -127 44t-49 113.5z" />
<glyph unicode="&#x117;" d="M113 508q0 240 157.5 386t370.5 146q227 0 352 -136t125 -351q0 -53 -12 -127h-684q20 -111 99 -166t196 -55q123 0 262 69l98 -180q-184 -119 -401 -119q-244 0 -403.5 143.5t-159.5 389.5zM418 612h428q0 92 -50.5 145.5t-148.5 53.5q-86 0 -148.5 -51.5t-80.5 -147.5z M440 1348q0 82 56.5 135t144.5 53q86 0 142.5 -53t56.5 -135t-55.5 -132.5t-143.5 -50.5t-144.5 50.5t-56.5 132.5z" />
<glyph unicode="&#x118;" d="M193 0v1335h880v-254h-579v-268h491v-252h-491v-307h600v-254h-11q-70 -2 -123 -59.5t-53 -124.5q0 -37 25.5 -57.5t60.5 -20.5q33 0 74 29l68 -152q-90 -72 -213 -72q-102 0 -169 51.5t-67 141.5q0 86 49 155.5t113 108.5h-655z" />
<glyph unicode="&#x119;" d="M113 508q0 240 157.5 386t370.5 146q227 0 352 -136t125 -351q0 -53 -12 -127h-684q20 -111 99 -166t196 -55q123 -1 262 69l98 -180q-131 -92 -177 -148.5t-46 -119.5q0 -78 88 -78q31 0 72 25l61 -135q-84 -68 -207 -68q-94 0 -153.5 48t-59.5 138q0 127 117 230 q-45 -10 -96 -11q-244 0 -403.5 143.5t-159.5 389.5zM418 612h428q0 92 -50.5 145.5t-148.5 53.5q-86 0 -148.5 -51.5t-80.5 -147.5z" />
<glyph unicode="&#x11a;" d="M193 0v1335h880v-254h-579v-268h491v-252h-491v-307h600v-254h-901zM315 1683h230l110 -124h9l108 124h229l-196 -245h-293z" />
<glyph unicode="&#x11b;" d="M113 508q0 240 157.5 386t370.5 146q227 0 352 -136t125 -351q0 -53 -12 -127h-684q20 -111 99 -166t196 -55q123 0 262 69l98 -180q-184 -119 -401 -119q-244 0 -403.5 143.5t-159.5 389.5zM307 1518h219l111 -197h8l109 197h219l-207 -342h-252zM418 612h428 q0 92 -50.5 145.5t-148.5 53.5q-86 0 -148.5 -51.5t-80.5 -147.5z" />
<glyph unicode="&#x11c;" d="M90 659.5q0 325.5 174 513t443 187.5q221 0 391 -170l-166 -186q-96 96 -225 96q-133 0 -219.5 -117t-86.5 -313q0 -209 81 -321.5t237 -112.5q86 0 131 40v230h-195v246h465v-615q-74 -68 -185.5 -115t-232.5 -47q-268 0 -440 179.5t-172 505zM334 1438l196 245h293 l197 -245h-229l-111 125h-8l-109 -125h-229z" />
<glyph unicode="&#x11d;" d="M106 -172q0 125 158 203v8q-102 63 -102 174q0 49 32.5 101.5t88.5 88.5v9q-133 88 -133 260q0 174 125.5 271t308.5 97q94 0 168 -24h411v-219h-207q47 -59 48 -135q0 -168 -117 -254t-303 -86q-66 0 -140 20q-45 -33 -45 -74q0 -78 172 -78h189q412 0 411 -256 q0 -162 -165.5 -264t-438.5 -102q-209 0 -335 64.5t-126 195.5zM291 1176l205 342h254l206 -342h-219l-110 194h-9l-108 -194h-219zM352 -127q0 -55 68.5 -86t189.5 -31t198 36t77 89q0 47 -42 63.5t-136 16.5h-127q-100 0 -156 12q-72 -45 -72 -100zM432 672q0 -80 43 -124 t108.5 -44t110.5 44t45 124q0 78 -45 122t-110.5 44t-108.5 -44t-43 -122z" />
<glyph unicode="&#x11e;" d="M90 659.5q0 325.5 174 513t443 187.5q221 0 391 -170l-166 -186q-96 96 -225 96q-133 0 -219.5 -117t-86.5 -313q0 -209 81 -321.5t237 -112.5q86 0 131 40v230h-195v246h465v-615q-74 -68 -185.5 -115t-232.5 -47q-268 0 -440 179.5t-172 505zM397 1683h164 q23 -94 115 -94q94 0 117 94h163q-28 -245 -280 -245q-129 0 -198.5 65.5t-80.5 179.5z" />
<glyph unicode="&#x11f;" d="M106 -172q0 125 158 203v8q-102 63 -102 174q0 49 32.5 101.5t88.5 88.5v9q-133 88 -133 260q0 174 125.5 271t308.5 97q94 0 168 -24h411v-219h-207q47 -59 48 -135q0 -168 -117 -254t-303 -86q-66 0 -140 20q-45 -33 -45 -74q0 -78 172 -78h189q412 0 411 -256 q0 -162 -165.5 -264t-438.5 -102q-209 0 -335 64.5t-126 195.5zM322 1495h167q18 -154 134 -154q113 0 135 154h168q-4 -135 -82 -227t-221.5 -92t-220 92t-80.5 227zM352 -127q0 -55 68.5 -86t189.5 -31t198 36t77 89q0 47 -42 63.5t-136 16.5h-127q-100 0 -156 12 q-72 -45 -72 -100zM432 672q0 -80 43 -124t108.5 -44t110.5 44t45 124q0 78 -45 122t-110.5 44t-108.5 -44t-43 -122z" />
<glyph unicode="&#x120;" d="M90 659.5q0 325.5 174 513t443 187.5q221 0 391 -170l-166 -186q-96 96 -225 96q-133 0 -219.5 -117t-86.5 -313q0 -209 81 -321.5t237 -112.5q86 0 131 40v230h-195v246h465v-615q-74 -68 -185.5 -115t-232.5 -47q-268 0 -440 179.5t-172 505zM502 1593.5 q0 69.5 49 113.5t125 44t125 -44t49 -113.5t-49 -113.5t-125 -44t-125 44t-49 113.5z" />
<glyph unicode="&#x121;" d="M106 -172q0 125 158 203v8q-102 63 -102 174q0 49 32.5 101.5t88.5 88.5v9q-133 88 -133 260q0 174 125.5 271t308.5 97q94 0 168 -24h411v-219h-207q47 -59 48 -135q0 -168 -117 -254t-303 -86q-66 0 -140 20q-45 -33 -45 -74q0 -78 172 -78h189q412 0 411 -256 q0 -162 -165.5 -264t-438.5 -102q-209 0 -335 64.5t-126 195.5zM352 -127q0 -55 68.5 -86t189.5 -31t198 36t77 89q0 47 -42 63.5t-136 16.5h-127q-100 0 -156 12q-72 -45 -72 -100zM424 1348q0 82 56.5 135t142.5 53q88 0 144 -53t56 -135t-56 -132.5t-144 -50.5 t-143.5 50.5t-55.5 132.5zM432 672q0 -80 43 -124t108.5 -44t110.5 44t45 124q0 78 -45 122t-110.5 44t-108.5 -44t-43 -122z" />
<glyph unicode="&#x122;" d="M90 659.5q0 325.5 174 513t443 187.5q221 0 391 -170l-166 -186q-96 96 -225 96q-133 0 -219.5 -117t-86.5 -313q0 -209 81 -321.5t237 -112.5q86 0 131 40v230h-195v246h465v-615q-74 -68 -185.5 -115t-232.5 -47q-268 0 -440 179.5t-172 505zM473 -348q170 18 170 76 q0 51 -88 75l57 111q135 -14 191.5 -54t56.5 -118q0 -98 -102.5 -150.5t-261.5 -60.5z" />
<glyph unicode="&#x123;" d="M106 -172q0 125 158 203v8q-102 63 -102 174q0 49 32.5 101.5t88.5 88.5v9q-133 88 -133 260q0 174 125.5 271t308.5 97q94 0 168 -24h411v-219h-207q47 -59 48 -135q0 -168 -117 -254t-303 -86q-66 0 -140 20q-45 -33 -45 -74q0 -78 172 -78h189q412 0 411 -256 q0 -162 -165.5 -264t-438.5 -102q-209 0 -335 64.5t-126 195.5zM352 -127q0 -55 68.5 -86t189.5 -31t198 36t77 89q0 47 -42 63.5t-136 16.5h-127q-100 0 -156 12q-72 -45 -72 -100zM432 672q0 -80 43 -124t108.5 -44t110.5 44t45 124q0 78 -45 122t-110.5 44t-108.5 -44 t-43 -122zM449 1286q0 98 101 151.5t261 61.5l23 -121q-170 -18 -170 -78q0 -53 90 -73l-60 -111q-135 12 -190 52t-55 118z" />
<glyph unicode="&#x124;" d="M131 0v1335h301v-514h365v514h301v-1335h-301v557h-365v-557h-301zM268 1438l197 245h295l196 -245h-231l-109 125h-8l-108 -125h-232z" />
<glyph unicode="&#x125;" d="M-37 1536l197 246h293l196 -246h-229l-111 123h-8l-108 -123h-230zM147 0v1436h302v-353l-17 -194q156 152 344 151q166 0 248 -108.5t82 -304.5v-627h-301v588q0 102 -34 149t-116 47q-57 0 -103 -24.5t-103 -81.5v-678h-302z" />
<glyph unicode="&#x126;" d="M6 995v133l125 11v196h301v-194h365v194h301v-194h125v-146h-125v-995h-301v557h-365v-557h-301v995h-125zM432 821h365v174h-365v-174z" />
<glyph unicode="&#x127;" d="M12 1139v133l135 10v154h302v-152h372v-145h-372v-97l-17 -194q156 152 344 151q166 0 248 -108.5t82 -304.5v-586h-301v547q0 102 -34 149t-116 47q-57 0 -103 -24.5t-103 -81.5v-637h-302v1139h-135z" />
<glyph unicode="&#x128;" d="M152 0v254h311v827h-311v254h925v-254h-311v-827h311v-254h-925zM266 1440q14 135 74.5 206.5t144.5 71.5q61 0 140.5 -46t105.5 -46q57 0 78 92h154q-14 -135 -75 -206.5t-145 -71.5q-61 0 -140 46t-105 46q-57 0 -78 -92h-154z" />
<glyph unicode="&#x129;" d="M162 780v236h708v-1016h-301v780h-407zM356 1178q18 145 81 218.5t159 73.5q55 0 126 -53t93 -53q63 0 88 106h154q-18 -145 -81 -218.5t-159 -73.5q-57 0 -126.5 54t-92.5 54q-63 0 -88 -108h-154z" />
<glyph unicode="&#x12a;" d="M152 0v254h311v827h-311v254h925v-254h-311v-827h311v-254h-925zM326 1475v190h577v-190h-577z" />
<glyph unicode="&#x12b;" d="M162 780v236h708v-1016h-301v780h-407zM424 1212v191h565v-191h-565z" />
<glyph unicode="&#x12c;" d="M152 0v254h311v827h-311v254h925v-254h-311v-827h311v-254h-925zM334 1683h166q23 -94 115 -94t114 94h166q-29 -245 -281 -245t-280 245z" />
<glyph unicode="&#x12d;" d="M162 780v236h708v-1016h-301v780h-407zM406 1495h167q18 -154 133 -154t134 154h168q-4 -135 -81 -227t-220.5 -92t-220 92t-80.5 227z" />
<glyph unicode="&#x12e;" d="M152 0v254h311v827h-311v254h925v-254h-311v-827h311v-254h-311q-154 -63 -154 -184q0 -37 25 -57.5t59 -20.5q39 0 76 29l70 -152q-92 -72 -215 -72q-100 0 -167 51.5t-67 141.5q0 154 152 264h-393z" />
<glyph unicode="&#x12f;" d="M162 780v236h708v-1016q-145 -55 -145 -174q0 -37 24.5 -57.5t61.5 -20.5q27 0 72 25l63 -135q-88 -68 -207 -68q-94 0 -155.5 49t-61.5 137q0 137 133 244h-86v780h-407zM506 1348q0 82 56 135t144.5 53t144.5 -53t56 -135t-56 -132.5t-144.5 -50.5t-144.5 50.5 t-56 132.5z" />
<glyph unicode="&#x130;" d="M152 0v254h311v827h-311v254h925v-254h-311v-827h311v-254h-925zM440 1593.5q0 69.5 49.5 113.5t125 44t124.5 -44t49 -113.5t-49 -113.5t-124.5 -44t-125 44t-49.5 113.5z" />
<glyph unicode="&#x131;" d="M162 780v236h708v-1016h-301v780h-407z" />
<glyph unicode="&#x134;" d="M121 197l174 186q119 -147 254 -147q106 0 156.5 55t50.5 188v604h-523v252h824v-880q0 -215 -119 -347.5t-379 -132.5q-280 1 -438 222zM315 1438l197 245h293l196 -245h-229l-108 125h-9l-110 -125h-230z" />
<glyph unicode="&#x135;" d="M86 -332l88 215q109 -49 207 -49q106 0 147 50t41 165v731h-407v236h708v-955q0 -463 -471 -462q-164 0 -313 69zM375 1176l205 342h254l204 -342h-219l-108 194h-9l-108 -194h-219z" />
<glyph unicode="&#x136;" d="M139 0v1335h305v-547h7l395 547h332l-400 -532l439 -803h-334l-283 563l-156 -205v-358h-305zM451 -348q170 18 170 76q0 51 -89 75l58 111q135 -14 191.5 -54t56.5 -118q0 -98 -102.5 -150.5t-262.5 -60.5z" />
<glyph unicode="&#x137;" d="M156 0v1436h301v-824l6 2l375 402h329l-385 -418l416 -598h-326l-264 399l-151 -147v-252h-301zM453 -348q170 18 170 76q0 51 -88 75l57 111q135 -14 191.5 -54t56.5 -118q0 -98 -102.5 -150.5t-262.5 -60.5z" />
<glyph unicode="&#x138;" d="M156 0v1016h301v-404l6 2l375 402h329l-385 -418l416 -598h-326l-264 399l-151 -147v-252h-301z" />
<glyph unicode="&#x139;" d="M219 0v1335h301v-1081h594v-254h-895zM246 1438l166 245h319l-244 -245h-241z" />
<glyph unicode="&#x13a;" d="M127 1198v238h596v-1051q0 -86 46 -126t118 -40q76 0 160 33l67 -221q-180 -55 -305 -56q-188 0 -287.5 113t-99.5 309v801h-295zM389 1550l166 246h319l-245 -246h-240z" />
<glyph unicode="&#x13b;" d="M219 0v1335h301v-1081h594v-254h-895zM469 -348q168 18 168 76q0 53 -88 75l57 111q135 -14 191.5 -54t56.5 -118q0 -98 -102.5 -150.5t-259.5 -60.5z" />
<glyph unicode="&#x13c;" d="M127 1198v238h596v-1051q0 -86 46 -126t118 -40q76 0 160 33l67 -221q-180 -55 -305 -56q-188 0 -287.5 113t-99.5 309v801h-295zM530 -348q168 18 168 76q0 53 -88 75l58 111q135 -14 191 -54t56 -118q0 -98 -102 -150.5t-260 -60.5z" />
<glyph unicode="&#x13d;" d="M219 0v1335h301v-1081h594v-254h-895zM780 1499h193l-2 -143l-51 -312h-129z" />
<glyph unicode="&#x13e;" d="M127 1198v238h596v-1051q0 -86 46 -126t118 -40q76 0 160 33l67 -221q-180 -55 -305 -56q-188 0 -287.5 113t-99.5 309v801h-295zM838 1577h192l-2 -141l-51 -314h-129z" />
<glyph unicode="&#x13f;" d="M219 0v1335h301v-1081h594v-254h-895zM729 725q0 82 56.5 134t142.5 52q88 0 144 -52t56 -134t-56 -133t-144 -51q-86 0 -142.5 51t-56.5 133z" />
<glyph unicode="&#x140;" d="M25 1198v238h596v-1051q0 -88 47 -127t118 -39q74 0 158 33l68 -221q-176 -55 -305 -56q-186 0 -287 113t-101 309v801h-294zM764 721q0 82 56.5 134t144.5 52t144 -52t56 -134t-56 -133t-144 -51t-144.5 51t-56.5 133z" />
<glyph unicode="&#x141;" d="M68 322v233l151 84v696h301v-549l422 232v-234l-422 -231v-299h594v-254h-895v406z" />
<glyph unicode="&#x142;" d="M127 1198v238h596v-480l303 164v-239l-303 -166v-330q0 -86 46 -126t118 -40q76 0 160 33l67 -221q-180 -55 -305 -56q-188 0 -287.5 113t-99.5 309v168l-232 -129v240l232 131v391h-295z" />
<glyph unicode="&#x143;" d="M135 0v1335h307l283 -665l115 -293h8q-2 29 -15.5 141.5t-20.5 193.5t-7 150v473h289v-1335h-308l-282 666l-115 290h-8q4 -41 16.5 -145t19.5 -186t7 -152v-473h-289zM473 1438l166 245h319l-245 -245h-240z" />
<glyph unicode="&#x144;" d="M147 0v1016h246l23 -135h8q164 160 350 159q168 0 250 -107.5t82 -305.5v-627h-301v588q0 102 -34 149t-116 47q-57 0 -103 -24.5t-103 -81.5v-678h-302zM477 1176l182 342h310l-273 -342h-219z" />
<glyph unicode="&#x145;" d="M135 0v1335h307l283 -665l115 -293h8q-2 29 -15.5 141.5t-20.5 193.5t-7 150v473h289v-1335h-308l-282 666l-115 290h-8q4 -41 16.5 -145t19.5 -186t7 -152v-473h-289zM403 -348q170 18 170 76q0 51 -90 75l58 111q135 -14 191 -54t56 -118q0 -98 -101 -150.5t-261 -60.5 z" />
<glyph unicode="&#x146;" d="M147 0v1016h246l23 -135h8q164 160 350 159q168 0 250 -107.5t82 -305.5v-627h-301v588q0 102 -34 149t-116 47q-57 0 -103 -24.5t-103 -81.5v-678h-302zM418 -348q168 18 168 76q0 51 -88 75l57 111q135 -14 191.5 -54t56.5 -118q0 -98 -102.5 -150.5t-262.5 -60.5z" />
<glyph unicode="&#x147;" d="M135 0v1335h307l283 -665l115 -293h8q-2 29 -15.5 141.5t-20.5 193.5t-7 150v473h289v-1335h-308l-282 666l-115 290h-8q4 -41 16.5 -145t19.5 -186t7 -152v-473h-289zM283 1683h231l109 -124h8l108 124h232l-197 -245h-295z" />
<glyph unicode="&#x148;" d="M147 0v1016h246l23 -135h8q164 160 350 159q168 0 250 -107.5t82 -305.5v-627h-301v588q0 102 -34 149t-116 47q-57 0 -103 -24.5t-103 -81.5v-678h-302zM313 1518h219l109 -197h8l109 197h219l-205 -342h-254z" />
<glyph unicode="&#x149;" d="M-94 754q215 96 229 282q-29 -4 -41 -4q-84 0 -135 52.5t-51 136.5q0 92 54 149t140 57q115 0 178.5 -87t63.5 -240q0 -344 -358 -506zM442 0v1016h246l23 -131h8q147 156 307 155q293 0 293 -409v-631h-301v592q0 100 -25.5 146t-87.5 46q-45 0 -77.5 -22.5t-84.5 -79.5 v-682h-301z" />
<glyph unicode="&#x14c;" d="M78 674q0 322 147.5 504t389 182t389 -182.5t147.5 -503.5q0 -324 -147.5 -511.5t-389 -187.5t-389 187.5t-147.5 511.5zM326 1475v190h577v-190h-577zM387 674q0 -201 61.5 -319.5t166 -118.5t166 118.5t61.5 319.5q0 199 -61.5 312.5t-166 113.5t-166 -114t-61.5 -312z " />
<glyph unicode="&#x14d;" d="M96 508q0 244 152.5 388t365.5 144t366 -144t153 -388t-153 -388.5t-366 -144.5t-365.5 144.5t-152.5 388.5zM332 1212v191h565v-191h-565zM406 508q0 -135 53 -212t155.5 -77t155.5 77t53 212t-53 212t-155.5 77t-155.5 -77t-53 -212z" />
<glyph unicode="&#x14e;" d="M78 674q0 322 147.5 504t389 182t389 -182.5t147.5 -503.5q0 -324 -147.5 -511.5t-389 -187.5t-389 187.5t-147.5 511.5zM334 1683h166q23 -94 115 -94t114 94h166q-29 -245 -281 -245t-280 245zM387 674q0 -201 61.5 -319.5t166 -118.5t166 118.5t61.5 319.5 q0 199 -61.5 312.5t-166 113.5t-166 -114t-61.5 -312z" />
<glyph unicode="&#x14f;" d="M96 508q0 244 152.5 388t365.5 144t366 -144t153 -388t-153 -388.5t-366 -144.5t-365.5 144.5t-152.5 388.5zM313 1495h168q18 -154 133 -154t134 154h167q-4 -135 -80.5 -227t-220 -92t-220.5 92t-81 227zM406 508q0 -135 53 -212t155.5 -77t155.5 77t53 212t-53 212 t-155.5 77t-155.5 -77t-53 -212z" />
<glyph unicode="&#x150;" d="M78 674q0 322 147.5 504t389 182t389 -182.5t147.5 -503.5q0 -324 -147.5 -511.5t-389 -187.5t-389 187.5t-147.5 511.5zM334 1438l129 245h256l-182 -245h-203zM387 674q0 -201 61.5 -319.5t166 -118.5t166 118.5t61.5 319.5q0 199 -61.5 312.5t-166 113.5t-166 -114 t-61.5 -312zM700 1438l131 245h256l-184 -245h-203z" />
<glyph unicode="&#x151;" d="M96 508q0 244 152.5 388t365.5 144t366 -144t153 -388t-153 -388.5t-366 -144.5t-365.5 144.5t-152.5 388.5zM358 1174l140 309h239l-194 -309h-185zM406 508q0 -135 53 -212t155.5 -77t155.5 77t53 212t-53 212t-155.5 77t-155.5 -77t-53 -212zM707 1174l141 309h239 l-194 -309h-186z" />
<glyph unicode="&#x152;" d="M39 674q0 330 154.5 495.5t410.5 165.5h594v-252h-328v-270h248v-252h-248v-307h349v-254h-631q-248 0 -398.5 171t-150.5 503zM348 674q0 -231 56.5 -330.5t164.5 -99.5h33v848h-33q-109 0 -165 -94.5t-56 -323.5z" />
<glyph unicode="&#x153;" d="M25 508q0 246 109.5 389t271.5 143q166 0 247 -176q86 176 244 176q147 0 231 -140t84 -349q0 -63 -12 -131h-455q33 -209 185 -209q74 0 151 53l103 -192q-123 -96 -266 -97q-168 0 -263 158q-92 -158 -256 -158q-162 0 -268 143.5t-106 389.5zM295 508q0 -291 127 -291 q55 0 85 79t30 212t-30 212t-85 79q-127 0 -127 -291zM741 604h234q0 207 -101 207q-115 0 -133 -207z" />
<glyph unicode="&#x154;" d="M143 0v1335h473q516 0 517 -415q0 -279 -238 -385l301 -535h-338l-256 481h-158v-481h-301zM444 721h148q244 0 244 199q0 96 -59.5 136t-184.5 40h-148v-375zM467 1438l166 245h319l-245 -245h-240z" />
<glyph unicode="&#x155;" d="M238 0v1016h245l25 -221h6q150 246 412 245q104 0 196 -41l-61 -251q-98 29 -180 28q-225 0 -342 -248v-528h-301zM526 1176l183 342h309l-273 -342h-219z" />
<glyph unicode="&#x156;" d="M143 0v1335h473q516 0 517 -415q0 -279 -238 -385l301 -535h-338l-256 481h-158v-481h-301zM444 -348q170 18 170 76q0 50 -90 75l58 111q135 -14 191 -54t56 -118q0 -98 -101 -150.5t-261 -60.5zM444 721h148q244 0 244 199q0 96 -59.5 136t-184.5 40h-148v-375z" />
<glyph unicode="&#x157;" d="M205 -348q168 18 168 76q0 53 -88 75l57 111q135 -14 191.5 -54t56.5 -118q0 -98 -101.5 -150.5t-261.5 -60.5zM238 0v1016h245l25 -221h6q150 246 412 245q104 0 196 -41l-61 -251q-98 29 -180 28q-225 0 -342 -248v-528h-301z" />
<glyph unicode="&#x158;" d="M143 0v1335h473q516 0 517 -415q0 -279 -238 -385l301 -535h-338l-256 481h-158v-481h-301zM276 1683h230l110 -124h9l108 124h230l-197 -245h-293zM444 721h148q244 0 244 199q0 96 -59.5 136t-184.5 40h-148v-375z" />
<glyph unicode="&#x159;" d="M238 0v1016h245l25 -221h6q150 246 412 245q104 0 196 -41l-61 -251q-98 29 -180 28q-225 0 -342 -248v-528h-301zM362 1518h220l108 -197h8l109 197h219l-205 -342h-254z" />
<glyph unicode="&#x15a;" d="M102 168l174 207q170 -139 342 -139q201 0 201 129q0 55 -43 84.5t-151 69.5q-9 3 -13 5l-172 74q-125 47 -204.5 138t-79.5 227q0 168 138 282.5t351 114.5q258 0 445 -176l-154 -191q-145 106 -291 107q-88 0 -136 -32t-48 -89q0 -53 47 -83t154 -68q12 -5 18 -7 l162 -69q287 -106 286 -363q0 -174 -139 -294t-379 -120q-291 0 -508 193zM477 1438l164 245h320l-244 -245h-240z" />
<glyph unicode="&#x15b;" d="M109 131l135 188q190 -121 368 -120q195 0 195 86q0 43 -64.5 72.5t-207.5 68.5q-362 100 -363 297q0 143 127 230t342 87q219 0 438 -139l-135 -180q-160 96 -297 96q-176 0 -176 -80q0 -41 62.5 -67.5t197.5 -61.5q176 -47 275.5 -115.5t99.5 -189.5 q0 -143 -132 -235.5t-368 -92.5q-264 0 -497 156zM473 1176l182 342h308l-271 -342h-219z" />
<glyph unicode="&#x15c;" d="M102 168l174 207q170 -139 342 -139q201 0 201 129q0 55 -43 84.5t-151 69.5q-9 3 -13 5l-172 74q-125 47 -204.5 138t-79.5 227q0 168 138 282.5t351 114.5q258 0 445 -176l-154 -191q-145 106 -291 107q-88 0 -136 -32t-48 -89q0 -53 47 -83t154 -68q12 -5 18 -7 l162 -69q287 -106 286 -363q0 -174 -139 -294t-379 -120q-291 0 -508 193zM287 1438l196 245h293l197 -245h-230l-110 125h-8l-109 -125h-229z" />
<glyph unicode="&#x15d;" d="M109 131l135 188q190 -121 368 -120q195 0 195 86q0 43 -64.5 72.5t-207.5 68.5q-362 100 -363 297q0 143 127 230t342 87q219 0 438 -139l-135 -180q-160 96 -297 96q-176 0 -176 -80q0 -41 62.5 -67.5t197.5 -61.5q176 -47 275.5 -115.5t99.5 -189.5 q0 -143 -132 -235.5t-368 -92.5q-264 0 -497 156zM307 1176l207 342h252l207 -342h-219l-111 194h-8l-109 -194h-219z" />
<glyph unicode="&#x15e;" d="M102 168l174 207q170 -139 342 -139q201 0 201 129q0 55 -43 84.5t-151 69.5q-9 3 -13 5l-172 74q-125 47 -204.5 138t-79.5 227q0 168 138 282.5t351 114.5q258 0 445 -176l-154 -191q-145 106 -291 107q-88 0 -136 -32t-48 -89q0 -53 47 -83t154 -68q12 -5 18 -7 l162 -69q287 -106 286 -363q0 -156 -113.5 -270.5t-312.5 -136.5l-28 -70q119 -39 119 -152q0 -100 -101.5 -152t-261.5 -61l-22 121q170 18 170 90q0 57 -119 86l67 136q-244 29 -424 188z" />
<glyph unicode="&#x15f;" d="M109 131l135 188q190 -121 368 -120q195 0 195 86q0 43 -64.5 72.5t-207.5 68.5q-362 100 -363 297q0 143 127 230t342 87q219 0 438 -139l-135 -180q-160 96 -297 96q-176 0 -176 -80q0 -41 62.5 -67.5t197.5 -61.5q176 -47 275.5 -115.5t99.5 -189.5 q0 -125 -100.5 -212t-282.5 -109l-31 -70q119 -39 119 -152q0 -100 -101.5 -152t-260.5 -61l-23 121q170 18 170 90q0 57 -121 86l68 133q-233 20 -434 154z" />
<glyph unicode="&#x160;" d="M102 168l174 207q170 -139 342 -139q201 0 201 129q0 55 -43 84.5t-151 69.5q-9 3 -13 5l-172 74q-125 47 -204.5 138t-79.5 227q0 168 138 282.5t351 114.5q258 0 445 -176l-154 -191q-145 106 -291 107q-88 0 -136 -32t-48 -89q0 -53 47 -83t154 -68q12 -5 18 -7 l162 -69q287 -106 286 -363q0 -174 -139 -294t-379 -120q-291 0 -508 193zM287 1683h229l109 -124h8l110 124h230l-197 -245h-293z" />
<glyph unicode="&#x161;" d="M109 131l135 188q190 -121 368 -120q195 0 195 86q0 43 -64.5 72.5t-207.5 68.5q-362 100 -363 297q0 143 127 230t342 87q219 0 438 -139l-135 -180q-160 96 -297 96q-176 0 -176 -80q0 -41 62.5 -67.5t197.5 -61.5q176 -47 275.5 -115.5t99.5 -189.5 q0 -143 -132 -235.5t-368 -92.5q-264 0 -497 156zM307 1518h219l109 -197h8l111 197h219l-207 -342h-252z" />
<glyph unicode="&#x162;" d="M63 1081v254h1102v-254h-399v-1081h-61l-37 -88q119 -39 118 -152q0 -100 -102 -152t-260 -61l-23 121q168 18 168 90q0 57 -118 86l77 156h-65v1081h-400z" />
<glyph unicode="&#x163;" d="M102 780v224l269 12l39 270h247v-270h428v-236h-428v-356q0 -115 50.5 -164t162.5 -49q98 0 205 37l53 -217q-159 -48 -280 -54l-29 -65q119 -39 119 -152q0 -100 -101.5 -152t-261.5 -61l-22 121q170 18 170 90q0 57 -121 86l70 142q-315 57 -316 436v358h-254z" />
<glyph unicode="&#x164;" d="M63 1081v254h1102v-254h-399v-1081h-303v1081h-400zM270 1683h232l108 -124h8l109 124h231l-196 -245h-295z" />
<glyph unicode="&#x165;" d="M102 780v224l269 12l39 270h247v-270h428v-236h-428v-356q0 -115 50.5 -164t162.5 -49q98 0 205 37l53 -217q-186 -55 -333 -56q-439 1 -439 447v358h-254zM788 1577h193l-4 -141l-49 -314h-129z" />
<glyph unicode="&#x168;" d="M131 514v821h301v-852q0 -248 186 -247q188 0 189 247v852h291v-821q0 -262 -120 -400.5t-360 -138.5q-242 0 -364.5 138.5t-122.5 400.5zM266 1440q14 135 74.5 206.5t144.5 71.5q61 0 140.5 -46t105.5 -46q57 0 78 92h154q-14 -135 -75 -206.5t-145 -71.5 q-61 0 -140 46t-105 46q-57 0 -78 -92h-154z" />
<glyph unicode="&#x169;" d="M127 389v627h301v-588q0 -104 33 -150.5t114 -46.5q59 0 103.5 26t95.5 91v668h301v-1016h-246l-22 145h-8q-150 -170 -342 -170q-330 0 -330 414zM256 1178q18 145 80.5 218.5t159.5 73.5q55 0 124.5 -53t92.5 -53q35 0 54 23.5t34 82.5h153q-18 -145 -79.5 -218.5 t-157.5 -73.5q-57 0 -127 54t-92 54q-63 0 -88 -108h-154z" />
<glyph unicode="&#x16a;" d="M131 514v821h301v-852q0 -248 186 -247q188 0 189 247v852h291v-821q0 -262 -120 -400.5t-360 -138.5q-242 0 -364.5 138.5t-122.5 400.5zM326 1475v190h577v-190h-577z" />
<glyph unicode="&#x16b;" d="M127 389v627h301v-588q0 -104 33 -150.5t114 -46.5q59 0 103.5 26t95.5 91v668h301v-1016h-246l-22 145h-8q-150 -170 -342 -170q-330 0 -330 414zM324 1212v191h565v-191h-565z" />
<glyph unicode="&#x16c;" d="M131 514v821h301v-852q0 -248 186 -247q188 0 189 247v852h291v-821q0 -262 -120 -400.5t-360 -138.5q-242 0 -364.5 138.5t-122.5 400.5zM334 1683h166q23 -94 115 -94t114 94h166q-29 -245 -281 -245t-280 245z" />
<glyph unicode="&#x16d;" d="M127 389v627h301v-588q0 -104 33 -150.5t114 -46.5q59 0 103.5 26t95.5 91v668h301v-1016h-246l-22 145h-8q-150 -170 -342 -170q-330 0 -330 414zM303 1495h168q23 -154 135 -154q115 0 133 154h168q-4 -135 -80.5 -227t-220 -92t-221.5 92t-82 227z" />
<glyph unicode="&#x16e;" d="M131 514v821h301v-852q0 -248 186 -247q188 0 189 247v852h291v-821q0 -262 -120 -400.5t-360 -138.5q-242 0 -364.5 138.5t-122.5 400.5zM383 1628q0 90 64.5 145.5t167 55.5t167 -55.5t64.5 -145.5q0 -92 -63.5 -146.5t-168 -54.5t-168 54.5t-63.5 146.5zM530 1628 q0 -41 23.5 -64.5t60.5 -23.5q35 0 58.5 23.5t23.5 64.5q0 39 -23.5 63.5t-58.5 24.5q-37 0 -60.5 -24.5t-23.5 -63.5z" />
<glyph unicode="&#x16f;" d="M127 389v627h301v-588q0 -104 33 -150.5t114 -46.5q59 0 103.5 26t95.5 91v668h301v-1016h-246l-22 145h-8q-150 -170 -342 -170q-330 0 -330 414zM375 1331q0 94 63.5 151.5t167.5 57.5q102 0 166 -57.5t64 -151.5t-64 -151.5t-166 -57.5q-104 0 -167.5 57.5 t-63.5 151.5zM522 1331q0 -43 23.5 -69.5t60.5 -26.5q35 0 58.5 26.5t23.5 69.5t-23.5 69.5t-58.5 26.5q-37 0 -60.5 -26.5t-23.5 -69.5z" />
<glyph unicode="&#x170;" d="M131 514v821h301v-852q0 -248 186 -247q188 0 189 247v852h291v-821q0 -262 -120 -400.5t-360 -138.5q-242 0 -364.5 138.5t-122.5 400.5zM334 1438l129 245h256l-182 -245h-203zM700 1438l131 245h256l-184 -245h-203z" />
<glyph unicode="&#x171;" d="M127 389v627h301v-588q0 -104 33 -150.5t114 -46.5q59 0 103.5 26t95.5 91v668h301v-1016h-246l-22 145h-8q-150 -170 -342 -170q-330 0 -330 414zM348 1174l141 309h240l-197 -309h-184zM698 1174l142 309h239l-196 -309h-185z" />
<glyph unicode="&#x172;" d="M131 514v821h301v-852q0 -248 184 -247q190 0 191 247v852h291v-821q0 -375 -254 -496q-193 -92 -193 -202q0 -37 25.5 -57.5t60.5 -20.5t72 29l70 -152q-90 -72 -213 -72q-102 0 -169 51.5t-67 141.5q0 23 5 46t10.5 40.5t17.5 37t19 32t22.5 30t20.5 23.5t21 20l15 15 q-213 14 -321.5 152t-108.5 382z" />
<glyph unicode="&#x173;" d="M127 389v627h301v-588q0 -104 33 -150.5t114 -46.5q59 0 103.5 26t95.5 91v668h301v-1016q-94 -29 -137 -76t-43 -98q0 -37 25.5 -57.5t60.5 -20.5t72 25l63 -135q-88 -68 -207 -68q-94 0 -155.5 49t-61.5 137q0 143 139 240l-24 149h-8q-150 -170 -342 -170 q-330 0 -330 414z" />
<glyph unicode="&#x174;" d="M8 1335h307l43 -710q2 -57 5.5 -171t3.5 -169h6q12 63 37.5 180t33.5 160l93 370h182l88 -370q8 -47 33.5 -163t36.5 -177h8q2 55 5 168.5t5 171.5l39 710h287l-166 -1335h-316l-84 420q-29 145 -37 256h-6q-14 -141 -37 -256l-79 -420h-310zM270 1438l197 245h295 l196 -245h-231l-109 125h-8l-108 -125h-232z" />
<glyph unicode="&#x175;" d="M6 1016h295l64 -471q8 -51 18 -150.5t16 -150.5h7q23 182 47 301l65 336h207l72 -336q20 -113 47 -301h8q6 51 15.5 150.5t17.5 150.5l63 471h275l-158 -1016h-350l-58 338q-12 86 -41 297h-8q-23 -211 -35 -297l-55 -338h-344zM283 1176l206 342h254l205 -342h-219 l-108 194h-9l-108 -194h-221z" />
<glyph unicode="&#x176;" d="M33 1335h323l136 -321q20 -53 61 -153.5t59 -151.5h9q20 49 61 149t63 156l136 321h315l-430 -884v-451h-303v451zM270 1438l197 245h295l196 -245h-231l-109 125h-8l-108 -125h-232z" />
<glyph unicode="&#x177;" d="M63 1016h299l170 -436q43 -113 103 -306h8q8 31 92 306l150 436h284l-401 -1026q-78 -203 -184.5 -295t-290.5 -92q-84 0 -156 20l53 230q40 -12 80 -13q158 0 213 133l21 54zM297 1176l205 342h254l205 -342h-220l-108 194h-8l-109 -194h-219z" />
<glyph unicode="&#x178;" d="M33 1335h323l136 -321q20 -53 61 -153.5t59 -151.5h9q20 49 61 149t63 156l136 321h315l-430 -884v-451h-303v451zM268 1577q0 61 40 102t103.5 41t103.5 -41t40 -102t-40 -102t-103.5 -41t-103.5 41t-40 102zM674 1577q0 61 40 102t103.5 41t103.5 -41t40 -102t-40 -102 t-103.5 -41t-103.5 41t-40 102z" />
<glyph unicode="&#x179;" d="M115 0v182l626 901h-567v252h938v-182l-625 -899h633v-254h-1005zM492 1438l163 245h320l-244 -245h-239z" />
<glyph unicode="&#x17a;" d="M143 0v162l533 618h-467v236h883v-160l-533 -620h549v-236h-965zM494 1176l182 342h307l-270 -342h-219z" />
<glyph unicode="&#x17b;" d="M115 0v182l626 901h-567v252h938v-182l-625 -899h633v-254h-1005zM469 1593.5q0 69.5 49 113.5t125 44t125 -44t49 -113.5t-49 -113.5t-125 -44t-125 44t-49 113.5z" />
<glyph unicode="&#x17c;" d="M143 0v162l533 618h-467v236h883v-160l-533 -620h549v-236h-965zM461 1348q0 82 56 135t144.5 53t144.5 -53t56 -135t-56 -132.5t-144.5 -50.5t-144.5 50.5t-56 132.5z" />
<glyph unicode="&#x17d;" d="M115 0v182l626 901h-567v252h938v-182l-625 -899h633v-254h-1005zM301 1683h229l109 -124h8l111 124h229l-196 -245h-293z" />
<glyph unicode="&#x17e;" d="M143 0v162l533 618h-467v236h883v-160l-533 -620h549v-236h-965zM330 1518h219l108 -197h9l108 197h219l-205 -342h-253z" />
<glyph unicode="&#x180;" d="M12 1139v133l135 10v154h302v-152h372v-145h-372v-97l-9 -159q127 117 283 116q188 0 299 -134t111 -359q0 -242 -130.5 -386.5t-310.5 -144.5q-147 0 -276 136h-8l-25 -111h-236v1139h-135zM449 289q78 -68 176 -68q88 0 143 69.5t55 209.5q0 254 -186 254 q-96 -1 -188 -95v-370z" />
<glyph unicode="&#x18f;" d="M119 662q0 46 6 98h721q-25 344 -244 344q-115 0 -215 -100l-133 206q160 150 385 150q229 0 368.5 -184.5t139.5 -505.5q0 -324 -142.5 -509.5t-374 -185.5t-371.5 183.5t-140 503.5zM426 539q10 -150 64.5 -229t140.5 -79q82 0 137.5 80t73.5 230z" />
<glyph unicode="&#x192;" d="M94 -164l41 221q51 -14 111 -18q84 4 118.5 60.5t59.5 230.5l35 299h-178v207l153 12h49l11 88q35 229 131 326.5t305 97.5q114 0 196 -39l-57 -225q-61 25 -115 24q-141 0 -170 -159l-14 -113h236v-219h-261l-47 -387q-27 -209 -115.5 -324t-291.5 -115q-135 0 -197 33z " />
<glyph unicode="&#x1a0;" d="M78 674q0 322 147.5 504t388.5 182q135 0 250 -64q61 14 91 42t30 83q0 42 -31 95l205 90q59 -72 60 -164q0 -100 -60.5 -162.5t-165.5 -89.5q158 -186 158 -516q0 -324 -147.5 -511.5t-389 -187.5t-389 187.5t-147.5 511.5zM387 674q0 -201 61.5 -319.5t166 -118.5 t166 118.5t61.5 319.5q0 199 -61.5 312.5t-166 113.5t-166 -114t-61.5 -312z" />
<glyph unicode="&#x1a1;" d="M96 508q0 244 152.5 388t365.5 144q117 0 215 -45q68 14 102 41t34 86q0 50 -33 95l205 90q61 -74 61 -164q0 -190 -217 -248q152 -147 152 -387q0 -244 -153 -388.5t-366 -144.5t-365.5 144.5t-152.5 388.5zM406 508q0 -135 53 -212t155.5 -77t155.5 77t53 212t-53 212 t-155.5 77t-155.5 -77t-53 -212z" />
<glyph unicode="&#x1af;" d="M131 514v821h301v-852q0 -248 186 -247q188 0 189 247v852h143q78 4 123 30t45 97q0 41 -31 94l205 91q59 -72 60 -164q0 -211 -254 -258v-711q0 -262 -120 -400.5t-360 -138.5q-242 0 -364.5 138.5t-122.5 400.5z" />
<glyph unicode="&#x1b0;" d="M127 389v627h301v-588q0 -104 33 -150.5t114 -46.5q59 0 103.5 26t95.5 91v668h100q166 8 166 127q1 45 -30 94l204 90q59 -72 60 -164q0 -182 -199 -241v-922h-246l-22 145h-8q-150 -170 -342 -170q-330 0 -330 414z" />
<glyph unicode="&#x1cd;" d="M18 0l416 1335h361l415 -1335h-319l-80 317h-403l-82 -317h-308zM270 1683h232l108 -124h8l109 124h231l-196 -245h-295zM469 553h281l-31 123q-20 78 -58 234.5t-49 195.5h-8q-63 -270 -104 -430z" />
<glyph unicode="&#x1ce;" d="M125 283q0 172 156.5 261t513.5 109q-16 147 -217 148q-121 0 -310 -94l-106 196q240 137 475 137q219 0 339 -114.5t120 -343.5v-582h-246l-23 115h-8q-182 -139 -360 -140q-150 0 -242 88.5t-92 219.5zM299 1518h219l109 -197h8l108 197h220l-205 -342h-254zM414 305 q0 -96 141 -96q115 0 240 96v168q-211 -12 -296 -54t-85 -114z" />
<glyph unicode="&#x1cf;" d="M152 0v254h311v827h-311v254h925v-254h-311v-827h311v-254h-925zM270 1683h232l108 -124h8l109 124h231l-196 -245h-295z" />
<glyph unicode="&#x1d0;" d="M162 780v236h708v-1016h-301v780h-407zM375 1518h219l108 -197h9l108 197h219l-204 -342h-254z" />
<glyph unicode="&#x1d1;" d="M78 674q0 322 147.5 504t389 182t389 -182.5t147.5 -503.5q0 -324 -147.5 -511.5t-389 -187.5t-389 187.5t-147.5 511.5zM270 1683h232l108 -124h8l109 124h231l-196 -245h-295zM387 674q0 -201 61.5 -319.5t166 -118.5t166 118.5t61.5 319.5q0 199 -61.5 312.5 t-166 113.5t-166 -114t-61.5 -312z" />
<glyph unicode="&#x1d2;" d="M96 508q0 244 152.5 388t365.5 144t366 -144t153 -388t-153 -388.5t-366 -144.5t-365.5 144.5t-152.5 388.5zM283 1518h219l108 -197h8l109 197h219l-205 -342h-254zM406 508q0 -135 53 -212t155.5 -77t155.5 77t53 212t-53 212t-155.5 77t-155.5 -77t-53 -212z" />
<glyph unicode="&#x1d3;" d="M131 514v821h301v-852q0 -248 186 -247q188 0 189 247v852h291v-821q0 -262 -120 -400.5t-360 -138.5q-242 0 -364.5 138.5t-122.5 400.5zM270 1683h232l108 -124h8l109 124h231l-196 -245h-295z" />
<glyph unicode="&#x1d4;" d="M127 389v627h301v-588q0 -104 33 -150.5t114 -46.5q59 0 103.5 26t95.5 91v668h301v-1016h-246l-22 145h-8q-150 -170 -342 -170q-330 0 -330 414zM272 1518h220l110 -197h8l109 197h219l-207 -342h-252z" />
<glyph unicode="&#x1d5;" d="M131 514v821h301v-852q0 -248 186 -247q188 0 189 247v852h291v-821q0 -262 -120 -400.5t-360 -138.5q-242 0 -364.5 138.5t-122.5 400.5zM285 1560.5q0 53.5 35.5 89.5t91 36t91.5 -36t36 -89.5t-36 -90t-91.5 -36.5t-91 36.5t-35.5 90zM326 1786v141h577v-141h-577z M690 1560.5q0 53.5 36 89.5t91 36t91 -36t36 -89.5t-36 -90t-91 -36.5t-91 36.5t-36 90z" />
<glyph unicode="&#x1d6;" d="M127 389v627h301v-588q0 -104 33 -150.5t114 -46.5q59 0 103.5 26t95.5 91v668h301v-1016h-246l-22 145h-8q-150 -170 -342 -170q-330 0 -330 414zM276 1294q0 55 36 91t91.5 36t90 -35.5t34.5 -91.5q0 -53 -34.5 -89t-90 -36t-91.5 36t-36 89zM322 1548v142h567v-142 h-567zM682 1294.5q0 53.5 36 90t91 36.5t90 -35.5t35 -91.5q0 -53 -35 -89t-90 -36t-91 36t-36 89.5z" />
<glyph unicode="&#x1d7;" d="M131 514v821h301v-852q0 -248 186 -247q188 0 189 247v852h291v-821q0 -262 -120 -400.5t-360 -138.5q-242 0 -364.5 138.5t-122.5 400.5zM285 1560.5q0 53.5 35.5 89.5t91 36t91.5 -36t36 -89.5t-36 -90t-91.5 -36.5t-91 36.5t-35.5 90zM461 1749l166 246h315l-242 -246 h-239zM690 1560.5q0 53.5 36 89.5t91 36t91 -36t36 -89.5t-36 -90t-91 -36.5t-91 36.5t-36 90z" />
<glyph unicode="&#x1d8;" d="M127 389v627h301v-588q0 -104 33 -150.5t114 -46.5q59 0 103.5 26t95.5 91v668h301v-1016h-246l-22 145h-8q-150 -170 -342 -170q-330 0 -330 414zM276 1294q0 55 36 91t91.5 36t90 -35.5t34.5 -91.5q0 -53 -34.5 -89t-90 -36t-91.5 36t-36 89zM467 1509l170 228h258 l-236 -228h-192zM682 1294.5q0 53.5 36 90t91 36.5t90 -35.5t35 -91.5q0 -53 -35 -89t-90 -36t-91 36t-36 89.5z" />
<glyph unicode="&#x1d9;" d="M131 514v821h301v-852q0 -248 186 -247q188 0 189 247v852h291v-821q0 -262 -120 -400.5t-360 -138.5q-242 0 -364.5 138.5t-122.5 400.5zM270 1995h232l108 -123h8l109 123h231l-196 -246h-295zM285 1560.5q0 53.5 35.5 89.5t91 36t91.5 -36t36 -89.5t-36 -90 t-91.5 -36.5t-91 36.5t-35.5 90zM690 1560.5q0 53.5 36 89.5t91 36t91 -36t36 -89.5t-36 -90t-91 -36.5t-91 36.5t-36 90z" />
<glyph unicode="&#x1da;" d="M127 389v627h301v-588q0 -104 33 -150.5t114 -46.5q59 0 103.5 26t95.5 91v668h301v-1016h-246l-22 145h-8q-150 -170 -342 -170q-330 0 -330 414zM276 1294q0 55 36 91t91.5 36t90 -35.5t34.5 -91.5q0 -53 -34.5 -89t-90 -36t-91.5 36t-36 89zM303 1737h203l96 -119h8 l95 119h202l-176 -228h-252zM682 1294.5q0 53.5 36 90t91 36.5t90 -35.5t35 -91.5q0 -53 -35 -89t-90 -36t-91 36t-36 89.5z" />
<glyph unicode="&#x1db;" d="M131 514v821h301v-852q0 -248 186 -247q188 0 189 247v852h291v-821q0 -262 -120 -400.5t-360 -138.5q-242 0 -364.5 138.5t-122.5 400.5zM285 1560.5q0 53.5 35.5 89.5t91 36t91.5 -36t36 -89.5t-36 -90t-91.5 -36.5t-91 36.5t-35.5 90zM287 1995h315l166 -246h-240z M690 1560.5q0 53.5 36 89.5t91 36t91 -36t36 -89.5t-36 -90t-91 -36.5t-91 36.5t-36 90z" />
<glyph unicode="&#x1dc;" d="M127 389v627h301v-588q0 -104 33 -150.5t114 -46.5q59 0 103.5 26t95.5 91v668h301v-1016h-246l-22 145h-8q-150 -170 -342 -170q-330 0 -330 414zM276 1294q0 55 36 91t91.5 36t90 -35.5t34.5 -91.5q0 -53 -34.5 -89t-90 -36t-91.5 36t-36 89zM315 1737h258l172 -228 h-192zM682 1294.5q0 53.5 36 90t91 36.5t90 -35.5t35 -91.5q0 -53 -35 -89t-90 -36t-91 36t-36 89.5z" />
<glyph unicode="&#x1e6;" d="M90 659.5q0 325.5 174 513t443 187.5q221 0 391 -170l-166 -186q-96 96 -225 96q-133 0 -219.5 -117t-86.5 -313q0 -209 81 -321.5t237 -112.5q86 0 131 40v230h-195v246h465v-615q-74 -68 -185.5 -115t-232.5 -47q-268 0 -440 179.5t-172 505zM334 1683h229l109 -124h8 l111 124h229l-197 -245h-293z" />
<glyph unicode="&#x1e7;" d="M106 -172q0 125 158 203v8q-102 63 -102 174q0 49 32.5 101.5t88.5 88.5v9q-133 88 -133 260q0 174 125.5 271t308.5 97q94 0 168 -24h411v-219h-207q47 -59 48 -135q0 -168 -117 -254t-303 -86q-66 0 -140 20q-45 -33 -45 -74q0 -78 172 -78h189q412 0 411 -256 q0 -162 -165.5 -264t-438.5 -102q-209 0 -335 64.5t-126 195.5zM291 1518h219l108 -197h9l110 197h219l-206 -342h-254zM352 -127q0 -55 68.5 -86t189.5 -31t198 36t77 89q0 47 -42 63.5t-136 16.5h-127q-100 0 -156 12q-72 -45 -72 -100zM432 672q0 -80 43 -124t108.5 -44 t110.5 44t45 124q0 78 -45 122t-110.5 44t-108.5 -44t-43 -122z" />
<glyph unicode="&#x1ea;" d="M78 674q0 322 147.5 504t389 182t389 -182.5t147.5 -503.5q0 -510 -356 -668q-74 -31 -109 -84t-35 -106q0 -37 25.5 -57.5t62.5 -20.5q31 0 72 29l70 -152q-90 -72 -213 -72q-102 0 -169 51.5t-67 141.5q0 131 129 244q-236 25 -359.5 218t-123.5 476zM387 674 q0 -201 61.5 -319.5t166 -118.5t166 118.5t61.5 319.5q0 199 -61.5 312.5t-166 113.5t-166 -114t-61.5 -312z" />
<glyph unicode="&#x1eb;" d="M96 508q0 244 152.5 388t365.5 144t366 -144t153 -388q0 -193 -92.5 -312.5t-264.5 -195.5q-135 -61 -135 -174q0 -39 25.5 -58.5t60.5 -19.5t72 25l63 -135q-88 -68 -207 -68q-94 0 -155.5 49t-61.5 137q0 129 113 224q-195 23 -325 164t-130 364zM406 508 q0 -135 53 -212t155.5 -77t155.5 77t53 212t-53 212t-155.5 77t-155.5 -77t-53 -212z" />
<glyph unicode="&#x218;" d="M102 168l174 207q170 -139 342 -139q201 0 201 129q0 55 -43 84.5t-151 69.5q-9 3 -13 5l-172 74q-125 47 -204.5 138t-79.5 227q0 168 138 282.5t351 114.5q258 0 445 -176l-154 -191q-145 106 -291 107q-88 0 -136 -32t-48 -89q0 -53 47 -83t154 -68q12 -5 18 -7 l162 -69q287 -106 286 -363q0 -174 -139 -294t-379 -120q-291 0 -508 193zM424 -348q170 18 170 76q0 51 -90 75l57 111q135 -14 191.5 -54t56.5 -118q0 -98 -101.5 -150.5t-261.5 -60.5z" />
<glyph unicode="&#x219;" d="M109 131l135 188q190 -121 368 -120q195 0 195 86q0 43 -64.5 72.5t-207.5 68.5q-362 100 -363 297q0 143 127 230t342 87q219 0 438 -139l-135 -180q-160 96 -297 96q-176 0 -176 -80q0 -41 62.5 -67.5t197.5 -61.5q176 -47 275.5 -115.5t99.5 -189.5 q0 -143 -132 -235.5t-368 -92.5q-264 0 -497 156zM418 -348q170 18 170 76q0 51 -90 75l59 111q135 -14 190.5 -54t55.5 -118q0 -98 -101.5 -150.5t-261.5 -60.5z" />
<glyph unicode="&#x21a;" d="M63 1081v254h1102v-254h-399v-1081h-303v1081h-400zM403 -348q170 18 170 76q0 51 -88 75l58 111q135 -14 190 -54t55 -118q0 -98 -101 -150.5t-261 -60.5z" />
<glyph unicode="&#x21b;" d="M102 780v224l269 12l39 270h247v-270h428v-236h-428v-356q0 -115 50.5 -164t162.5 -49q98 0 205 37l53 -217q-186 -55 -333 -56q-439 1 -439 447v358h-254zM543 -348q170 18 170 76q0 51 -88 75l57 111q135 -14 191.5 -54t56.5 -118q0 -98 -102.5 -150.5t-262.5 -60.5z " />
<glyph unicode="&#x237;" d="M86 -332l88 215q109 -49 207 -49q106 0 147 50t41 165v731h-407v236h708v-955q0 -463 -471 -462q-164 0 -313 69z" />
<glyph unicode="&#x243;" d="M18 358v134l154 12v831h422q485 0 485 -321q0 -90 -56 -162.5t-167 -101.5v-9q291 -55 291 -331q0 -203 -142.5 -306.5t-371.5 -103.5h-461v358h-154zM473 215h135q121 0 185.5 55.5t64.5 161.5q0 203 -250 203h-135v-131h217v-146h-217v-143zM473 813h109q211 0 211 166 q0 139 -209 139h-111v-305z" />
<glyph unicode="&#x251;" d="M96 508q0 240 130 386t311 146q160 0 276 -129h8l25 105h235v-1016h-245l-23 104h-6q-57 -57 -134 -93t-149 -36q-195 0 -311.5 143.5t-116.5 389.5zM406 512q0 -291 196 -291q104 0 178 94v412q-76 68 -170 68q-88 0 -146 -73t-58 -210z" />
<glyph unicode="&#x259;" d="M113 467q0 53 12 127h686q-39 217 -264 217q-135 0 -268 -72l-101 189q178 113 402 112q246 0 392 -143t146 -389q0 -240 -151.5 -386.5t-370.5 -146.5q-231 0 -357 136.5t-126 355.5zM387 408q0 -94 52.5 -148.5t150.5 -54.5q197 0 223 203h-426z" />
<glyph unicode="&#x261;" d="M96 526q0 227 130 370.5t311 143.5q160 0 276 -129h8l25 105h235v-983q0 -207 -135 -320.5t-393 -113.5q-225 0 -393 106l100 205q137 -76 293 -76q109 0 169 46t69 122l6 131q-111 -106 -273 -106q-190 0 -309 139t-119 360zM401 530q0 -123 55.5 -192.5t145.5 -69.5 q102 0 178 99v360q-76 68 -174 68q-82 0 -143.5 -72t-61.5 -193z" />
<glyph unicode="&#x2b0;" d="M319 532v947h213v-230l-10 -123q100 96 219 97q219 0 220 -275v-416h-213v390q0 63 -21.5 91.5t-71.5 28.5q-55 0 -123 -61v-449h-213z" />
<glyph unicode="&#x2b2;" d="M272 317l62 150q63 -31 123 -31q68 0 95.5 32t27.5 103v469h-258v166h469v-626q0 -309 -320 -310q-100 0 -199 47zM543 1425q0 55 39 91t100 36q59 0 99 -35.5t40 -91.5q0 -57 -39 -92t-100 -35t-100 35t-39 92z" />
<glyph unicode="&#x2b3;" d="M438 532v674h176l17 -147h6q88 164 248 164q66 0 129 -29l-41 -176q-66 18 -121 18q-131 0 -201 -159v-345h-213z" />
<glyph unicode="&#x2b7;" d="M170 1206h209l39 -303q4 -27 9 -95.5t11 -105.5h4q16 139 31 201l39 205h145l43 -205q2 -10 31 -201h6q4 27 9.5 95.5t11.5 105.5l37 303h192l-100 -674h-246l-35 209q-23 162 -24 197h-7q-6 -72 -22 -197l-31 -209h-243z" />
<glyph unicode="&#x2b8;" d="M264 1206h213l96 -278q4 -14 54 -193h4q8 35 24.5 100.5t22.5 92.5l82 278h203l-238 -674q-53 -137 -120.5 -198.5t-186.5 -61.5q-49 0 -99 15l37 159q31 -10 45 -10q86 0 119 82l10 35z" />
<glyph unicode="&#x2bb;" d="M377 922q0 343 358 505l78 -159q-215 -98 -229 -287q22 6 43 6q82 0 134 -51t52 -135q0 -92 -55.5 -149.5t-141.5 -57.5q-113 0 -176 86t-63 242z" />
<glyph unicode="&#x2bc;" d="M414 754q215 96 229 284q-20 -6 -41 -6q-84 0 -136 52.5t-52 136.5q0 92 55 149t141 57q115 0 177.5 -87t62.5 -240q0 -342 -356 -506z" />
<glyph unicode="&#x2be;" d="M479 1040v111q176 0 176 139.5t-176 139.5v110q160 6 243 -62.5t83 -187.5t-83 -187.5t-243 -62.5z" />
<glyph unicode="&#x2bf;" d="M428 1290q0 119 83 187.5t243 62.5v-110q-178 0 -178.5 -139.5t178.5 -139.5v-111q-160 -6 -243 62.5t-83 187.5z" />
<glyph unicode="&#x2c6;" d="M283 1176l204 342h254l205 -342h-219l-109 194h-8l-108 -194h-219z" />
<glyph unicode="&#x2c7;" d="M283 1518h219l108 -197h8l109 197h219l-205 -342h-254z" />
<glyph unicode="&#x2c8;" d="M459 1516h311l-63 -744h-185z" />
<glyph unicode="&#x2c9;" d="M332 1212v191h565v-191h-565z" />
<glyph unicode="&#x2ca;" d="M446 1176l183 342h307l-270 -342h-220z" />
<glyph unicode="&#x2cb;" d="M291 1518h309l180 -342h-219z" />
<glyph unicode="&#x2cc;" d="M459 -543l63 744h185l63 -744h-311z" />
<glyph unicode="&#x2d8;" d="M313 1495h168q18 -154 133 -154t134 154h167q-4 -135 -80.5 -227t-220 -92t-220.5 92t-81 227z" />
<glyph unicode="&#x2d9;" d="M414 1348q0 82 56 135t144 53t144.5 -53t56.5 -135t-56.5 -132.5t-144.5 -50.5t-144 50.5t-56 132.5z" />
<glyph unicode="&#x2da;" d="M383 1331q0 94 63.5 151.5t168 57.5t168 -57.5t63.5 -151.5t-63.5 -151.5t-168 -57.5t-168 57.5t-63.5 151.5zM530 1331q0 -43 24 -69.5t60.5 -26.5t60 26.5t23.5 69.5t-23.5 69.5t-60 26.5t-60.5 -26.5t-24 -69.5z" />
<glyph unicode="&#x2db;" d="M438 -244q0 80 45 145.5t99 102.5h170q-111 -86 -111 -178q0 -39 25.5 -58.5t60.5 -19.5t72 25l63 -135q-88 -68 -207 -68q-94 0 -155.5 49t-61.5 137z" />
<glyph unicode="&#x2dc;" d="M264 1178q18 145 81 218.5t159 73.5q55 0 125.5 -53t93.5 -53q63 0 88 106h154q-18 -145 -81 -218.5t-159 -73.5q-57 0 -127 54t-92 54q-63 0 -88 -108h-154z" />
<glyph unicode="&#x2dd;" d="M358 1174l140 309h239l-194 -309h-185zM707 1174l141 309h239l-194 -309h-186z" />
<glyph unicode="&#x2e1;" d="M373 1313v166h352v-688q0 -106 104 -107q33 0 91 23l34 -164q-100 -27 -180 -27q-262 0 -262 283v514h-139z" />
<glyph unicode="&#x2e2;" d="M297 612l96 131q113 -72 225.5 -71.5t112.5 51.5q0 14 -10 26.5t-41 23.5t-47.5 16.5t-63.5 19.5q-229 70 -229 201q0 94 83 153.5t224 59.5q137 0 281 -88l-97 -125q-90 55 -182 55q-98 0 -98 -47q0 -27 37 -42t119 -38q70 -20 113.5 -39.5t82.5 -62.5t39 -101 q0 -96 -86 -157.5t-242 -61.5q-174 0 -317 96z" />
<glyph unicode="&#x2e3;" d="M254 532l227 351l-213 323h228l63 -104l68 -117h6q4 8 51 117l53 104h221l-215 -348l228 -326h-228l-69 105q-37 57 -76 117h-4q-29 -49 -59 -117l-60 -105h-221z" />
<glyph unicode="&#x300;" d="M293 1518h307l182 -342h-219z" />
<glyph unicode="&#x301;" d="M446 1176l183 342h307l-270 -342h-220z" />
<glyph unicode="&#x302;" d="M283 1176l204 342h254l205 -342h-219l-109 194h-8l-108 -194h-219z" />
<glyph unicode="&#x303;" d="M264 1178q18 145 81 218.5t159 73.5q55 0 125.5 -53t93.5 -53q63 0 88 106h154q-18 -145 -81 -218.5t-159 -73.5q-57 0 -127 54t-92 54q-63 0 -88 -108h-154z" />
<glyph unicode="&#x304;" d="M332 1212v191h565v-191h-565z" />
<glyph unicode="&#x306;" d="M313 1495h168q18 -154 133 -154t134 154h167q-4 -135 -80.5 -227t-220 -92t-220.5 92t-81 227z" />
<glyph unicode="&#x307;" d="M414 1348q0 82 56 135t144 53t144.5 -53t56.5 -135t-56.5 -132.5t-144.5 -50.5t-144 50.5t-56 132.5z" />
<glyph unicode="&#x308;" d="M229 1331q0 68 46.5 114t116 46t114.5 -46t45 -114q0 -70 -45 -116t-114.5 -46t-116 46.5t-46.5 115.5zM678 1331q0 68 45 114t114.5 46t115.5 -46t46 -114q0 -70 -46 -116t-115.5 -46t-114.5 46.5t-45 115.5z" />
<glyph unicode="&#x309;" d="M449 1389l34 151q344 -10 344 -188q0 -98 -79.5 -150.5t-204.5 -60.5l-23 119q90 14 90 61q0 59 -161 68z" />
<glyph unicode="&#x30a;" d="M383 1331q0 94 63.5 151.5t168 57.5t168 -57.5t63.5 -151.5t-63.5 -151.5t-168 -57.5t-168 57.5t-63.5 151.5zM530 1331q0 -43 24 -69.5t60.5 -26.5t60 26.5t23.5 69.5t-23.5 69.5t-60 26.5t-60.5 -26.5t-24 -69.5z" />
<glyph unicode="&#x30b;" d="M358 1174l140 309h239l-194 -309h-185zM707 1174l141 309h239l-194 -309h-186z" />
<glyph unicode="&#x30c;" d="M283 1518h219l108 -197h8l109 197h219l-205 -342h-254z" />
<glyph unicode="&#x30f;" d="M141 1483h240l141 -309h-186zM492 1483h239l139 -309h-184z" />
<glyph unicode="&#x312;" d="M475 1284q0 186 203 264l45 -92q-115 -41 -127 -121q4 2 14 2q45 0 77 -29.5t32 -76.5q0 -53 -32 -85t-77 -32q-135 0 -135 170z" />
<glyph unicode="&#x313;" d="M500 1200q115 43 127 123q-4 -2 -17 -2q-45 0 -75.5 28.5t-30.5 75.5q0 53 30.5 85t77.5 32q135 0 136 -170q0 -186 -203 -264z" />
<glyph unicode="&#x31b;" d="M594 995q68 12 102.5 40t34.5 87q0 49 -33 95l207 90q59 -72 60 -164q0 -127 -96.5 -194t-252.5 -75z" />
<glyph unicode="&#x323;" d="M414 -336q0 82 56 135.5t144 53.5t144.5 -53.5t56.5 -135.5t-56.5 -132t-144.5 -50t-144 50t-56 132z" />
<glyph unicode="&#x324;" d="M268 -299q0 61 41 102t102.5 41t102.5 -41t41 -102t-40 -102t-103.5 -41t-103.5 41t-40 102zM674 -299q0 61 41 102t102.5 41t102.5 -41t41 -102t-40 -102t-103.5 -41t-103.5 41t-40 102z" />
<glyph unicode="&#x326;" d="M403 -348q170 18 170 76q0 51 -90 75l58 111q135 -14 191 -54t56 -118q0 -98 -101 -150.5t-261 -60.5z" />
<glyph unicode="&#x327;" d="M403 -332q170 18 170 90q1 57 -120 86l82 164h176l-41 -96q119 -39 118 -152q0 -100 -101 -152t-261 -61z" />
<glyph unicode="&#x328;" d="M438 -244q0 80 45 145.5t99 102.5h170q-111 -86 -111 -178q0 -39 25.5 -58.5t60.5 -19.5t72 25l63 -135q-88 -68 -207 -68q-94 0 -155.5 49t-61.5 137z" />
<glyph unicode="&#x32e;" d="M330 -145h168q14 -121 116.5 -121t116.5 121h168q-4 -121 -76.5 -203t-208 -82t-208 82t-76.5 203z" />
<glyph unicode="&#x331;" d="M332 -195h565v-192h-565v192z" />
<glyph unicode="&#x3c0;" d="M31 778v226l151 12h998v-238h-138v-467q0 -92 62 -92q23 0 39 4l37 -221q-59 -27 -156 -27q-283 0 -283 349v454h-235l-2 -778h-297v778h-176z" />
<glyph unicode="&#x1d43;" d="M315 719q0 109 95.5 168t304.5 80q-6 88 -115 88q-78 0 -186 -60l-76 138q152 90 305 90q135 0 210 -77t75 -233v-381h-174l-15 68h-4q-102 -84 -205 -84q-94 0 -154.5 59.5t-60.5 143.5zM520 737q0 -59 78 -59q63 0 117 53v109q-195 -25 -195 -103z" />
<glyph unicode="&#x1d47;" d="M315 532v947h213v-230l-4 -100q80 74 181 74q127 0 200.5 -93.5t73.5 -248.5q0 -166 -86 -265.5t-207 -99.5q-98 0 -182 88h-4l-19 -72h-166zM528 727q45 -39 107 -39q55 0 90 46t35 143q0 174 -115 174q-59 0 -117 -58v-266z" />
<glyph unicode="&#x1d48;" d="M262 868q0 160 87 257.5t204 97.5q92 0 168 -72l-6 100v228h211v-947h-172l-17 66h-4q-86 -82 -184 -82q-131 0 -209 94t-78 258zM481 870q0 -182 123 -182q68 0 111 55v267q-49 41 -113 41q-51 0 -86 -46.5t-35 -134.5z" />
<glyph unicode="&#x1d49;" d="M303 868q0 156 102.5 255.5t237.5 99.5q150 0 229.5 -91.5t79.5 -234.5q0 -20 -8 -86h-436q29 -135 188 -135q78 0 158 43l72 -125q-121 -78 -260 -78q-158 0 -260.5 94t-102.5 258zM506 940h266q0 121 -123 121t-143 -121z" />
<glyph unicode="&#x1d4d;" d="M272 420q0 80 107 133v6q-70 41 -70 115q0 72 84 125v4q-92 59 -92 174q0 117 85 181.5t208 64.5q61 0 115 -17h276v-153h-133q27 -35 27 -82q0 -113 -78 -170.5t-207 -57.5q-29 0 -90 15q-27 -20 -27 -45q0 -49 111 -49h123q281 0 280 -170q0 -109 -111.5 -176.5 t-297.5 -67.5q-141 0 -225.5 42t-84.5 128zM446 453q0 -72 166 -72q78 0 128.5 21.5t50.5 54.5q0 47 -117 47h-82q-53 0 -103 8q-43 -26 -43 -59zM500 977q0 -51 26.5 -78t67.5 -27q43 0 70.5 27t27.5 78q0 49 -28.5 76.5t-69.5 27.5t-67.5 -27.5t-26.5 -76.5z" />
<glyph unicode="&#x1d4f;" d="M328 532v947h213v-529h4l233 256h232l-254 -278l272 -396h-229l-166 256l-92 -90v-166h-213z" />
<glyph unicode="&#x1d50;" d="M236 532v674h159l17 -84h4q51 100 145 100.5t119 -110.5q41 111 149 111q70 0 111 -59.5t41 -159.5v-472h-203v457q0 53 -30 53q-33 0 -58 -61v-449h-164v457q0 53 -34 53q-31 0 -56 -61v-449h-200z" />
<glyph unicode="&#x1d52;" d="M272 868.5q0 161.5 100.5 258t242 96.5t241.5 -96.5t100 -258t-100 -257t-241.5 -95.5t-242 95.5t-100.5 257zM489 868.5q0 -184.5 125 -184.5t125 184.5t-125 184.5t-125 -184.5z" />
<glyph unicode="&#x1d56;" d="M315 287v919h174l15 -65h4q100 82 199 82q127 0 199.5 -93.5t72.5 -248.5q0 -166 -86 -265.5t-207 -99.5q-86 0 -166 70l8 -105v-194h-213zM528 727q45 -39 107 -39q55 0 90 46t35 143q0 174 -115 174q-59 0 -117 -58v-266z" />
<glyph unicode="&#x1d57;" d="M307 1040v158l152 8l26 176h179v-176h264v-166h-264v-225q0 -72 32.5 -102.5t104.5 -30.5q63 0 119 23l36 -152q-106 -37 -208 -37q-299 0 -299 297v227h-142z" />
<glyph unicode="&#x1d58;" d="M295 788v418h213v-391q0 -63 20.5 -91t69.5 -28q70 0 123 68v442h213v-674h-174l-17 93h-4q-98 -109 -225 -109q-219 0 -219 272z" />
<glyph unicode="&#x1d5b;" d="M242 1206h213l98 -309q8 -25 27.5 -96.5t31.5 -112.5h4q10 33 29 102.5t29 106.5l98 309h203l-240 -674h-246z" />
<glyph unicode="&#x1d9c;" d="M348 868q0 162 111.5 258.5t269.5 96.5q131 0 215 -78l-98 -131q-51 39 -105 39q-80 0 -128 -50.5t-48 -134.5q0 -82 48.5 -133t121.5 -51q57 0 135 49l84 -133q-104 -84 -243 -84q-158 0 -260.5 94t-102.5 258z" />
<glyph unicode="&#x1da0;" d="M375 1040v158l151 8v19q0 123 77 196.5t231 73.5q91 0 206 -37l-41 -153q-68 25 -139 24q-123 0 -123 -104v-19h228v-166h-228v-508h-211v508h-151z" />
<glyph unicode="&#x1dbb;" d="M309 532v113l342 395h-301v166h596v-112l-342 -396h354v-166h-649z" />
<glyph unicode="&#x1e0c;" d="M133 0v1335h363q301 0 472 -163.5t171 -497.5t-169 -504t-458 -170h-379zM393 -336q0 82 56.5 135.5t144.5 53.5t144.5 -53.5t56.5 -135.5t-56.5 -132t-144.5 -50t-144.5 50t-56.5 132zM436 244h43q350 0 350 430q0 227 -91 322.5t-259 95.5h-43v-848z" />
<glyph unicode="&#x1e0d;" d="M96 508q0 240 130 386t304 146q141 0 261 -108l-11 158v346h301v-1436h-245l-23 104h-6q-133 -129 -283 -129q-195 0 -311.5 142.5t-116.5 390.5zM406 512q0 -291 196 -291q104 0 178 94v412q-76 68 -170 68q-88 0 -146 -73t-58 -210zM432 -336q0 82 56.5 135.5 t144.5 53.5t144.5 -53.5t56.5 -135.5t-56.5 -132t-144.5 -50t-144.5 50t-56.5 132z" />
<glyph unicode="&#x1e0e;" d="M133 0v1335h363q301 0 472 -163.5t171 -497.5t-169 -504t-458 -170h-379zM311 -195h566v-192h-566v192zM436 244h43q350 0 350 430q0 227 -91 322.5t-259 95.5h-43v-848z" />
<glyph unicode="&#x1e0f;" d="M96 508q0 240 130 386t304 146q141 0 261 -108l-11 158v346h301v-1436h-245l-23 104h-6q-133 -129 -283 -129q-195 0 -311.5 142.5t-116.5 390.5zM350 -195h565v-192h-565v192zM406 512q0 -291 196 -291q104 0 178 94v412q-76 68 -170 68q-88 0 -146 -73t-58 -210z" />
<glyph unicode="&#x1e20;" d="M90 659.5q0 325.5 174 513t443 187.5q221 0 391 -170l-166 -186q-96 96 -225 96q-133 0 -219.5 -117t-86.5 -313q0 -209 81 -321.5t237 -112.5q86 0 131 40v230h-195v246h465v-615q-74 -68 -185.5 -115t-232.5 -47q-268 0 -440 179.5t-172 505zM387 1475v190h580v-190 h-580z" />
<glyph unicode="&#x1e21;" d="M106 -172q0 125 158 203v8q-102 63 -102 174q0 49 32.5 101.5t88.5 88.5v9q-133 88 -133 260q0 174 125.5 271t308.5 97q94 0 168 -24h411v-219h-207q47 -59 48 -135q0 -168 -117 -254t-303 -86q-66 0 -140 20q-45 -33 -45 -74q0 -78 172 -78h189q412 0 411 -256 q0 -162 -165.5 -264t-438.5 -102q-209 0 -335 64.5t-126 195.5zM340 1212v191h565v-191h-565zM352 -127q0 -55 68.5 -86t189.5 -31t198 36t77 89q0 47 -42 63.5t-136 16.5h-127q-100 0 -156 12q-72 -45 -72 -100zM432 672q0 -80 43 -124t108.5 -44t110.5 44t45 124 q0 78 -45 122t-110.5 44t-108.5 -44t-43 -122z" />
<glyph unicode="&#x1e24;" d="M131 0v1335h301v-514h365v514h301v-1335h-301v557h-365v-557h-301zM412 -336q0 82 57 135.5t143 53.5q88 0 144.5 -53.5t56.5 -135.5t-56.5 -132t-144.5 -50t-144 50t-56 132z" />
<glyph unicode="&#x1e25;" d="M147 0v1436h302v-353l-17 -194q156 152 344 151q166 0 248 -108.5t82 -304.5v-627h-301v588q0 102 -34 149t-116 47q-57 0 -103 -24.5t-103 -81.5v-678h-302zM430 -336q0 82 56.5 135.5t142.5 53.5q88 0 144 -53.5t56 -135.5t-56 -132t-144 -50t-143.5 50t-55.5 132z" />
<glyph unicode="&#x1e2a;" d="M131 0v1335h301v-514h365v514h301v-1335h-301v557h-365v-557h-301zM328 -145h168q14 -121 116.5 -121t116.5 121h168q-4 -121 -76.5 -203t-208 -82t-208 82t-76.5 203z" />
<glyph unicode="&#x1e2b;" d="M147 0v1436h302v-353l-17 -194q156 152 344 151q166 0 248 -108.5t82 -304.5v-627h-301v588q0 102 -34 149t-116 47q-57 0 -103 -24.5t-103 -81.5v-678h-302zM344 -145h168q18 -121 117 -121q102 0 116 121h168q-4 -121 -76.5 -203t-207.5 -82t-208 82t-77 203z" />
<glyph unicode="&#x1e36;" d="M219 0v1335h301v-1081h594v-254h-895zM479 -336q0 82 56.5 135.5t144.5 53.5q86 0 142.5 -53.5t56.5 -135.5t-55.5 -132t-143.5 -50t-144.5 50t-56.5 132z" />
<glyph unicode="&#x1e37;" d="M127 1198v238h596v-1051q0 -86 46 -126t118 -40q76 0 160 33l67 -221q-180 -55 -305 -56q-188 0 -287.5 113t-99.5 309v801h-295zM541 -336q0 82 56 135.5t144 53.5q86 0 142.5 -53.5t56.5 -135.5t-55.5 -132t-143.5 -50t-144 50t-56 132z" />
<glyph unicode="&#x1e38;" d="M111 1475v190h577v-190h-577zM219 0v1335h301v-1081h594v-254h-895zM479 -336q0 82 56.5 135.5t144.5 53.5q86 0 142.5 -53.5t56.5 -135.5t-55.5 -132t-143.5 -50t-144.5 50t-56.5 132z" />
<glyph unicode="&#x1e39;" d="M127 1198v238h596v-1051q0 -86 46 -126t118 -40q76 0 160 33l67 -221q-180 -55 -305 -56q-188 0 -287.5 113t-99.5 309v801h-295zM272 1645v192h566v-192h-566zM541 -336q0 82 56 135.5t144 53.5q86 0 142.5 -53.5t56.5 -135.5t-55.5 -132t-143.5 -50t-144 50t-56 132z " />
<glyph unicode="&#x1e3a;" d="M219 0v1335h301v-1081h594v-254h-895zM395 -195h568v-192h-568v192z" />
<glyph unicode="&#x1e3b;" d="M127 1198v238h596v-1051q0 -86 46 -126t118 -40q76 0 160 33l67 -221q-180 -55 -305 -56q-188 0 -287.5 113t-99.5 309v801h-295zM457 -195h567v-192h-567v192z" />
<glyph unicode="&#x1e42;" d="M133 0v1335h301l135 -473l45 -184h7l45 184l129 473h301v-1335h-244v436q0 215 39 604h-6l-105 -366l-102 -318h-133l-103 318l-100 366h-8q39 -389 39 -604v-436h-240zM414 -336q0 82 56 135.5t144 53.5t144.5 -53.5t56.5 -135.5t-56.5 -132t-144.5 -50t-144 50t-56 132 z" />
<glyph unicode="&#x1e43;" d="M74 0v1016h225l23 -127h8q70 152 217 151q141 0 178 -166q66 166 223 166q106 0 166 -88t60 -239v-713h-283v690q0 94 -57 94q-55 0 -95 -98v-686h-231v690q0 94 -59 94q-49 0 -93 -98v-686h-282zM420 -336q0 82 56 135.5t145 53.5q86 0 143 -53.5t57 -135.5t-56 -132 t-144.5 -50t-144.5 50t-56 132z" />
<glyph unicode="&#x1e44;" d="M135 0v1335h307l283 -665l115 -293h8q-2 29 -15.5 141.5t-20.5 193.5t-7 150v473h289v-1335h-308l-282 666l-115 290h-8q4 -41 16.5 -145t19.5 -186t7 -152v-473h-289zM453 1593.5q0 69.5 49 113.5t124.5 44t125 -44t49.5 -113.5t-49.5 -113.5t-125 -44t-124.5 44 t-49 113.5z" />
<glyph unicode="&#x1e45;" d="M147 0v1016h246l23 -135h8q164 160 350 159q168 0 250 -107.5t82 -305.5v-627h-301v588q0 102 -34 149t-116 47q-57 0 -103 -24.5t-103 -81.5v-678h-302zM444 1348q0 82 56.5 135t144.5 53t144.5 -53t56.5 -135t-56.5 -132.5t-144.5 -50.5t-144.5 50.5t-56.5 132.5z" />
<glyph unicode="&#x1e46;" d="M135 0v1335h307l283 -665l115 -293h8q-2 29 -15.5 141.5t-20.5 193.5t-7 150v473h289v-1335h-308l-282 666l-115 290h-8q4 -41 16.5 -145t19.5 -186t7 -152v-473h-289zM414 -336q0 82 56 135.5t144 53.5t144.5 -53.5t56.5 -135.5t-56.5 -132t-144.5 -50t-144 50t-56 132z " />
<glyph unicode="&#x1e47;" d="M147 0v1016h246l23 -135h8q164 160 350 159q168 0 250 -107.5t82 -305.5v-627h-301v588q0 102 -34 149t-116 47q-57 0 -103 -24.5t-103 -81.5v-678h-302zM428 -336q0 82 56.5 135.5t142.5 53.5q88 0 144 -53.5t56 -135.5t-56 -132t-144 -50t-143.5 50t-55.5 132z" />
<glyph unicode="&#x1e48;" d="M135 0v1335h307l283 -665l115 -293h8q-2 29 -15.5 141.5t-20.5 193.5t-7 150v473h289v-1335h-308l-282 666l-115 290h-8q4 -41 16.5 -145t19.5 -186t7 -152v-473h-289zM332 -195h565v-192h-565v192z" />
<glyph unicode="&#x1e49;" d="M147 0v1016h246l23 -135h8q164 160 350 159q168 0 250 -107.5t82 -305.5v-627h-301v588q0 102 -34 149t-116 47q-57 0 -103 -24.5t-103 -81.5v-678h-302zM344 -195h565v-192h-565v192z" />
<glyph unicode="&#x1e5a;" d="M143 0v1335h473q516 0 517 -415q0 -279 -238 -385l301 -535h-338l-256 481h-158v-481h-301zM444 721h148q244 0 244 199q0 96 -59.5 136t-184.5 40h-148v-375zM455 -336q0 82 56 135.5t144 53.5t144.5 -53.5t56.5 -135.5t-56.5 -132t-144.5 -50t-144 50t-56 132z" />
<glyph unicode="&#x1e5b;" d="M215 -336q0 82 56.5 135.5t144.5 53.5t144 -53.5t56 -135.5t-56 -132t-144 -50t-144.5 50t-56.5 132zM238 0v1016h245l25 -221h6q150 246 412 245q104 0 196 -41l-61 -251q-98 29 -180 28q-225 0 -342 -248v-528h-301z" />
<glyph unicode="&#x1e5c;" d="M143 0v1335h473q516 0 517 -415q0 -279 -238 -385l301 -535h-338l-256 481h-158v-481h-301zM330 1475v190h579v-190h-579zM444 721h148q244 0 244 199q0 96 -59.5 136t-184.5 40h-148v-375zM455 -336q0 82 56 135.5t144 53.5t144.5 -53.5t56.5 -135.5t-56.5 -132 t-144.5 -50t-144 50t-56 132z" />
<glyph unicode="&#x1e5d;" d="M215 -336q0 82 56.5 135.5t144.5 53.5t144 -53.5t56 -135.5t-56 -132t-144 -50t-144.5 50t-56.5 132zM238 0v1016h245l25 -221h6q150 246 412 245q104 0 196 -41l-61 -251q-98 29 -180 28q-225 0 -342 -248v-528h-301zM412 1212v191h565v-191h-565z" />
<glyph unicode="&#x1e5e;" d="M143 0v1335h473q516 0 517 -415q0 -279 -238 -385l301 -535h-338l-256 481h-158v-481h-301zM373 -195h565v-192h-565v192zM444 721h148q244 0 244 199q0 96 -59.5 136t-184.5 40h-148v-375z" />
<glyph unicode="&#x1e5f;" d="M133 -195h565v-192h-565v192zM238 0v1016h245l25 -221h6q150 246 412 245q104 0 196 -41l-61 -251q-98 29 -180 28q-225 0 -342 -248v-528h-301z" />
<glyph unicode="&#x1e60;" d="M102 168l174 207q170 -139 342 -139q201 0 201 129q0 55 -43 84.5t-151 69.5q-9 3 -13 5l-172 74q-125 47 -204.5 138t-79.5 227q0 168 138 282.5t351 114.5q258 0 445 -176l-154 -191q-145 106 -291 107q-88 0 -136 -32t-48 -89q0 -53 47 -83t154 -68q12 -5 18 -7 l162 -69q287 -106 286 -363q0 -174 -139 -294t-379 -120q-291 0 -508 193zM455 1593.5q0 69.5 49 113.5t125 44t125 -44t49 -113.5t-49 -113.5t-125 -44t-125 44t-49 113.5z" />
<glyph unicode="&#x1e61;" d="M109 131l135 188q190 -121 368 -120q195 0 195 86q0 43 -64.5 72.5t-207.5 68.5q-362 100 -363 297q0 143 127 230t342 87q219 0 438 -139l-135 -180q-160 96 -297 96q-176 0 -176 -80q0 -41 62.5 -67.5t197.5 -61.5q176 -47 275.5 -115.5t99.5 -189.5 q0 -143 -132 -235.5t-368 -92.5q-264 0 -497 156zM440 1348q0 82 56.5 135t142.5 53q88 0 144.5 -53t56.5 -135t-56.5 -132.5t-144.5 -50.5t-143.5 50.5t-55.5 132.5z" />
<glyph unicode="&#x1e62;" d="M102 168l174 207q170 -139 342 -139q201 0 201 129q0 55 -43 84.5t-151 69.5q-9 3 -13 5l-172 74q-125 47 -204.5 138t-79.5 227q0 168 138 282.5t351 114.5q258 0 445 -176l-154 -191q-145 106 -291 107q-88 0 -136 -32t-48 -89q0 -53 47 -83t154 -68q12 -5 18 -7 l162 -69q287 -106 286 -363q0 -174 -139 -294t-379 -120q-291 0 -508 193zM434 -336q0 82 56.5 135.5t144.5 53.5t144.5 -53.5t56.5 -135.5t-56.5 -132t-144.5 -50t-144.5 50t-56.5 132z" />
<glyph unicode="&#x1e63;" d="M109 131l135 188q190 -121 368 -120q195 0 195 86q0 43 -64.5 72.5t-207.5 68.5q-362 100 -363 297q0 143 127 230t342 87q219 0 438 -139l-135 -180q-160 96 -297 96q-176 0 -176 -80q0 -41 62.5 -67.5t197.5 -61.5q176 -47 275.5 -115.5t99.5 -189.5 q0 -143 -132 -235.5t-368 -92.5q-264 0 -497 156zM428 -336q0 82 56.5 135.5t144.5 53.5t144 -53.5t56 -135.5t-56 -132t-144 -50t-144.5 50t-56.5 132z" />
<glyph unicode="&#x1e6c;" d="M63 1081v254h1102v-254h-399v-1081h-303v1081h-400zM414 -336q0 82 57 135.5t143 53.5q88 0 144.5 -53.5t56.5 -135.5t-56.5 -132t-144.5 -50t-144 50t-56 132z" />
<glyph unicode="&#x1e6d;" d="M102 780v224l269 12l39 270h247v-270h428v-236h-428v-356q0 -115 50.5 -164t162.5 -49q98 0 205 37l53 -217q-186 -55 -333 -56q-439 1 -439 447v358h-254zM555 -336q0 82 56.5 135.5t142.5 53.5q88 0 144 -53.5t56 -135.5t-56 -132t-144 -50t-143.5 50t-55.5 132z" />
<glyph unicode="&#x1e6e;" d="M63 1081v254h1102v-254h-399v-1081h-303v1081h-400zM332 -195h565v-192h-565v192z" />
<glyph unicode="&#x1e6f;" d="M102 780v224l269 12l39 270h247v-270h428v-236h-428v-356q0 -115 50.5 -164t162.5 -49q98 0 205 37l53 -217q-186 -55 -333 -56q-439 1 -439 447v358h-254zM471 -195h565v-192h-565v192z" />
<glyph unicode="&#x1e80;" d="M8 1335h307l43 -710q2 -57 5.5 -171t3.5 -169h6q12 63 37.5 180t33.5 160l93 370h182l88 -370q8 -47 33.5 -163t36.5 -177h8q2 55 5 168.5t5 171.5l39 710h287l-166 -1335h-316l-84 420q-29 145 -37 256h-6q-14 -141 -37 -256l-79 -420h-310zM283 1683h319l166 -245h-240 z" />
<glyph unicode="&#x1e81;" d="M6 1016h295l64 -471q8 -51 18 -150.5t16 -150.5h7q23 182 47 301l65 336h207l72 -336q20 -113 47 -301h8q6 51 15.5 150.5t17.5 150.5l63 471h275l-158 -1016h-350l-58 338q-12 86 -41 297h-8q-23 -211 -35 -297l-55 -338h-344zM293 1518h309l180 -342h-219z" />
<glyph unicode="&#x1e82;" d="M8 1335h307l43 -710q2 -57 5.5 -171t3.5 -169h6q12 63 37.5 180t33.5 160l93 370h182l88 -370q8 -47 33.5 -163t36.5 -177h8q2 55 5 168.5t5 171.5l39 710h287l-166 -1335h-316l-84 420q-29 145 -37 256h-6q-14 -141 -37 -256l-79 -420h-310zM461 1438l166 245h319 l-246 -245h-239z" />
<glyph unicode="&#x1e83;" d="M6 1016h295l64 -471q8 -51 18 -150.5t16 -150.5h7q23 182 47 301l65 336h207l72 -336q20 -113 47 -301h8q6 51 15.5 150.5t17.5 150.5l63 471h275l-158 -1016h-350l-58 338q-12 86 -41 297h-8q-23 -211 -35 -297l-55 -338h-344zM449 1176l182 342h307l-270 -342h-219z " />
<glyph unicode="&#x1e84;" d="M8 1335h307l43 -710q2 -57 5.5 -171t3.5 -169h6q12 63 37.5 180t33.5 160l93 370h182l88 -370q8 -47 33.5 -163t36.5 -177h8q2 55 5 168.5t5 171.5l39 710h287l-166 -1335h-316l-84 420q-29 145 -37 256h-6q-14 -141 -37 -256l-79 -420h-310zM268 1577q0 61 40 102 t103.5 41t103.5 -41t40 -102t-40 -102t-103.5 -41t-103.5 41t-40 102zM674 1577q0 61 40 102t103.5 41t103.5 -41t40 -102t-40 -102t-103.5 -41t-103.5 41t-40 102z" />
<glyph unicode="&#x1e85;" d="M6 1016h295l64 -471q8 -51 18 -150.5t16 -150.5h7q23 182 47 301l65 336h207l72 -336q20 -113 47 -301h8q6 51 15.5 150.5t17.5 150.5l63 471h275l-158 -1016h-350l-58 338q-12 86 -41 297h-8q-23 -211 -35 -297l-55 -338h-344zM231 1331q0 68 45.5 114t116.5 46 q70 0 115 -46t45 -114q0 -70 -45 -116t-115 -46q-72 0 -117 46.5t-45 115.5zM678 1331q0 68 46 114t115.5 46t114.5 -46t45 -114q0 -70 -45 -116t-114.5 -46t-115.5 46.5t-46 115.5z" />
<glyph unicode="&#x1e8e;" d="M33 1335h323l136 -321q20 -53 61 -153.5t59 -151.5h9q20 49 61 149t63 156l136 321h315l-430 -884v-451h-303v451zM440 1593.5q0 69.5 49.5 113.5t125 44t124.5 -44t49 -113.5t-49 -113.5t-124.5 -44t-125 44t-49.5 113.5z" />
<glyph unicode="&#x1e8f;" d="M63 1016h299l170 -436q43 -113 103 -306h8q8 31 92 306l150 436h284l-401 -1026q-78 -203 -184.5 -295t-290.5 -92q-84 0 -156 20l53 230q40 -12 80 -13q158 0 213 133l21 54zM428 1348q0 82 56.5 135t144.5 53t144 -53t56 -135t-56 -132.5t-144 -50.5t-144.5 50.5 t-56.5 132.5z" />
<glyph unicode="&#x1e92;" d="M115 0v182l626 901h-567v252h938v-182l-625 -899h633v-254h-1005zM436 -336q0 82 56.5 135.5t142.5 53.5q88 0 144.5 -53.5t56.5 -135.5t-56.5 -132t-144.5 -50t-143.5 50t-55.5 132z" />
<glyph unicode="&#x1e93;" d="M143 0v162l533 618h-467v236h883v-160l-533 -620h549v-236h-965zM451 -336q0 82 56 135.5t144 53.5q86 0 142.5 -53.5t56.5 -135.5t-55.5 -132t-143.5 -50t-144 50t-56 132z" />
<glyph unicode="&#x1e97;" d="M102 780v224l269 12l39 270h247v-270h428v-236h-428v-356q0 -115 50.5 -164t162.5 -49q98 0 205 37l53 -217q-186 -55 -333 -56q-439 1 -439 447v358h-254zM160 1616q0 70 45 116t114 46q72 0 117 -46t45 -116q0 -68 -45 -114t-117 -46q-70 0 -114.5 46t-44.5 114z M606 1616q0 70 45 116t115 46q72 0 117 -46t45 -116q0 -68 -45 -114t-117 -46q-70 0 -115 46t-45 114z" />
<glyph unicode="&#x1e9e;" d="M131 0v905q0 203 121 329t371 126q174 0 291.5 -102.5t150.5 -272.5l-147 -250q240 -125 239 -370q0 -172 -90 -281t-260 -109q-205 0 -313 131l155 183q63 -70 117 -70q33 0 54.5 41t21.5 107q0 63 -53.5 114t-155.5 82l-21 176l154 256q-43 121 -152 121 q-174 0 -174 -252v-864h-309z" />
<glyph unicode="&#x1ea0;" d="M18 0l416 1335h361l415 -1335h-319l-80 317h-403l-82 -317h-308zM414 -336q0 82 56 135.5t144 53.5t144.5 -53.5t56.5 -135.5t-56.5 -132t-144.5 -50t-144 50t-56 132zM469 553h281l-31 123q-20 78 -58 234.5t-49 195.5h-8q-63 -270 -104 -430z" />
<glyph unicode="&#x1ea1;" d="M125 283q0 172 156.5 261t513.5 109q-16 147 -217 148q-121 0 -310 -94l-106 196q240 137 475 137q219 0 339 -114.5t120 -343.5v-582h-246l-23 115h-8q-182 -139 -360 -140q-150 0 -242 88.5t-92 219.5zM414 305q0 -96 141 -96q115 0 240 96v168q-211 -12 -296 -54 t-85 -114zM434 -336q0 82 56.5 135.5t144.5 53.5q86 0 142.5 -53.5t56.5 -135.5t-55.5 -132t-143.5 -50t-144.5 50t-56.5 132z" />
<glyph unicode="&#x1ea2;" d="M18 0l416 1335h361l415 -1335h-319l-80 317h-403l-82 -317h-308zM449 1665l34 150q344 -8 344 -187q0 -100 -78.5 -151.5t-205.5 -61.5l-23 119q90 18 90 61q0 57 -161 70zM469 553h281l-31 123q-20 78 -58 234.5t-49 195.5h-8q-63 -270 -104 -430z" />
<glyph unicode="&#x1ea3;" d="M125 283q0 172 156.5 261t513.5 109q-16 147 -217 148q-121 0 -310 -94l-106 196q240 137 475 137q219 0 339 -114.5t120 -343.5v-582h-246l-23 115h-8q-182 -139 -360 -140q-150 0 -242 88.5t-92 219.5zM414 305q0 -96 141 -96q115 0 240 96v168q-211 -12 -296 -54 t-85 -114zM465 1389l35 151q344 -10 344 -188q0 -98 -80 -150.5t-205 -60.5l-22 119q90 14 90 61q0 59 -162 68z" />
<glyph unicode="&#x1ea4;" d="M18 0l416 1335h361l415 -1335h-319l-80 317h-403l-82 -317h-308zM291 1438l194 233h258l195 -233h-213l-107 112h-8l-106 -112h-213zM469 553h281l-31 123q-20 78 -58 234.5t-49 195.5h-8q-63 -270 -104 -430zM846 1577l139 246h234l-203 -246h-170z" />
<glyph unicode="&#x1ea5;" d="M125 283q0 172 156.5 261t513.5 109q-16 147 -217 148q-121 0 -310 -94l-106 196q240 137 475 137q219 0 339 -114.5t120 -343.5v-582h-246l-23 115h-8q-182 -139 -360 -140q-150 0 -242 88.5t-92 219.5zM346 1176l166 262h240l163 -262h-184l-96 133h-8l-95 -133h-186z M414 305q0 -96 141 -96q115 0 240 96v168q-211 -12 -296 -54t-85 -114zM850 1323l139 242h223l-194 -242h-168z" />
<glyph unicode="&#x1ea6;" d="M18 0l416 1335h361l415 -1335h-319l-80 317h-403l-82 -317h-308zM291 1438l194 233h258l195 -233h-213l-107 112h-8l-106 -112h-213zM469 553h281l-31 123q-20 78 -58 234.5t-49 195.5h-8q-63 -270 -104 -430zM729 1823h232l141 -246h-172z" />
<glyph unicode="&#x1ea7;" d="M125 283q0 172 156.5 261t513.5 109q-16 147 -217 148q-121 0 -310 -94l-106 196q240 137 475 137q219 0 339 -114.5t120 -343.5v-582h-246l-23 115h-8q-182 -139 -360 -140q-150 0 -242 88.5t-92 219.5zM346 1176l166 262h240l163 -262h-184l-96 133h-8l-95 -133h-186z M414 305q0 -96 141 -96q115 0 240 96v168q-211 -12 -296 -54t-85 -114zM778 1565h223l140 -242h-168z" />
<glyph unicode="&#x1ea8;" d="M18 0l416 1335h361l415 -1335h-319l-80 317h-403l-82 -317h-308zM291 1438l194 233h258l195 -233h-213l-107 112h-8l-106 -112h-213zM469 553h281l-31 123q-20 78 -58 234.5t-49 195.5h-8q-63 -270 -104 -430zM805 1755l26 123q301 -8 302 -164q0 -160 -238 -178l-23 96 q66 14 66 56q0 31 -29.5 46t-103.5 21z" />
<glyph unicode="&#x1ea9;" d="M125 283q0 172 156.5 261t513.5 109q-16 147 -217 148q-121 0 -310 -94l-106 196q240 137 475 137q219 0 339 -114.5t120 -343.5v-582h-246l-23 115h-8q-182 -139 -360 -140q-150 0 -242 88.5t-92 219.5zM346 1176l166 262h240l163 -262h-184l-96 133h-8l-95 -133h-186z M414 305q0 -96 141 -96q115 0 240 96v168q-211 -12 -296 -54t-85 -114zM821 1513l29 127q303 -8 303 -161q0 -92 -63.5 -134.5t-176.5 -58.5l-20 103q63 14 63 57q0 59 -135 67z" />
<glyph unicode="&#x1eaa;" d="M18 0l416 1335h361l415 -1335h-319l-80 317h-403l-82 -317h-308zM291 1438l194 233h258l195 -233h-213l-107 112h-8l-106 -112h-213zM309 1745q12 115 62.5 173t124.5 58q61 0 130.5 -37.5t90.5 -37.5q56 -1 74 75h129q-12 -115 -62.5 -173t-124.5 -58q-61 0 -131 39 t-90 39q-57 0 -74 -78h-129zM469 553h281l-31 123q-20 78 -58 234.5t-49 195.5h-8q-63 -270 -104 -430z" />
<glyph unicode="&#x1eab;" d="M125 283q0 172 156.5 261t513.5 109q-16 147 -217 148q-121 0 -310 -94l-106 196q240 137 475 137q219 0 339 -114.5t120 -343.5v-582h-246l-23 115h-8q-182 -139 -360 -140q-150 0 -242 88.5t-92 219.5zM330 1174l164 227h274l164 -227h-195l-102 120h-8l-103 -120h-194 zM332 1475q12 117 63 175t123 58q61 0 124 -39t85 -39q57 0 74 78h129q-12 -115 -62.5 -174t-124.5 -59q-61 0 -123.5 38.5t-84.5 38.5q-58 1 -72 -77h-131zM414 305q0 -96 141 -96q115 0 240 96v168q-211 -12 -296 -54t-85 -114z" />
<glyph unicode="&#x1eac;" d="M18 0l416 1335h361l415 -1335h-319l-80 317h-403l-82 -317h-308zM270 1438l197 245h295l196 -245h-231l-109 125h-8l-108 -125h-232zM414 -336q0 82 56 135.5t144 53.5t144.5 -53.5t56.5 -135.5t-56.5 -132t-144.5 -50t-144 50t-56 132zM469 553h281l-31 123 q-20 78 -58 234.5t-49 195.5h-8q-63 -270 -104 -430z" />
<glyph unicode="&#x1ead;" d="M125 283q0 172 156.5 261t513.5 109q-16 147 -217 148q-121 0 -310 -94l-106 196q240 137 475 137q219 0 339 -114.5t120 -343.5v-582h-246l-23 115h-8q-182 -139 -360 -140q-150 0 -242 88.5t-92 219.5zM299 1176l205 342h254l205 -342h-220l-108 194h-8l-109 -194h-219 zM414 305q0 -96 141 -96q115 0 240 96v168q-211 -12 -296 -54t-85 -114zM434 -336q0 82 56.5 135.5t144.5 53.5q86 0 142.5 -53.5t56.5 -135.5t-55.5 -132t-143.5 -50t-144.5 50t-56.5 132z" />
<glyph unicode="&#x1eae;" d="M18 0l416 1335h361l415 -1335h-319l-80 317h-403l-82 -317h-308zM336 1683h137q27 -111 141.5 -111t141.5 111h137q-10 -115 -81 -180t-198 -65t-197.5 65.5t-80.5 179.5zM469 553h281l-31 123q-20 78 -58 234.5t-49 195.5h-8q-63 -270 -104 -430zM522 1655l131 243h228 l-207 -243h-152z" />
<glyph unicode="&#x1eaf;" d="M125 283q0 172 156.5 261t513.5 109q-16 147 -217 148q-121 0 -310 -94l-106 196q240 137 475 137q219 0 339 -114.5t120 -343.5v-582h-246l-23 115h-8q-182 -139 -360 -140q-150 0 -242 88.5t-92 219.5zM346 1460h135q23 -137 150 -137q129 0 151 137h133 q-4 -121 -76.5 -202.5t-207.5 -81.5t-208 81.5t-77 202.5zM414 305q0 -96 141 -96q115 0 240 96v168q-211 -12 -296 -54t-85 -114zM537 1417l118 242h215l-182 -242h-151z" />
<glyph unicode="&#x1eb0;" d="M18 0l416 1335h361l415 -1335h-319l-80 317h-403l-82 -317h-308zM336 1683h137q27 -111 141.5 -111t141.5 111h137q-10 -115 -81 -180t-198 -65t-197.5 65.5t-80.5 179.5zM348 1898h227l132 -243h-152zM469 553h281l-31 123q-20 78 -58 234.5t-49 195.5h-8 q-63 -270 -104 -430z" />
<glyph unicode="&#x1eb1;" d="M125 283q0 172 156.5 261t513.5 109q-16 147 -217 148q-121 0 -310 -94l-106 196q240 137 475 137q219 0 339 -114.5t120 -343.5v-582h-246l-23 115h-8q-182 -139 -360 -140q-150 0 -242 88.5t-92 219.5zM346 1460h135q23 -137 150 -137q129 0 151 137h133 q-4 -121 -76.5 -202.5t-207.5 -81.5t-208 81.5t-77 202.5zM391 1659h217l119 -242h-154zM414 305q0 -96 141 -96q115 0 240 96v168q-211 -12 -296 -54t-85 -114z" />
<glyph unicode="&#x1eb2;" d="M18 0l416 1335h361l415 -1335h-319l-80 317h-403l-82 -317h-308zM336 1683h137q27 -111 141.5 -111t141.5 111h137q-10 -115 -81 -180t-198 -65t-197.5 65.5t-80.5 179.5zM457 1870l28 125q299 -10 299 -166q1 -160 -235 -178l-25 96q68 14 68 55q0 57 -135 68zM469 553 h281l-31 123q-20 78 -58 234.5t-49 195.5h-8q-63 -270 -104 -430z" />
<glyph unicode="&#x1eb3;" d="M125 283q0 172 156.5 261t513.5 109q-16 147 -217 148q-121 0 -310 -94l-106 196q240 137 475 137q219 0 339 -114.5t120 -343.5v-582h-246l-23 115h-8q-182 -139 -360 -140q-150 0 -242 88.5t-92 219.5zM346 1460h135q23 -137 150 -137q129 0 151 137h133 q-4 -121 -76.5 -202.5t-207.5 -81.5t-208 81.5t-77 202.5zM414 305q0 -96 141 -96q115 0 240 96v168q-211 -12 -296 -54t-85 -114zM469 1657l27 127q303 -10 303 -164q0 -92 -63.5 -134t-176.5 -56l-18 102q61 14 61 57q0 31 -29.5 46.5t-103.5 21.5z" />
<glyph unicode="&#x1eb4;" d="M18 0l416 1335h361l415 -1335h-319l-80 317h-403l-82 -317h-308zM301 1745q12 115 65.5 174t125.5 59q51 0 121.5 -40t93.5 -40q61 0 75 80h136q-12 -115 -65.5 -174t-125.5 -59q-51 0 -121.5 39t-93.5 39q-27 0 -48.5 -20.5t-27.5 -57.5h-135zM336 1683h137 q27 -111 141.5 -110.5t141.5 110.5h137q-10 -115 -81 -180t-198 -65t-197.5 65t-80.5 180zM469 553h281l-31 123q-20 78 -58 234.5t-49 195.5h-8q-63 -270 -104 -430z" />
<glyph unicode="&#x1eb5;" d="M125 283q0 172 156.5 261t513.5 109q-16 147 -217 148q-121 0 -310 -94l-106 196q240 137 475 137q219 0 339 -114.5t120 -343.5v-582h-246l-23 115h-8q-182 -139 -360 -140q-150 0 -242 88.5t-92 219.5zM332 1475q12 117 63 175t123 58q61 0 124 -39t85 -39q57 0 74 78 h129q-12 -115 -62.5 -174t-124.5 -59q-61 0 -123.5 38.5t-84.5 38.5q-57 0 -72 -77h-131zM346 1419h141q25 -102 144 -102t143 102h141q-4 -104 -76.5 -173.5t-207.5 -69.5t-208 69.5t-77 173.5zM414 305q0 -96 141 -96q115 0 240 96v168q-211 -12 -296 -54t-85 -114z" />
<glyph unicode="&#x1eb6;" d="M18 0l416 1335h361l415 -1335h-319l-80 317h-403l-82 -317h-308zM334 1683h166q23 -94 114.5 -94t114.5 94h166q-29 -246 -281 -245.5t-280 245.5zM414 -336q0 82 56 135.5t144 53.5t144.5 -53.5t56.5 -135.5t-56.5 -132t-144.5 -50t-144 50t-56 132zM469 553h281 l-31 123q-20 78 -58 234.5t-49 195.5h-8q-63 -270 -104 -430z" />
<glyph unicode="&#x1eb7;" d="M125 283q0 172 156.5 261t513.5 109q-16 147 -217 148q-121 0 -310 -94l-106 196q240 137 475 137q219 0 339 -114.5t120 -343.5v-582h-246l-23 115h-8q-182 -139 -360 -140q-150 0 -242 88.5t-92 219.5zM330 1495h168q18 -154 132.5 -154t133.5 154h168 q-4 -135 -81 -227t-220.5 -92t-220 92t-80.5 227zM414 305q0 -96 141 -96q115 0 240 96v168q-211 -12 -296 -54t-85 -114zM434 -336q0 82 56.5 135.5t144.5 53.5q86 0 142.5 -53.5t56.5 -135.5t-55.5 -132t-143.5 -50t-144.5 50t-56.5 132z" />
<glyph unicode="&#x1eb8;" d="M193 0v1335h880v-254h-579v-268h491v-252h-491v-307h600v-254h-901zM457 -336q0 82 56 135.5t144 53.5q86 0 142.5 -53.5t56.5 -135.5t-55.5 -132t-143.5 -50t-144 50t-56 132z" />
<glyph unicode="&#x1eb9;" d="M113 508q0 240 157.5 386t370.5 146q227 0 352 -136t125 -351q0 -53 -12 -127h-684q20 -111 99 -166t196 -55q123 0 262 69l98 -180q-184 -119 -401 -119q-244 0 -403.5 143.5t-159.5 389.5zM418 612h428q0 92 -50.5 145.5t-148.5 53.5q-86 0 -148.5 -51.5t-80.5 -147.5z M440 -336q0 82 56.5 135.5t144.5 53.5q86 0 142.5 -53.5t56.5 -135.5t-55.5 -132t-143.5 -50t-144.5 50t-56.5 132z" />
<glyph unicode="&#x1eba;" d="M193 0v1335h880v-254h-579v-268h491v-252h-491v-307h600v-254h-901zM492 1665l34 150q344 -8 344 -187q1 -190 -284 -213l-23 119q92 18 92 61q0 57 -163 70z" />
<glyph unicode="&#x1ebb;" d="M113 508q0 240 157.5 386t370.5 146q227 0 352 -136t125 -351q0 -53 -12 -127h-684q20 -111 99 -166t196 -55q123 0 262 69l98 -180q-184 -119 -401 -119q-244 0 -403.5 143.5t-159.5 389.5zM418 612h428q0 92 -50.5 145.5t-148.5 53.5q-86 0 -148.5 -51.5t-80.5 -147.5z M473 1389l35 151q346 -10 346 -188q0 -98 -80 -150.5t-205 -60.5l-24 119q92 14 92 61q0 59 -164 68z" />
<glyph unicode="&#x1ebc;" d="M193 0v1335h880v-254h-579v-268h491v-252h-491v-307h600v-254h-901zM309 1440q16 135 76.5 206.5t144.5 71.5q59 0 139.5 -46t104.5 -46q59 0 80 92h154q-16 -135 -77 -206.5t-145 -71.5q-59 0 -139 46t-104 46q-59 0 -80 -92h-154z" />
<glyph unicode="&#x1ebd;" d="M113 508q0 240 157.5 386t370.5 146q227 0 352 -136t125 -351q0 -53 -12 -127h-684q20 -111 99 -166t196 -55q123 0 262 69l98 -180q-184 -119 -401 -119q-244 0 -403.5 143.5t-159.5 389.5zM291 1178q18 145 80.5 218.5t158.5 73.5q55 0 125 -53t93 -53q35 0 54 23.5 t34 82.5h153q-16 -143 -78.5 -217.5t-158.5 -74.5q-57 0 -127 54t-93 54q-63 0 -88 -108h-153zM418 612h428q0 92 -50.5 145.5t-148.5 53.5q-86 0 -148.5 -51.5t-80.5 -147.5z" />
<glyph unicode="&#x1ebe;" d="M193 0v1335h880v-254h-579v-268h491v-252h-491v-307h600v-254h-901zM334 1438l194 233h260l195 -233h-213l-106 112h-9l-108 -112h-213zM889 1577l141 246h234l-203 -246h-172z" />
<glyph unicode="&#x1ebf;" d="M113 508q0 240 157.5 386t370.5 146q227 0 352 -136t125 -351q0 -53 -12 -127h-684q20 -111 99 -166t196 -55q123 0 262 69l98 -180q-184 -119 -401 -119q-244 0 -403.5 143.5t-159.5 389.5zM356 1176l164 262h240l166 -262h-187l-94 133h-8l-96 -133h-185zM418 612h428 q0 92 -50.5 145.5t-148.5 53.5q-86 0 -148.5 -51.5t-80.5 -147.5zM860 1323l139 242h224l-195 -242h-168z" />
<glyph unicode="&#x1ec0;" d="M193 0v1335h880v-254h-579v-268h491v-252h-491v-307h600v-254h-901zM334 1438l194 233h260l195 -233h-213l-106 112h-9l-108 -112h-213zM772 1823h234l141 -246h-172z" />
<glyph unicode="&#x1ec1;" d="M113 508q0 240 157.5 386t370.5 146q227 0 352 -136t125 -351q0 -53 -12 -127h-684q20 -111 99 -166t196 -55q123 0 262 69l98 -180q-184 -119 -401 -119q-244 0 -403.5 143.5t-159.5 389.5zM356 1176l164 262h240l166 -262h-187l-94 133h-8l-96 -133h-185zM418 612h428 q0 92 -50.5 145.5t-148.5 53.5q-86 0 -148.5 -51.5t-80.5 -147.5zM788 1565h224l139 -242h-168z" />
<glyph unicode="&#x1ec2;" d="M193 0v1335h880v-254h-579v-268h491v-252h-491v-307h600v-254h-901zM334 1438l194 233h260l195 -233h-213l-106 112h-9l-108 -112h-213zM848 1755l29 123q299 -8 299 -164q0 -160 -236 -178l-25 96q68 14 68 56q0 31 -29.5 46t-105.5 21z" />
<glyph unicode="&#x1ec3;" d="M113 508q0 240 157.5 386t370.5 146q227 0 352 -136t125 -351q0 -53 -12 -127h-684q20 -111 99 -166t196 -55q123 0 262 69l98 -180q-184 -119 -401 -119q-244 0 -403.5 143.5t-159.5 389.5zM356 1176l164 262h240l166 -262h-187l-94 133h-8l-96 -133h-185zM418 612h428 q0 92 -50.5 145.5t-148.5 53.5q-86 0 -148.5 -51.5t-80.5 -147.5zM831 1513l27 127q303 -8 303 -161q0 -92 -62 -134.5t-177 -58.5l-19 103q61 14 62 57q0 59 -134 67z" />
<glyph unicode="&#x1ec4;" d="M193 0v1335h880v-254h-579v-268h491v-252h-491v-307h600v-254h-901zM334 1438l194 233h260l195 -233h-213l-106 112h-9l-108 -112h-213zM352 1745q12 115 63.5 173t123.5 58q61 0 130.5 -37.5t92.5 -37.5q57 0 72 75h131q-12 -115 -63.5 -173t-123.5 -58q-61 0 -130.5 39 t-92.5 39q-58 0 -72 -78h-131z" />
<glyph unicode="&#x1ec5;" d="M113 508q0 240 157.5 386t370.5 146q227 0 352 -136t125 -351q0 -53 -12 -127h-684q20 -111 99 -166t196 -55q123 0 262 69l98 -180q-184 -119 -401 -119q-244 0 -403.5 143.5t-159.5 389.5zM340 1174l164 227h272l166 -227h-197l-100 120h-8l-102 -120h-195zM342 1475 q12 117 62.5 175t123.5 58q61 0 124 -39t85 -39q57 0 72 78h131q-12 -115 -63.5 -174t-122.5 -59q-61 0 -125 38.5t-84 38.5q-58 1 -74 -77h-129zM418 612h428q0 92 -50.5 145.5t-148.5 53.5q-86 0 -148.5 -51.5t-80.5 -147.5z" />
<glyph unicode="&#x1ec6;" d="M193 0v1335h880v-254h-579v-268h491v-252h-491v-307h600v-254h-901zM315 1438l197 245h293l196 -245h-229l-108 125h-9l-110 -125h-230zM457 -336q0 82 56 135.5t144 53.5q86 0 142.5 -53.5t56.5 -135.5t-55.5 -132t-143.5 -50t-144 50t-56 132z" />
<glyph unicode="&#x1ec7;" d="M113 508q0 240 157.5 386t370.5 146q227 0 352 -136t125 -351q0 -53 -12 -127h-684q20 -111 99 -166t196 -55q123 0 262 69l98 -180q-184 -119 -401 -119q-244 0 -403.5 143.5t-159.5 389.5zM307 1176l207 342h252l207 -342h-219l-109 194h-8l-111 -194h-219zM418 612 h428q0 92 -50.5 145.5t-148.5 53.5q-86 0 -148.5 -51.5t-80.5 -147.5zM440 -336q0 82 56.5 135.5t144.5 53.5q86 0 142.5 -53.5t56.5 -135.5t-55.5 -132t-143.5 -50t-144.5 50t-56.5 132z" />
<glyph unicode="&#x1ec8;" d="M152 0v254h311v827h-311v254h925v-254h-311v-827h311v-254h-925zM449 1665l34 150q344 -8 344 -187q0 -100 -78.5 -151.5t-205.5 -61.5l-23 119q90 18 90 61q0 57 -161 70z" />
<glyph unicode="&#x1ec9;" d="M162 780v236h708v-1016h-301v780h-407zM541 1389l34 151q344 -10 345 -188q0 -98 -80 -150.5t-205 -60.5l-23 119q90 14 90 61q0 59 -161 68z" />
<glyph unicode="&#x1eca;" d="M152 0v254h311v827h-311v254h925v-254h-311v-827h311v-254h-925zM414 -336q0 82 57 135.5t143 53.5q88 0 144.5 -53.5t56.5 -135.5t-56.5 -132t-144.5 -50t-144 50t-56 132z" />
<glyph unicode="&#x1ecb;" d="M162 780v236h708v-1016h-301v780h-407zM506 -336q0 82 56 135.5t144.5 53.5t144.5 -53.5t56 -135.5t-56 -132t-144.5 -50t-144.5 50t-56 132zM506 1348q0 82 56 135t144.5 53t144.5 -53t56 -135t-56 -132.5t-144.5 -50.5t-144.5 50.5t-56 132.5z" />
<glyph unicode="&#x1ecc;" d="M78 674q0 322 147.5 504t389 182t389 -182.5t147.5 -503.5q0 -324 -147.5 -511.5t-389 -187.5t-389 187.5t-147.5 511.5zM387 674q0 -201 61.5 -319.5t166 -118.5t166 118.5t61.5 319.5q0 199 -61.5 312.5t-166 113.5t-166 -114t-61.5 -312zM414 -336q0 82 56 135.5 t144 53.5t144.5 -53.5t56.5 -135.5t-56.5 -132t-144.5 -50t-144 50t-56 132z" />
<glyph unicode="&#x1ecd;" d="M96 508q0 244 152.5 388t365.5 144t366 -144t153 -388t-153 -388.5t-366 -144.5t-365.5 144.5t-152.5 388.5zM406 508q0 -135 53 -212t155.5 -77t155.5 77t53 212t-53 212t-155.5 77t-155.5 -77t-53 -212zM414 -336q0 82 57 135.5t143 53.5q88 0 144.5 -53.5t56.5 -135.5 t-56.5 -132t-144.5 -50t-144 50t-56 132z" />
<glyph unicode="&#x1ece;" d="M78 674q0 322 147.5 504t389 182t389 -182.5t147.5 -503.5q0 -324 -147.5 -511.5t-389 -187.5t-389 187.5t-147.5 511.5zM387 674q0 -201 61.5 -319.5t166 -118.5t166 118.5t61.5 319.5q0 199 -61.5 312.5t-166 113.5t-166 -114t-61.5 -312zM449 1665l34 150 q344 -8 344 -187q0 -100 -78.5 -151.5t-205.5 -61.5l-23 119q90 18 90 61q0 57 -161 70z" />
<glyph unicode="&#x1ecf;" d="M96 508q0 244 152.5 388t365.5 144t366 -144t153 -388t-153 -388.5t-366 -144.5t-365.5 144.5t-152.5 388.5zM406 508q0 -135 53 -212t155.5 -77t155.5 77t53 212t-53 212t-155.5 77t-155.5 -77t-53 -212zM449 1389l34 151q344 -10 344 -188q0 -98 -79.5 -150.5 t-204.5 -60.5l-23 119q90 14 90 61q0 59 -161 68z" />
<glyph unicode="&#x1ed0;" d="M78 674q0 322 147.5 504t389 182t389 -182.5t147.5 -503.5q0 -324 -147.5 -511.5t-389 -187.5t-389 187.5t-147.5 511.5zM291 1438l194 233h258l195 -233h-213l-107 112h-8l-106 -112h-213zM387 674q0 -201 61.5 -319.5t166 -118.5t166 118.5t61.5 319.5 q0 199 -61.5 312.5t-166 113.5t-166 -114t-61.5 -312zM846 1577l139 246h234l-203 -246h-170z" />
<glyph unicode="&#x1ed1;" d="M96 508q0 244 152.5 388t365.5 144t366 -144t153 -388t-153 -388.5t-366 -144.5t-365.5 144.5t-152.5 388.5zM330 1176l166 262h237l166 -262h-184l-97 133h-8l-96 -133h-184zM406 508q0 -135 53 -212t155.5 -77t155.5 77t53 212t-53 212t-155.5 77t-155.5 -77t-53 -212z M834 1323l139 242h223l-195 -242h-167z" />
<glyph unicode="&#x1ed2;" d="M78 674q0 322 147.5 504t389 182t389 -182.5t147.5 -503.5q0 -324 -147.5 -511.5t-389 -187.5t-389 187.5t-147.5 511.5zM291 1438l194 233h258l195 -233h-213l-107 112h-8l-106 -112h-213zM387 674q0 -201 61.5 -319.5t166 -118.5t166 118.5t61.5 319.5 q0 199 -61.5 312.5t-166 113.5t-166 -114t-61.5 -312zM729 1823h232l141 -246h-172z" />
<glyph unicode="&#x1ed3;" d="M96 508q0 244 152.5 388t365.5 144t366 -144t153 -388t-153 -388.5t-366 -144.5t-365.5 144.5t-152.5 388.5zM330 1176l166 262h237l166 -262h-184l-97 133h-8l-96 -133h-184zM406 508q0 -135 53 -212t155.5 -77t155.5 77t53 212t-53 212t-155.5 77t-155.5 -77t-53 -212z M762 1565h223l139 -242h-168z" />
<glyph unicode="&#x1ed4;" d="M78 674q0 322 147.5 504t389 182t389 -182.5t147.5 -503.5q0 -324 -147.5 -511.5t-389 -187.5t-389 187.5t-147.5 511.5zM291 1438l194 233h258l195 -233h-213l-107 112h-8l-106 -112h-213zM387 674q0 -201 61.5 -319.5t166 -118.5t166 118.5t61.5 319.5 q0 199 -61.5 312.5t-166 113.5t-166 -114t-61.5 -312zM805 1755l26 123q301 -8 302 -164q0 -160 -238 -178l-23 96q66 14 66 56q0 31 -29.5 46t-103.5 21z" />
<glyph unicode="&#x1ed5;" d="M96 508q0 244 152.5 388t365.5 144t366 -144t153 -388t-153 -388.5t-366 -144.5t-365.5 144.5t-152.5 388.5zM330 1176l166 262h237l166 -262h-184l-97 133h-8l-96 -133h-184zM406 508q0 -135 53 -212t155.5 -77t155.5 77t53 212t-53 212t-155.5 77t-155.5 -77t-53 -212z M805 1513l29 127q301 -8 301 -161q0 -92 -62.5 -134.5t-175.5 -58.5l-20 103q61 14 61 57q0 31 -28.5 47t-104.5 20z" />
<glyph unicode="&#x1ed6;" d="M78 674q0 322 147.5 504t389 182t389 -182.5t147.5 -503.5q0 -324 -147.5 -511.5t-389 -187.5t-389 187.5t-147.5 511.5zM291 1438l194 233h258l195 -233h-213l-107 112h-8l-106 -112h-213zM309 1745q12 115 62.5 173t124.5 58q61 0 130.5 -37.5t90.5 -37.5q55 0 74 75 h129q-12 -115 -62.5 -173t-124.5 -58q-61 0 -131 39t-90 39q-58 0 -74 -78h-129zM387 674q0 -201 61.5 -319.5t166 -118.5t166 118.5t61.5 319.5q0 199 -61.5 312.5t-166 113.5t-166 -114t-61.5 -312z" />
<glyph unicode="&#x1ed7;" d="M96 508q0 244 152.5 388t365.5 144t366 -144t153 -388t-153 -388.5t-366 -144.5t-365.5 144.5t-152.5 388.5zM313 1174l164 227h275l163 -227h-194l-103 120h-8l-102 -120h-195zM315 1475q12 117 63.5 175t123.5 58q61 0 123.5 -39t85.5 -39q57 0 71 78h131 q-12 -115 -63 -174t-123 -59q-61 0 -123.5 38.5t-85.5 38.5q-58 1 -72 -77h-131zM406 508q0 -135 53 -212t155.5 -77t155.5 77t53 212t-53 212t-155.5 77t-155.5 -77t-53 -212z" />
<glyph unicode="&#x1ed8;" d="M78 674q0 322 147.5 504t389 182t389 -182.5t147.5 -503.5q0 -324 -147.5 -511.5t-389 -187.5t-389 187.5t-147.5 511.5zM270 1438l197 245h295l196 -245h-231l-109 125h-8l-108 -125h-232zM387 674q0 -201 61.5 -319.5t166 -118.5t166 118.5t61.5 319.5 q0 199 -61.5 312.5t-166 113.5t-166 -114t-61.5 -312zM414 -336q0 82 56 135.5t144 53.5t144.5 -53.5t56.5 -135.5t-56.5 -132t-144.5 -50t-144 50t-56 132z" />
<glyph unicode="&#x1ed9;" d="M96 508q0 244 152.5 388t365.5 144t366 -144t153 -388t-153 -388.5t-366 -144.5t-365.5 144.5t-152.5 388.5zM283 1176l204 342h254l205 -342h-219l-109 194h-8l-108 -194h-219zM406 508q0 -135 53 -212t155.5 -77t155.5 77t53 212t-53 212t-155.5 77t-155.5 -77 t-53 -212zM414 -336q0 82 56 135.5t144 53.5t144.5 -53.5t56.5 -135.5t-56.5 -132t-144.5 -50t-144 50t-56 132z" />
<glyph unicode="&#x1eda;" d="M78 674q0 322 147.5 504t388.5 182q135 0 250 -64q61 14 91 42t30 83q0 42 -31 95l205 90q59 -72 60 -164q0 -100 -60.5 -162.5t-165.5 -89.5q158 -186 158 -516q0 -324 -147.5 -511.5t-389 -187.5t-389 187.5t-147.5 511.5zM387 674q0 -201 61.5 -319.5t166 -118.5 t166 118.5t61.5 319.5q0 199 -61.5 312.5t-166 113.5t-166 -114t-61.5 -312zM461 1438l166 245h319l-246 -245h-239z" />
<glyph unicode="&#x1edb;" d="M96 508q0 244 152.5 388t365.5 144q117 0 215 -45q68 14 102 41t34 86q0 50 -33 95l205 90q61 -74 61 -164q0 -190 -217 -248q152 -147 152 -387q0 -244 -153 -388.5t-366 -144.5t-365.5 144.5t-152.5 388.5zM406 508q0 -135 53 -212t155.5 -77t155.5 77t53 212t-53 212 t-155.5 77t-155.5 -77t-53 -212zM446 1176l183 342h307l-270 -342h-220z" />
<glyph unicode="&#x1edc;" d="M78 674q0 322 147.5 504t388.5 182q135 0 250 -64q61 14 91 42t30 83q0 42 -31 95l205 90q59 -72 60 -164q0 -100 -60.5 -162.5t-165.5 -89.5q158 -186 158 -516q0 -324 -147.5 -511.5t-389 -187.5t-389 187.5t-147.5 511.5zM283 1683h319l166 -245h-240zM387 674 q0 -201 61.5 -319.5t166 -118.5t166 118.5t61.5 319.5q0 199 -61.5 312.5t-166 113.5t-166 -114t-61.5 -312z" />
<glyph unicode="&#x1edd;" d="M96 508q0 244 152.5 388t365.5 144q117 0 215 -45q68 14 102 41t34 86q0 50 -33 95l205 90q61 -74 61 -164q0 -190 -217 -248q152 -147 152 -387q0 -244 -153 -388.5t-366 -144.5t-365.5 144.5t-152.5 388.5zM293 1518h307l182 -342h-219zM406 508q0 -135 53 -212 t155.5 -77t155.5 77t53 212t-53 212t-155.5 77t-155.5 -77t-53 -212z" />
<glyph unicode="&#x1ede;" d="M78 674q0 322 147.5 504t388.5 182q135 0 250 -64q61 14 91 42t30 83q0 42 -31 95l205 90q59 -72 60 -164q0 -100 -60.5 -162.5t-165.5 -89.5q158 -186 158 -516q0 -324 -147.5 -511.5t-389 -187.5t-389 187.5t-147.5 511.5zM387 674q0 -201 61.5 -319.5t166 -118.5 t166 118.5t61.5 319.5q0 199 -61.5 312.5t-166 113.5t-166 -114t-61.5 -312zM449 1665l34 150q344 -8 344 -187q0 -100 -78.5 -151.5t-205.5 -61.5l-23 119q90 18 90 61q0 57 -161 70z" />
<glyph unicode="&#x1edf;" d="M96 508q0 244 152.5 388t365.5 144q117 0 215 -45q68 14 102 41t34 86q0 50 -33 95l205 90q61 -74 61 -164q0 -190 -217 -248q152 -147 152 -387q0 -244 -153 -388.5t-366 -144.5t-365.5 144.5t-152.5 388.5zM406 508q0 -135 53 -212t155.5 -77t155.5 77t53 212t-53 212 t-155.5 77t-155.5 -77t-53 -212zM449 1389l34 151q344 -10 344 -188q0 -98 -79.5 -150.5t-204.5 -60.5l-23 119q90 14 90 61q0 59 -161 68z" />
<glyph unicode="&#x1ee0;" d="M78 674q0 322 147.5 504t388.5 182q135 0 250 -64q61 14 91 42t30 83q0 42 -31 95l205 90q59 -72 60 -164q0 -100 -60.5 -162.5t-165.5 -89.5q158 -186 158 -516q0 -324 -147.5 -511.5t-389 -187.5t-389 187.5t-147.5 511.5zM266 1440q14 135 74.5 206.5t144.5 71.5 q61 0 140.5 -46t105.5 -46q58 0 78 92h154q-14 -135 -75 -206.5t-145 -71.5q-61 0 -140 46t-105 46q-57 0 -78 -92h-154zM387 674q0 -201 61.5 -319.5t166 -118.5t166 118.5t61.5 319.5q0 199 -61.5 312.5t-166 113.5t-166 -114t-61.5 -312z" />
<glyph unicode="&#x1ee1;" d="M96 508q0 244 152.5 388t365.5 144q117 0 215 -45q68 14 102 41t34 86q0 50 -33 95l205 90q61 -74 61 -164q0 -190 -217 -248q152 -147 152 -387q0 -244 -153 -388.5t-366 -144.5t-365.5 144.5t-152.5 388.5zM264 1178q18 145 81 218.5t159 73.5q55 0 125.5 -53t93.5 -53 q63 0 88 106h154q-18 -145 -81 -218.5t-159 -73.5q-57 0 -127 54t-92 54q-63 0 -88 -108h-154zM406 508q0 -135 53 -212t155.5 -77t155.5 77t53 212t-53 212t-155.5 77t-155.5 -77t-53 -212z" />
<glyph unicode="&#x1ee2;" d="M78 674q0 322 147.5 504t388.5 182q135 0 250 -64q61 14 91 42t30 83q0 42 -31 95l205 90q59 -72 60 -164q0 -100 -60.5 -162.5t-165.5 -89.5q158 -186 158 -516q0 -324 -147.5 -511.5t-389 -187.5t-389 187.5t-147.5 511.5zM387 674q0 -201 61.5 -319.5t166 -118.5 t166 118.5t61.5 319.5q0 199 -61.5 312.5t-166 113.5t-166 -114t-61.5 -312zM414 -336q0 82 56 135.5t144 53.5t144.5 -53.5t56.5 -135.5t-56.5 -132t-144.5 -50t-144 50t-56 132z" />
<glyph unicode="&#x1ee3;" d="M96 508q0 244 152.5 388t365.5 144q117 0 215 -45q68 14 102 41t34 86q0 50 -33 95l205 90q61 -74 61 -164q0 -190 -217 -248q152 -147 152 -387q0 -244 -153 -388.5t-366 -144.5t-365.5 144.5t-152.5 388.5zM406 508q0 -135 53 -212t155.5 -77t155.5 77t53 212t-53 212 t-155.5 77t-155.5 -77t-53 -212zM414 -336q0 82 57 135.5t143 53.5q88 0 144.5 -53.5t56.5 -135.5t-56.5 -132t-144.5 -50t-144 50t-56 132z" />
<glyph unicode="&#x1ee4;" d="M131 514v821h301v-852q0 -248 186 -247q188 0 189 247v852h291v-821q0 -262 -120 -400.5t-360 -138.5q-242 0 -364.5 138.5t-122.5 400.5zM414 -336q0 82 56 135.5t144 53.5t144.5 -53.5t56.5 -135.5t-56.5 -132t-144.5 -50t-144 50t-56 132z" />
<glyph unicode="&#x1ee5;" d="M127 389v627h301v-588q0 -104 33 -150.5t114 -46.5q59 0 103.5 26t95.5 91v668h301v-1016h-246l-22 145h-8q-150 -170 -342 -170q-330 0 -330 414zM453 -336q0 82 56 135.5t144 53.5q86 0 142.5 -53.5t56.5 -135.5t-55.5 -132t-143.5 -50t-144 50t-56 132z" />
<glyph unicode="&#x1ee6;" d="M131 514v821h301v-852q0 -248 186 -247q188 0 189 247v852h291v-821q0 -262 -120 -400.5t-360 -138.5q-242 0 -364.5 138.5t-122.5 400.5zM449 1665l34 150q344 -8 344 -187q0 -100 -78.5 -151.5t-205.5 -61.5l-23 119q90 18 90 61q0 57 -161 70z" />
<glyph unicode="&#x1ee7;" d="M127 389v627h301v-588q0 -104 33 -150.5t114 -46.5q59 0 103.5 26t95.5 91v668h301v-1016h-246l-22 145h-8q-150 -170 -342 -170q-330 0 -330 414zM438 1389l35 151q346 -10 346 -188q0 -98 -80 -150.5t-207 -60.5l-22 119q92 14 92 61q0 59 -164 68z" />
<glyph unicode="&#x1ee8;" d="M131 514v821h301v-852q0 -248 186 -247q188 0 189 247v852h143q78 4 123 30t45 97q0 41 -31 94l205 91q59 -72 60 -164q0 -211 -254 -258v-711q0 -262 -120 -400.5t-360 -138.5q-242 0 -364.5 138.5t-122.5 400.5zM461 1438l166 245h319l-246 -245h-239z" />
<glyph unicode="&#x1ee9;" d="M127 389v627h301v-588q0 -104 33 -150.5t114 -46.5q59 0 103.5 26t95.5 91v668h100q166 8 166 127q1 45 -30 94l204 90q59 -72 60 -164q0 -182 -199 -241v-922h-246l-22 145h-8q-150 -170 -342 -170q-330 0 -330 414zM438 1176l183 342h307l-271 -342h-219z" />
<glyph unicode="&#x1eea;" d="M131 514v821h301v-852q0 -248 186 -247q188 0 189 247v852h143q78 4 123 30t45 97q0 41 -31 94l205 91q59 -72 60 -164q0 -211 -254 -258v-711q0 -262 -120 -400.5t-360 -138.5q-242 0 -364.5 138.5t-122.5 400.5zM283 1683h319l166 -245h-240z" />
<glyph unicode="&#x1eeb;" d="M127 389v627h301v-588q0 -104 33 -150.5t114 -46.5q59 0 103.5 26t95.5 91v668h100q166 8 166 127q1 45 -30 94l204 90q59 -72 60 -164q0 -182 -199 -241v-922h-246l-22 145h-8q-150 -170 -342 -170q-330 0 -330 414zM283 1518h309l180 -342h-219z" />
<glyph unicode="&#x1eec;" d="M131 514v821h301v-852q0 -248 186 -247q188 0 189 247v852h143q78 4 123 30t45 97q0 41 -31 94l205 91q59 -72 60 -164q0 -211 -254 -258v-711q0 -262 -120 -400.5t-360 -138.5q-242 0 -364.5 138.5t-122.5 400.5zM449 1665l34 150q344 -8 344 -187q0 -100 -78.5 -151.5 t-205.5 -61.5l-23 119q90 18 90 61q0 57 -161 70z" />
<glyph unicode="&#x1eed;" d="M127 389v627h301v-588q0 -104 33 -150.5t114 -46.5q59 0 103.5 26t95.5 91v668h100q166 8 166 127q1 45 -30 94l204 90q59 -72 60 -164q0 -182 -199 -241v-922h-246l-22 145h-8q-150 -170 -342 -170q-330 0 -330 414zM438 1389l35 151q346 -10 346 -188q0 -98 -80 -150.5 t-207 -60.5l-22 119q92 14 92 61q0 59 -164 68z" />
<glyph unicode="&#x1eee;" d="M131 514v821h301v-852q0 -248 186 -247q188 0 189 247v852h143q78 4 123 30t45 97q0 41 -31 94l205 91q59 -72 60 -164q0 -211 -254 -258v-711q0 -262 -120 -400.5t-360 -138.5q-242 0 -364.5 138.5t-122.5 400.5zM266 1440q14 135 74.5 206.5t144.5 71.5q61 0 140.5 -46 t105.5 -46q58 0 78 92h154q-14 -135 -75 -206.5t-145 -71.5q-61 0 -140 46t-105 46q-57 0 -78 -92h-154z" />
<glyph unicode="&#x1eef;" d="M127 389v627h301v-588q0 -104 33 -150.5t114 -46.5q59 0 103.5 26t95.5 91v668h100q166 8 166 127q1 45 -30 94l204 90q59 -72 60 -164q0 -182 -199 -241v-922h-246l-22 145h-8q-150 -170 -342 -170q-330 0 -330 414zM256 1178q18 145 80.5 218.5t159.5 73.5 q55 0 124.5 -53t92.5 -53q35 0 54.5 23.5t33.5 82.5h153q-18 -145 -79.5 -218.5t-157.5 -73.5q-57 0 -127 54t-92 54q-63 0 -88 -108h-154z" />
<glyph unicode="&#x1ef0;" d="M131 514v821h301v-852q0 -248 186 -247q188 0 189 247v852h143q78 4 123 30t45 97q0 41 -31 94l205 91q59 -72 60 -164q0 -211 -254 -258v-711q0 -262 -120 -400.5t-360 -138.5q-242 0 -364.5 138.5t-122.5 400.5zM414 -336q0 82 56 135.5t144 53.5t144.5 -53.5 t56.5 -135.5t-56.5 -132t-144.5 -50t-144 50t-56 132z" />
<glyph unicode="&#x1ef1;" d="M127 389v627h301v-588q0 -104 33 -150.5t114 -46.5q59 0 103.5 26t95.5 91v668h100q166 8 166 127q1 45 -30 94l204 90q59 -72 60 -164q0 -182 -199 -241v-922h-246l-22 145h-8q-150 -170 -342 -170q-330 0 -330 414zM428 -336q0 82 56.5 135.5t142.5 53.5 q88 0 144 -53.5t56 -135.5t-56 -132t-144 -50t-143.5 50t-55.5 132z" />
<glyph unicode="&#x1ef2;" d="M33 1335h323l136 -321q20 -53 61 -153.5t59 -151.5h9q20 49 61 149t63 156l136 321h315l-430 -884v-451h-303v451zM283 1683h319l166 -245h-240z" />
<glyph unicode="&#x1ef3;" d="M63 1016h299l170 -436q43 -113 103 -306h8q8 31 92 306l150 436h284l-401 -1026q-78 -203 -184.5 -295t-290.5 -92q-84 0 -156 20l53 230q40 -12 80 -13q158 0 213 133l21 54zM305 1518h309l183 -342h-219z" />
<glyph unicode="&#x1ef4;" d="M33 1335h323l136 -321q20 -53 61 -153.5t59 -151.5h9q20 49 61 149t63 156l136 321h315l-430 -884v-451h-303v451zM414 -336q0 82 56 135.5t144 53.5t144.5 -53.5t56.5 -135.5t-56.5 -132t-144.5 -50t-144 50t-56 132z" />
<glyph unicode="&#x1ef5;" d="M63 1016h299l170 -436q43 -113 103 -306h8q8 31 92 306l150 436h284l-401 -1026q-78 -203 -184.5 -295t-290.5 -92q-84 0 -156 20l53 230q40 -12 80 -13q158 0 213 133l21 54zM797 -317.5q0 81.5 56 134t142 52.5q88 0 144.5 -52.5t56.5 -134t-56.5 -133t-144.5 -51.5 q-86 0 -142 51.5t-56 133z" />
<glyph unicode="&#x1ef6;" d="M33 1335h323l136 -321q20 -53 61 -153.5t59 -151.5h9q20 49 61 149t63 156l136 321h315l-430 -884v-451h-303v451zM449 1665l34 150q344 -8 344 -187q0 -100 -78.5 -151.5t-205.5 -61.5l-23 119q90 18 90 61q0 57 -161 70z" />
<glyph unicode="&#x1ef7;" d="M63 1016h299l170 -436q43 -113 103 -306h8q8 31 92 306l150 436h284l-401 -1026q-78 -203 -184.5 -295t-290.5 -92q-84 0 -156 20l53 230q40 -12 80 -13q158 0 213 133l21 54zM461 1389l35 151q344 -10 344 -188q0 -98 -80 -150.5t-205 -60.5l-23 119q90 14 91 61 q0 59 -162 68z" />
<glyph unicode="&#x1ef8;" d="M33 1335h323l136 -321q20 -53 61 -153.5t59 -151.5h9q20 49 61 149t63 156l136 321h315l-430 -884v-451h-303v451zM266 1440q14 135 74.5 206.5t144.5 71.5q61 0 140.5 -46t105.5 -46q57 0 78 92h154q-14 -135 -75 -206.5t-145 -71.5q-61 0 -140 46t-105 46 q-57 0 -78 -92h-154z" />
<glyph unicode="&#x1ef9;" d="M63 1016h299l170 -436q43 -113 103 -306h8q8 31 92 306l150 436h284l-401 -1026q-78 -203 -184.5 -295t-290.5 -92q-84 0 -156 20l53 230q40 -12 80 -13q158 0 213 133l21 54zM279 1178q18 145 80.5 218.5t158.5 73.5q55 0 126 -53t93 -53q63 0 88 106h154 q-18 -145 -80.5 -218.5t-159.5 -73.5q-57 0 -126.5 54t-92.5 54q-63 0 -88 -108h-153z" />
<glyph unicode="&#x2000;" horiz-adv-x="997" />
<glyph unicode="&#x2001;" horiz-adv-x="1995" />
<glyph unicode="&#x2002;" horiz-adv-x="997" />
<glyph unicode="&#x2003;" horiz-adv-x="1995" />
<glyph unicode="&#x2004;" horiz-adv-x="665" />
<glyph unicode="&#x2005;" horiz-adv-x="498" />
<glyph unicode="&#x2006;" horiz-adv-x="332" />
<glyph unicode="&#x2007;" />
<glyph unicode="&#x2008;" horiz-adv-x="249" />
<glyph unicode="&#x2009;" horiz-adv-x="399" />
<glyph unicode="&#x200a;" horiz-adv-x="110" />
<glyph unicode="&#x2010;" d="M254 489v228h721v-228h-721z" />
<glyph unicode="&#x2011;" d="M254 489v228h721v-228h-721z" />
<glyph unicode="&#x2012;" d="M164 489v228h901v-228h-901z" />
<glyph unicode="&#x2013;" d="M164 489v228h901v-228h-901z" />
<glyph unicode="&#x2014;" d="M41 489v228h1147v-228h-1147z" />
<glyph unicode="&#x2015;" d="M41 489v228h1147v-228h-1147z" />
<glyph unicode="&#x2018;" d="M377 922q0 343 358 505l78 -159q-215 -98 -229 -287q22 6 43 6q82 0 134 -51t52 -135q0 -92 -55.5 -149.5t-141.5 -57.5q-113 0 -176 86t-63 242z" />
<glyph unicode="&#x2019;" d="M414 754q215 96 229 284q-20 -6 -41 -6q-84 0 -136 52.5t-52 136.5q0 92 55 149t141 57q115 0 177.5 -87t62.5 -240q0 -342 -356 -506z" />
<glyph unicode="&#x201a;" d="M414 154q0 92 55 149t141 57q115 0 177.5 -87t62.5 -240q0 -344 -356 -506l-80 158q215 100 229 284q-29 -4 -41 -4q-84 0 -136 52.5t-52 136.5z" />
<glyph unicode="&#x201c;" d="M104 922q1 343 359 505l78 -159q-215 -98 -230 -287q22 6 43 6q82 0 134.5 -51t52.5 -135q0 -92 -55.5 -149.5t-141.5 -57.5q-113 0 -176.5 86t-63.5 242zM649 922q1 343 359 505l77 -159q-215 -98 -229 -287q22 6 43 6q82 0 134 -51t52 -135q0 -92 -55 -149.5 t-141 -57.5q-113 0 -176.5 86t-63.5 242z" />
<glyph unicode="&#x201d;" d="M141 754q215 96 230 282q-29 -4 -41 -4q-84 0 -136.5 52.5t-52.5 136.5q0 92 55.5 149t141.5 57q115 0 177.5 -87t62.5 -240q-1 -342 -357 -506zM686 754q215 96 229 284q-25 -6 -43 -6q-82 0 -134 52.5t-52 136.5q0 92 55.5 149t141.5 57q115 0 177 -87t62 -240 q0 -342 -356 -506z" />
<glyph unicode="&#x201e;" d="M141 154q0 92 55.5 149t141.5 57q115 0 177.5 -87t62.5 -240q-1 -344 -357 -506l-80 158q215 100 228 284q-25 -4 -39 -4q-84 0 -136.5 52.5t-52.5 136.5zM686 154q0 92 55.5 149t141.5 57q115 0 177 -87t62 -240q0 -344 -356 -506l-80 158q215 100 229 286 q-25 -6 -43 -6q-82 0 -134 52.5t-52 136.5z" />
<glyph unicode="&#x2020;" d="M182 881v241l330 -18l-18 354h241l-18 -354l330 18v-241l-330 16l18 -1061h-241l18 1061z" />
<glyph unicode="&#x2021;" d="M182 172v242l330 -25l-18 258l18 258l-330 -24v241l330 -18l-18 354h241l-18 -354l330 18v-241l-330 24l18 -258l-18 -258l330 25v-242l-330 18l18 -354h-241l18 354z" />
<glyph unicode="&#x2022;" d="M279 618.5q0 141.5 96 235.5t239.5 94t239.5 -94t96 -235.5t-96 -234.5t-239.5 -93t-239.5 93t-96 234.5z" />
<glyph unicode="&#x2026;" d="M-2 172q0 84 52 140.5t136 56.5t136.5 -56.5t52.5 -140.5t-52.5 -140.5t-136.5 -56.5t-136 56.5t-52 140.5zM426 172q0 84 52 140.5t136 56.5t136.5 -56.5t52.5 -140.5t-52.5 -140.5t-136.5 -56.5t-136 56.5t-52 140.5zM854 172q0 84 52 140.5t136 56.5t136.5 -56.5 t52.5 -140.5t-52.5 -140.5t-136.5 -56.5t-136 56.5t-52 140.5z" />
<glyph unicode="&#x202f;" horiz-adv-x="399" />
<glyph unicode="&#x2030;" d="M63 246q0 121 74 190.5t187 69.5q115 0 188.5 -69.5t73.5 -190.5t-73.5 -196t-188.5 -75q-113 0 -187 75t-74 196zM63 1065q0 121 74 190.5t187 69.5q115 0 188.5 -69.5t73.5 -190.5t-73.5 -195.5t-188.5 -74.5q-113 0 -187 74.5t-74 195.5zM190 645l924 406l78 -193 l-963 -303zM236 246q0 -144 88 -144q90 0 90 144q0 131 -90 131q-88 0 -88 -131zM236 1065q0 -141 88 -141q90 0 90 141q0 133 -90 133q-88 0 -88 -133zM645 246q0 121 74 190.5t188.5 69.5t188 -69.5t73.5 -190.5t-73.5 -196t-188.5 -75q-113 0 -187.5 75t-74.5 196z M819 246q0 -144 88 -144q90 0 90 144q0 131 -90 131q-88 0 -88 -131z" />
<glyph unicode="&#x2032;" d="M469 727l45 678h301l-53 -297l-96 -381h-197z" />
<glyph unicode="&#x2033;" d="M227 727l45 678h299l-51 -297l-96 -381h-197zM713 727l43 678h301l-51 -297l-97 -381h-196z" />
<glyph unicode="&#x2039;" d="M358 367v299l351 315l127 -113l-261 -352l261 -352l-127 -113z" />
<glyph unicode="&#x203a;" d="M393 164l260 352l-260 352l127 113l350 -315v-299l-350 -316z" />
<glyph unicode="&#x2044;" d="M35 207l381 354l104 -96l-332 -408zM709 870l331 408l154 -150l-381 -356z" />
<glyph unicode="&#x205f;" horiz-adv-x="498" />
<glyph unicode="&#x2070;" d="M311 1225q0 156 85 248t218.5 92t218.5 -92.5t85 -247.5q0 -158 -85 -253t-218.5 -95t-218.5 95t-85 253zM516 1225q0 -187 98.5 -187t98.5 187q0 178 -98.5 178t-98.5 -178z" />
<glyph unicode="&#x2071;" d="M346 1040v166h469v-674h-213v508h-256zM567 1425q0 55 39 91t101 36q59 0 99 -35.5t40 -91.5q0 -57 -39 -92t-100.5 -35t-100.5 35t-39 92z" />
<glyph unicode="&#x2074;" d="M330 1026v104l245 410h275v-379h104v-135h-104v-125h-193v125h-327zM524 1161h133v45l13 203h-8l-70 -127z" />
<glyph unicode="&#x2075;" d="M338 963l84 135q88 -59 168 -60q39 0 64.5 18.5t25.5 53.5q0 74 -90 74q-51 0 -105 -33l-88 59l29 330h436v-180h-272l-8 -72q31 12 88 12q102 0 162.5 -53t60.5 -145q0 -94 -79 -159.5t-196 -65.5q-165 0 -280 86z" />
<glyph unicode="&#x2076;" d="M330 1219q0 145 89 245.5t247 100.5q121 0 223 -84l-84 -125q-57 47 -123 47q-135 0 -154 -162q68 57 162 57t148.5 -50t54.5 -142q0 -96 -72.5 -162.5t-183.5 -66.5q-141 0 -224 94t-83 248zM530 1130q21 -92 99 -92q72 0 71 66q0 63 -75 63q-47 0 -95 -37z" />
<glyph unicode="&#x2077;" d="M362 1362v178h541v-115q-111 -125 -149.5 -237.5t-46.5 -286.5h-230q8 131 50 231.5t135 229.5h-300z" />
<glyph unicode="&#x2078;" d="M340 1063q0 57 33 92t92 66v8q-41 29 -57.5 41t-33 40.5t-16.5 67.5q0 82 75 134.5t181 52.5q111 0 184.5 -51.5t73.5 -135.5q0 -82 -108 -133v-8q63 -33 94 -70t31 -104q0 -78 -78 -132t-196.5 -54t-196.5 54t-78 132zM532 1079q0 -29 23 -46t59 -17q35 0 58.5 16.5 t23.5 42.5q0 51 -110 84q-54 -27 -54 -80zM551 1372q0 -43 90 -74q39 25 39 66q0 25 -18.5 41t-49.5 16q-27 0 -44 -14t-17 -35z" />
<glyph unicode="&#x2079;" d="M336 1335q0 96 72.5 163t183.5 67q143 0 225 -95.5t82 -248.5q0 -145 -89 -244.5t-247 -99.5q-125 0 -223 84l84 122q55 -45 123 -45q135 0 153 160q-68 -55 -162 -55t-148 49t-54 143zM528 1335q0 -63 76 -63q43 0 94 37q-20 94 -98 94q-72 0 -72 -68z" />
<glyph unicode="&#x207d;" d="M438 1241q0 154 55.5 276.5t165.5 243.5l162 -98q-170 -199 -170 -422q0 -225 170 -424l-162 -98q-111 121 -166 243.5t-55 278.5z" />
<glyph unicode="&#x207e;" d="M408 817q170 199 170 424q0 223 -170 422l161 98q111 -121 166.5 -243.5t55.5 -276.5q0 -156 -55.5 -278.5t-166.5 -243.5z" />
<glyph unicode="&#x207f;" d="M319 532v674h175l14 -86h6q111 102 227 103q219 0 220 -275v-416h-213v390q0 63 -21.5 91.5t-71.5 28.5q-55 0 -123 -61v-449h-213z" />
<glyph unicode="&#x2080;" d="M311 -25q0 156 85 248t218.5 92t218.5 -92t85 -248q0 -158 -85 -253t-218.5 -95t-218.5 95.5t-85 252.5zM516 -25q0 -186 98.5 -186t98.5 186q0 178 -98.5 178.5t-98.5 -178.5z" />
<glyph unicode="&#x2081;" d="M401 86v131q121 16 215 74h170v-639h-219v434h-166z" />
<glyph unicode="&#x2082;" d="M324 182q127 133 272 133q123 0 195.5 -59t72.5 -164q0 -106 -168 -262h191v-178h-535v112q301 197 301 291q0 84 -90 84q-63 0 -112 -71z" />
<glyph unicode="&#x2083;" d="M338 -287l84 135q84 -59 168 -59q86 0 86 59q0 72 -150 72v113q125 0 125 65q0 55 -80 56q-49 0 -135 -52l-86 127q109 86 271 86q102 0 172.5 -51t70.5 -131q0 -57 -25.5 -91t-84.5 -54q135 -37 135 -156q0 -90 -79 -147.5t-194 -57.5q-163 0 -278 86z" />
<glyph unicode="&#x2084;" d="M330 -119l245 410h275v-379h104v-135h-104v-125h-193v125h-327v104zM524 -88h133v45l13 203h-8l-70 -127z" />
<glyph unicode="&#x2085;" d="M338 -287l84 135q88 -59 168 -59q39 0 64.5 18.5t25.5 53.5q0 74 -90 73q-51 0 -105 -32l-88 59l29 330h436v-180h-272l-8 -72q31 12 88 12q102 0 162.5 -53t60.5 -145q0 -94 -79 -160t-196 -66q-165 0 -280 86z" />
<glyph unicode="&#x2086;" d="M330 -31q0 145 89 245.5t247 100.5q121 0 223 -84l-84 -125q-57 47 -123 48q-135 0 -154 -162q68 57 162 57t148.5 -50t54.5 -142q0 -96 -72.5 -163t-183.5 -67q-141 0 -224 94.5t-83 247.5zM530 -119q21 -92 99 -92q72 0 71 66q0 63 -75 63q-47 0 -95 -37z" />
<glyph unicode="&#x2087;" d="M362 113v178h541v-115q-111 -125 -149.5 -237.5t-46.5 -286.5h-230q8 131 50 231.5t135 229.5h-300z" />
<glyph unicode="&#x2088;" d="M340 -186q0 57 33 92t92 65v9q-41 29 -57.5 41t-33 40.5t-16.5 67.5q0 82 75 134t181 52q111 0 184.5 -51t73.5 -135q0 -82 -108 -133v-8q63 -33 94 -70t31 -104q0 -78 -78 -132.5t-196.5 -54.5t-196.5 54.5t-78 132.5zM532 -170q0 -29 23 -46t59 -17q35 0 58.5 16 t23.5 43q0 51 -110 84q-54 -27 -54 -80zM551 123q0 -43 90 -74q39 25 39 66q0 25 -18.5 41t-49.5 16q-27 0 -44 -14.5t-17 -34.5z" />
<glyph unicode="&#x2089;" d="M336 86q0 96 72.5 162.5t183.5 66.5q143 0 225 -95t82 -249q0 -145 -89 -244.5t-247 -99.5q-125 0 -223 84l84 123q55 -45 123 -45q135 0 153 160q-68 -55 -162 -55t-148 49t-54 143zM528 86q0 -63 76 -63q43 0 94 36q-20 94 -98 95q-72 0 -72 -68z" />
<glyph unicode="&#x208d;" d="M438 -8q0 154 55.5 276.5t165.5 243.5l162 -98q-170 -199 -170 -422q0 -225 170 -424l-162 -98q-111 121 -166 243.5t-55 278.5z" />
<glyph unicode="&#x208e;" d="M408 414l161 98q111 -121 166.5 -243.5t55.5 -276.5q0 -156 -55.5 -279t-166.5 -243l-161 98q170 199 170 424q0 223 -170 422z" />
<glyph unicode="&#x2094;" d="M303 842q0 53 8 86h430q-25 133 -166 133q-76 0 -159 -45l-72 129q119 78 256 78q156 0 251 -95.5t95 -259.5q0 -158 -98 -255t-236 -97q-152 0 -230.5 90.5t-78.5 235.5zM483 799q0 -123 123 -123q119 0 139 123h-262z" />
<glyph unicode="&#x20a1;" d="M162 643q0 283 132 459t359 213l25 211h102l-24 -201h16q20 0 66 -4l24 205h103l-27 -232q115 -43 199 -129l-166 -161q-29 23 -64 45l-98 -836q102 18 178 106l166 -155q-160 -172 -373 -187l-24 -202h-103l25 202q-43 6 -80 13l-27 -215h-102l29 248 q-158 68 -247 226.5t-89 393.5zM463 653q0 -206 74 -321l86 727q-160 -90 -160 -406zM627 242q31 -18 80 -29l102 872q-27 6 -57 7h-23z" />
<glyph unicode="&#x20a4;" d="M137 0v186q94 37 157.5 103.5t80.5 154.5h-230v142l162 10h58q-8 33 -33 98h-187v142l138 10q-6 31 -7 59q0 190 130.5 305t336.5 115q231 0 381 -166l-161 -164q-82 86 -191 86q-211 0 -211 -192q0 -27 2 -41h371v-154h-332q4 -16 13.5 -49t13.5 -49h305v-152h-299 q-14 -96 -107 -182v-8h598v-254h-989z" />
<glyph unicode="&#x20a6;" d="M55 483v107l144 12v98h-144v107l144 12v481h278l182 -481h154v481h217v-481h141v-119h-141v-98h141v-119h-141v-483h-278l-183 483h-153v-483h-217v483h-144zM360 1077l27 -258h68l-86 258h-9zM399 700l9 -98h120l-32 98h-97zM700 700l33 -98h96l-8 98h-121zM774 483 l86 -260h8l-26 260h-68z" />
<glyph unicode="&#x20a7;" d="M43 778v174l139 11v337h375q197 0 327 -79.5t158 -255.5h127v-187h-125q-29 -168 -162.5 -253t-324.5 -85h-90v-440h-285v778h-139zM467 629h70q178 0 223 149h-293v-149zM467 965h291q-39 147 -221 147h-70v-147z" />
<glyph unicode="&#x20ab;" d="M186 627q0 164 108.5 265t250.5 101q123 0 219 -80l-8 138v30h-316v152h316v100h248v-100h147v-139l-147 -13v-823h-205l-19 74h-6q-98 -94 -237 -94q-162 0 -256.5 102t-94.5 287zM213 0v152h858v-152h-858zM440 625q0 -188 158 -189q86 0 158 74v227q-68 53 -150 54 q-68 0 -117 -45.5t-49 -120.5z" />
<glyph unicode="&#x20ac;" d="M92 440v142l113 8q-2 18 -2 53t2 53h-113v140l131 10q51 227 205 353t375 126q219 0 375 -160l-166 -161q-109 88 -219 88q-207 0 -269 -244h518v-152h-538v-43q0 -41 2 -59h455v-154h-431q68 -231 269 -231q131 -1 229 110l166 -155q-172 -188 -414 -189 q-211 0 -359.5 120t-197.5 345h-131z" />
<glyph unicode="&#x20b1;" d="M45 709v106l137 10v95h-137v106l137 10v264h375q375 0 467 -262h145v-118h-120q2 -18 2 -56q0 -25 -2 -37h120v-118h-143q-49 -133 -175 -201t-294 -68h-90v-440h-285v709h-137zM467 629h70q127 0 188 80h-258v-80zM467 827h301q2 12 2 37q0 23 -4 56h-299v-93zM467 1038 h256q-55 74 -186 74h-70v-74z" />
<glyph unicode="&#x20b2;" d="M137 643q0 274 126 450.5t339 219.5v213h201v-207q174 -29 299 -160l-166 -164q-102 96 -219 97q-133 0 -206 -116t-73 -323q0 -209 76 -321.5t209 -112.5q72 0 111 27v250h-156v245h422v-614q-131 -117 -297 -143v-209h-201v209q-211 35 -338 205.5t-127 453.5z" />
<glyph unicode="&#x20b5;" d="M162 643q0 285 135 463t365 211v190h165v-186q178 -23 310 -156l-166 -161q-72 59 -144 77v-864q88 20 160 102l166 -155q-139 -152 -326 -182v-207h-165v205q-225 27 -362.5 198.5t-137.5 464.5zM463 653q0 -350 199 -428v852q-199 -68 -199 -424z" />
<glyph unicode="&#x20b9;" d="M180 412v239h152q238 0 286 146h-438v139l166 12h268q-47 113 -282 113h-152v239h891v-151h-305q119 -74 149 -201h156v-151h-151q-33 -246 -277 -338l383 -459h-334l-336 412h-176z" />
<glyph unicode="&#x20ba;" d="M74 367v165l174 84v113l-174 -84v166l174 84v405h301v-258l328 158v-166l-328 -157v-113l328 158v-166l-328 -158v-342q133 12 228 86t95 178q0 31 -8 62l248 57q16 -66 16 -104q0 -279 -233 -424.5t-647 -135.5v476z" />
<glyph unicode="&#x2113;" d="M154 401q113 68 198 125v451q0 248 105.5 373t279.5 125q150 0 240 -93.5t90 -255.5q0 -190 -98.5 -342.5t-321.5 -318.5v-51q0 -96 44 -142.5t114 -46.5q88 0 190 90l111 -182q-178 -158 -348 -158q-145 0 -254 78t-142 223q-18 -12 -52 -32.5t-44 -26.5zM647 750 q178 172 178 376q0 129 -77 129q-101 1 -101 -237v-268z" />
<glyph unicode="&#x2117;" d="M39 666q0 307 167 491t408.5 184t408.5 -184t167 -491q0 -309 -167 -496.5t-408.5 -187.5t-408.5 187.5t-167 496.5zM170 666q0 -252 122 -406t322.5 -154t322.5 154t122 406t-122 402.5t-322.5 150.5t-322.5 -150.5t-122 -402.5zM362 285v747h263q143 0 229 -63.5 t86 -202.5q0 -145 -89 -220t-226 -75h-50v-186h-213zM575 627h35q123 0 123 131q0 113 -123 112h-35v-243z" />
<glyph unicode="&#x2120;" d="M-18 817l102 123q84 -76 149 -76q59 0 60 43q0 12 -3 20.5t-15.5 16.5t-18.5 12.5t-33 16.5l-86 43q-123 59 -123 186q0 86 64.5 145.5t175.5 59.5q119 0 223 -82l-90 -125q-90 57 -137 57q-59 0 -60 -45q0 -12 9.5 -22t20.5 -16.5t42 -20.5l84 -41q66 -29 96.5 -71 t30.5 -113q0 -86 -69.5 -148.5t-184.5 -62.5q-125 0 -237 100zM563 741v643h211l70 -192l43 -145h8l41 145l70 192h211v-643h-173v197l23 236h-8l-109 -304h-119l-110 304h-8l22 -236v-197h-172z" />
<glyph unicode="&#x2122;" d="M-27 1206v178h519v-178h-160v-465h-197v465h-162zM563 741v643h211l70 -192l43 -145h8l41 145l70 192h211v-643h-173v197l23 236h-8l-109 -304h-119l-110 304h-8l22 -236v-197h-172z" />
<glyph unicode="&#x2126;" d="M-45 0v244h233v8q-80 82 -140 208t-60 275q0 297 172 469t454.5 172t454.5 -172t172 -469q0 -150 -60.5 -275.5t-140.5 -207.5v-8h234v-244h-567v199q225 184 225 518q0 182 -86 290.5t-231.5 108.5t-231.5 -108.5t-86 -290.5q0 -334 225 -518v-199h-567z" />
<glyph unicode="&#x212e;" d="M53 663.5q0 284.5 165 486.5t396.5 202t396.5 -202t165 -486v-17h-848q-8 0 -9 -8v-459q1 -16 17 -41q111 -123 282 -123q106 0 204 61.5t169 168.5h78q-86 -127 -202.5 -199t-252.5 -72q-231 0 -396 202t-165 486.5zM319 696q1 -12 9 -12h573q12 0 12 12v459 q0 25 -20 45q-111 111 -275 111q-170 0 -282 -119q-16 -25 -17 -45v-451z" />
<glyph unicode="&#x2153;" d="M35 207l381 354l104 -96l-332 -408zM141 1098v131q123 14 215 71h170v-636h-219v434h-166zM600 61l86 136q80 -59 168 -60q86 0 86 60q0 72 -149 71v113q123 0 122 65q0 55 -77 56q-49 0 -136 -51l-88 127q111 86 273 86q102 0 171.5 -51.5t69.5 -131.5q0 -57 -24.5 -91 t-85.5 -54q137 -37 137 -156q0 -88 -80 -146.5t-192 -58.5q-166 0 -281 86zM709 870l331 408l154 -150l-381 -356z" />
<glyph unicode="&#x2154;" d="M35 207l381 354l104 -96l-332 -408zM61 1192q127 133 273 133q123 0 194.5 -59.5t71.5 -161.5q0 -106 -166 -264h189v-176h-533v112q301 199 301 289q0 39 -24.5 62.5t-67.5 23.5q-57 0 -113 -72zM600 61l86 136q80 -59 168 -60q86 0 86 60q0 72 -149 71v113 q123 0 122 65q0 55 -77 56q-49 0 -136 -51l-88 127q111 86 273 86q102 0 171.5 -51.5t69.5 -131.5q0 -57 -24.5 -91t-85.5 -54q137 -37 137 -156q0 -88 -80 -146.5t-192 -58.5q-166 0 -281 86zM709 870l331 408l154 -150l-381 -356z" />
<glyph unicode="&#x215b;" d="M35 207l381 354l104 -96l-332 -408zM141 1098v131q123 14 215 71h170v-636h-219v434h-166zM602 162q0 57 33 92t92 65v9q-43 29 -57.5 40t-31.5 40.5t-17 68.5q0 82 74.5 134.5t181.5 52.5q113 0 185.5 -51.5t72.5 -135.5q0 -82 -109 -133v-8q63 -33 95 -70t32 -104 q0 -78 -79 -132.5t-197.5 -54.5t-196.5 54.5t-78 132.5zM709 870l331 408l154 -150l-381 -356zM795 178q0 -29 23.5 -46t58 -17t59.5 16t25 43q0 51 -113 84q-53 -29 -53 -80zM813 471q0 -43 90 -74q39 25 39 66q0 25 -18.5 41t-47 16t-46 -14t-17.5 -35z" />
<glyph unicode="&#x215c;" d="M35 207l381 354l104 -96l-332 -408zM78 723l84 135q84 -59 170 -59q84 0 84 59q0 72 -148 72v114q123 0 123 66q0 53 -80 53q-57 0 -135 -51l-86 129q104 84 272 84q102 0 172 -50t70 -130q0 -57 -24.5 -92t-85.5 -56q137 -39 137 -155q0 -88 -80 -145.5t-195 -57.5 q-161 0 -278 84zM602 162q0 57 33 92t92 65v9q-43 29 -57.5 40t-31.5 40.5t-17 68.5q0 82 74.5 134.5t181.5 52.5q113 0 185.5 -51.5t72.5 -135.5q0 -82 -109 -133v-8q63 -33 95 -70t32 -104q0 -78 -79 -132.5t-197.5 -54.5t-196.5 54.5t-78 132.5zM709 870l331 408 l154 -150l-381 -356zM795 178q0 -29 23.5 -46t58 -17t59.5 16t25 43q0 51 -113 84q-53 -29 -53 -80zM813 471q0 -43 90 -74q39 25 39 66q0 25 -18.5 41t-47 16t-46 -14t-17.5 -35z" />
<glyph unicode="&#x215d;" d="M35 207l381 354l104 -96l-332 -408zM78 723l84 135q88 -59 168 -59q39 0 64.5 18.5t25.5 52.5q0 37 -24.5 56.5t-63.5 19.5q-47 0 -107 -33l-88 58l29 329h436v-178h-272l-8 -73q37 14 88 14q102 0 162.5 -53.5t60.5 -145.5q0 -96 -79 -160.5t-196 -64.5q-163 0 -280 84z M602 162q0 57 33 92t92 65v9q-43 29 -57.5 40t-31.5 40.5t-17 68.5q0 82 74.5 134.5t181.5 52.5q113 0 185.5 -51.5t72.5 -135.5q0 -82 -109 -133v-8q63 -33 95 -70t32 -104q0 -78 -79 -132.5t-197.5 -54.5t-196.5 54.5t-78 132.5zM709 870l331 408l154 -150l-381 -356z M795 178q0 -29 23.5 -46t58 -17t59.5 16t25 43q0 51 -113 84q-53 -29 -53 -80zM813 471q0 -43 90 -74q39 25 39 66q0 25 -18.5 41t-47 16t-46 -14t-17.5 -35z" />
<glyph unicode="&#x215e;" d="M35 207l381 354l104 -96l-332 -408zM102 1122v178h541v-112q-111 -125 -149.5 -237.5t-47.5 -286.5h-227q8 131 49 229t133 229h-299zM602 162q0 57 33 92t92 65v9q-43 29 -57.5 40t-31.5 40.5t-17 68.5q0 82 74.5 134.5t181.5 52.5q113 0 185.5 -51.5t72.5 -135.5 q0 -82 -109 -133v-8q63 -33 95 -70t32 -104q0 -78 -79 -132.5t-197.5 -54.5t-196.5 54.5t-78 132.5zM709 870l331 408l154 -150l-381 -356zM795 178q0 -29 23.5 -46t58 -17t59.5 16t25 43q0 51 -113 84q-53 -29 -53 -80zM813 471q0 -43 90 -74q39 25 39 66q0 25 -18.5 41 t-47 16t-46 -14t-17.5 -35z" />
<glyph unicode="&#x2190;" d="M27 512v8l569 547l143 -162l-307 -270h731v-238h-731l307 -270l-143 -162z" />
<glyph unicode="&#x2191;" d="M63 514l547 569h8l547 -569l-161 -141l-271 307v-733h-237v733l-271 -307z" />
<glyph unicode="&#x2192;" d="M63 397v238h734l-308 270l142 162l569 -547v-8l-569 -547l-142 162l308 270h-734z" />
<glyph unicode="&#x2193;" d="M63 516l162 143l271 -307v731h237v-731l271 307l161 -143l-547 -569h-8z" />
<glyph unicode="&#x2202;" d="M123 379q0 209 123 342t315 133q156 0 262 -125v35q0 369 -225 369q-111 -1 -209 -93l-131 185q174 152 373 151q233 0 355 -167t122 -453q0 -350 -163 -565.5t-421 -215.5q-170 0 -285.5 112t-115.5 292zM399 397q0 -86 45 -132t113 -46q84 0 148.5 67.5t95.5 215.5 q-78 123 -203 123q-90 0 -144.5 -58.5t-54.5 -169.5z" />
<glyph unicode="&#x2206;" d="M18 0v182l416 1170h361l415 -1170v-182h-1192zM360 254h508l-153 467l-97 348h-8l-96 -348z" />
<glyph unicode="&#x220f;" d="M51 -246v1546h1127v-1546h-301v1284h-525v-1284h-301z" />
<glyph unicode="&#x2211;" d="M121 -68l422 594l-402 596v178h953v-253h-586v-9l342 -512l-356 -510v-8h649v-254h-1022v178z" />
<glyph unicode="&#x2212;" d="M143 528v213h942v-213h-942z" />
<glyph unicode="&#x2215;" d="M35 207l381 354l104 -96l-332 -408zM709 870l331 408l154 -150l-381 -356z" />
<glyph unicode="&#x2219;" d="M375 725q0 102 66.5 171t171 69t171 -69t66.5 -171t-66.5 -172t-171 -70t-171 70t-66.5 172z" />
<glyph unicode="&#x221a;" d="M68 756l356 145l203 -602q23 -78 43 -168h8q12 90 31 168l321 1380h201l-443 -1843h-208l-308 842l-151 -64z" />
<glyph unicode="&#x221e;" d="M-27 649q0 188 91.5 297t242.5 109q176 0 275 -172h8q72 109 149.5 156.5t182.5 47.5q139 0 236 -111.5t97 -279.5q0 -209 -99 -328.5t-251 -119.5q-113 0 -194.5 49t-161.5 176h-8q-103 -172 -275 -172q-121 0 -207 104.5t-86 243.5zM193 655.5q0 -53.5 32.5 -94.5 t83.5 -41q94 0 150 119q-61 137 -160 137q-51 0 -78.5 -33.5t-27.5 -87zM674 717q47 -98 97 -144.5t117.5 -46.5t107.5 47.5t40 116.5q0 82 -44 130t-118 48q-110 1 -200 -151z" />
<glyph unicode="&#x222b;" d="M301 -307l29 217q41 -8 73 -8q78 0 103.5 60.5t25.5 211.5q0 154 -38.5 461t-38.5 479q0 244 81.5 375t305.5 131q63 0 116 -14l-30 -220q-25 8 -72 9q-78 0 -103.5 -60.5t-25.5 -212.5q0 -154 38 -461t38 -479q0 -119 -15.5 -202.5t-55.5 -156.5t-118.5 -110t-195.5 -37 q-72 0 -117 17z" />
<glyph unicode="&#x2248;" d="M106 285q119 295 334 295q57 0 110.5 -24t87.5 -53.5t76 -53t79 -23.5q92 0 149 166l180 -84q-119 -295 -334 -295q-72 0 -136 39t-117.5 77t-98.5 38q-92 0 -149 -166zM106 762q119 295 334 295q72 0 136.5 -39t118 -77t98.5 -38q92 0 149 166l180 -84 q-119 -295 -334 -295q-57 0 -110 23.5t-87 53.5t-76 53.5t-79 23.5q-92 0 -149 -166z" />
<glyph unicode="&#x2260;" d="M143 291v211h301l150 266h-451v211h568l147 250h191l-146 -250h182v-211h-301l-149 -266h450v-211h-567l-147 -250h-191l146 250h-183z" />
<glyph unicode="&#x2264;" d="M143 0v213h942v-213h-942zM143 565v250l942 291v-248l-352 -94l-284 -70v-8l284 -70l352 -94v-248z" />
<glyph unicode="&#x2265;" d="M143 0v213h942v-213h-942zM143 274v248l353 94l284 70v8l-284 70l-353 94v248l942 -291v-250z" />
<glyph unicode="&#x25a0;" d="M373 291v493h483v-493h-483z" />
<glyph unicode="&#x25b2;" d="M47 43v4l563 1069h8l564 -1069v-4h-1135z" />
<glyph unicode="&#x25b3;" d="M47 43v4l563 1069h8l564 -1069v-4h-1135zM387 238h457l-230 456z" />
<glyph unicode="&#x25b6;" d="M117 10v1133h4l1071 -561v-9l-1071 -563h-4z" />
<glyph unicode="&#x25b7;" d="M117 10v1133h4l1071 -561v-9l-1071 -563h-4zM313 348l455 230l-455 227v-457z" />
<glyph unicode="&#x25bc;" d="M47 1108v4h1135v-4l-564 -1069h-8z" />
<glyph unicode="&#x25bd;" d="M47 1108v4h1135v-4l-564 -1071h-8zM387 915l227 -454l230 454h-457z" />
<glyph unicode="&#x25c0;" d="M37 573v9l1071 561h4v-1133h-4z" />
<glyph unicode="&#x25c1;" d="M37 573v9l1071 561h4v-1133h-4zM461 578l454 -230v457z" />
<glyph unicode="&#x25c6;" d="M276 537l338 337l338 -337l-338 -336z" />
<glyph unicode="&#x25c9;" d="M201 536.5q0 182.5 118.5 301t295 118.5t295 -118.5t118.5 -301t-118.5 -300t-295 -117.5t-295 117.5t-118.5 300zM360 537q0 -117 73 -192t181.5 -75t181 75t72.5 192q0 119 -72.5 192.5t-181 73.5t-181.5 -74t-73 -192zM479 537q0 61 39 102t96.5 41t96.5 -41t39 -102 q0 -59 -39 -100.5t-96.5 -41.5t-96.5 41t-39 101z" />
<glyph unicode="&#x25ca;" d="M160 676l332 696h245l332 -696l-332 -696h-245zM408 676l92 -197l110 -248h8l111 248l92 197l-92 196l-111 248h-8l-110 -248z" />
<glyph unicode="&#x2610;" d="M-59 -20v1269l151 133h1196v-1249l-133 -153h-1214zM59 98h1049v1102h-1049v-1102z" />
<glyph unicode="&#x2611;" d="M-59 -20v1269l151 133h938q105 152 230 283l184 -162q-88 -84 -156 -166v-1204l-133 -153h-1214zM59 98h1049v994q-236 -367 -365 -838l-282 -33q-102 283 -287 557l191 125q113 -180 213 -457h8q113 389 327 754h-854v-1102z" />
<glyph unicode="&#x266a;" d="M109 119q0 111 101 190.5t247 79.5q86 0 118 -24v1056h162q18 -35 44 -58.5t104 -76.5q141 -96 198.5 -191.5t57.5 -222.5q0 -158 -101 -303l-100 41q29 88 29 189q0 94 -60.5 175t-165.5 116v-740q0 -197 -108.5 -302t-296.5 -105q-94 0 -161.5 45t-67.5 131z" />
<glyph unicode="&#x2713;" d="M-33 571l191 125q145 -225 256 -512h8q111 367 288 690.5t384 534.5l184 -160q-482 -456 -707 -1257l-282 -33q-123 332 -322 612z" />
<glyph unicode="&#x2752;" d="M301 209v520l135 117h492v-500l-115 -137h-512zM401 309h363v371h-363v-371z" />
<glyph unicode="&#xe000;" horiz-adv-x="1014" d="M0 1015h1015v-1015h-1015v1015z" />
<glyph unicode="&#xfb01;" d="M14 780v224l136 10v55q0 176 90 283.5t284 107.5q102 0 203 -37l-55 -221q-55 20 -105 21q-117 0 -116 -146v-61h184v-236h-184v-780h-301v780h-136zM774 1354q0 82 58.5 135t148.5 53t149.5 -53t59.5 -135t-59.5 -135.5t-149.5 -53.5t-148.5 53.5t-58.5 135.5zM834 0 v1016h301v-1016h-301z" />
<glyph unicode="&#xfb02;" d="M23 780v224l135 10v55q0 176 90 283.5t284 107.5q102 0 203 -37l-55 -221q-55 20 -105 21q-117 0 -116 -146v-61h184v-236h-184v-780h-301v780h-135zM805 315v1121h301v-1133q0 -43 16.5 -63.5t38.5 -20.5q19 0 37 4l35 -223q-55 -25 -152 -25q-276 0 -276 340z" />
<glyph d="M90 659.5q0 325.5 174 513t443 187.5q221 0 391 -170l-166 -186q-96 96 -225 96q-133 0 -219.5 -117t-86.5 -313q0 -209 81 -321.5t237 -112.5q86 0 131 40v230h-195v246h465v-615q-74 -68 -185.5 -115t-232.5 -47q-268 0 -440 179.5t-172 505zM328 1440 q14 135 74.5 206.5t144.5 71.5q61 0 141 -46t105 -46q57 0 79 92h152q-14 -135 -74.5 -206.5t-144.5 -71.5q-59 0 -139 46t-105 46q-59 0 -80 -92h-153z" />
<glyph d="M106 -172q0 125 158 203v8q-102 63 -102 174q0 49 32.5 101.5t88.5 88.5v9q-133 88 -133 260q0 174 125.5 271t308.5 97q94 0 168 -24h411v-219h-207q47 -59 48 -135q0 -168 -117 -254t-303 -86q-66 0 -140 20q-45 -33 -45 -74q0 -78 172 -78h189q412 0 411 -256 q0 -162 -165.5 -264t-438.5 -102q-209 0 -335 64.5t-126 195.5zM272 1178q18 145 81 218.5t159 73.5q55 0 126 -53t93 -53q63 0 88 106h154q-18 -145 -81 -218.5t-159 -73.5q-55 0 -124.5 54t-92.5 54q-35 0 -54.5 -23.5t-33.5 -84.5h-156zM352 -127q0 -55 68.5 -86 t189.5 -31t198 36t77 89q0 47 -42 63.5t-136 16.5h-127q-100 0 -156 12q-72 -45 -72 -100zM432 672q0 -80 43 -124t108.5 -44t110.5 44t45 124q0 78 -45 122t-110.5 44t-108.5 -44t-43 -122z" />
<glyph d="M162 780v236h708v-1016q-145 -55 -145 -174q0 -37 24.5 -57.5t61.5 -20.5q27 0 72 25l63 -135q-88 -68 -207 -68q-94 0 -155.5 49t-61.5 137q0 137 133 244h-86v780h-407z" />
<glyph d="M96 508q0 240 130 386t311 146q160 0 276 -129h8l25 105h235v-1016h-245l-23 104h-6q-57 -57 -134 -93t-149 -36q-195 0 -311.5 143.5t-116.5 389.5zM406 512q0 -291 196 -291q104 0 178 94v412q-76 68 -170 68q-88 0 -146 -73t-58 -210z" />
<glyph d="M96 508q0 240 130 386t311 146q160 0 276 -129h8l25 105h235v-1016h-245l-23 104h-6q-57 -57 -134 -93t-149 -36q-195 0 -311.5 143.5t-116.5 389.5zM319 1518h308l182 -342h-219zM406 512q0 -291 196 -291q104 0 178 94v412q-76 68 -170 68q-88 0 -146 -73t-58 -210z " />
<glyph d="M96 508q0 240 130 386t311 146q160 0 276 -129h8l25 105h235v-1016h-245l-23 104h-6q-57 -57 -134 -93t-149 -36q-195 0 -311.5 143.5t-116.5 389.5zM406 512q0 -291 196 -291q104 0 178 94v412q-76 68 -170 68q-88 0 -146 -73t-58 -210zM475 1176l182 342h308l-271 -342 h-219z" />
<glyph d="M96 508q0 240 130 386t311 146q160 0 276 -129h8l25 105h235v-1016h-245l-23 104h-6q-57 -57 -134 -93t-149 -36q-195 0 -311.5 143.5t-116.5 389.5zM309 1176l207 342h252l207 -342h-219l-109 194h-8l-111 -194h-219zM406 512q0 -291 196 -291q104 0 178 94v412 q-76 68 -170 68q-88 0 -146 -73t-58 -210z" />
<glyph d="M96 508q0 240 130 386t311 146q160 0 276 -129h8l25 105h235v-1016h-245l-23 104h-6q-57 -57 -134 -93t-149 -36q-195 0 -311.5 143.5t-116.5 389.5zM293 1178q18 145 80.5 218.5t158.5 73.5q55 0 125 -53t93 -53q63 0 88 106h153q-18 -145 -79.5 -218.5t-157.5 -73.5 q-57 0 -127 54t-92 54q-63 0 -89 -108h-153zM406 512q0 -291 196 -291q104 0 178 94v412q-76 68 -170 68q-88 0 -146 -73t-58 -210z" />
<glyph d="M96 508q0 240 130 386t311 146q160 0 276 -129h8l25 105h235v-1016h-245l-23 104h-6q-57 -57 -134 -93t-149 -36q-195 0 -311.5 143.5t-116.5 389.5zM258 1331q0 68 45 114t115 46q72 0 117 -46t45 -114q0 -70 -45 -116t-117 -46q-70 0 -115 46.5t-45 115.5zM406 512 q0 -291 196 -291q104 0 178 94v412q-76 68 -170 68q-88 0 -146 -73t-58 -210zM705 1331q0 68 45 114t116 46q70 0 115 -46t45 -114q0 -70 -45 -116t-115 -46q-72 0 -116.5 46.5t-44.5 115.5z" />
<glyph d="M96 508q0 240 130 386t311 146q160 0 276 -129h8l25 105h235v-1016h-245l-23 104h-6q-57 -57 -134 -93t-149 -36q-195 0 -311.5 143.5t-116.5 389.5zM360 1212v191h566v-191h-566zM406 512q0 -291 196 -291q104 0 178 94v412q-76 68 -170 68q-88 0 -146 -73t-58 -210z " />
<glyph d="M96 508q0 240 130 386t311 146q160 0 276 -129h8l25 105h235v-1016h-245l-23 104h-6q-57 -57 -134 -93t-149 -36q-195 0 -311.5 143.5t-116.5 389.5zM340 1495h168q18 -154 135 -154q115 0 133 154h168q-4 -135 -82 -227t-219 -92q-143 0 -221 92t-82 227zM406 512 q0 -291 196 -291q104 0 178 94v412q-76 68 -170 68q-88 0 -146 -73t-58 -210z" />
<glyph d="M96 508q0 240 130 386t311 146q160 0 276 -129h8l25 105h235v-1016h-245l-23 104h-6q-57 -57 -134 -93t-149 -36q-195 0 -311.5 143.5t-116.5 389.5zM406 512q0 -291 196 -291q104 0 178 94v412q-76 68 -170 68q-88 0 -146 -73t-58 -210zM412 1331q0 94 63.5 151.5 t167.5 57.5q102 0 165.5 -57.5t63.5 -151.5t-63.5 -151.5t-165.5 -57.5q-104 0 -167.5 57.5t-63.5 151.5zM559 1331q0 -43 23.5 -69.5t60.5 -26.5q35 0 58.5 26.5t23.5 69.5t-23.5 69.5t-58.5 26.5q-37 0 -60.5 -26.5t-23.5 -69.5z" />
<glyph d="M96 508q0 240 130 386t311 146q160 0 276 -129h8l25 105h235v-1016h-245l-23 104h-6q-57 -57 -134 -93t-149 -36q-195 0 -311.5 143.5t-116.5 389.5zM309 1518h219l111 -197h8l109 197h219l-207 -342h-252zM406 512q0 -291 196 -291q104 0 178 94v412q-76 68 -170 68 q-88 0 -146 -73t-58 -210z" />
<glyph d="M96 508q0 240 130 386t311 146q160 0 276 -129h8l25 105h235v-1016h-245l-23 104h-6q-57 -57 -134 -93t-149 -36q-195 0 -311.5 143.5t-116.5 389.5zM406 512q0 -291 196 -291q104 0 178 94v412q-76 68 -170 68q-88 0 -146 -73t-58 -210zM446 -336q0 82 56.5 135.5 t144.5 53.5q86 0 142.5 -53.5t56.5 -135.5t-55.5 -132t-143.5 -50t-144.5 50t-56.5 132z" />
<glyph d="M96 508q0 240 130 386t311 146q160 0 276 -129h8l25 105h235v-1016h-245l-23 104h-6q-57 -57 -134 -93t-149 -36q-195 0 -311.5 143.5t-116.5 389.5zM406 512q0 -291 196 -291q104 0 178 94v412q-76 68 -170 68q-88 0 -146 -73t-58 -210zM475 1389l35 151 q344 -10 344 -188q0 -98 -79 -150.5t-206 -60.5l-22 119q92 14 92 61q0 59 -164 68z" />
<glyph d="M96 508q0 240 130 386t311 146q160 0 276 -129h8l25 105h235v-1016h-245l-23 104h-6q-57 -57 -134 -93t-149 -36q-195 0 -311.5 143.5t-116.5 389.5zM356 1176l166 262h240l166 -262h-187l-94 133h-8l-96 -133h-187zM406 512q0 -291 196 -291q104 0 178 94v412 q-76 68 -170 68q-88 0 -146 -73t-58 -210zM860 1323l141 242h222l-193 -242h-170z" />
<glyph d="M96 508q0 240 130 386t311 146q160 0 276 -129h8l25 105h235v-1016h-245l-23 104h-6q-57 -57 -134 -93t-149 -36q-195 0 -311.5 143.5t-116.5 389.5zM356 1176l166 262h240l166 -262h-187l-94 133h-8l-96 -133h-187zM406 512q0 -291 196 -291q104 0 178 94v412 q-76 68 -170 68q-88 0 -146 -73t-58 -210zM791 1565h223l139 -242h-168z" />
<glyph d="M96 508q0 240 130 386t311 146q160 0 276 -129h8l25 105h235v-1016h-245l-23 104h-6q-57 -57 -134 -93t-149 -36q-195 0 -311.5 143.5t-116.5 389.5zM356 1176l166 262h240l166 -262h-187l-94 133h-8l-96 -133h-187zM406 512q0 -291 196 -291q104 0 178 94v412 q-76 68 -170 68q-88 0 -146 -73t-58 -210zM834 1513l26 127q303 -8 303 -161q0 -92 -62 -134.5t-177 -58.5l-21 103q63 14 64 57q0 59 -133 67z" />
<glyph d="M96 508q0 240 130 386t311 146q160 0 276 -129h8l25 105h235v-1016h-245l-23 104h-6q-57 -57 -134 -93t-149 -36q-195 0 -311.5 143.5t-116.5 389.5zM340 1174l166 227h272l166 -227h-196l-101 120h-8l-102 -120h-197zM344 1475q12 117 62.5 175t123.5 58q61 0 124 -39 t85 -39q55 0 72 78h131q-12 -115 -64.5 -174t-123.5 -59q-59 0 -123 38.5t-86 38.5q-56 1 -72 -77h-129zM406 512q0 -291 196 -291q104 0 178 94v412q-76 68 -170 68q-88 0 -146 -73t-58 -210z" />
<glyph d="M96 508q0 240 130 386t311 146q160 0 276 -129h8l25 105h235v-1016h-245l-23 104h-6q-57 -57 -134 -93t-149 -36q-195 0 -311.5 143.5t-116.5 389.5zM309 1176l207 342h252l207 -342h-219l-109 194h-8l-111 -194h-219zM406 512q0 -291 196 -291q104 0 178 94v412 q-76 68 -170 68q-88 0 -146 -73t-58 -210zM446 -336q0 82 56.5 135.5t142.5 53.5q88 0 144.5 -53.5t56.5 -135.5t-56.5 -132t-144.5 -50t-143.5 50t-55.5 132z" />
<glyph d="M96 508q0 240 130 386t311 146q160 0 276 -129h8l25 105h235v-1016h-245l-23 104h-6q-57 -57 -134 -93t-149 -36q-195 0 -311.5 143.5t-116.5 389.5zM356 1460h136q23 -137 151 -137q127 0 150 137h135q-4 -121 -77 -202.5t-208 -81.5t-209 81.5t-78 202.5zM406 512 q0 -291 196 -291q104 0 178 94v412q-76 68 -170 68q-88 0 -146 -73t-58 -210zM547 1417l119 242h215l-183 -242h-151z" />
<glyph d="M96 508q0 240 130 386t311 146q160 0 276 -129h8l25 105h235v-1016h-245l-23 104h-6q-57 -57 -134 -93t-149 -36q-195 0 -311.5 143.5t-116.5 389.5zM356 1460h136q23 -137 151 -137q127 0 150 137h135q-4 -121 -77 -202.5t-208 -81.5t-209 81.5t-78 202.5zM403 1659h215 l119 -242h-151zM406 512q0 -291 196 -291q104 0 178 94v412q-76 68 -170 68q-88 0 -146 -73t-58 -210z" />
<glyph d="M96 508q0 240 130 386t311 146q160 0 276 -129h8l25 105h235v-1016h-245l-23 104h-6q-57 -57 -134 -93t-149 -36q-195 0 -311.5 143.5t-116.5 389.5zM356 1460h136q23 -137 151 -137q127 0 150 137h135q-4 -121 -77 -202.5t-208 -81.5t-209 81.5t-78 202.5zM406 512 q0 -291 196 -291q104 0 178 94v412q-76 68 -170 68q-88 0 -146 -73t-58 -210zM479 1657l29 127q303 -10 303 -164q0 -92 -63.5 -134t-176.5 -56l-20 102q63 14 63 57q0 31 -29.5 46.5t-105.5 21.5z" />
<glyph d="M96 508q0 240 130 386t311 146q160 0 276 -129h8l25 105h235v-1016h-245l-23 104h-6q-57 -57 -134 -93t-149 -36q-195 0 -311.5 143.5t-116.5 389.5zM344 1475q12 117 62.5 175t123.5 58q61 0 124 -39t85 -39q55 0 72 78h131q-12 -115 -64.5 -174t-123.5 -59 q-59 0 -123 38.5t-86 38.5q-55 0 -72 -77h-129zM358 1419h142q25 -102 143 -102q117 0 141 102h142q-4 -104 -76 -173.5t-207 -69.5q-137 0 -209 69.5t-76 173.5zM406 512q0 -291 196 -291q104 0 178 94v412q-76 68 -170 68q-88 0 -146 -73t-58 -210z" />
<glyph d="M96 508q0 240 130 386t311 146q160 0 276 -129h8l25 105h235v-1016h-245l-23 104h-6q-57 -57 -134 -93t-149 -36q-195 0 -311.5 143.5t-116.5 389.5zM340 1495h168q18 -154 135 -154q115 0 133 154h168q-4 -135 -82 -227t-219 -92q-143 0 -221 92t-82 227zM406 512 q0 -291 196 -291q104 0 178 94v412q-76 68 -170 68q-88 0 -146 -73t-58 -210zM446 -336q0 82 56.5 135.5t142.5 53.5q88 0 144.5 -53.5t56.5 -135.5t-56.5 -132t-144.5 -50t-143.5 50t-55.5 132z" />
<glyph d="M96 508q0 240 130 386t311 146q160 0 276 -129h8l25 105h235v-1016q-94 -29 -137 -76t-43 -98q0 -37 24.5 -57.5t61.5 -20.5t74 25l61 -135q-84 -68 -207 -68q-94 0 -155.5 49t-61.5 137q0 145 142 240l-27 108h-6q-57 -57 -134 -93t-149 -36q-195 0 -311.5 143.5 t-116.5 389.5zM406 512q0 -291 196 -291q104 0 178 94v412q-76 68 -170 68q-88 0 -146 -73t-58 -210z" />
<glyph d="M96 526q0 227 130 370.5t311 143.5q160 0 276 -129h8l25 105h235v-983q0 -207 -135 -320.5t-393 -113.5q-225 0 -393 106l100 205q137 -76 293 -76q109 0 169 46t69 122l6 131q-111 -106 -273 -106q-190 0 -309 139t-119 360zM401 530q0 -123 55.5 -192.5t145.5 -69.5 q102 0 178 99v360q-76 68 -174 68q-82 0 -143.5 -72t-61.5 -193z" />
<glyph d="M96 526q0 227 130 370.5t311 143.5q160 0 276 -129h8l25 105h235v-983q0 -207 -135 -320.5t-393 -113.5q-225 0 -393 106l100 205q137 -76 293 -76q109 0 169 46t69 122l6 131q-111 -106 -273 -106q-190 0 -309 139t-119 360zM301 1176l207 342h252l207 -342h-219 l-111 194h-8l-109 -194h-219zM401 530q0 -123 55.5 -192.5t145.5 -69.5q102 0 178 99v360q-76 68 -174 68q-82 0 -143.5 -72t-61.5 -193z" />
<glyph d="M96 526q0 227 130 370.5t311 143.5q160 0 276 -129h8l25 105h235v-983q0 -207 -135 -320.5t-393 -113.5q-225 0 -393 106l100 205q137 -76 293 -76q109 0 169 46t69 122l6 131q-111 -106 -273 -106q-190 0 -309 139t-119 360zM332 1495h168q18 -154 133 -154 q113 0 135 154h168q-4 -135 -82 -227t-221.5 -92t-220 92t-80.5 227zM401 530q0 -123 55.5 -192.5t145.5 -69.5q102 0 178 99v360q-76 68 -174 68q-82 0 -143.5 -72t-61.5 -193z" />
<glyph d="M96 526q0 227 130 370.5t311 143.5q160 0 276 -129h8l25 105h235v-983q0 -207 -135 -320.5t-393 -113.5q-225 0 -393 106l100 205q137 -76 293 -76q109 0 169 46t69 122l6 131q-111 -106 -273 -106q-190 0 -309 139t-119 360zM401 530q0 -123 55.5 -192.5t145.5 -69.5 q102 0 178 99v360q-76 68 -174 68q-82 0 -143.5 -72t-61.5 -193zM434 1348q0 82 56.5 135t142.5 53q88 0 144.5 -53t56.5 -135t-56.5 -132.5t-144.5 -50.5t-143.5 50.5t-55.5 132.5z" />
<glyph d="M96 526q0 227 130 370.5t311 143.5q160 0 276 -129h8l25 105h235v-983q0 -207 -135 -320.5t-393 -113.5q-225 0 -393 106l100 205q137 -76 293 -76q109 0 169 46t69 122l6 131q-111 -106 -273 -106q-190 0 -309 139t-119 360zM401 530q0 -123 55.5 -192.5t145.5 -69.5 q102 0 178 99v360q-76 68 -174 68q-82 0 -143.5 -72t-61.5 -193zM459 1286q0 98 101.5 151.5t260.5 61.5l23 -121q-170 -18 -170 -78q0 -53 90 -73l-59 -111q-135 12 -190.5 52t-55.5 118z" />
<glyph d="M96 526q0 227 130 370.5t311 143.5q160 0 276 -129h8l25 105h235v-983q0 -207 -135 -320.5t-393 -113.5q-225 0 -393 106l100 205q137 -76 293 -76q109 0 169 46t69 122l6 131q-111 -106 -273 -106q-190 0 -309 139t-119 360zM301 1518h219l109 -197h8l111 197h219 l-207 -342h-252zM401 530q0 -123 55.5 -192.5t145.5 -69.5q102 0 178 99v360q-76 68 -174 68q-82 0 -143.5 -72t-61.5 -193z" />
<glyph d="M96 526q0 227 130 370.5t311 143.5q160 0 276 -129h8l25 105h235v-983q0 -207 -135 -320.5t-393 -113.5q-225 0 -393 106l100 205q137 -76 293 -76q109 0 169 46t69 122l6 131q-111 -106 -273 -106q-190 0 -309 139t-119 360zM350 1212v191h565v-191h-565zM401 530 q0 -123 55.5 -192.5t145.5 -69.5q102 0 178 99v360q-76 68 -174 68q-82 0 -143.5 -72t-61.5 -193z" />
<glyph d="M96 526q0 227 130 370.5t311 143.5q160 0 276 -129h8l25 105h235v-983q0 -207 -135 -320.5t-393 -113.5q-225 0 -393 106l100 205q137 -76 293 -76q109 0 169 46t69 122l6 131q-111 -106 -273 -106q-190 0 -309 139t-119 360zM285 1178q16 145 78.5 218.5t158.5 73.5 q55 0 126 -53t93 -53q63 0 88 106h154q-18 -145 -80.5 -218.5t-159.5 -73.5q-55 0 -124.5 54t-92.5 54q-35 0 -54 -23.5t-34 -84.5h-153zM401 530q0 -123 55.5 -192.5t145.5 -69.5q102 0 178 99v360q-76 68 -174 68q-82 0 -143.5 -72t-61.5 -193z" />
<glyph d="M115 600q0 293 134 450.5t365.5 157.5t365.5 -157.5t134 -450.5q0 -295 -135 -460t-364.5 -165t-364.5 165t-135 460zM383 600q0 -391 231.5 -391t231.5 391q0 377 -231.5 377t-231.5 -377zM461 604q0 68 44 112t109.5 44t109.5 -44t44 -112q0 -70 -44 -112.5 t-109.5 -42.5t-109.5 43t-44 112z" />
<glyph d="M168 0v244h336v635h-268v186q203 35 348 119h221v-940h295v-244h-932z" />
<glyph d="M104 1004q106 106 213 155t252 49q205 0 332 -114.5t127 -302.5q0 -139 -110.5 -272.5t-313.5 -280.5q147 16 236 16h256v-254h-977v172q623 397 622 602q0 96 -55 147.5t-158 51.5q-121 0 -262 -133z" />
<glyph d="M86 0l139 190q152 -133 318 -133q109 0 176 45t67 127q0 98 -87 145.5t-306 47.5v213q350 0 350 188q0 68 -52 109t-140 41q-133 0 -277 -115l-151 184q205 166 442 166q215 0 347 -97t132 -265q0 -205 -247 -303v-8q131 -37 210.5 -118t79.5 -206q0 -182 -150.5 -288.5 t-365.5 -106.5q-317 0 -485 184z" />
<glyph d="M72 170v207l542 807h365v-785h164v-229h-164v-330h-281v330h-626zM362 399h336v244q0 78 11 287h-9q-37 -66 -139 -225z" />
<glyph d="M94 -2l135 190q158 -131 308 -131q115 0 183 57.5t68 164.5q0 104 -65.5 157t-171.5 53q-102 0 -219 -65l-133 86l34 674h797v-252h-536l-23 -262q74 31 172 30q195 0 321 -104t126 -309q0 -215 -149.5 -343t-360.5 -128q-296 0 -486 182z" />
<glyph d="M125 621q0 344 163 524t396 180q248 0 416 -156l-160 -180q-100 92 -229 92q-131 0 -216 -98t-94 -313q70 68 155 105.5t159 37.5q180 0 291.5 -102.5t111.5 -299t-136 -316.5t-331 -120q-221 0 -373.5 162t-152.5 484zM410 471q23 -143 86 -206.5t149 -63.5 q84 0 141.5 53t57.5 158q0 188 -195 188q-131 0 -239 -129z" />
<glyph d="M127 932v252h977v-185q-123 -139 -199 -261t-119 -264t-60 -280.5t-28 -353.5h-303q18 346 101.5 591t283.5 501h-653z" />
<glyph d="M125 332q0 201 246 319v8q-190 133 -191 308q0 164 123 261t320 97q195 0 310.5 -97.5t115.5 -258.5q0 -166 -187 -285v-8q244 -121 244 -340q0 -158 -131 -259.5t-363 -101.5q-223 0 -355 98.5t-132 258.5zM385 367q0 -84 66.5 -133.5t169.5 -49.5q94 0 149 41t55 121 q0 76 -63.5 118t-214.5 96q-23 9 -35 13q-127 -91 -127 -206zM444 967q0 -74 63.5 -120t194.5 -89q98 89 99 190q0 76 -48 122t-137 46q-76 0 -124 -39t-48 -110z" />
<glyph d="M109 760q0 203 136 325.5t330 122.5q221 0 374 -161.5t153 -483.5q0 -367 -162 -557t-397 -190q-248 -1 -416 155l160 181q102 -94 229 -95q279 0 309 416q-70 -68 -155.5 -105.5t-157.5 -37.5q-178 0 -290.5 110.5t-112.5 319.5zM383 760q0 -106 52.5 -161.5 t142.5 -55.5q135 0 243 137q-35 303 -239 303q-84 0 -141.5 -55.5t-57.5 -167.5z" />
<glyph d="M63 647q0 182 50.5 322.5t138.5 223.5t199.5 125t240.5 42q213 0 323.5 -125t110.5 -322v-577h-159l-23 102h-8q-88 -127 -246 -127q-111 0 -185.5 83t-74.5 204q0 158 130 239t380 113v15q0 90 -67.5 151.5t-188.5 61.5q-76 0 -145.5 -30t-132 -89.5t-99.5 -168 t-37 -249.5q0 -246 127 -378t308 -132q145 0 272 78l86 -150q-188 -111 -369 -110q-264 0 -447.5 181t-183.5 517zM649 604q0 -45 29 -71.5t80 -26.5q76 0 151 76v186q-143 -23 -201.5 -58.5t-58.5 -105.5z" />
<glyph d="M485 1016q0 55 37 94t92.5 39t92 -39t36.5 -94q0 -57 -36.5 -94t-92 -37t-92.5 37t-37 94z" />
<glyph d="M465 748q158 51 158 155h-9q-53 0 -91 33t-38 90q0 53 39 88t94 35q70 0 108 -52.5t38 -146.5q0 -117 -66.5 -198.5t-187.5 -116.5z" />
<glyph d="M485 -233q0 55 37 94t92.5 39t92 -39t36.5 -94q0 -57 -36.5 -94.5t-92 -37.5t-92.5 37.5t-37 94.5z" />
<glyph d="M465 -502q158 51 158 156h-9q-53 0 -91 32.5t-38 90.5q0 53 39 88t94 35q70 0 108 -52.5t38 -146.5q0 -117 -66.5 -198.5t-187.5 -116.5z" />
<glyph d="M311 324q0 156 85 248t218.5 92t218.5 -92.5t85 -247.5q0 -158 -85 -253.5t-218.5 -95.5t-218.5 95.5t-85 253.5zM516 324q0 -187 98.5 -187t98.5 187q0 178 -98.5 178t-98.5 -178z" />
<glyph d="M401 434v131q121 16 215 74h170v-639h-219v434h-166z" />
<glyph d="M319 530q129 133 275 134q123 0 194.5 -59.5t71.5 -164t-166 -262.5h189v-178h-533v113q299 197 299 290q0 84 -90 84q-59 0 -113 -71z" />
<glyph d="M338 61l84 136q84 -59 168 -60q86 0 86 60q0 72 -150 71v113q125 0 125 65q0 55 -80 56q-49 0 -135 -51l-86 127q109 86 271 86q102 0 172.5 -51.5t70.5 -131.5q0 -57 -25.5 -91t-84.5 -54q135 -37 135 -156q0 -90 -79 -147.5t-194 -57.5q-163 0 -278 86z" />
<glyph d="M330 125v104l245 410h275v-379h104v-135h-104v-125h-193v125h-327zM524 260h133v45l13 203h-8l-70 -127z" />
<glyph d="M338 61l84 136q88 -59 168 -60q39 0 64.5 18.5t25.5 53.5q0 74 -90 74q-51 0 -105 -33l-88 59l29 330h436v-180h-272l-8 -72q31 12 88 12q102 0 162.5 -53t60.5 -145q0 -94 -79 -160t-196 -66q-165 0 -280 86z" />
<glyph d="M332 317q0 145 89 246t247 101q119 0 223 -84l-86 -125q-57 47 -121 47q-137 0 -156 -164q70 59 162 59q94 0 149.5 -50t55.5 -142q0 -96 -72.5 -163t-183.5 -67q-143 0 -225 94.5t-82 247.5zM532 227q19 -90 97 -90q74 0 73 66q0 63 -77 63q-51 0 -93 -39z" />
<glyph d="M362 461v178h541v-115q-111 -125 -149.5 -237.5t-46.5 -286.5h-230q8 131 50 231.5t135 229.5h-300z" />
<glyph d="M340 162q0 57 33 92t92 65v9q-41 29 -57.5 41t-33 40.5t-16.5 67.5q0 82 75 134.5t181 52.5q111 0 184.5 -51.5t73.5 -135.5q0 -82 -108 -133v-8q63 -33 94 -70t31 -104q0 -78 -78 -132.5t-196.5 -54.5t-196.5 54.5t-78 132.5zM532 178q0 -29 23 -46t59 -17q35 0 58.5 16 t23.5 43q0 51 -110 84q-54 -27 -54 -80zM551 471q0 -43 90 -74q39 25 39 66q0 25 -18.5 41t-49.5 16q-27 0 -44 -14t-17 -35z" />
<glyph d="M336 434q0 96 72.5 163t183.5 67q143 0 225 -95.5t82 -249.5q0 -145 -89 -244.5t-247 -99.5q-125 0 -223 84l84 123q55 -45 123 -45q135 0 153 160q-68 -55 -162 -55t-148 49t-54 143zM528 434q0 -63 76 -63q43 0 94 37q-20 94 -98 94q-72 0 -72 -68z" />
<glyph d="M438 340q0 154 55.5 276.5t165.5 243.5l162 -98q-170 -199 -170 -422q0 -225 170 -424l-162 -98q-111 121 -166 243.5t-55 278.5z" />
<glyph d="M408 -84q170 199 170 424q0 223 -170 422l161 98q111 -121 166.5 -243.5t55.5 -276.5q0 -156 -55.5 -278.5t-166.5 -243.5z" />
<glyph d="M485 115q0 55 37 94t92.5 39t92 -39t36.5 -94q0 -57 -36.5 -94t-92 -37t-92.5 37t-37 94z" />
<glyph d="M465 -154q158 51 158 156h-9q-53 0 -91 33t-38 90q0 53 39 88t94 35q70 0 108 -52.5t38 -146.5q0 -117 -66.5 -198.5t-187.5 -116.5z" />
<glyph d="M311 985q0 156 85 248t218.5 92t218.5 -92t85 -248t-85 -251t-218.5 -95t-218.5 95t-85 251zM516 985q0 -186 98.5 -186t98.5 186q0 178 -98.5 178t-98.5 -178z" />
<glyph d="M401 1098v131q121 14 215 71h170v-636h-219v434h-166z" />
<glyph d="M324 1192q127 133 272 133q123 0 195.5 -59.5t72.5 -161.5q0 -109 -168 -264h191v-176h-535v112q301 197 301 289q0 86 -90 86q-61 0 -112 -72z" />
<glyph d="M338 723l84 135q84 -59 168 -59q37 0 61.5 15t24.5 44q0 72 -150 72v114q125 0 125 66q0 53 -80 53q-57 0 -135 -51l-86 129q104 84 271 84q104 0 173.5 -50t69.5 -130q0 -57 -24.5 -92t-85.5 -56q135 -37 135 -155q0 -88 -79 -145.5t-194 -57.5q-161 0 -278 84z" />
<glyph d="M330 786v107l245 407h275v-378h104v-136h-104v-122h-193v122h-327zM524 922h133v45l13 204h-8l-70 -127z" />
<glyph d="M338 723l84 135q88 -59 168 -59q39 0 64.5 18.5t25.5 52.5q0 76 -90 76q-45 0 -105 -33l-88 58l29 329h436v-178h-272l-8 -73q37 14 88 14q102 0 162.5 -53.5t60.5 -145.5q0 -96 -79 -160.5t-196 -64.5q-163 0 -280 84z" />
<glyph d="M330 981q0 145 89 244.5t247 99.5q125 0 223 -84l-84 -123q-55 45 -123 45q-135 0 -154 -159q68 55 162 55t148.5 -49t54.5 -142q0 -98 -72.5 -163.5t-183.5 -65.5q-143 0 -225 94t-82 248zM530 893q21 -94 99 -94q72 0 71 67q0 63 -75 64q-43 0 -95 -37z" />
<glyph d="M362 1122v178h541v-112q-111 -125 -149.5 -237.5t-46.5 -286.5h-230q8 131 50 230t135 228h-300z" />
<glyph d="M340 823q0 57 33 93t92 67v8q-39 25 -56.5 39t-34 43t-16.5 68q0 82 75 133t181 51q111 0 184.5 -51t73.5 -133q0 -84 -108 -135v-9q61 -31 93 -68.5t32 -105.5q0 -76 -78 -130t-196.5 -54t-196.5 54t-78 130zM532 842q0 -29 23 -46.5t59 -17.5q35 0 58.5 16.5t23.5 41.5 q0 53 -110 86q-54 -31 -54 -80zM551 1133q0 -43 90 -74q39 27 39 65q0 57 -68 58q-61 0 -61 -49z" />
<glyph d="M336 1096q0 96 72.5 162.5t183.5 66.5q141 0 224 -94t83 -248q0 -145 -89 -244.5t-247 -99.5q-125 0 -223 82l84 125q57 -47 123 -47q135 0 153 162q-66 -55 -161 -56q-94 0 -148.5 49.5t-54.5 141.5zM528 1098q0 -63 76 -64q47 0 94 37q-20 92 -98 92q-72 1 -72 -65z " />
<glyph d="M438 874q0 156 55.5 278t165.5 245l162 -99q-170 -199 -170 -424q0 -223 170 -421l-162 -99q-111 121 -166 243.5t-55 276.5z" />
<glyph d="M408 453q170 199 170 421q0 225 -170 424l161 99q111 -123 166.5 -245t55.5 -278q0 -154 -55.5 -276.5t-166.5 -243.5z" />
<glyph d="M485 649q0 57 37 96t92.5 39t92 -38.5t36.5 -96.5q0 -55 -36.5 -92t-92 -37t-92.5 37t-37 92z" />
<glyph d="M465 381q80 27 119 63.5t39 94.5h-9q-53 0 -91 32.5t-38 88t39 90t94 34.5q70 0 108 -52t38 -146q0 -117 -66.5 -199t-187.5 -119z" />
<glyph d="M262 868q0 160 87 257.5t208 97.5q102 0 180 -84h6l19 67h164v-674h-172l-17 66h-4q-82 -82 -186 -82q-129 0 -207 95t-78 257zM481 870q0 -182 123 -182q68 0 111 55v267q-49 41 -115 41q-49 0 -84 -46.5t-35 -134.5z" />
<glyph d="M262 868q0 160 87 257.5t204 97.5q104 0 184 -86h6l17 69h166v-919h-211v200l8 101q-82 -72 -174 -72q-131 0 -209 94t-78 258zM481 870q0 -182 123 -182q68 0 111 55v267q-49 41 -113 41q-51 0 -86 -46.5t-35 -134.5z" />
<glyph d="M303 868q0 156 102.5 255.5t237.5 99.5q150 0 229.5 -91.5t79.5 -234.5q0 -20 -8 -86h-436q29 -135 188 -135q78 0 158 43l72 -125q-121 -78 -260 -78q-158 0 -260.5 94t-102.5 258zM418 1536h217l121 -227h-154zM506 940h266q0 121 -123 121t-143 -121z" />
<glyph d="M303 868q0 156 102.5 255.5t237.5 99.5q150 0 229.5 -91.5t79.5 -234.5q0 -20 -8 -86h-436q29 -135 188 -135q78 0 158 43l72 -125q-121 -78 -260 -78q-158 0 -260.5 94t-102.5 258zM506 940h266q0 121 -123 121t-143 -121zM526 1309l121 227h219l-184 -227h-156z" />
<glyph d="M262 868q0 160 87 257.5t208 97.5q102 0 180 -84h6l19 67h164v-674h-172l-17 66h-4q-82 -82 -186 -82q-129 0 -207 95t-78 257zM481 870q0 -182 123 -182q68 0 111 55v267q-49 41 -115 41q-49 0 -84 -46.5t-35 -134.5z" />
<glyph d="M262 881q0 147 91 244.5t204 97.5q104 0 178 -80h4l17 63h170v-663q0 -129 -93.5 -199t-265.5 -70q-147 0 -262 74l72 137q96 -49 190 -49q141 0 148 103l4 77q-72 -66 -172 -65q-127 0 -206 92t-79 238zM479 883q0 -78 34 -121t91 -43q66 0 111 59v232q-49 41 -115 41 q-49 0 -85 -45t-36 -123z" />
<glyph d="M35 207l381 354l104 -96l-332 -408zM709 870l331 408l154 -150l-381 -356z" />
<glyph d="M283 1683h319l166 -245h-240z" />
<glyph d="M461 1438l166 245h319l-246 -245h-239z" />
<glyph d="M270 1438l197 245h295l196 -245h-231l-109 125h-8l-108 -125h-232z" />
<glyph d="M266 1440q14 135 74.5 206.5t144.5 71.5q61 0 140.5 -46t105.5 -46q57 0 78 92h154q-14 -135 -75 -206.5t-145 -71.5q-61 0 -140 46t-105 46q-57 0 -78 -92h-154z" />
<glyph d="M326 1475v190h577v-190h-577z" />
<glyph d="M334 1683h166q23 -94 115 -94t114 94h166q-29 -245 -281 -245t-280 245z" />
<glyph d="M440 1593.5q0 69.5 49.5 113.5t125 44t124.5 -44t49 -113.5t-49 -113.5t-124.5 -44t-125 44t-49.5 113.5z" />
<glyph d="M268 1577q0 61 40 102t103.5 41t103.5 -41t40 -102t-40 -102t-103.5 -41t-103.5 41t-40 102zM674 1577q0 61 40 102t103.5 41t103.5 -41t40 -102t-40 -102t-103.5 -41t-103.5 41t-40 102z" />
<glyph d="M449 1665l34 150q344 -8 344 -187q0 -100 -78.5 -151.5t-205.5 -61.5l-23 119q90 18 90 61q0 57 -161 70z" />
<glyph d="M383 1628q0 90 64.5 145.5t167 55.5t167 -55.5t64.5 -145.5q0 -92 -63.5 -146.5t-168 -54.5t-168 54.5t-63.5 146.5zM530 1628q0 -41 23.5 -64.5t60.5 -23.5q35 0 58.5 23.5t23.5 64.5q0 39 -23.5 63.5t-58.5 24.5q-37 0 -60.5 -24.5t-23.5 -63.5z" />
<glyph d="M334 1438l129 245h256l-182 -245h-203zM700 1438l131 245h256l-184 -245h-203z" />
<glyph d="M270 1683h232l108 -124h8l109 124h231l-196 -245h-295z" />
<glyph d="M141 1683h256l131 -245h-202zM510 1683h256l129 -245h-203z" />
<glyph d="M401 -332q168 18 168 90q1 57 -118 86l81 164h177l-41 -96q119 -39 118 -152q0 -100 -102 -152t-260 -61z" />
<glyph d="M432 -264q0 86 49.5 157.5t104.5 110.5h184q-119 -96 -119 -188q0 -37 25.5 -57.5t60.5 -20.5q33 0 74 29l70 -152q-94 -72 -215 -72q-100 0 -167 51.5t-67 141.5z" />
<glyph d="M285 1294.5q0 53.5 35.5 90t91 36.5t91.5 -36.5t36 -90t-36 -89.5t-91.5 -36t-91 36t-35.5 89.5zM332 1548v142h565v-142h-565zM690 1294.5q0 53.5 36 90t91 36.5t91 -36.5t36 -90t-36 -89.5t-91 -36t-91 36t-36 89.5z" />
<glyph d="M285 1560.5q0 53.5 35.5 89.5t91 36t91.5 -36t36 -89.5t-36 -90t-91.5 -36.5t-91 36.5t-35.5 90zM326 1786v141h577v-141h-577zM690 1560.5q0 53.5 36 89.5t91 36t91 -36t36 -89.5t-36 -90t-91 -36.5t-91 36.5t-36 90z" />
<glyph d="M285 1294.5q0 53.5 35.5 90t91 36.5t91.5 -36.5t36 -90t-36 -89.5t-91.5 -36t-91 36t-35.5 89.5zM475 1509l170 228h258l-235 -228h-193zM690 1294.5q0 53.5 36 90t91 36.5t91 -36.5t36 -90t-36 -89.5t-91 -36t-91 36t-36 89.5z" />
<glyph d="M285 1560.5q0 53.5 35.5 89.5t91 36t91.5 -36t36 -89.5t-36 -90t-91.5 -36.5t-91 36.5t-35.5 90zM461 1749l166 246h315l-242 -246h-239zM690 1560.5q0 53.5 36 89.5t91 36t91 -36t36 -89.5t-36 -90t-91 -36.5t-91 36.5t-36 90z" />
<glyph d="M285 1294.5q0 53.5 35.5 90t91 36.5t91.5 -36.5t36 -90t-36 -89.5t-91.5 -36t-91 36t-35.5 89.5zM311 1737h205l94 -119h8l95 119h205l-177 -228h-254zM690 1294.5q0 53.5 36 90t91 36.5t91 -36.5t36 -90t-36 -89.5t-91 -36t-91 36t-36 89.5z" />
<glyph d="M270 1995h232l108 -123h8l109 123h231l-196 -246h-295zM285 1560.5q0 53.5 35.5 89.5t91 36t91.5 -36t36 -89.5t-36 -90t-91.5 -36.5t-91 36.5t-35.5 90zM690 1560.5q0 53.5 36 89.5t91 36t91 -36t36 -89.5t-36 -90t-91 -36.5t-91 36.5t-36 90z" />
<glyph d="M285 1294.5q0 53.5 35.5 90t91 36.5t91.5 -36.5t36 -90t-36 -89.5t-91.5 -36t-91 36t-35.5 89.5zM326 1737h258l170 -228h-193zM690 1294.5q0 53.5 36 90t91 36.5t91 -36.5t36 -90t-36 -89.5t-91 -36t-91 36t-36 89.5z" />
<glyph d="M285 1560.5q0 53.5 35.5 89.5t91 36t91.5 -36t36 -89.5t-36 -90t-91.5 -36.5t-91 36.5t-35.5 90zM287 1995h315l166 -246h-240zM690 1560.5q0 53.5 36 89.5t91 36t91 -36t36 -89.5t-36 -90t-91 -36.5t-91 36.5t-36 90z" />
<glyph d="M330 1176l166 262h237l166 -262h-184l-97 133h-8l-96 -133h-184zM834 1323l139 242h223l-195 -242h-167z" />
<glyph d="M291 1438l194 233h258l195 -233h-213l-107 112h-8l-106 -112h-213zM846 1577l139 246h234l-203 -246h-170z" />
<glyph d="M330 1176l166 262h237l166 -262h-184l-97 133h-8l-96 -133h-184zM762 1565h223l139 -242h-168z" />
<glyph d="M291 1438l194 233h258l195 -233h-213l-107 112h-8l-106 -112h-213zM729 1823h232l141 -246h-172z" />
<glyph d="M330 1176l166 262h237l166 -262h-184l-97 133h-8l-96 -133h-184zM805 1513l29 127q301 -8 301 -161q0 -92 -62.5 -134.5t-175.5 -58.5l-20 103q61 14 61 57q0 31 -28.5 47t-104.5 20z" />
<glyph d="M291 1438l194 233h258l195 -233h-213l-107 112h-8l-106 -112h-213zM805 1755l26 123q301 -8 302 -164q0 -160 -238 -178l-23 96q66 14 66 56q0 31 -29.5 46t-103.5 21z" />
<glyph d="M313 1174l164 227h275l163 -227h-194l-103 120h-8l-102 -120h-195zM315 1475q12 117 63.5 175t123.5 58q61 0 123.5 -39t85.5 -39q57 0 71 78h131q-12 -115 -63 -174t-123 -59q-61 0 -123.5 38.5t-85.5 38.5q-58 1 -72 -77h-131z" />
<glyph d="M291 1438l194 233h258l195 -233h-213l-107 112h-8l-106 -112h-213zM309 1745q12 115 62.5 173t124.5 58q61 0 130.5 -37.5t90.5 -37.5q55 0 74 75h129q-12 -115 -62.5 -173t-124.5 -58q-61 0 -131 39t-90 39q-58 0 -74 -78h-129z" />
<glyph d="M330 1460h133q23 -137 151.5 -137t151.5 137h133q-4 -121 -76.5 -202.5t-208 -81.5t-208 81.5t-76.5 202.5zM520 1417l117 242h217l-182 -242h-152z" />
<glyph d="M336 1683h137q27 -111 141.5 -110.5t141.5 110.5h137q-10 -115 -81 -180t-198 -65t-197.5 65.5t-80.5 179.5zM522 1655l131 243h228l-207 -243h-152z" />
<glyph d="M330 1460h133q23 -137 151.5 -137t151.5 137h133q-4 -121 -76.5 -202.5t-208 -81.5t-208 81.5t-76.5 202.5zM375 1659h217l117 -242h-152z" />
<glyph d="M336 1683h137q27 -111 141.5 -110.5t141.5 110.5h137q-10 -115 -81 -180t-198 -65t-197.5 65.5t-80.5 179.5zM348 1898h227l132 -243h-152z" />
<glyph d="M330 1460h133q23 -137 151.5 -137t151.5 137h133q-4 -121 -76.5 -202.5t-208 -81.5t-208 81.5t-76.5 202.5zM453 1657l26 127q303 -10 303 -164q0 -92 -63 -134t-176 -56l-19 102q61 14 62 57q0 31 -30 46.5t-103 21.5z" />
<glyph d="M336 1683h137q27 -111 141.5 -110.5t141.5 110.5h137q-10 -115 -81 -180t-198 -65t-197.5 65.5t-80.5 179.5zM457 1870l28 125q299 -10 299 -166q1 -160 -235 -178l-25 96q68 14 68 55q0 57 -135 68z" />
<glyph d="M315 1475q12 117 63.5 175t123.5 58q61 0 123.5 -39t85.5 -39q57 0 71 78h131q-12 -115 -63 -174t-123 -59q-61 0 -123.5 38.5t-85.5 38.5q-57 0 -72 -77h-131zM330 1419h141q25 -102 143.5 -102t143.5 102h141q-4 -104 -76.5 -173.5t-208 -69.5t-208 69.5t-76.5 173.5z " />
<glyph d="M301 1745q12 115 65.5 174t125.5 59q51 0 121.5 -40t93.5 -40q61 0 75 80h136q-12 -115 -65.5 -174t-125.5 -59q-51 0 -121.5 39t-93.5 39q-27 0 -48.5 -20.5t-27.5 -57.5h-135zM336 1683h137q27 -111 141.5 -110.5t141.5 110.5h137q-10 -115 -81 -180t-198 -65 t-197.5 65.5t-80.5 179.5z" />
<glyph d="M518 1577h193l-4 -141l-50 -314h-129z" />
<glyph d="M438 1286q0 98 102.5 151.5t262.5 61.5l22 -121q-170 -18 -170 -78q0 -53 88 -73l-57 -111q-135 12 -191.5 52t-56.5 118z" />
<glyph />
<glyph />
<glyph d="M313 1174l164 227h275l163 -227h-194l-103 120h-8l-102 -120h-195zM350 1708h142q18 -94 122.5 -94t122.5 94h142q-4 -102 -72 -168.5t-193 -66.5t-192.5 66.5t-71.5 168.5z" />
<glyph d="M291 1438l194 233h258l195 -233h-213l-107 112h-8l-106 -112h-213zM336 1976h137q27 -100 141.5 -100t141.5 100h137q-23 -235 -279 -235t-278 235z" />
</font>
</defs>
</svg>
