<?xml version="1.0" standalone="no"?>
<!DOCTYPE svg PUBLIC "-//W3C//DTD SVG 1.1//EN" "http://www.w3.org/Graphics/SVG/1.1/DTD/svg11.dtd" >
<svg xmlns="http://www.w3.org/2000/svg">
<metadata>
This is a custom SVG webfont generated by Font Squirrel.
Copyright   : Copyright 2010 2012 Adobe Systems Incorporated All Rights Reserved
Designer    : Paul D Hunt
Foundry     : Adobe Systems Incorporated
Foundry URL : httpwwwadobecomtype
</metadata>
<defs>
<font id="SourceCodeProExtraLight" horiz-adv-x="1228" >
<font-face units-per-em="2048" ascent="1536" descent="-512" />
<missing-glyph horiz-adv-x="500" />
<glyph unicode=" " />
<glyph unicode="!" d="M508 94.5q0 55.5 31.5 87t74.5 31.5t75 -31.5t32 -87t-32 -87.5t-75 -32t-74.5 32t-31.5 87.5zM586 1245v127h57v-127l-4 -807h-49z" />
<glyph unicode="&#x22;" d="M344 1243l2 166h127l2 -166l-37 -440h-57zM754 1243l2 166h127l2 -166l-37 -440h-57z" />
<glyph unicode="#" d="M205 446v58h180l45 364h-184v58h188l53 405h58l-53 -405h319l53 405h58l-54 -405h168v-58h-172l-45 -364h176v-58h-184l-53 -446h-58l54 446h-320l-53 -446h-57l53 446h-172zM442 504h320l45 364h-320z" />
<glyph unicode="$" d="M209 229l37 45q174 -147 391 -147q154 0 240 67.5t86 178.5q0 88 -72 151.5t-173.5 102.5t-202.5 80t-173 107.5t-72 160.5q0 125 93.5 202.5t236.5 88.5v270h62v-270q106 -6 177.5 -42t143.5 -102l-41 -41q-78 68 -143.5 97.5t-171.5 29.5q-131 0 -211 -62.5t-80 -166.5 q0 -80 71.5 -136.5t173 -94t203 -78.5t173 -115t71.5 -178q0 -133 -105.5 -217t-260.5 -90v-295h-62v297q-215 10 -391 157z" />
<glyph unicode="%" d="M57 1008q0 156 74 241.5t197 85.5t196.5 -86t73.5 -241q0 -158 -73.5 -247t-196.5 -89t-197 89t-74 247zM78 119l368 409l37 -32l-352 -422zM119 1008q0 -131 58.5 -207t150.5 -76t150.5 76t58.5 207q0 133 -58.5 203.5t-150.5 70.5t-150.5 -70.5t-58.5 -203.5zM631 311 q0 156 73.5 242t196.5 86t196.5 -86t73.5 -242q0 -158 -73.5 -247t-196.5 -89t-196.5 89.5t-73.5 246.5zM692 311q0 -131 58.5 -206.5t150.5 -75.5t150.5 75.5t58.5 206.5q0 133 -58.5 204t-150.5 71t-150.5 -71t-58.5 -204zM745 856l353 422l53 -45l-369 -410z" />
<glyph unicode="&#x26;" d="M117 340q0 117 72.5 208t207.5 193q-92 188 -92 340q0 129 75 212t191 83q100 0 156.5 -66.5t56.5 -170.5q0 -61 -23.5 -115.5t-79.5 -112t-92 -87t-120 -93.5q141 -270 387 -495q145 180 223 464h62q-86 -305 -242 -501q143 -119 266 -166l-24 -58q-129 49 -281 177 q-166 -176 -362 -177q-160 0 -270.5 100.5t-110.5 264.5zM182 344q0 -137 93.5 -224t226.5 -87q164 0 315 157q-254 238 -395 504q-115 -90 -177.5 -171t-62.5 -179zM367 1085q0 -135 79 -307q92 70 139.5 110t92.5 108.5t45 138.5q0 76 -38 130t-118 54q-92 0 -146 -68 t-54 -166z" />
<glyph unicode="'" d="M549 1243l2 166h127l2 -166l-37 -440h-57z" />
<glyph unicode="(" d="M471 569.5q0 587.5 481 923.5l35 -47q-446 -334 -446 -876.5t446 -876.5l-35 -47q-481 336 -481 923.5z" />
<glyph unicode=")" d="M242 -307q446 334 446 876.5t-446 876.5l34 47q481 -336 481 -923.5t-481 -923.5z" />
<glyph unicode="*" d="M248 1176l18 49l303 -101l19 334h53l18 -330l304 97l18 -49l-291 -136l187 -297l-50 -34l-213 280l-213 -280l-49 34l187 297z" />
<glyph unicode="+" d="M201 606v58h381v417h65v-417h381v-58h-381v-418h-65v418h-381z" />
<glyph unicode="," d="M426 -379q125 66 186.5 157t65.5 228q-23 -8 -49 -8q-111 0 -111 108q0 55 32 83t77 28q61 0 95 -51t34 -139q0 -162 -81 -276.5t-222 -180.5z" />
<glyph unicode="-" d="M291 557v82h647v-82h-647z" />
<glyph unicode="." d="M508 94.5q0 55.5 31.5 87t74.5 31.5t75 -31.5t32 -87t-32 -87.5t-75 -32t-74.5 32t-31.5 87.5z" />
<glyph unicode="/" d="M246 -328l667 1782h70l-668 -1782h-69z" />
<glyph unicode="0" d="M172 659q0 326 114.5 501t327.5 175t328 -175t115 -501q0 -324 -116 -504t-327 -180t-326.5 180.5t-115.5 503.5zM238 659q0 -299 102 -462.5t274 -163.5t274.5 163.5t102.5 462.5q0 297 -102.5 458t-274.5 161t-274 -161t-102 -458zM508 680q0 55 31.5 87t74.5 32 t75 -32t32 -87t-32 -87t-75 -32t-74.5 32t-31.5 87z" />
<glyph unicode="1" d="M229 0v57h398v1131h-287v45q180 23 301 78h47v-1254h377v-57h-836z" />
<glyph unicode="2" d="M170 1143q188 193 403 192q188 0 294 -97t106 -263q0 -78 -35 -163t-83 -157.5t-151.5 -183.5t-187.5 -191.5t-246 -230.5q168 8 248 8h529v-57h-873v41q211 193 330 308.5t221 235.5t143 210t41 180q0 135 -84 219t-254 84q-199 0 -356 -176z" />
<glyph unicode="3" d="M143 160l41 45q172 -172 422 -172q160 0 264.5 85t104.5 222q0 147 -135 233t-406 86v62q252 0 372 83t120 216q0 117 -91.5 187.5t-236.5 70.5q-100 0 -195.5 -41t-160.5 -107l-41 46q174 160 397 159q168 0 280.5 -84t112.5 -227q0 -125 -84 -207t-219 -121v-8 q147 -27 249.5 -118t102.5 -226q0 -166 -124.5 -267.5t-313.5 -101.5q-266 1 -459 185z" />
<glyph unicode="4" d="M88 401v35l741 877h31v-852h236v-60h-236v-401h-61v401h-711zM188 461h611v555q2 31 5 93t5 93h-12q-20 -27 -62.5 -82t-62.5 -84z" />
<glyph unicode="5" d="M131 152l41 45q84 -76 179 -120t243 -44q162 0 277.5 105.5t115.5 267.5q0 166 -104.5 261t-284.5 95q-139 0 -303 -90l-53 33l49 606h692v-58h-635l-45 -503q152 74 299 73q205 0 328 -103.5t123 -309.5q0 -199 -137.5 -317t-325.5 -118q-160 0 -263.5 48.5 t-195.5 128.5z" />
<glyph unicode="6" d="M184 590q0 389 151.5 567t385.5 178q184 0 323 -123l-40 -45q-117 111 -287 111q-205 0 -335 -163t-132 -517q193 188 414 188q193 0 301 -105.5t108 -299.5q0 -172 -121 -289t-288 -117q-225 0 -352.5 162t-127.5 453zM252 520q14 -225 117.5 -356t298.5 -131 q145 0 242.5 101.5t97.5 246.5q0 166 -88.5 257t-260.5 91q-215 0 -407 -209z" />
<glyph unicode="7" d="M156 1253v58h921v-37q-264 -309 -369.5 -593t-117.5 -681h-74q14 401 123 679.5t352 573.5h-835z" />
<glyph unicode="8" d="M152 336q0 233 309 373v8q-207 117 -207 303q0 137 105.5 226t265.5 89q184 0 287.5 -95t103.5 -245q0 -180 -211 -336v-8q137 -68 202.5 -136.5t65.5 -199.5q0 -145 -121 -242.5t-327 -97.5q-215 0 -344 102.5t-129 258.5zM217 336q0 -129 110.5 -216t297.5 -87 q182 0 282.5 80t100.5 202q0 63 -23.5 112.5t-57.5 82.5t-95.5 62.5t-114.5 48t-137 44.5q-19 7 -32 11t-28 8q-147 -70 -225 -149.5t-78 -198.5zM319 1020q0 -133 105.5 -207t310.5 -137q215 143 215 319q0 121 -86 202t-239 81q-137 0 -221.5 -72.5t-84.5 -185.5z" />
<glyph unicode="9" d="M160 930q0 172 120.5 288.5t288.5 116.5q225 0 352.5 -161.5t127.5 -452.5q0 -389 -152 -567.5t-385 -178.5q-185 0 -324 123l41 45q117 -111 287 -110q205 0 335 162.5t132 517.5q-193 -188 -414 -189q-193 0 -301 105.5t-108 300.5zM225 930q0 -166 88 -257t260 -91 q215 0 408 209q-14 225 -117.5 356t-298.5 131q-145 0 -242.5 -101.5t-97.5 -246.5z" />
<glyph unicode=":" d="M508 94.5q0 55.5 31.5 87t74.5 31.5t75 -31.5t32 -87t-32 -87.5t-75 -32t-74.5 32t-31.5 87.5zM508 884.5q0 55.5 31.5 87.5t74.5 32t75 -32t32 -87.5t-32 -87t-75 -31.5t-74.5 31.5t-31.5 87z" />
<glyph unicode=";" d="M426 -379q125 66 186.5 157t65.5 228q-23 -8 -49 -8q-111 0 -111 108q0 55 32 83t77 28q61 0 95 -51t34 -139q0 -162 -81 -276.5t-222 -180.5zM508 884.5q0 55.5 31.5 87.5t74.5 32t75 -32t32 -87.5t-32 -87t-75 -31.5t-74.5 31.5t-31.5 87z" />
<glyph unicode="&#x3c;" d="M254 606v66l741 520v-74l-676 -475v-8l676 -475v-74z" />
<glyph unicode="=" d="M201 401v58h827v-58h-827zM201 811v57h827v-57h-827z" />
<glyph unicode="&#x3e;" d="M233 86v74l676 475v8l-676 475v74l742 -520v-66z" />
<glyph unicode="?" d="M242 1245q152 152 360 152q160 0 254 -88t94 -219q0 -74 -41 -142.5t-97 -122t-111.5 -108.5t-87 -127t-19.5 -152h-57q-14 86 15.5 160t83.5 129t110.5 107.5t97.5 117t41 133.5q0 111 -72 182.5t-215 71.5q-182 0 -311 -135zM479 94.5q0 55.5 32 87t75 31.5t74.5 -31.5 t31.5 -87t-31.5 -87.5t-74.5 -32t-75 32t-32 87.5z" />
<glyph unicode="@" d="M131 508q0 362 164 570t426 208q190 0 289.5 -131t99.5 -344v-606h-53l-8 131h-9q-53 -61 -135 -108.5t-155 -47.5q-113 0 -190 65.5t-77 188.5q0 145 139.5 229.5t426.5 118.5v27q0 186 -82 303t-252 117q-225 0 -371.5 -196.5t-146.5 -528.5q0 -336 139 -536.5 t364 -200.5q178 0 304 102l32 -45q-145 -115 -336 -115q-246 0 -407.5 215t-161.5 584zM549 434q0 -92 56.5 -144t152.5 -52q145 0 291 176v315q-262 -37 -381 -107.5t-119 -187.5z" />
<glyph unicode="A" d="M102 0l484 1352h57l483 -1352h-69l-168 483h-551l-170 -483h-66zM358 541h510l-94 270q-109 309 -156 471h-8q-47 -162 -155 -471z" />
<glyph unicode="B" d="M244 0v1352h327q207 0 323 -83t116 -245q0 -109 -61.5 -186.5t-180.5 -108.5v-8q154 -23 241 -106t87 -222q0 -190 -133.5 -291.5t-366.5 -101.5h-352zM309 57h262q219 0 339 82t120 250q0 152 -118.5 227.5t-340.5 75.5h-262v-635zM309 750h221q217 0 315.5 69.5 t98.5 212.5q0 262 -401 262h-234v-544z" />
<glyph unicode="C" d="M152 679.5q0 317.5 156.5 507t414.5 189.5q209 0 344 -159l-41 -46q-123 143 -303 144q-233 0 -367.5 -171t-134.5 -464t133 -468t361 -175q199 0 352 172l41 -41q-166 -193 -397 -193q-250 0 -404.5 193.5t-154.5 511z" />
<glyph unicode="D" d="M205 0v1352h303q303 0 454.5 -179.5t151.5 -492.5t-151.5 -496.5t-454.5 -183.5h-303zM270 57h230q276 0 410 170t134 453t-134 448.5t-410 165.5h-230v-1237z" />
<glyph unicode="E" d="M270 0v1352h787v-58h-721v-544h606v-58h-606v-635h741v-57h-807z" />
<glyph unicode="F" d="M319 0v1352h775v-58h-711v-569h598v-57h-598v-668h-64z" />
<glyph unicode="G" d="M125 680q0 317 157.5 506.5t419.5 189.5q203 0 355 -159l-41 -46q-129 143 -314 144q-236 0 -371.5 -171t-135.5 -464q0 -295 131 -469t360 -174q209 0 315 110v447h-327v57h395v-524q-137 -152 -387 -152q-252 0 -404.5 193t-152.5 512z" />
<glyph unicode="H" d="M188 0v1352h66v-602h721v602h65v-1352h-65v692h-721v-692h-66z" />
<glyph unicode="I" d="M229 0v57h353v1237h-353v58h770v-58h-352v-1237h352v-57h-770z" />
<glyph unicode="J" d="M201 201l61 35q115 -201 309 -201q174 0 255 95t81 288v880h-596v56h662v-942q0 -436 -404 -437q-119 0 -217 58.5t-151 167.5z" />
<glyph unicode="K" d="M250 0v1352h65v-779h4l705 779h80l-442 -496l501 -856h-78l-473 807l-297 -328v-479h-65z" />
<glyph unicode="L" d="M319 0v1352h62v-1295h721v-57h-783z" />
<glyph unicode="M" d="M195 0v1352h94l237 -652l86 -245h9l81 245l238 652h94v-1352h-65v1014q0 10 6 262h-6l-74 -225l-252 -680h-55l-254 680l-80 225h-4q0 -27 4 -120t4 -142v-1014h-63z" />
<glyph unicode="N" d="M197 0v1352h67l561 -996l150 -262h4q0 45 -4 176t-4 203v879h61v-1352h-67l-562 995l-149 262h-4q0 -47 4 -173t4 -197v-887h-61z" />
<glyph unicode="O" d="M115 680q0 315 139 505.5t360.5 190.5t360.5 -190.5t139 -505.5q0 -317 -140 -511t-359.5 -194t-359.5 193.5t-140 511.5zM184 680q0 -291 119 -467t311.5 -176t311 176t118.5 467t-118.5 463t-311 172t-311.5 -172t-119 -463z" />
<glyph unicode="P" d="M254 0v1352h352q236 0 355.5 -86t119.5 -283q0 -190 -122.5 -287.5t-352.5 -97.5h-287v-598h-65zM319 655h263q221 0 325.5 78t104.5 250q0 174 -102.5 242.5t-327.5 68.5h-263v-639z" />
<glyph unicode="Q" d="M123 680q0 317 135 507.5t356.5 190.5t356.5 -190.5t135 -507.5q0 -305 -125 -495.5t-332 -207.5q72 -217 332 -217q55 1 94 15l15 -66q-70 -16 -117 -16q-154 0 -253 77.5t-145 206.5q-205 16 -328.5 208t-123.5 495zM188 680q0 -291 116 -469t310.5 -178t310 178 t115.5 469q0 293 -115.5 467t-310 174t-310.5 -174t-116 -467z" />
<glyph unicode="R" d="M254 0v1352h373q434 0 434 -348q0 -160 -96.5 -252.5t-268.5 -108.5l385 -643h-77l-381 639h-304v-639h-65zM319 696h283q389 0 389 308q0 156 -97 223t-292 67h-283v-598z" />
<glyph unicode="S" d="M164 180l45 45q168 -188 426 -188q170 0 273.5 81t103.5 210q0 66 -19.5 112.5t-63.5 82.5t-82 55.5t-106 48.5l-209 94q-59 25 -100 47.5t-91 61t-76.5 95t-26.5 128.5q0 143 113.5 233t287.5 90q233 0 389 -159l-41 -46q-137 143 -348 144q-152 0 -244 -70.5 t-92 -187.5q0 -47 18.5 -89t41 -68t64.5 -51.5t66.5 -36.5t67.5 -30l209 -94q150 -63 228.5 -139t78.5 -217q0 -156 -123 -256.5t-319 -100.5q-287 0 -471 205z" />
<glyph unicode="T" d="M102 1294v58h1024v-58h-479v-1294h-65v1294h-480z" />
<glyph unicode="U" d="M188 504v848h66v-832q0 -260 100.5 -371.5t259.5 -111.5q162 0 263.5 111.5t101.5 371.5v832h61v-848q0 -150 -35.5 -257.5t-98 -164.5t-134.5 -82t-158 -25t-157.5 25t-134 82t-98.5 164.5t-36 257.5z" />
<glyph unicode="V" d="M133 1352h70l262 -811q115 -365 147 -457h9q33 92 147 457l262 811h66l-447 -1352h-65z" />
<glyph unicode="W" d="M31 1354h59l160 -953q6 -59 23.5 -168.5t23.5 -154.5h4q57 178 98 323l181 598h71l185 -598q33 -123 94 -323h8q6 51 22.5 159.5t24.5 163.5l154 953h57l-223 -1354h-86l-207 678q-12 41 -31.5 118.5t-30.5 114.5h-6q-8 -29 -20 -74.5t-23.5 -84.5t-21.5 -74l-201 -678 h-86z" />
<glyph unicode="X" d="M170 0l410 700l-381 652h69l238 -418q20 -35 57 -94.5t53 -85.5h9q72 129 102 180l238 418h65l-381 -656l410 -696h-70l-250 434q-12 23 -127 213h-8q-45 -82 -119 -213l-249 -434h-66z" />
<glyph unicode="Y" d="M115 1352h65l254 -463q35 -57 94.5 -165t85.5 -155h9q66 109 184 322l246 461h61l-467 -850v-502h-65v502z" />
<glyph unicode="Z" d="M147 0v39l852 1259h-780v56h858v-39l-854 -1258h869v-57h-945z" />
<glyph unicode="[" d="M504 -311v1761h532v-47h-475v-1667h475v-47h-532z" />
<glyph unicode="\" d="M246 1454h69l668 -1782h-70z" />
<glyph unicode="]" d="M193 -264h475v1667h-475v47h532v-1761h-532v47z" />
<glyph unicode="^" d="M270 598l308 774h73l307 -774h-65l-168 438l-107 271h-8l-106 -271l-168 -438h-66z" />
<glyph unicode="_" d="M123 -168h983v-78h-983v78z" />
<glyph unicode="`" d="M451 1446h81l189 -275h-57z" />
<glyph unicode="a" d="M197 240q0 164 178 248.5t588 121.5q0 336 -304 336q-197 0 -380 -139l-33 49q70 53 185.5 100.5t232.5 47.5q184 0 272 -103.5t88 -265.5v-635h-53l-8 152h-5q-219 -176 -417 -177q-143 0 -243.5 67t-100.5 198zM262 242q0 -106 83 -157.5t200 -51.5q195 0 418 188v336 q-385 -37 -543 -110.5t-158 -204.5z" />
<glyph unicode="b" d="M225 0v1479h62v-439l-4 -217q184 180 385 181q205 0 311 -133.5t106 -366.5q0 -240 -134 -384.5t-324 -144.5q-76 0 -168 37t-168 99h-4l-8 -111h-54zM287 188q86 -78 179 -116.5t165 -38.5q170 0 279.5 133t109.5 338q0 201 -87 321.5t-269 120.5q-184 0 -377 -192v-566 z" />
<glyph unicode="c" d="M184 487.5q0 237.5 151.5 377t377.5 139.5q195 0 350 -152l-41 -45q-143 139 -309 139q-205 0 -334 -128t-129 -330.5t127 -328.5t336 -126q186 0 340 147l37 -45q-166 -160 -377 -160q-233 0 -381 137.5t-148 375z" />
<glyph unicode="d" d="M143 487q0 229 137.5 373t329.5 144q164 0 336 -144l-4 205v414h62v-1479h-54l-8 152h-4q-168 -176 -360 -177q-199 0 -317 134t-118 378zM209 487q0 -205 100.5 -329.5t272.5 -124.5q178 0 360 192v566q-163 155 -334 155h-2q-166 0 -281.5 -134.5t-115.5 -324.5z" />
<glyph unicode="e" d="M164 487q0 229 145.5 373t341.5 144q199 0 316.5 -120t117.5 -331q0 -41 -4 -66h-852q0 -199 125 -326.5t326 -127.5q180 0 336 110l28 -53q-178 -115 -368 -115q-217 0 -364.5 139.5t-147.5 372.5zM229 541h795q0 197 -100.5 301t-272.5 104q-160 0 -282 -111.5 t-140 -293.5z" />
<glyph unicode="f" d="M246 922v49l299 8v131q0 190 90 291.5t266 101.5q143 0 270 -61l-24 -49q-111 53 -246 53q-299 0 -299 -328v-139h471v-57h-471v-922h-57v922h-299z" />
<glyph unicode="g" d="M180 -190q0 57 45 121.5t123 113.5v8q-102 47 -102 156q0 102 119 184v8q-115 100 -115 254q0 147 104.5 248t251.5 101q76 0 131 -25h410v-57h-311q127 -119 127 -267q0 -145 -103.5 -244.5t-253.5 -99.5q-100 0 -192 49q-102 -61 -103 -145q0 -145 234 -145h252 q186 0 268 -50.5t82 -166.5q0 -129 -142.5 -230.5t-365.5 -101.5q-225 0 -342 78t-117 211zM246 -199q0 -98 97 -160.5t284 -62.5q203 0 328.5 83t125.5 187q0 86 -64.5 121t-203.5 35h-248q-88 0 -149 19q-170 -91 -170 -222zM315 655q0 -125 85 -205.5t206 -80.5t206 80.5 t85 205.5t-85 208t-206 83t-206 -83t-85 -208z" />
<glyph unicode="h" d="M225 0v1479h62v-439l-4 -266q109 115 202 172.5t203 57.5q180 0 268 -96.5t88 -297.5v-610h-61v602q0 176 -70.5 260t-224.5 84q-104 0 -192 -54t-209 -183v-709h-62z" />
<glyph unicode="i" d="M205 922v57h565v-979h-61v922h-504zM635 1315q0 39 23.5 62.5t58.5 23.5t58.5 -23.5t23.5 -62.5t-23.5 -62.5t-58.5 -23.5t-58.5 23.5t-23.5 62.5z" />
<glyph unicode="j" d="M135 -414l29 54q119 -61 244 -62q168 0 234.5 81t66.5 235v1028h-504v57h565v-1073q0 -190 -85 -287.5t-288 -97.5q-135 0 -262 65zM635 1315q0 39 23.5 62.5t58.5 23.5t58.5 -23.5t23.5 -62.5t-23.5 -62.5t-58.5 -23.5t-58.5 23.5t-23.5 62.5z" />
<glyph unicode="k" d="M266 0v1479h62v-1123l4 4l672 619h81l-405 -377l475 -602h-74l-450 565l-303 -286v-279h-62z" />
<glyph unicode="l" d="M199 1421v58h436v-1209q0 -237 217 -237h2q94 0 211 55l25 -51q-156 -61 -240 -62q-276 0 -277 308v1138h-374z" />
<glyph unicode="m" d="M164 0v979h53l8 -135h4q49 82 100.5 121t127.5 39q160 0 198 -177q61 94 114.5 135.5t129.5 41.5q211 0 211 -291v-713h-61v705q0 241 -153 241h-1q-70 0 -121 -47t-106 -149v-750h-62v705q0 241 -152 241h-1q-70 0 -121 -47t-107 -149v-750h-61z" />
<glyph unicode="n" d="M225 0v979h54l8 -197h8q98 109 190.5 165.5t202.5 56.5q180 0 268 -96.5t88 -297.5v-610h-61v602q0 176 -70.5 260t-224.5 84q-104 0 -192 -54t-209 -183v-709h-62z" />
<glyph unicode="o" d="M143 487q0 238 135.5 377.5t336 139.5t335.5 -139.5t135 -377.5q0 -236 -136 -374t-334.5 -138t-335 138t-136.5 374zM209 487.5q0 -200.5 114.5 -327.5t291 -127t291 127t114.5 327.5t-114.5 329.5t-291 129t-291 -129t-114.5 -329.5z" />
<glyph unicode="p" d="M225 -455v1434h54l8 -148h4q78 76 179 124.5t198 48.5q205 0 311 -133.5t106 -366.5q0 -240 -134 -384.5t-328 -144.5q-74 0 -167 39t-169 105v-205v-369h-62zM287 188q86 -78 179 -116.5t161 -38.5q172 0 282.5 132t110.5 339q0 201 -87 321.5t-269 120.5 q-184 0 -377 -192v-566z" />
<glyph unicode="q" d="M143 487q0 229 137.5 373t329.5 144q166 0 328 -140h4l8 115h54v-1434h-62v410l4 201q-180 -180 -368 -181q-199 0 -317 134t-118 378zM209 487q0 -205 100.5 -329.5t272.5 -124.5q178 0 360 192v566q-163 155 -334 155h-2q-166 0 -281.5 -134.5t-115.5 -324.5z" />
<glyph unicode="r" d="M348 0v979h53l9 -246h4q84 123 204.5 197t264.5 74q117 0 196 -41l-16 -58q-102 37 -189 37q-268 0 -464 -315v-627h-62z" />
<glyph unicode="s" d="M178 131l39 49q174 -147 447 -147q154 0 238.5 60.5t84.5 148.5q0 78 -74.5 132t-289.5 105q-389 92 -390 271q0 109 94.5 181.5t278.5 72.5q94 0 196.5 -33t172.5 -86l-37 -49q-144 110 -333 110h-3q-160 0 -231.5 -54t-71.5 -138q0 -131 340 -215q238 -59 326 -124 t88 -169q0 -113 -106.5 -192t-287.5 -79q-268 0 -481 156z" />
<glyph unicode="t" d="M174 922v49l301 8l8 287h54v-287h534v-57h-534v-570q0 -160 60 -239.5t220 -79.5q141 0 270 53l21 -49q-147 -61 -295 -62q-184 0 -261 99.5t-77 285.5v562h-301z" />
<glyph unicode="u" d="M184 369v610h62v-602q0 -176 70.5 -260t224.5 -84q106 0 198 56t203 181v709h62v-979h-54l-8 197h-8q-188 -221 -393 -222q-180 0 -268.5 96.5t-88.5 297.5z" />
<glyph unicode="v" d="M135 979h66l286 -635q76 -164 127 -278h9q16 37 57 131t65 147l287 635h62l-447 -979h-61z" />
<glyph unicode="w" d="M25 979h69l170 -660q57 -229 64 -258h8q8 29 21.5 80.5t24.5 94.5t21 83l170 660h86l170 -660l68 -258h8q51 199 66 258l168 660h65l-262 -979h-86l-168 639q-10 35 -32.5 130t-37.5 149h-8q-59 -252 -69 -283l-164 -635h-86z" />
<glyph unicode="x" d="M176 0l399 508l-366 471h74l200 -262q117 -152 127 -164h8q66 78 136 168l196 258h70l-371 -471l404 -508h-74l-221 281q-18 20 -67.5 84.5t-76.5 97.5h-8q-82 -102 -143 -184l-217 -279h-70z" />
<glyph unicode="y" d="M131 979h66l303 -643q86 -182 139 -275h8q20 43 119 275l270 643h62l-471 -1118q-45 -131 -141.5 -223.5t-235.5 -92.5q-68 0 -113 21l21 57q49 -16 98 -16q211 0 322 278l36 90z" />
<glyph unicode="z" d="M147 0v33l803 889h-717v57h816v-33l-803 -889h827v-57h-926z" />
<glyph unicode="{" d="M270 545v49q309 0 310 166q0 63 -9.5 212.5t-9.5 219.5q0 145 89 201.5t288 56.5h98v-47h-123q-172 0 -231 -50t-59 -169q0 -61 7 -197.5t7 -204.5q0 -90 -37 -140t-133 -69v-8q96 -18 133 -68.5t37 -140.5q0 -78 -7 -205.5t-7 -195.5q0 -119 59 -169t231 -50h123v-47 h-98q-199 0 -288 56.5t-89 201.5q0 76 9.5 218t9.5 214q0 166 -310 166z" />
<glyph unicode="|" d="M586 -512v2048h57v-2048h-57z" />
<glyph unicode="}" d="M193 -264h122q172 0 233.5 50t61.5 169q0 68 -8 196t-8 205q0 92 36 142.5t132 66.5v8q-96 16 -132 66.5t-36 142.5q0 68 8 204t8 198q0 119 -61.5 169t-233.5 50h-122v47h98q199 0 287 -55.5t88 -202.5q0 -70 -8.5 -219.5t-8.5 -212.5q0 -166 307 -166v-49 q-307 0 -307 -166q0 -72 8.5 -214t8.5 -218q0 -147 -88.5 -202.5t-286.5 -55.5h-98v47z" />
<glyph unicode="~" d="M197 532q74 225 233 226q66 0 134.5 -47t129 -94.5t109.5 -47.5q61 0 102 35t78 150l49 -21q-74 -221 -233 -221q-66 0 -134.5 47t-129 94t-109.5 47q-61 0 -102 -35.5t-78 -148.5z" />
<glyph unicode="&#xa0;" />
<glyph unicode="&#xa1;" d="M508 884.5q0 55.5 31.5 87.5t74.5 32t75 -32t32 -87.5t-32 -87t-75 -31.5t-74.5 31.5t-31.5 87zM586 -266l4 807h49l4 -807v-127h-57v127z" />
<glyph unicode="&#xa2;" d="M258 639q0 203 110.5 324.5t278.5 140.5v231h58v-229q150 -2 278 -123l-37 -41q-111 104 -241 107v-820q143 2 266 115l37 -41q-143 -129 -303 -131v-225h-58v227q-174 16 -281.5 139t-107.5 326zM324 639q0 -170 88 -281t235 -127v813q-141 -16 -232 -127.5t-91 -277.5z " />
<glyph unicode="&#xa3;" d="M168 606v53l229 5q-6 20 -27.5 78.5t-30.5 88t-18.5 76.5t-9.5 88q0 158 106.5 249t293.5 91q211 0 342 -143l-45 -41q-127 127 -306 127q-158 0 -244.5 -80t-86.5 -199q0 -41 9 -88t19.5 -77.5t32 -88t29.5 -81.5h420v-58h-404q23 -78 23 -160q0 -131 -46 -219 t-141 -161v-9h744v-57h-879v37q137 63 200.5 171.5t63.5 237.5q0 76 -26 160h-248z" />
<glyph unicode="&#xa4;" d="M156 246l176 180q-78 104 -78 246q0 147 78 252l-176 182l41 45l176 -182q100 96 241 96q139 0 242 -96l176 182l41 -45l-178 -182q80 -106 80 -252q0 -137 -78 -246l176 -180l-41 -45l-176 180q-98 -98 -242 -98q-141 0 -243 98l-174 -180zM319 671.5 q0 -145.5 86.5 -238.5t209 -93t208.5 93t86 238.5t-86 241t-208.5 95.5t-209 -95.5t-86.5 -241z" />
<glyph unicode="&#xa5;" d="M143 1311h66l240 -414q68 -115 161 -283h8q102 182 166 283l240 414h61l-419 -701h374v-57h-397v-152h397v-57h-397v-344h-61v344h-394v57h394v152h-394v57h371z" />
<glyph unicode="&#xa6;" d="M586 455h57v-967h-57v967zM586 561v975h57v-975h-57z" />
<glyph unicode="&#xa7;" d="M217 729q0 166 205 270q-70 66 -70 164q0 90 68.5 160t197.5 70q156 -1 295 -107l-36 -45q-127 94 -259 94q-102 0 -153 -49t-51 -119q0 -66 44 -116t110.5 -77.5t144.5 -63.5t144.5 -70.5t110.5 -101t44 -156.5q0 -98 -50.5 -156.5t-148.5 -108.5q72 -68 72 -170 q0 -104 -84 -174.5t-195 -70.5q-195 0 -340 123l45 45q127 -111 295 -111q96 0 156.5 54.5t60.5 129.5q0 80 -62.5 136.5t-151.5 91.5t-178 73.5t-151.5 110.5t-62.5 174zM279 733q0 -80 53 -139t118.5 -89t163 -71t148.5 -74q98 41 143 87.5t45 130.5q0 68 -31.5 119 t-88 85.5t-115 59t-130 56.5t-114.5 63q-96 -49 -144 -99.5t-48 -128.5z" />
<glyph unicode="&#xa8;" d="M369 1306.5q0 30.5 19.5 52t50 21.5t50 -21.5t19.5 -52t-19.5 -52t-50 -21.5t-50 21.5t-19.5 52zM721 1306.5q0 30.5 19.5 52t50 21.5t50 -21.5t19.5 -52t-19.5 -52t-50 -21.5t-50 21.5t-19.5 52z" />
<glyph unicode="&#xa9;" d="M82 659q0 307 147.5 491.5t385 184.5t385 -184t147.5 -492q0 -309 -147.5 -496.5t-385 -187.5t-385 187.5t-147.5 496.5zM143 659q0 -283 130 -456.5t341 -173.5t341 174t130 456q0 281 -129 452t-342 171t-342 -171t-129 -452zM311 659q0 172 94.5 276.5t229.5 104.5 q111 0 201 -90l-37 -45q-84 74 -168 74q-109 0 -179.5 -88t-70.5 -232q0 -158 67.5 -251t178.5 -93q104 0 200 86l33 -45q-55 -51 -107.5 -76.5t-129.5 -25.5q-131 0 -221.5 109.5t-90.5 295.5z" />
<glyph unicode="&#xaa;" d="M365 694q0 106 110.5 163.5t347.5 82.5q0 203 -170 203q-109 0 -227 -76l-31 47q131 84 264 84q119 0 174.5 -68.5t55.5 -183.5v-414h-55l-7 84h-2q-135 -100 -252 -100q-88 0 -148 46t-60 132zM430 698q0 -63 44 -95t112 -32q106 0 237 103v217q-211 -23 -302 -69 t-91 -124z" />
<glyph unicode="&#xab;" d="M236 487v58l282 336l41 -37l-258 -328l258 -332l-41 -32zM645 487v58l283 336l41 -37l-258 -328l258 -332l-41 -32z" />
<glyph unicode="&#xac;" d="M201 606v58h827v-476h-65v418h-762z" />
<glyph unicode="&#xad;" d="M291 557v82h647v-82h-647z" />
<glyph unicode="&#xae;" d="M246 1061q0 174 107.5 285.5t261 111.5t261 -111.5t107.5 -285.5t-107.5 -283.5t-261 -109.5t-261 109.5t-107.5 283.5zM303 1060.5q0 -145.5 90 -242.5t221 -97t221.5 97t90.5 242.5t-90.5 245t-221.5 99.5q-129 0 -220 -99.5t-91 -245zM479 856v426h135q156 0 156 -131 q0 -39 -23.5 -71.5t-58.5 -43.5l103 -180h-70l-82 160h-102v-160h-58zM537 1069h61q111 0 111 78q0 82 -103 82h-69v-160z" />
<glyph unicode="&#xaf;" d="M389 1245v58h451v-58h-451z" />
<glyph unicode="&#xb0;" d="M389 1163q0 109 66.5 173.5t159 64.5t159 -64.5t66.5 -173.5q0 -106 -67.5 -169.5t-158 -63.5t-158 63.5t-67.5 169.5zM446 1163q0 -78 47.5 -129t121 -51t120.5 51t47 129q0 80 -47 132.5t-120.5 52.5t-121 -52.5t-47.5 -132.5z" />
<glyph unicode="&#xb1;" d="M201 0v57h827v-57h-827zM201 598v57h381v426h65v-426h381v-57h-381v-430h-65v430h-381z" />
<glyph unicode="&#xb2;" d="M381 1421q90 119 217 119q102 0 157.5 -52t55.5 -151q0 -20 -4 -39.5t-15.5 -41t-21.5 -39t-31.5 -41t-36 -39t-45 -43t-47 -43t-55.5 -48t-57 -49.5h350v-53h-453v41q241 199 293 260q61 72 62 137q0 70 -40 109t-112 39q-102 0 -172 -98z" />
<glyph unicode="&#xb3;" d="M365 1008l49 36q72 -115 200 -114q160 0 160 127q0 131 -233 131v49q100 0 150 38t50 97q0 115 -139 115q-41 0 -88 -21.5t-76 -60.5l-41 37q35 45 91.5 71.5t117.5 26.5q90 0 143.5 -43t53.5 -121q0 -117 -119 -159q66 -12 109 -54.5t43 -105.5q0 -88 -61.5 -134 t-164.5 -46q-74 0 -141 39t-104 92z" />
<glyph unicode="&#xb4;" d="M508 1171l188 275h82l-213 -275h-57z" />
<glyph unicode="&#xb5;" d="M205 -410v1389h61v-623q0 -166 66.5 -244.5t212.5 -78.5q100 0 183 50t194 167v729h61v-979h-53l-8 176h-9q-180 -201 -372 -201q-98 0 -165 30t-114 106l4 -197v-324h-61z" />
<glyph unicode="&#xb6;" d="M188 930q0 217 126 319.5t350 102.5h90v-840h-54q-512 0 -512 418zM868 -164v1516h58v-1516h-58z" />
<glyph unicode="&#xb7;" d="M508 700.5q0 55.5 31.5 87t74.5 31.5t75 -31.5t32 -87t-32 -87t-75 -31.5t-74.5 31.5t-31.5 87z" />
<glyph unicode="&#xb8;" d="M492 -369q193 27 192 107q0 45 -35.5 68.5t-103.5 41.5l82 156h57l-61 -119q123 -39 122 -139q0 -135 -241 -168z" />
<glyph unicode="&#xb9;" d="M446 1403v49q98 18 177 64h49v-615h-58v502h-168z" />
<glyph unicode="&#xba;" d="M307 856q0 158 89 250t218 92q131 0 219.5 -92t88.5 -250q0 -156 -88.5 -248t-219.5 -92q-129 0 -218 92t-89 248zM375 856q0 -125 67.5 -204t172 -79t172 79t67.5 204t-67.5 206t-172 81t-172 -81t-67.5 -206z" />
<glyph unicode="&#xbb;" d="M260 184l258 332l-258 328l41 37l283 -336v-58l-283 -335zM670 184l258 332l-258 328l41 37l282 -336v-58l-282 -335z" />
<glyph unicode="&#xbc;" d="M78 119l368 409l37 -32l-352 -422zM160 1198v49q98 18 176 64h49v-615h-57v502h-168zM655 170v31l353 413h41v-395h100v-49h-100v-170h-58v170h-336zM737 219h254v170l8 139h-8l-108 -135zM745 856l353 422l53 -45l-369 -410z" />
<glyph unicode="&#xbd;" d="M78 119l368 409l37 -32l-352 -422zM160 1198v49q98 18 176 64h49v-615h-57v502h-168zM668 520q90 119 217 119q102 0 157.5 -52t55.5 -151q0 -20 -4 -39.5t-15.5 -41t-21.5 -39t-31.5 -41t-36 -39t-45.5 -43t-47 -43t-55 -48t-58 -49.5h351v-53h-453v41q241 199 293 260 q61 72 61 137q0 70 -40 109t-111 39q-102 0 -172 -99zM745 856l353 422l53 -45l-369 -410z" />
<glyph unicode="&#xbe;" d="M78 803l49 37q72 -115 201 -115q160 0 159 127q0 131 -233 131v49q100 0 150.5 38t50.5 97q0 115 -140 115q-41 0 -87.5 -21.5t-75.5 -60.5l-41 37q35 45 91 71.5t117 26.5q90 0 143.5 -43t53.5 -121q0 -117 -119 -159q66 -12 109 -54.5t43 -105.5q0 -88 -61.5 -134 t-163.5 -46q-74 0 -141.5 39t-104.5 92zM160 119l368 409l37 -32l-352 -422zM655 170v31l353 413h41v-395h100v-49h-100v-170h-58v170h-336zM737 219h254v170l8 139h-8l-108 -135zM827 856l353 422l53 -45l-369 -410z" />
<glyph unicode="&#xbf;" d="M283 -111q0 74 41 142.5t97 122t111.5 108.5t87 127t19.5 152h57q14 -86 -15.5 -160t-83.5 -129t-110.5 -107.5t-97.5 -117t-41 -133.5q0 -111 72 -182.5t215 -71.5q182 0 311 135l45 -41q-152 -152 -360 -152q-160 0 -254 88t-94 219zM541 884.5q0 55.5 31.5 87.5 t74.5 32t75 -32t32 -87.5t-32 -87t-75 -31.5t-74.5 31.5t-31.5 87z" />
<glyph unicode="&#xc0;" d="M102 0l484 1352h57l483 -1352h-69l-168 483h-551l-170 -483h-66zM358 541h510l-94 270q-109 309 -156 471h-8q-47 -162 -155 -471zM397 1667h90l193 -213h-62z" />
<glyph unicode="&#xc1;" d="M102 0l484 1352h57l483 -1352h-69l-168 483h-551l-170 -483h-66zM358 541h510l-94 270q-109 309 -156 471h-8q-47 -162 -155 -471zM549 1454l192 213h90l-221 -213h-61z" />
<glyph unicode="&#xc2;" d="M102 0l484 1352h57l483 -1352h-69l-168 483h-551l-170 -483h-66zM358 541h510l-94 270q-109 309 -156 471h-8q-47 -162 -155 -471zM389 1454l197 213h57l197 -213h-62l-160 152h-8l-159 -152h-62z" />
<glyph unicode="&#xc3;" d="M102 0l484 1352h57l483 -1352h-69l-168 483h-551l-170 -483h-66zM358 541h510l-94 270q-109 309 -156 471h-8q-47 -162 -155 -471zM360 1470q4 68 39 122.5t97 54.5q55 0 127.5 -59.5t113.5 -59.5q33 0 56.5 33t29.5 86h45q-4 -68 -38.5 -122.5t-96.5 -54.5 q-55 0 -128 59.5t-113 59.5q-33 0 -56.5 -32.5t-29.5 -86.5h-46z" />
<glyph unicode="&#xc4;" d="M102 0l484 1352h57l483 -1352h-69l-168 483h-551l-170 -483h-66zM358 541h510l-94 270q-109 309 -156 471h-8q-47 -162 -155 -471zM393 1556.5q0 30.5 18.5 48t47 17.5t47 -17.5t18.5 -48t-18.5 -48t-47 -17.5t-47 17.5t-18.5 48zM705 1556.5q0 30.5 18 48t47 17.5 t47.5 -17.5t18.5 -48t-18.5 -48t-47.5 -17.5t-47 17.5t-18 48z" />
<glyph unicode="&#xc5;" d="M102 0l484 1352h57l483 -1352h-69l-168 483h-551l-170 -483h-66zM358 541h510l-94 270q-109 309 -156 471h-8q-47 -162 -155 -471zM455 1597.5q0 73.5 45 118.5t114 45q66 0 113 -46t47 -117.5t-47 -117.5t-113 -46q-70 0 -114.5 45t-44.5 118.5zM504 1597 q0 -57 30.5 -87.5t79.5 -30.5q45 0 76 31.5t31 86.5q0 53 -31 86t-76 33q-47 0 -78.5 -32.5t-31.5 -86.5z" />
<glyph unicode="&#xc6;" d="M0 0l618 1352h566v-58h-459v-544h348v-58h-348v-635h479v-57h-545v463h-378l-207 -463h-74zM305 520h354v770h-8q-37 -82 -109.5 -241.5t-107.5 -241.5z" />
<glyph unicode="&#xc7;" d="M152 680q0 317 156.5 506.5t414.5 189.5q209 0 344 -159l-41 -46q-123 143 -303 144q-233 0 -367.5 -171t-134.5 -464t133 -468t361 -175q198 0 352 172l41 -41q-160 -186 -381 -193l-47 -90q123 -39 123 -139q0 -135 -242 -168l-12 53q193 27 192 107q0 45 -35.5 68.5 t-103.5 41.5l68 129q-233 16 -375.5 208t-142.5 495z" />
<glyph unicode="&#xc8;" d="M270 0v1352h787v-58h-721v-544h606v-58h-606v-635h741v-57h-807zM475 1667h90l193 -213h-62z" />
<glyph unicode="&#xc9;" d="M270 0v1352h787v-58h-721v-544h606v-58h-606v-635h741v-57h-807zM627 1454l192 213h90l-221 -213h-61z" />
<glyph unicode="&#xca;" d="M270 0v1352h787v-58h-721v-544h606v-58h-606v-635h741v-57h-807zM467 1454l197 213h57l197 -213h-62l-160 152h-8l-160 -152h-61z" />
<glyph unicode="&#xcb;" d="M270 0v1352h787v-58h-721v-544h606v-58h-606v-635h741v-57h-807zM471 1556.5q0 30.5 18.5 48t47 17.5t47 -17.5t18.5 -48t-18.5 -48t-47 -17.5t-47 17.5t-18.5 48zM782 1556.5q0 30.5 18.5 48t47.5 17.5t47 -17.5t18 -48t-18 -48t-47 -17.5t-47.5 17.5t-18.5 48z" />
<glyph unicode="&#xcc;" d="M229 0v57h353v1237h-353v58h770v-58h-352v-1237h352v-57h-770zM397 1667h90l193 -213h-62z" />
<glyph unicode="&#xcd;" d="M229 0v57h353v1237h-353v58h770v-58h-352v-1237h352v-57h-770zM549 1454l192 213h90l-221 -213h-61z" />
<glyph unicode="&#xce;" d="M229 0v57h353v1237h-353v58h770v-58h-352v-1237h352v-57h-770zM389 1454l197 213h57l197 -213h-62l-160 152h-8l-159 -152h-62z" />
<glyph unicode="&#xcf;" d="M229 0v57h353v1237h-353v58h770v-58h-352v-1237h352v-57h-770zM393 1556.5q0 30.5 18.5 48t47 17.5t47 -17.5t18.5 -48t-18.5 -48t-47 -17.5t-47 17.5t-18.5 48zM705 1556.5q0 30.5 18 48t47 17.5t47.5 -17.5t18.5 -48t-18.5 -48t-47.5 -17.5t-47 17.5t-18 48z" />
<glyph unicode="&#xd0;" d="M57 688v49l160 8v607h303q303 0 454.5 -179.5t151.5 -492.5t-151.5 -496.5t-454.5 -183.5h-303v688h-160zM283 57h229q276 0 410.5 170t134.5 453t-134.5 448.5t-410.5 165.5h-229v-549h352v-57h-352v-631z" />
<glyph unicode="&#xd1;" d="M197 0v1352h67l561 -996l150 -262h4q0 45 -4 176t-4 203v879h61v-1352h-67l-562 995l-149 262h-4q0 -47 4 -173t4 -197v-887h-61zM373 1470q4 68 38.5 122.5t96.5 54.5q55 0 128 -59.5t114 -59.5q33 0 56 32.5t30 86.5h45q-4 -68 -39.5 -122.5t-96.5 -54.5 q-55 0 -127.5 59.5t-113.5 59.5q-33 0 -56.5 -32.5t-29.5 -86.5h-45z" />
<glyph unicode="&#xd2;" d="M115 680q0 315 139 505.5t360.5 190.5t360.5 -190.5t139 -505.5q0 -317 -140 -511t-359.5 -194t-359.5 193.5t-140 511.5zM184 680q0 -291 119 -467t311.5 -176t311 176t118.5 467t-118.5 463t-311 172t-311.5 -172t-119 -463zM397 1667h90l193 -213h-62z" />
<glyph unicode="&#xd3;" d="M115 680q0 315 139 505.5t360.5 190.5t360.5 -190.5t139 -505.5q0 -317 -140 -511t-359.5 -194t-359.5 193.5t-140 511.5zM184 680q0 -291 119 -467t311.5 -176t311 176t118.5 467t-118.5 463t-311 172t-311.5 -172t-119 -463zM549 1454l192 213h90l-221 -213h-61z" />
<glyph unicode="&#xd4;" d="M115 680q0 315 139 505.5t360.5 190.5t360.5 -190.5t139 -505.5q0 -317 -140 -511t-359.5 -194t-359.5 193.5t-140 511.5zM184 680q0 -291 119 -467t311.5 -176t311 176t118.5 467t-118.5 463t-311 172t-311.5 -172t-119 -463zM389 1454l197 213h57l197 -213h-62 l-160 152h-8l-159 -152h-62z" />
<glyph unicode="&#xd5;" d="M115 680q0 315 139 505.5t360.5 190.5t360.5 -190.5t139 -505.5q0 -317 -140 -511t-359.5 -194t-359.5 193.5t-140 511.5zM184 680q0 -291 119 -467t311.5 -176t311 176t118.5 467t-118.5 463t-311 172t-311.5 -172t-119 -463zM360 1470q4 68 39 122.5t97 54.5 q55 0 127.5 -59.5t113.5 -59.5q33 0 56.5 32.5t29.5 86.5h45q-4 -68 -39 -122.5t-96 -54.5q-55 0 -128 59.5t-113 59.5q-33 0 -56.5 -32.5t-29.5 -86.5h-46z" />
<glyph unicode="&#xd6;" d="M115 680q0 315 139 505.5t360.5 190.5t360.5 -190.5t139 -505.5q0 -317 -140 -511t-359.5 -194t-359.5 193.5t-140 511.5zM184 680q0 -291 119 -467t311.5 -176t311 176t118.5 467t-118.5 463t-311 172t-311.5 -172t-119 -463zM393 1556.5q0 30.5 18.5 48t47 17.5 t47 -17.5t18.5 -48t-18.5 -48t-47 -17.5t-47 17.5t-18.5 48zM705 1556.5q0 30.5 18 48t47 17.5t47.5 -17.5t18.5 -48t-18.5 -48t-47.5 -17.5t-47 17.5t-18 48z" />
<glyph unicode="&#xd7;" d="M238 287l335 348l-335 348l41 45l335 -352l336 352l41 -45l-336 -348l336 -348l-41 -45l-336 352l-335 -352z" />
<glyph unicode="&#xd8;" d="M115 680q0 315 139 505.5t360 190.5q197 0 330 -151l113 168l45 -33l-121 -182q133 -188 133 -498q0 -317 -140 -511t-360 -194q-197 0 -333 160l-117 -176l-45 33l127 190q-131 193 -131 498zM184 680q1 -266 101 -438l622 927q-115 145 -293 146q-193 0 -311.5 -172 t-118.5 -463zM319 190q115 -154 295 -153q193 0 311.5 176t118.5 467q0 272 -104 440z" />
<glyph unicode="&#xd9;" d="M188 504v848h66v-832q0 -260 100.5 -371.5t259.5 -111.5q162 0 263.5 111.5t101.5 371.5v832h61v-848q0 -150 -35.5 -257.5t-98 -164.5t-134.5 -82t-158 -25t-157.5 25t-134 82t-98.5 164.5t-36 257.5zM397 1667h90l193 -213h-62z" />
<glyph unicode="&#xda;" d="M188 504v848h66v-832q0 -260 100.5 -371.5t259.5 -111.5q162 0 263.5 111.5t101.5 371.5v832h61v-848q0 -150 -35.5 -257.5t-98 -164.5t-134.5 -82t-158 -25t-157.5 25t-134 82t-98.5 164.5t-36 257.5zM549 1454l192 213h90l-221 -213h-61z" />
<glyph unicode="&#xdb;" d="M188 504v848h66v-832q0 -260 100.5 -371.5t259.5 -111.5q162 0 263.5 111.5t101.5 371.5v832h61v-848q0 -150 -35.5 -257.5t-98 -164.5t-134.5 -82t-158 -25t-157.5 25t-134 82t-98.5 164.5t-36 257.5zM389 1454l197 213h57l197 -213h-62l-160 152h-8l-159 -152h-62z" />
<glyph unicode="&#xdc;" d="M188 504v848h66v-832q0 -260 100.5 -371.5t259.5 -111.5q162 0 263.5 111.5t101.5 371.5v832h61v-848q0 -150 -35.5 -257.5t-98 -164.5t-134.5 -82t-158 -25t-157.5 25t-134 82t-98.5 164.5t-36 257.5zM393 1556.5q0 30.5 18.5 48t47 17.5t47 -17.5t18.5 -48t-18.5 -48 t-47 -17.5t-47 17.5t-18.5 48zM705 1556.5q0 30.5 18 48t47 17.5t47.5 -17.5t18.5 -48t-18.5 -48t-47.5 -17.5t-47 17.5t-18 48z" />
<glyph unicode="&#xdd;" d="M115 1352h65l254 -463q35 -57 94.5 -165t85.5 -155h9q66 109 184 322l246 461h61l-467 -850v-502h-65v502zM549 1454l192 213h90l-221 -213h-61z" />
<glyph unicode="&#xde;" d="M254 0v1352h65v-246h287q236 0 355.5 -86t119.5 -283q0 -190 -122.5 -287.5t-352.5 -97.5h-287v-352h-65zM319 410h263q221 0 325.5 77.5t104.5 249.5q0 174 -102.5 243t-327.5 69h-263v-639z" />
<glyph unicode="&#xdf;" d="M225 0v1102q0 184 103.5 292.5t265.5 108.5q131 0 213 -76.5t82 -193.5q0 -72 -37 -137.5t-80 -107.5t-80 -99.5t-37 -114.5q0 -68 50.5 -115t122 -77.5t143 -64.5t122 -100.5t50.5 -162.5q0 -119 -91 -199t-225 -80q-172 0 -301 107l39 49q129 -98 264 -98 q119 0 183.5 63.5t64.5 153.5q0 84 -50 140t-121.5 89t-143.5 64.5t-122 88t-50 138.5q0 68 37 131.5t80 104.5t79.5 100t36.5 123q0 96 -61.5 156.5t-171.5 60.5q-139 0 -221 -94.5t-82 -278.5v-1073h-62z" />
<glyph unicode="&#xe0;" d="M197 240q0 164 178 248.5t588 121.5q0 336 -304 336q-197 0 -380 -139l-33 49q70 53 185.5 100.5t232.5 47.5q184 0 272 -103.5t88 -265.5v-635h-53l-8 152h-5q-219 -176 -417 -177q-143 0 -243.5 67t-100.5 198zM262 242q0 -106 83 -157.5t200 -51.5q195 0 418 188v336 q-385 -37 -543 -110.5t-158 -204.5zM487 1446h82l189 -275h-58z" />
<glyph unicode="&#xe1;" d="M197 240q0 164 178 248.5t588 121.5q0 336 -304 336q-197 0 -380 -139l-33 49q70 53 185.5 100.5t232.5 47.5q184 0 272 -103.5t88 -265.5v-635h-53l-8 152h-5q-219 -176 -417 -177q-143 0 -243.5 67t-100.5 198zM262 242q0 -106 83 -157.5t200 -51.5q195 0 418 188v336 q-385 -37 -543 -110.5t-158 -204.5zM545 1171l188 275h82l-213 -275h-57z" />
<glyph unicode="&#xe2;" d="M197 240q0 164 178 248.5t588 121.5q0 336 -304 336q-197 0 -380 -139l-33 49q70 53 185.5 100.5t232.5 47.5q184 0 272 -103.5t88 -265.5v-635h-53l-8 152h-5q-219 -176 -417 -177q-143 0 -243.5 67t-100.5 198zM262 242q0 -106 83 -157.5t200 -51.5q195 0 418 188v336 q-385 -37 -543 -110.5t-158 -204.5zM430 1171l193 275h57l192 -275h-57l-160 209h-8l-160 -209h-57z" />
<glyph unicode="&#xe3;" d="M197 240q0 164 178 248.5t588 121.5q0 336 -304 336q-197 0 -380 -139l-33 49q70 53 185.5 100.5t232.5 47.5q184 0 272 -103.5t88 -265.5v-635h-53l-8 152h-5q-219 -176 -417 -177q-143 0 -243.5 67t-100.5 198zM262 242q0 -106 83 -157.5t200 -51.5q195 0 418 188v336 q-385 -37 -543 -110.5t-158 -204.5zM410 1192q4 68 34.5 118t96.5 50q53 0 122.5 -57.5t102.5 -57.5q63 0 78 115h49q-4 -66 -35 -117t-96 -51q-51 0 -121 57.5t-104 57.5q-66 0 -78 -115h-49z" />
<glyph unicode="&#xe4;" d="M197 240q0 164 178 248.5t588 121.5q0 336 -304 336q-197 0 -380 -139l-33 49q70 53 185.5 100.5t232.5 47.5q184 0 272 -103.5t88 -265.5v-635h-53l-8 152h-5q-219 -176 -417 -177q-143 0 -243.5 67t-100.5 198zM262 242q0 -106 83 -157.5t200 -51.5q195 0 418 188v336 q-385 -37 -543 -110.5t-158 -204.5zM406 1306.5q0 30.5 19 52t50 21.5t50.5 -21.5t19.5 -52t-19.5 -52t-50.5 -21.5t-50 21.5t-19 52zM758 1306.5q0 30.5 19.5 52t50 21.5t50 -21.5t19.5 -52t-19.5 -52t-50 -21.5t-50 21.5t-19.5 52z" />
<glyph unicode="&#xe5;" d="M197 240q0 164 178 248.5t588 121.5q0 336 -304 336q-197 0 -380 -139l-33 49q70 53 185.5 100.5t232.5 47.5q184 0 272 -103.5t88 -265.5v-635h-53l-8 152h-5q-219 -176 -417 -177q-143 0 -243.5 67t-100.5 198zM262 242q0 -106 83 -157.5t200 -51.5q195 0 418 188v336 q-385 -37 -543 -110.5t-158 -204.5zM492 1274q0 76 46 124t113.5 48t113.5 -48t46 -124t-46 -124t-113.5 -48t-113.5 48t-46 124zM541 1274q0 -57 31.5 -92t78.5 -35t79 35t32 92t-32 92t-79 35t-78.5 -35t-31.5 -92z" />
<glyph unicode="&#xe6;" d="M35 250q0 141 139 234.5t408 125.5q4 338 -226 338q-59 0 -132.5 -28.5t-121.5 -65.5l-28 47q150 102 301 103q100 0 166.5 -68t89.5 -174q47 113 127 177.5t184 64.5q139 0 213 -122t74 -304q0 -49 -4 -91h-580q-2 -205 75 -330.5t226 -125.5q109 0 228 71l26 -45 q-131 -82 -256 -82q-203 0 -301 209q-186 -209 -352 -209q-115 0 -185.5 70t-70.5 205zM100 246q0 -104 53.5 -159.5t143.5 -55.5q74 0 162 55t159 152q-37 121 -36 262v57q-256 -39 -369 -112.5t-113 -198.5zM647 541h520q0 406 -229 405q-129 0 -207 -109.5t-84 -295.5z " />
<glyph unicode="&#xe7;" d="M184 487q0 238 151.5 377.5t377.5 139.5q195 0 350 -152l-41 -45q-143 139 -309 139q-205 0 -334 -128t-129 -330.5t127 -328.5t336 -126q186 0 340 147l37 -45q-156 -152 -353 -160l-47 -90q123 -39 123 -139q0 -135 -242 -168l-12 53q193 27 193 107q0 45 -36 68.5 t-104 41.5l68 127q-221 10 -358.5 147.5t-137.5 364.5z" />
<glyph unicode="&#xe8;" d="M164 487q0 229 145.5 373t341.5 144q199 0 316.5 -120t117.5 -331q0 -41 -4 -66h-852q0 -199 125 -326.5t326 -127.5q180 0 336 110l28 -53q-178 -115 -368 -115q-217 0 -364.5 139.5t-147.5 372.5zM229 541h795q0 197 -100.5 301t-272.5 104q-160 0 -282 -111.5 t-140 -293.5zM483 1446h82l189 -275h-58z" />
<glyph unicode="&#xe9;" d="M164 487q0 229 145.5 373t341.5 144q199 0 316.5 -120t117.5 -331q0 -41 -4 -66h-852q0 -199 125 -326.5t326 -127.5q180 0 336 110l28 -53q-178 -115 -368 -115q-217 0 -364.5 139.5t-147.5 372.5zM229 541h795q0 197 -100.5 301t-272.5 104q-160 0 -282 -111.5 t-140 -293.5zM541 1171l188 275h82l-213 -275h-57z" />
<glyph unicode="&#xea;" d="M164 487q0 229 145.5 373t341.5 144q199 0 316.5 -120t117.5 -331q0 -41 -4 -66h-852q0 -199 125 -326.5t326 -127.5q180 0 336 110l28 -53q-178 -115 -368 -115q-217 0 -364.5 139.5t-147.5 372.5zM229 541h795q0 197 -100.5 301t-272.5 104q-160 0 -282 -111.5 t-140 -293.5zM426 1171l192 275h58l192 -275h-57l-160 209h-8l-160 -209h-57z" />
<glyph unicode="&#xeb;" d="M164 487q0 229 145.5 373t341.5 144q199 0 316.5 -120t117.5 -331q0 -41 -4 -66h-852q0 -199 125 -326.5t326 -127.5q180 0 336 110l28 -53q-178 -115 -368 -115q-217 0 -364.5 139.5t-147.5 372.5zM229 541h795q0 197 -100.5 301t-272.5 104q-160 0 -282 -111.5 t-140 -293.5zM403 1306.5q0 30.5 19.5 52t50.5 21.5t50.5 -21.5t19.5 -52t-19.5 -52t-50.5 -21.5t-50.5 21.5t-19.5 52zM756 1306.5q0 30.5 19.5 52t50 21.5t50 -21.5t19.5 -52t-19.5 -52t-50 -21.5t-50 21.5t-19.5 52z" />
<glyph unicode="&#xec;" d="M205 922v57h565v-979h-61v922h-504zM553 1446h82l188 -275h-57z" />
<glyph unicode="&#xed;" d="M205 922v57h565v-979h-61v922h-504zM610 1171l189 275h82l-213 -275h-58z" />
<glyph unicode="&#xee;" d="M205 922v57h565v-979h-61v922h-504zM496 1171l192 275h57l193 -275h-57l-160 209h-8l-160 -209h-57z" />
<glyph unicode="&#xef;" d="M205 922v57h565v-979h-61v922h-504zM471 1306.5q0 30.5 19.5 52t50 21.5t50 -21.5t19.5 -52t-19.5 -52t-50 -21.5t-50 21.5t-19.5 52zM823 1306.5q0 30.5 19.5 52t50.5 21.5t50.5 -21.5t19.5 -52t-19.5 -52t-50.5 -21.5t-50.5 21.5t-19.5 52z" />
<glyph unicode="&#xf0;" d="M143 446q0 203 130 329t350 126q104 0 202.5 -52t167.5 -136q-47 315 -276 514l-307 -162l-25 45l289 152q-113 88 -285 172l33 45q188 -88 309 -189l273 144l24 -45l-256 -134q301 -276 301 -743q0 -244 -126 -390.5t-333 -146.5q-193 0 -332 129t-139 342zM209 446 q0 -178 117.5 -295.5t287.5 -117.5q199 0 296.5 133t97.5 346q0 41 -4 111q-154 221 -386 221q-199 0 -304 -115t-105 -283z" />
<glyph unicode="&#xf1;" d="M225 0v979h54l8 -197h8q98 109 190.5 165.5t202.5 56.5q180 0 268 -96.5t88 -297.5v-610h-61v602q0 176 -70.5 260t-224.5 84q-104 0 -192 -54t-209 -183v-709h-62zM414 1192q4 68 34.5 118t96.5 50q53 0 122.5 -57.5t102.5 -57.5q63 0 78 115h49q-4 -66 -35 -117 t-96 -51q-51 0 -121 57.5t-104 57.5q-66 0 -78 -115h-49z" />
<glyph unicode="&#xf2;" d="M143 487q0 238 135.5 377.5t336 139.5t335.5 -139.5t135 -377.5q0 -236 -136 -374t-334.5 -138t-335 138t-136.5 374zM209 487.5q0 -200.5 114.5 -327.5t291 -127t291 127t114.5 327.5t-114.5 329.5t-291 129t-291 -129t-114.5 -329.5zM451 1446h81l189 -275h-57z" />
<glyph unicode="&#xf3;" d="M143 487q0 238 135.5 377.5t336 139.5t335.5 -139.5t135 -377.5q0 -236 -136 -374t-334.5 -138t-335 138t-136.5 374zM209 487.5q0 -200.5 114.5 -327.5t291 -127t291 127t114.5 327.5t-114.5 329.5t-291 129t-291 -129t-114.5 -329.5zM508 1171l188 275h82l-213 -275 h-57z" />
<glyph unicode="&#xf4;" d="M143 487q0 238 135.5 377.5t336 139.5t335.5 -139.5t135 -377.5q0 -236 -136 -374t-334.5 -138t-335 138t-136.5 374zM209 487.5q0 -200.5 114.5 -327.5t291 -127t291 127t114.5 327.5t-114.5 329.5t-291 129t-291 -129t-114.5 -329.5zM393 1171l193 275h57l193 -275h-58 l-160 209h-8l-159 -209h-58z" />
<glyph unicode="&#xf5;" d="M143 487q0 238 135.5 377.5t336 139.5t335.5 -139.5t135 -377.5q0 -236 -136 -374t-334.5 -138t-335 138t-136.5 374zM209 487.5q0 -200.5 114.5 -327.5t291 -127t291 127t114.5 327.5t-114.5 329.5t-291 129t-291 -129t-114.5 -329.5zM373 1192q4 68 34.5 118t96.5 50 q53 0 122.5 -57.5t102.5 -57.5q63 0 78 115h49q-4 -66 -34.5 -117t-96.5 -51q-51 0 -120.5 57.5t-104.5 57.5q-66 0 -78 -115h-49z" />
<glyph unicode="&#xf6;" d="M143 487q0 238 135.5 377.5t336 139.5t335.5 -139.5t135 -377.5q0 -236 -136 -374t-334.5 -138t-335 138t-136.5 374zM209 487.5q0 -200.5 114.5 -327.5t291 -127t291 127t114.5 327.5t-114.5 329.5t-291 129t-291 -129t-114.5 -329.5zM369 1306.5q0 30.5 19.5 52 t50 21.5t50 -21.5t19.5 -52t-19.5 -52t-50 -21.5t-50 21.5t-19.5 52zM721 1306.5q0 30.5 19.5 52t50 21.5t50 -21.5t19.5 -52t-19.5 -52t-50 -21.5t-50 21.5t-19.5 52z" />
<glyph unicode="&#xf7;" d="M201 606v58h827v-58h-827zM549 266q0 31 18.5 50.5t47 19.5t47 -19.5t18.5 -50.5q0 -33 -18.5 -53t-47 -20t-47 20t-18.5 53zM549 1004q0 31 18.5 50t47 19t47 -19.5t18.5 -49.5q0 -33 -18.5 -53.5t-47 -20.5t-47 20.5t-18.5 53.5z" />
<glyph unicode="&#xf8;" d="M143 -8l121 139q-121 137 -121 356q0 238 135.5 377.5t335.5 139.5q180 0 312 -115l114 131l45 -37l-118 -137q119 -139 118 -359q0 -236 -136 -374t-335 -138q-180 0 -309 113l-117 -133zM209 487q0 -182 98 -309l576 662q-111 106 -269 106q-176 0 -290.5 -129 t-114.5 -330zM346 135q109 -102 268 -102q176 0 291 127t115 327q0 181 -96 310z" />
<glyph unicode="&#xf9;" d="M184 369v610h62v-602q0 -176 70.5 -260t224.5 -84q106 0 198 56t203 181v709h62v-979h-54l-8 197h-8q-188 -221 -393 -222q-180 0 -268.5 96.5t-88.5 297.5zM438 1446h82l189 -275h-58z" />
<glyph unicode="&#xfa;" d="M184 369v610h62v-602q0 -176 70.5 -260t224.5 -84q106 0 198 56t203 181v709h62v-979h-54l-8 197h-8q-188 -221 -393 -222q-180 0 -268.5 96.5t-88.5 297.5zM496 1171l188 275h82l-213 -275h-57z" />
<glyph unicode="&#xfb;" d="M184 369v610h62v-602q0 -176 70.5 -260t224.5 -84q106 0 198 56t203 181v709h62v-979h-54l-8 197h-8q-188 -221 -393 -222q-180 0 -268.5 96.5t-88.5 297.5zM381 1171l192 275h58l192 -275h-57l-160 209h-8l-160 -209h-57z" />
<glyph unicode="&#xfc;" d="M184 369v610h62v-602q0 -176 70.5 -260t224.5 -84q106 0 198 56t203 181v709h62v-979h-54l-8 197h-8q-188 -221 -393 -222q-180 0 -268.5 96.5t-88.5 297.5zM356 1306.5q0 30.5 19.5 52t50.5 21.5t50.5 -21.5t19.5 -52t-19.5 -52t-50.5 -21.5t-50.5 21.5t-19.5 52z M709 1306.5q0 30.5 19.5 52t50 21.5t50 -21.5t19.5 -52t-19.5 -52t-50 -21.5t-50 21.5t-19.5 52z" />
<glyph unicode="&#xfd;" d="M131 979h66l303 -643q86 -182 139 -275h8q20 43 119 275l270 643h62l-471 -1118q-45 -131 -141.5 -223.5t-235.5 -92.5q-68 0 -113 21l21 57q49 -16 98 -16q211 0 322 278l36 90zM512 1171l188 275h82l-213 -275h-57z" />
<glyph unicode="&#xfe;" d="M225 -455v1934h62v-459l-4 -197q186 180 381 181q207 0 314 -133.5t107 -366.5q0 -240 -136 -384.5t-326 -144.5q-166 0 -336 144v-205v-369h-62zM287 188q170 -156 340 -155.5t281.5 133.5t111.5 338q0 201 -89 321.5t-272 120.5q-180 0 -372 -192v-566z" />
<glyph unicode="&#xff;" d="M131 979h66l303 -643q86 -182 139 -275h8q20 43 119 275l270 643h62l-471 -1118q-45 -131 -141.5 -223.5t-235.5 -92.5q-68 0 -113 21l21 57q49 -16 98 -16q211 0 322 278l36 90zM373 1306.5q0 30.5 19.5 52t50 21.5t50 -21.5t19.5 -52t-19.5 -52t-50 -21.5t-50 21.5 t-19.5 52zM725 1306.5q0 30.5 19.5 52t50 21.5t50 -21.5t19.5 -52t-19.5 -52t-50 -21.5t-50 21.5t-19.5 52z" />
<glyph unicode="&#x100;" d="M102 0l484 1352h57l483 -1352h-69l-168 483h-551l-170 -483h-66zM358 541h510l-94 270q-109 309 -156 471h-8q-47 -162 -155 -471zM389 1507v58h451v-58h-451z" />
<glyph unicode="&#x101;" d="M197 240q0 164 178 248.5t588 121.5q0 336 -304 336q-197 0 -380 -139l-33 49q70 53 185.5 100.5t232.5 47.5q184 0 272 -103.5t88 -265.5v-635h-53l-8 152h-5q-219 -176 -417 -177q-143 0 -243.5 67t-100.5 198zM262 242q0 -106 83 -157.5t200 -51.5q195 0 418 188v336 q-385 -37 -543 -110.5t-158 -204.5zM426 1245v58h451v-58h-451z" />
<glyph unicode="&#x102;" d="M102 0l484 1352h57l483 -1352h-69l-168 483h-551l-170 -483h-66zM358 541h510l-94 270q-109 309 -156 471h-8q-47 -162 -155 -471zM385 1667h53q10 -63 55.5 -109.5t121 -46.5t121 46.5t55.5 109.5h53q-12 -80 -69.5 -144.5t-160 -64.5t-160 64.5t-69.5 144.5z" />
<glyph unicode="&#x103;" d="M197 240q0 164 178 248.5t588 121.5q0 336 -304 336q-197 0 -380 -139l-33 49q70 53 185.5 100.5t232.5 47.5q184 0 272 -103.5t88 -265.5v-635h-53l-8 152h-5q-219 -176 -417 -177q-143 0 -243.5 67t-100.5 198zM262 242q0 -106 83 -157.5t200 -51.5q195 0 418 188v336 q-385 -37 -543 -110.5t-158 -204.5zM414 1417h53q10 -76 57 -130t127 -54t127 54t58 130h53q-12 -92 -69.5 -164.5t-168 -72.5t-168 72.5t-69.5 164.5z" />
<glyph unicode="&#x104;" d="M102 0l484 1352h57l483 -1352q-63 -47 -105 -114.5t-42 -131.5q0 -53 31.5 -81.5t74.5 -28.5q50 -1 91 28l28 -41q-53 -45 -123 -45q-72 0 -117.5 42t-45.5 122q0 70 41.5 138.5t101.5 111.5h-4l-168 483h-551l-170 -483h-66zM358 541h510l-94 270q-109 309 -156 471h-8 q-47 -162 -155 -471z" />
<glyph unicode="&#x105;" d="M197 240q0 164 178 248.5t588 121.5q0 336 -304 336q-197 0 -380 -139l-33 49q70 53 185.5 100.5t232.5 47.5q184 0 272 -103.5t88 -265.5v-635q-76 -41 -126 -110.5t-50 -135.5q0 -53 29.5 -81.5t72.5 -28.5q49 0 90 28l29 -41q-53 -45 -123 -45q-72 0 -116 42t-44 122 q0 74 52.5 145.5t132.5 120.5l-8 136h-5q-219 -176 -417 -177q-143 0 -243.5 67t-100.5 198zM262 242q0 -106 83 -157.5t200 -51.5q195 0 418 188v336q-385 -37 -543 -110.5t-158 -204.5z" />
<glyph unicode="&#x106;" d="M152 679.5q0 317.5 156.5 507t414.5 189.5q209 0 344 -159l-41 -46q-123 143 -303 144q-233 0 -367.5 -171t-134.5 -464t133 -468t361 -175q199 0 352 172l41 -41q-166 -193 -397 -193q-250 0 -404.5 193.5t-154.5 511zM635 1454l192 213h91l-222 -213h-61z" />
<glyph unicode="&#x107;" d="M184 487.5q0 237.5 151.5 377t377.5 139.5q195 0 350 -152l-41 -45q-143 139 -309 139q-205 0 -334 -128t-129 -330.5t127 -328.5t336 -126q186 0 340 147l37 -45q-166 -160 -377 -160q-233 0 -381 137.5t-148 375zM600 1171l188 275h82l-213 -275h-57z" />
<glyph unicode="&#x108;" d="M152 679.5q0 317.5 156.5 507t414.5 189.5q209 0 344 -159l-41 -46q-123 143 -303 144q-233 0 -367.5 -171t-134.5 -464t133 -468t361 -175q199 0 352 172l41 -41q-166 -193 -397 -193q-250 0 -404.5 193.5t-154.5 511zM475 1454l197 213h57l197 -213h-62l-159 152h-9 l-159 -152h-62z" />
<glyph unicode="&#x109;" d="M184 487.5q0 237.5 151.5 377t377.5 139.5q195 0 350 -152l-41 -45q-143 139 -309 139q-205 0 -334 -128t-129 -330.5t127 -328.5t336 -126q186 0 340 147l37 -45q-166 -160 -377 -160q-233 0 -381 137.5t-148 375zM485 1171l193 275h57l193 -275h-58l-159 209h-9 l-159 -209h-58z" />
<glyph unicode="&#x10a;" d="M152 679.5q0 317.5 156.5 507t414.5 189.5q209 0 344 -159l-41 -46q-123 143 -303 144q-233 0 -367.5 -171t-134.5 -464t133 -468t361 -175q199 0 352 172l41 -41q-166 -193 -397 -193q-250 0 -404.5 193.5t-154.5 511zM631 1556q0 31 20.5 50.5t49 19.5t49 -19.5 t20.5 -50.5q0 -33 -20.5 -53t-49 -20t-49 20.5t-20.5 52.5z" />
<glyph unicode="&#x10b;" d="M184 487.5q0 237.5 151.5 377t377.5 139.5q195 0 350 -152l-41 -45q-143 139 -309 139q-205 0 -334 -128t-129 -330.5t127 -328.5t336 -126q186 0 340 147l37 -45q-166 -160 -377 -160q-233 0 -381 137.5t-148 375zM625 1315q0 39 23.5 62.5t58 23.5t58 -23.5t23.5 -62.5 t-23.5 -62.5t-58 -23.5t-58 23.5t-23.5 62.5z" />
<glyph unicode="&#x10c;" d="M152 679.5q0 317.5 156.5 507t414.5 189.5q209 0 344 -159l-41 -46q-123 143 -303 144q-233 0 -367.5 -171t-134.5 -464t133 -468t361 -175q199 0 352 172l41 -41q-166 -193 -397 -193q-250 0 -404.5 193.5t-154.5 511zM475 1667h62l159 -151h9l159 151h62l-197 -213h-57 z" />
<glyph unicode="&#x10d;" d="M184 487.5q0 237.5 151.5 377t377.5 139.5q195 0 350 -152l-41 -45q-143 139 -309 139q-205 0 -334 -128t-129 -330.5t127 -328.5t336 -126q186 0 340 147l37 -45q-166 -160 -377 -160q-233 0 -381 137.5t-148 375zM485 1446h58l159 -209h9l159 209h58l-193 -275h-57z " />
<glyph unicode="&#x10e;" d="M205 0v1352h303q303 0 454.5 -179.5t151.5 -492.5t-151.5 -496.5t-454.5 -183.5h-303zM270 57h230q276 0 410 170t134 453t-134 448.5t-410 165.5h-230v-1237zM389 1667h62l159 -151h8l160 151h62l-197 -213h-57z" />
<glyph unicode="&#x10f;" d="M143 487q0 229 137.5 373t329.5 144q164 0 336 -144l-4 205v414h62v-1479h-54l-8 152h-4q-168 -176 -360 -177q-199 0 -317 134t-118 378zM209 487q0 -205 100.5 -329.5t272.5 -124.5q178 0 360 192v566q-164 156 -336 155q-166 0 -281.5 -134.5t-115.5 -324.5z M1100 1540h61v-98l-12 -320h-45z" />
<glyph unicode="&#x110;" d="M57 688v49l160 8v607h303q303 0 454.5 -179.5t151.5 -492.5t-151.5 -496.5t-454.5 -183.5h-303v688h-160zM283 57h229q276 0 410.5 170t134.5 453t-134.5 448.5t-410.5 165.5h-229v-549h352v-57h-352v-631z" />
<glyph unicode="&#x111;" d="M143 467q0 221 137.5 358.5t329.5 137.5q164 0 336 -144l-4 205v172h-385v57h385v226h62v-226h155v-49l-155 -8v-1196h-54l-8 152h-4q-168 -176 -360 -177q-199 0 -317 128t-118 364zM209 467q0 -197 100.5 -315.5t272.5 -118.5q178 -1 360 192v525q-164 156 -336 155 q-166 0 -281.5 -129t-115.5 -309z" />
<glyph unicode="&#x112;" d="M270 0v1352h787v-58h-721v-544h606v-58h-606v-635h741v-57h-807zM467 1507v58h451v-58h-451z" />
<glyph unicode="&#x113;" d="M164 487q0 229 145.5 373t341.5 144q199 0 316.5 -120t117.5 -331q0 -41 -4 -66h-852q0 -199 125 -326.5t326 -127.5q180 0 336 110l28 -53q-178 -115 -368 -115q-217 0 -364.5 139.5t-147.5 372.5zM229 541h795q0 197 -100.5 301t-272.5 104q-160 0 -282 -111.5 t-140 -293.5zM422 1245v58h450v-58h-450z" />
<glyph unicode="&#x114;" d="M270 0v1352h787v-58h-721v-544h606v-58h-606v-635h741v-57h-807zM463 1667h53q10 -63 55 -109.5t121 -46.5t121 46.5t55 109.5h54q-12 -80 -69.5 -144.5t-160 -64.5t-160 64.5t-69.5 144.5z" />
<glyph unicode="&#x115;" d="M164 487q0 229 145.5 373t341.5 144q199 0 316.5 -120t117.5 -331q0 -41 -4 -66h-852q0 -199 125 -326.5t326 -127.5q180 0 336 110l28 -53q-178 -115 -368 -115q-217 0 -364.5 139.5t-147.5 372.5zM229 541h795q0 197 -100.5 301t-272.5 104q-160 0 -282 -111.5 t-140 -293.5zM410 1417h53q10 -76 57 -130t127 -54t127 54t57 130h54q-12 -92 -69.5 -164.5t-168 -72.5t-168 72.5t-69.5 164.5z" />
<glyph unicode="&#x116;" d="M270 0v1352h787v-58h-721v-544h606v-58h-606v-635h741v-57h-807zM623 1556q0 31 20.5 50.5t49 19.5t49 -19.5t20.5 -50.5q0 -33 -20.5 -53t-49 -20t-49 20.5t-20.5 52.5z" />
<glyph unicode="&#x117;" d="M164 487q0 229 145.5 373t341.5 144q199 0 316.5 -120t117.5 -331q0 -41 -4 -66h-852q0 -199 125 -326.5t326 -127.5q180 0 336 110l28 -53q-178 -115 -368 -115q-217 0 -364.5 139.5t-147.5 372.5zM229 541h795q0 197 -100.5 301t-272.5 104q-160 0 -282 -111.5 t-140 -293.5zM565 1315q0 39 23.5 62.5t58.5 23.5t58.5 -23.5t23.5 -62.5t-23.5 -62.5t-58.5 -23.5t-58.5 23.5t-23.5 62.5z" />
<glyph unicode="&#x118;" d="M270 0v1352h787v-58h-721v-544h606v-58h-606v-635h741v-57h-4q-74 -16 -135 -87t-61 -159q0 -53 31.5 -81.5t74.5 -28.5q49 0 90 28l29 -41q-53 -45 -123 -45q-72 0 -118 42t-46 122q0 74 42 141.5t106 108.5h-693z" />
<glyph unicode="&#x119;" d="M164 487q0 229 145.5 373t341.5 144q199 0 316.5 -120t117.5 -331q0 -41 -4 -66h-852q0 -199 125 -326.5t326 -127.5q180 -1 336 110l28 -53q-254 -184 -253 -336q0 -53 29.5 -81.5t72.5 -28.5q49 0 90 28l29 -41q-53 -45 -123 -45q-72 0 -116 42t-44 122q0 139 152 262 q-82 -37 -205 -37q-217 0 -364.5 139.5t-147.5 372.5zM229 541h795q0 197 -100.5 301t-272.5 104q-160 0 -282 -111.5t-140 -293.5z" />
<glyph unicode="&#x11a;" d="M270 0v1352h787v-58h-721v-544h606v-58h-606v-635h741v-57h-807zM467 1667h61l160 -151h8l160 151h62l-197 -213h-57z" />
<glyph unicode="&#x11b;" d="M164 487q0 229 145.5 373t341.5 144q199 0 316.5 -120t117.5 -331q0 -41 -4 -66h-852q0 -199 125 -326.5t326 -127.5q180 0 336 110l28 -53q-178 -115 -368 -115q-217 0 -364.5 139.5t-147.5 372.5zM229 541h795q0 197 -100.5 301t-272.5 104q-160 0 -282 -111.5 t-140 -293.5zM426 1446h57l160 -209h8l160 209h57l-192 -275h-58z" />
<glyph unicode="&#x11c;" d="M125 680q0 317 157.5 506.5t419.5 189.5q203 0 355 -159l-41 -46q-129 143 -314 144q-236 0 -371.5 -171t-135.5 -464q0 -295 131 -469t360 -174q209 0 315 110v447h-327v57h395v-524q-137 -152 -387 -152q-252 0 -404.5 193t-152.5 512zM455 1454l196 213h58l196 -213 h-61l-160 152h-8l-160 -152h-61z" />
<glyph unicode="&#x11d;" d="M180 -190q0 57 45 121.5t123 113.5v8q-102 47 -102 156q0 102 119 184v8q-115 100 -115 254q0 147 104.5 248t251.5 101q76 0 131 -25h410v-57h-311q127 -119 127 -267q0 -145 -103.5 -244.5t-253.5 -99.5q-100 0 -192 49q-102 -61 -103 -145q0 -145 234 -145h252 q186 0 268 -50.5t82 -166.5q0 -129 -142.5 -230.5t-365.5 -101.5q-225 0 -342 78t-117 211zM246 -199q0 -98 97 -160.5t284 -62.5q203 0 328.5 83t125.5 187q0 86 -64.5 121t-203.5 35h-248q-88 0 -149 19q-170 -91 -170 -222zM315 655q0 -125 85 -205.5t206 -80.5t206 80.5 t85 205.5t-85 208t-206 83t-206 -83t-85 -208zM414 1171l192 275h58l192 -275h-57l-160 209h-8l-160 -209h-57z" />
<glyph unicode="&#x11e;" d="M125 680q0 317 157.5 506.5t419.5 189.5q203 0 355 -159l-41 -46q-129 143 -314 144q-236 0 -371.5 -171t-135.5 -464q0 -295 131 -469t360 -174q209 0 315 110v447h-327v57h395v-524q-137 -152 -387 -152q-252 0 -404.5 193t-152.5 512zM451 1667h53q10 -63 55 -109.5 t121 -46.5t121 46.5t55 109.5h53q-12 -80 -69.5 -144.5t-159.5 -64.5t-159.5 64.5t-69.5 144.5z" />
<glyph unicode="&#x11f;" d="M180 -190q0 57 45 121.5t123 113.5v8q-102 47 -102 156q0 102 119 184v8q-115 100 -115 254q0 147 104.5 248t251.5 101q76 0 131 -25h410v-57h-311q127 -119 127 -267q0 -145 -103.5 -244.5t-253.5 -99.5q-100 0 -192 49q-102 -61 -103 -145q0 -145 234 -145h252 q186 0 268 -50.5t82 -166.5q0 -129 -142.5 -230.5t-365.5 -101.5q-225 0 -342 78t-117 211zM246 -199q0 -98 97 -160.5t284 -62.5q203 0 328.5 83t125.5 187q0 86 -64.5 121t-203.5 35h-248q-88 0 -149 19q-170 -91 -170 -222zM315 655q0 -125 85 -205.5t206 -80.5t206 80.5 t85 205.5t-85 208t-206 83t-206 -83t-85 -208zM397 1417h54q10 -76 57 -130t127 -54t127 54t57 130h53q-12 -92 -69.5 -164.5t-168 -72.5t-167.5 72.5t-70 164.5z" />
<glyph unicode="&#x120;" d="M125 680q0 317 157.5 506.5t419.5 189.5q203 0 355 -159l-41 -46q-129 143 -314 144q-236 0 -371.5 -171t-135.5 -464q0 -295 131 -469t360 -174q209 0 315 110v447h-327v57h395v-524q-137 -152 -387 -152q-252 0 -404.5 193t-152.5 512zM610 1556q0 31 20.5 50.5 t49.5 19.5t49.5 -19.5t20.5 -50.5q0 -33 -20.5 -53t-49.5 -20t-49.5 20.5t-20.5 52.5z" />
<glyph unicode="&#x121;" d="M180 -190q0 57 45 121.5t123 113.5v8q-102 47 -102 156q0 102 119 184v8q-115 100 -115 254q0 147 104.5 248t251.5 101q76 0 131 -25h410v-57h-311q127 -119 127 -267q0 -145 -103.5 -244.5t-253.5 -99.5q-100 0 -192 49q-102 -61 -103 -145q0 -145 234 -145h252 q186 0 268 -50.5t82 -166.5q0 -129 -142.5 -230.5t-365.5 -101.5q-225 0 -342 78t-117 211zM246 -199q0 -98 97 -160.5t284 -62.5q203 0 328.5 83t125.5 187q0 86 -64.5 121t-203.5 35h-248q-88 0 -149 19q-170 -91 -170 -222zM315 655q0 -125 85 -205.5t206 -80.5t206 80.5 t85 205.5t-85 208t-206 83t-206 -83t-85 -208zM553 1315q0 39 23.5 62.5t58.5 23.5t58.5 -23.5t23.5 -62.5t-23.5 -62.5t-58.5 -23.5t-58.5 23.5t-23.5 62.5z" />
<glyph unicode="&#x122;" d="M125 680q0 317 157.5 506.5t419.5 189.5q203 0 355 -159l-41 -46q-129 143 -314 144q-236 0 -371.5 -171t-135.5 -464q0 -295 131 -469t360 -174q209 0 315 110v447h-327v57h395v-524q-137 -152 -387 -152q-252 0 -404.5 193t-152.5 512zM545 -369q193 27 192 107 q0 78 -119 102l21 54q80 -18 120 -53.5t40 -94.5q0 -135 -242 -168z" />
<glyph unicode="&#x123;" d="M180 -190q0 57 45 121.5t123 113.5v8q-102 47 -102 156q0 102 119 184v8q-115 100 -115 254q0 147 104.5 248t251.5 101q76 0 131 -25h410v-57h-311q127 -119 127 -267q0 -145 -103.5 -244.5t-253.5 -99.5q-100 0 -192 49q-102 -61 -103 -145q0 -145 234 -145h252 q186 0 268 -50.5t82 -166.5q0 -129 -142.5 -230.5t-365.5 -101.5q-225 0 -342 78t-117 211zM246 -199q0 -98 97 -160.5t284 -62.5q203 0 328.5 83t125.5 187q0 86 -64.5 121t-203.5 35h-248q-88 0 -149 19q-170 -91 -170 -222zM315 655q0 -125 85 -205.5t206 -80.5t206 80.5 t85 205.5t-85 208t-206 83t-206 -83t-85 -208zM520 1249q0 135 242 168l12 -53q-193 -27 -192 -107q0 -78 118 -102l-20 -53q-80 18 -120 53t-40 94z" />
<glyph unicode="&#x124;" d="M188 0v1352h66v-602h721v602h65v-1352h-65v692h-721v-692h-66zM389 1454l197 213h57l197 -213h-62l-160 152h-8l-159 -152h-62z" />
<glyph unicode="&#x125;" d="M66 1532l196 213h57l197 -213h-61l-160 151h-8l-160 -151h-61zM225 0v1479h62v-439l-4 -266q109 115 202 172.5t203 57.5q180 0 268 -96.5t88 -297.5v-610h-61v602q0 176 -70.5 260t-224.5 84q-104 0 -192 -54t-209 -183v-709h-62z" />
<glyph unicode="&#x126;" d="M33 1016v49l155 8v279h66v-279h721v279h65v-279h156v-57h-156v-1016h-65v692h-721v-692h-66v1016h-155zM254 750h721v266h-721v-266z" />
<glyph unicode="&#x127;" d="M66 1196v49l159 8v226h62v-226h483v-57h-483v-197l-4 -266q109 115 202 172.5t203 57.5q180 0 268 -96.5t88 -297.5v-569h-61v561q0 176 -70.5 260t-224.5 84q-104 0 -192 -54t-209 -183v-668h-62v1196h-159z" />
<glyph unicode="&#x128;" d="M229 0v57h353v1237h-353v58h770v-58h-352v-1237h352v-57h-770zM360 1470q4 68 39 122.5t97 54.5q55 0 127.5 -59.5t113.5 -59.5q33 0 56.5 32.5t29.5 86.5h45q-4 -68 -39 -122.5t-96 -54.5q-55 0 -128 59.5t-113 59.5q-33 0 -56.5 -32.5t-29.5 -86.5h-46z" />
<glyph unicode="&#x129;" d="M205 922v57h565v-979h-61v922h-504zM475 1192q4 68 35 118t96 50q53 0 123 -57.5t102 -57.5q63 0 78 115h49q-4 -66 -34.5 -117t-96.5 -51q-51 0 -120.5 57.5t-104.5 57.5q-66 0 -78 -115h-49z" />
<glyph unicode="&#x12a;" d="M229 0v57h353v1237h-353v58h770v-58h-352v-1237h352v-57h-770zM389 1507v58h451v-58h-451z" />
<glyph unicode="&#x12b;" d="M205 922v57h565v-979h-61v922h-504zM492 1245v58h450v-58h-450z" />
<glyph unicode="&#x12c;" d="M229 0v57h353v1237h-353v58h770v-58h-352v-1237h352v-57h-770zM385 1667h53q10 -63 55.5 -109.5t121 -46.5t120.5 46.5t56 109.5h53q-12 -80 -69.5 -144.5t-160 -64.5t-160 64.5t-69.5 144.5z" />
<glyph unicode="&#x12d;" d="M205 922v57h565v-979h-61v922h-504zM479 1417h53q10 -76 57.5 -130t127.5 -54t127 54t57 130h53q-12 -92 -69.5 -164.5t-168 -72.5t-167.5 72.5t-70 164.5z" />
<glyph unicode="&#x12e;" d="M229 0v57h353v1237h-353v58h770v-58h-352v-1237h352v-57h-352q-41 -51 -61.5 -81t-39 -75t-18.5 -90q0 -53 32 -81.5t75 -28.5q49 0 90 28l29 -41q-53 -45 -123 -45q-72 0 -118 42t-46 122q0 74 30.5 129t92.5 121h-361z" />
<glyph unicode="&#x12f;" d="M205 922v57h565v-979q-123 -147 -123 -246q0 -53 30 -81.5t73 -28.5q49 0 90 28l28 -41q-53 -45 -123 -45q-72 0 -115.5 42t-43.5 122q0 106 127 250h-4v922h-504zM635 1315q0 39 23.5 62.5t58.5 23.5t58.5 -23.5t23.5 -62.5t-23.5 -62.5t-58.5 -23.5t-58.5 23.5 t-23.5 62.5z" />
<glyph unicode="&#x130;" d="M229 0v57h353v1237h-353v58h770v-58h-352v-1237h352v-57h-770zM545 1556q0 31 20.5 50.5t49 19.5t49 -19.5t20.5 -50.5q0 -33 -20.5 -53t-49 -20t-49 20.5t-20.5 52.5z" />
<glyph unicode="&#x131;" d="M205 922v57h565v-979h-61v922h-504z" />
<glyph unicode="&#x134;" d="M201 201l61 35q115 -201 309 -201q174 0 255 95t81 288v880h-596v56h662v-942q0 -436 -404 -437q-119 0 -217 58.5t-151 167.5zM430 1454l197 213h57l197 -213h-62l-160 152h-8l-159 -152h-62z" />
<glyph unicode="&#x135;" d="M135 -414l29 54q119 -61 244 -62q168 0 234.5 81t66.5 235v1028h-504v57h565v-1073q0 -190 -85 -287.5t-288 -97.5q-135 0 -262 65zM496 1171l192 275h57l193 -275h-57l-160 209h-8l-160 -209h-57z" />
<glyph unicode="&#x136;" d="M250 0v1352h65v-779h4l705 779h80l-442 -496l501 -856h-78l-473 807l-297 -328v-479h-65zM571 -369q193 27 193 107q0 78 -119 102l21 54q80 -18 119.5 -53.5t39.5 -94.5q0 -135 -241 -168z" />
<glyph unicode="&#x137;" d="M266 0v1479h62v-1123l4 4l672 619h81l-405 -377l475 -602h-74l-450 565l-303 -286v-279h-62zM561 -369q193 27 193 107q0 78 -119 102l20 54q80 -18 120 -53.5t40 -94.5q0 -135 -242 -168z" />
<glyph unicode="&#x138;" d="M266 0v979h62v-623l4 4l672 619h81l-405 -377l475 -602h-74l-450 565l-303 -286v-279h-62z" />
<glyph unicode="&#x139;" d="M315 1454l193 213h90l-221 -213h-62zM319 0v1352h62v-1295h721v-57h-783z" />
<glyph unicode="&#x13a;" d="M199 1421v58h436v-1209q0 -238 219 -237q94 0 211 55l25 -51q-156 -61 -240 -62q-276 0 -277 308v1138h-374zM520 1556l193 213h90l-221 -213h-62z" />
<glyph unicode="&#x13b;" d="M319 0v1352h62v-1295h721v-57h-783zM590 -369q193 27 192 107q0 78 -118 102l20 54q80 -18 120 -53.5t40 -94.5q0 -135 -242 -168z" />
<glyph unicode="&#x13c;" d="M199 1421v58h436v-1209q0 -238 219 -237q94 0 211 55l25 -51q-156 -61 -240 -62q-276 0 -277 308v1138h-374zM631 -369q193 27 192 107q0 78 -118 102l20 54q80 -18 120 -53.5t40 -94.5q0 -135 -242 -168z" />
<glyph unicode="&#x13d;" d="M319 0v1352h62v-1295h721v-57h-783zM799 1479h61v-99l-12 -319h-45z" />
<glyph unicode="&#x13e;" d="M199 1421v58h436v-1209q0 -238 219 -237q94 0 211 55l25 -51q-156 -61 -240 -62q-276 0 -277 308v1138h-374zM799 1540h61v-98l-12 -320h-45z" />
<glyph unicode="&#x13f;" d="M319 0v1352h62v-1295h721v-57h-783zM762 700.5q0 38.5 23.5 62t58.5 23.5t58.5 -23.5t23.5 -62t-23.5 -62.5t-58.5 -24t-58.5 24t-23.5 62.5z" />
<glyph unicode="&#x140;" d="M137 1421v58h436v-1209q0 -238 220 -237q94 0 211 55l24 -51q-156 -61 -240 -62q-276 0 -276 308v1138h-375zM758 700.5q0 38.5 23.5 62t58 23.5t58.5 -23.5t24 -62t-24 -62.5t-58.5 -24t-58 24t-23.5 62.5z" />
<glyph unicode="&#x141;" d="M141 422v61l178 92v777h62v-748l493 256v-61l-493 -256v-486h721v-57h-783v514z" />
<glyph unicode="&#x142;" d="M199 1421v58h436v-605l356 203v-65l-356 -203v-539q0 -238 219 -237q94 0 211 55l25 -51q-156 -61 -240 -62q-276 0 -277 308v489l-270 -158v66l270 158v583h-374z" />
<glyph unicode="&#x143;" d="M197 0v1352h67l561 -996l150 -262h4q0 45 -4 176t-4 203v879h61v-1352h-67l-562 995l-149 262h-4q0 -47 4 -173t4 -197v-887h-61zM561 1454l193 213h90l-221 -213h-62z" />
<glyph unicode="&#x144;" d="M225 0v979h54l8 -197h8q98 109 190.5 165.5t202.5 56.5q180 0 268 -96.5t88 -297.5v-610h-61v602q0 176 -70.5 260t-224.5 84q-104 0 -192 -54t-209 -183v-709h-62zM549 1171l188 275h82l-213 -275h-57z" />
<glyph unicode="&#x145;" d="M197 0v1352h67l561 -996l150 -262h4q0 45 -4 176t-4 203v879h61v-1352h-67l-562 995l-149 262h-4q0 -47 4 -173t4 -197v-887h-61zM471 -369q193 27 193 107q0 78 -119 102l20 54q80 -18 120 -53.5t40 -94.5q0 -135 -242 -168z" />
<glyph unicode="&#x146;" d="M225 0v979h54l8 -197h8q98 109 190.5 165.5t202.5 56.5q180 0 268 -96.5t88 -297.5v-610h-61v602q0 176 -70.5 260t-224.5 84q-104 0 -192 -54t-209 -183v-709h-62zM508 -369q193 27 192 107q0 78 -118 102l20 54q80 -18 120 -53.5t40 -94.5q0 -135 -242 -168z" />
<glyph unicode="&#x147;" d="M197 0v1352h67l561 -996l150 -262h4q0 45 -4 176t-4 203v879h61v-1352h-67l-562 995l-149 262h-4q0 -47 4 -173t4 -197v-887h-61zM401 1667h62l160 -151h8l160 151h61l-197 -213h-57z" />
<glyph unicode="&#x148;" d="M225 0v979h54l8 -197h8q98 109 190.5 165.5t202.5 56.5q180 0 268 -96.5t88 -297.5v-610h-61v602q0 176 -70.5 260t-224.5 84q-104 0 -192 -54t-209 -183v-709h-62zM434 1446h58l159 -209h8l160 209h58l-193 -275h-57z" />
<glyph unicode="&#x149;" d="M-4 864q188 133 201 361q-35 -25 -66 -25q-49 0 -80 33t-31 82q0 51 32 85t83 34q57 0 98 -50.5t41 -132.5q0 -139 -66 -256t-175 -180zM369 0v979h53l8 -176h8q94 98 181.5 149.5t191.5 51.5q336 0 336 -373v-631h-62v623q0 164 -65.5 243.5t-208.5 79.5q-98 0 -182 -50 t-199 -167v-729h-61z" />
<glyph unicode="&#x14c;" d="M115 680q0 315 139 505.5t360.5 190.5t360.5 -190.5t139 -505.5q0 -317 -140 -511t-359.5 -194t-359.5 193.5t-140 511.5zM184 680q0 -291 119 -467t311.5 -176t311 176t118.5 467t-118.5 463t-311 172t-311.5 -172t-119 -463zM389 1507v58h451v-58h-451z" />
<glyph unicode="&#x14d;" d="M143 487q0 238 135.5 377.5t336 139.5t335.5 -139.5t135 -377.5q0 -236 -136 -374t-334.5 -138t-335 138t-136.5 374zM209 487.5q0 -200.5 114.5 -327.5t291 -127t291 127t114.5 327.5t-114.5 329.5t-291 129t-291 -129t-114.5 -329.5zM389 1245v58h451v-58h-451z" />
<glyph unicode="&#x14e;" d="M115 680q0 315 139 505.5t360.5 190.5t360.5 -190.5t139 -505.5q0 -317 -140 -511t-359.5 -194t-359.5 193.5t-140 511.5zM184 680q0 -291 119 -467t311.5 -176t311 176t118.5 467t-118.5 463t-311 172t-311.5 -172t-119 -463zM385 1667h53q10 -63 55.5 -109.5t121 -46.5 t120.5 46.5t56 109.5h53q-12 -80 -69.5 -144.5t-160 -64.5t-160 64.5t-69.5 144.5z" />
<glyph unicode="&#x14f;" d="M143 487q0 238 135.5 377.5t336 139.5t335.5 -139.5t135 -377.5q0 -236 -136 -374t-334.5 -138t-335 138t-136.5 374zM209 487.5q0 -200.5 114.5 -327.5t291 -127t291 127t114.5 327.5t-114.5 329.5t-291 129t-291 -129t-114.5 -329.5zM377 1417h53q10 -76 57.5 -130 t127 -54t126.5 54t58 130h53q-12 -92 -69.5 -164.5t-168 -72.5t-168 72.5t-69.5 164.5z" />
<glyph unicode="&#x150;" d="M115 680q0 315 139 505.5t360.5 190.5t360.5 -190.5t139 -505.5q0 -317 -140 -511t-359.5 -194t-359.5 193.5t-140 511.5zM184 680q0 -291 119 -467t311.5 -176t311 176t118.5 467t-118.5 463t-311 172t-311.5 -172t-119 -463zM438 1454l140 213h77l-159 -213h-58z M725 1454l139 213h78l-160 -213h-57z" />
<glyph unicode="&#x151;" d="M143 487q0 238 135.5 377.5t336 139.5t335.5 -139.5t135 -377.5q0 -236 -136 -374t-334.5 -138t-335 138t-136.5 374zM209 487.5q0 -200.5 114.5 -327.5t291 -127t291 127t114.5 327.5t-114.5 329.5t-291 129t-291 -129t-114.5 -329.5zM459 1167l147 279h74l-168 -279 h-53zM721 1167l147 279h74l-168 -279h-53z" />
<glyph unicode="&#x152;" d="M90 680q0 311 135 492.5t393 181.5h566v-56h-455v-548h348v-58h-348v-635h475v-57h-583q-258 0 -394.5 184.5t-136.5 495.5zM158 680q0 -283 112.5 -453t339.5 -170h52v1239h-52q-227 0 -339.5 -166.5t-112.5 -449.5z" />
<glyph unicode="&#x153;" d="M20 489.5q0 239.5 96.5 377t250.5 137.5q102 0 180 -76t121 -215q92 291 295 291q127 0 196.5 -122t69.5 -304q0 -49 -4 -91h-523q0 -205 71 -330.5t210 -125.5q82 0 193 71l24 -45q-43 -29 -61.5 -40t-64.5 -26.5t-93 -15.5q-225 0 -313 287q-43 -139 -121 -213 t-178 -74q-156 0 -252.5 137.5t-96.5 377zM86 489.5q0 -206.5 73.5 -333.5t205.5 -127q123 0 198.5 129t75.5 331.5t-76 330.5t-198 128q-131 0 -205 -126t-74 -332.5zM702 541h465q0 178 -49 291.5t-160 113.5q-227 1 -256 -405z" />
<glyph unicode="&#x154;" d="M254 0v1352h373q434 0 434 -348q0 -160 -96.5 -252.5t-268.5 -108.5l385 -643h-77l-381 639h-304v-639h-65zM319 696h283q389 0 389 308q0 156 -97 223t-292 67h-283v-598zM561 1454l193 213h90l-221 -213h-62z" />
<glyph unicode="&#x155;" d="M348 0v979h53l9 -246h4q84 123 204.5 197t264.5 74q117 0 196 -41l-16 -58q-102 37 -189 37q-268 0 -464 -315v-627h-62zM598 1171l188 275h82l-213 -275h-57z" />
<glyph unicode="&#x156;" d="M254 0v1352h373q434 0 434 -348q0 -160 -96.5 -252.5t-268.5 -108.5l385 -643h-77l-381 639h-304v-639h-65zM319 696h283q389 0 389 308q0 156 -97 223t-292 67h-283v-598zM512 -369q193 27 193 107q0 77 -119 102l20 54q80 -18 120 -53.5t40 -94.5q0 -135 -242 -168z " />
<glyph unicode="&#x157;" d="M262 -369q193 27 193 107q0 78 -119 102l20 54q80 -18 120 -53.5t40 -94.5q0 -135 -242 -168zM348 0v979h53l9 -246h4q84 123 204.5 197t264.5 74q117 0 196 -41l-16 -58q-102 37 -189 37q-268 0 -464 -315v-627h-62z" />
<glyph unicode="&#x158;" d="M254 0v1352h373q434 0 434 -348q0 -160 -96.5 -252.5t-268.5 -108.5l385 -643h-77l-381 639h-304v-639h-65zM319 696h283q389 0 389 308q0 156 -97 223t-292 67h-283v-598zM401 1667h62l160 -151h8l160 151h61l-197 -213h-57z" />
<glyph unicode="&#x159;" d="M348 0v979h53l9 -246h4q84 123 204.5 197t264.5 74q117 0 196 -41l-16 -58q-102 37 -189 37q-268 0 -464 -315v-627h-62zM483 1446h58l159 -209h9l159 209h58l-193 -275h-57z" />
<glyph unicode="&#x15a;" d="M164 180l45 45q168 -188 426 -188q170 0 273.5 81t103.5 210q0 66 -19.5 112.5t-63.5 82.5t-82 55.5t-106 48.5l-209 94q-59 25 -100 47.5t-91 61t-76.5 95t-26.5 128.5q0 143 113.5 233t287.5 90q233 0 389 -159l-41 -46q-137 143 -348 144q-152 0 -244 -70.5 t-92 -187.5q0 -47 18.5 -89t41 -68t64.5 -51.5t66.5 -36.5t67.5 -30l209 -94q150 -63 228.5 -139t78.5 -217q0 -156 -123 -256.5t-319 -100.5q-287 0 -471 205zM578 1454l192 213h90l-221 -213h-61z" />
<glyph unicode="&#x15b;" d="M178 131l39 49q174 -147 447 -147q154 0 238.5 60.5t84.5 148.5q0 78 -74.5 132t-289.5 105q-389 92 -390 271q0 109 94.5 181.5t278.5 72.5q94 0 196.5 -33t172.5 -86l-37 -49q-145 111 -336 110q-160 0 -231.5 -54t-71.5 -138q0 -131 340 -215q238 -59 326 -124 t88 -169q0 -113 -106.5 -192t-287.5 -79q-268 0 -481 156zM500 1171l188 275h82l-213 -275h-57z" />
<glyph unicode="&#x15c;" d="M164 180l45 45q168 -188 426 -188q170 0 273.5 81t103.5 210q0 66 -19.5 112.5t-63.5 82.5t-82 55.5t-106 48.5l-209 94q-59 25 -100 47.5t-91 61t-76.5 95t-26.5 128.5q0 143 113.5 233t287.5 90q233 0 389 -159l-41 -46q-137 143 -348 144q-152 0 -244 -70.5 t-92 -187.5q0 -47 18.5 -89t41 -68t64.5 -51.5t66.5 -36.5t67.5 -30l209 -94q150 -63 228.5 -139t78.5 -217q0 -156 -123 -256.5t-319 -100.5q-287 0 -471 205zM418 1454l196 213h58l196 -213h-61l-160 152h-8l-160 -152h-61z" />
<glyph unicode="&#x15d;" d="M178 131l39 49q174 -147 447 -147q154 0 238.5 60.5t84.5 148.5q0 78 -74.5 132t-289.5 105q-389 92 -390 271q0 109 94.5 181.5t278.5 72.5q94 0 196.5 -33t172.5 -86l-37 -49q-145 111 -336 110q-160 0 -231.5 -54t-71.5 -138q0 -131 340 -215q238 -59 326 -124 t88 -169q0 -113 -106.5 -192t-287.5 -79q-268 0 -481 156zM385 1171l193 275h57l192 -275h-57l-160 209h-8l-160 -209h-57z" />
<glyph unicode="&#x15e;" d="M164 180l45 45q168 -188 426 -188q170 0 273.5 81t103.5 210q0 66 -19.5 112.5t-63.5 82.5t-82 55.5t-106 48.5l-209 94q-59 25 -100 47.5t-91 61t-76.5 95t-26.5 128.5q0 143 113.5 233t287.5 90q233 0 389 -159l-41 -46q-137 143 -348 144q-152 0 -244 -70.5 t-92 -187.5q0 -47 18.5 -89t41 -68t64.5 -51.5t66.5 -37t67.5 -29.5l209 -94q150 -63 228.5 -139t78.5 -217q0 -147 -110.5 -246.5t-292.5 -108.5l-47 -92q123 -39 123 -139q0 -135 -242 -168l-12 53q193 27 192 107q0 45 -36 68.5t-103 41.5l67 127q-276 8 -452 205z" />
<glyph unicode="&#x15f;" d="M178 131l39 49q174 -147 447 -147q154 0 238.5 60.5t84.5 148.5q0 78 -74.5 132t-289.5 105q-389 92 -390 271q0 109 94.5 181.5t278.5 72.5q94 0 196.5 -33t172.5 -86l-37 -49q-145 111 -336 110q-160 0 -231.5 -54t-71.5 -138q0 -131 340 -215q238 -59 326 -124 t88 -169q0 -109 -100.5 -186.5t-270.5 -84.5l-47 -90q123 -39 123 -139q0 -135 -242 -168l-12 53q193 27 192 107q0 45 -35.5 68.5t-103.5 41.5l68 127q-250 10 -447 156z" />
<glyph unicode="&#x160;" d="M164 180l45 45q168 -188 426 -188q170 0 273.5 81t103.5 210q0 66 -19.5 112.5t-63.5 82.5t-82 55.5t-106 48.5l-209 94q-59 25 -100 47.5t-91 61t-76.5 95t-26.5 128.5q0 143 113.5 233t287.5 90q233 0 389 -159l-41 -46q-137 143 -348 144q-152 0 -244 -70.5 t-92 -187.5q0 -47 18.5 -89t41 -68t64.5 -51.5t66.5 -36.5t67.5 -30l209 -94q150 -63 228.5 -139t78.5 -217q0 -156 -123 -256.5t-319 -100.5q-287 0 -471 205zM418 1667h61l160 -151h8l160 151h61l-196 -213h-58z" />
<glyph unicode="&#x161;" d="M178 131l39 49q174 -147 447 -147q154 0 238.5 60.5t84.5 148.5q0 78 -74.5 132t-289.5 105q-389 92 -390 271q0 109 94.5 181.5t278.5 72.5q94 0 196.5 -33t172.5 -86l-37 -49q-145 111 -336 110q-160 0 -231.5 -54t-71.5 -138q0 -131 340 -215q238 -59 326 -124 t88 -169q0 -113 -106.5 -192t-287.5 -79q-268 0 -481 156zM385 1446h57l160 -209h8l160 209h57l-192 -275h-57z" />
<glyph unicode="&#x162;" d="M102 1294v58h1024v-58h-479v-1294h-2l-59 -115q123 -39 123 -139q0 -135 -242 -168l-12 53q193 27 192 107q0 45 -36 68.5t-103 41.5l80 152h-6v1294h-480z" />
<glyph unicode="&#x163;" d="M174 922v49l301 8l8 287h54v-287h534v-57h-534v-570q0 -160 60 -239.5t220 -79.5q141 0 270 53l21 -49q-147 -61 -295 -62h-4l-47 -90q123 -39 123 -139q0 -135 -242 -168l-12 53q193 27 192 107q0 45 -35.5 68.5t-103.5 41.5l68 132q-150 16 -213.5 113t-63.5 267v562 h-301z" />
<glyph unicode="&#x164;" d="M102 1294v58h1024v-58h-479v-1294h-65v1294h-480zM387 1667h62l159 -151h8l160 151h62l-197 -213h-57z" />
<glyph unicode="&#x165;" d="M174 922v49l301 8l8 287h54v-287h534v-57h-534v-570q0 -160 60 -239.5t220 -79.5q141 0 270 53l21 -49q-147 -61 -295 -62q-184 0 -261 99.5t-77 285.5v562h-301zM815 1540h62v-98l-13 -320h-45z" />
<glyph unicode="&#x168;" d="M188 504v848h66v-832q0 -260 100.5 -371.5t259.5 -111.5q162 0 263.5 111.5t101.5 371.5v832h61v-848q0 -150 -35.5 -257.5t-98 -164.5t-134.5 -82t-158 -25t-157.5 25t-134 82t-98.5 164.5t-36 257.5zM360 1470q4 68 39 122.5t97 54.5q55 0 127.5 -59.5t113.5 -59.5 q33 0 56.5 32.5t29.5 86.5h45q-4 -68 -39 -122.5t-96 -54.5q-55 0 -128 59.5t-113 59.5q-33 0 -56.5 -32.5t-29.5 -86.5h-46z" />
<glyph unicode="&#x169;" d="M184 369v610h62v-602q0 -176 70.5 -260t224.5 -84q106 0 198 56t203 181v709h62v-979h-54l-8 197h-8q-188 -221 -393 -222q-180 0 -268.5 96.5t-88.5 297.5zM360 1192q4 68 35 118t97 50q53 0 122.5 -57.5t102.5 -57.5q63 0 78 115h49q-4 -66 -35 -117t-96 -51 q-51 0 -121 57.5t-105 57.5q-66 0 -77 -115h-50z" />
<glyph unicode="&#x16a;" d="M188 504v848h66v-832q0 -260 100.5 -371.5t259.5 -111.5q162 0 263.5 111.5t101.5 371.5v832h61v-848q0 -150 -35.5 -257.5t-98 -164.5t-134.5 -82t-158 -25t-157.5 25t-134 82t-98.5 164.5t-36 257.5zM389 1507v58h451v-58h-451z" />
<glyph unicode="&#x16b;" d="M184 369v610h62v-602q0 -176 70.5 -260t224.5 -84q106 0 198 56t203 181v709h62v-979h-54l-8 197h-8q-188 -221 -393 -222q-180 0 -268.5 96.5t-88.5 297.5zM377 1245v58h450v-58h-450z" />
<glyph unicode="&#x16c;" d="M188 504v848h66v-832q0 -260 100.5 -371.5t259.5 -111.5q162 0 263.5 111.5t101.5 371.5v832h61v-848q0 -150 -35.5 -257.5t-98 -164.5t-134.5 -82t-158 -25t-157.5 25t-134 82t-98.5 164.5t-36 257.5zM385 1667h53q10 -63 55.5 -109.5t121 -46.5t120.5 46.5t56 109.5h53 q-12 -80 -69.5 -144.5t-160 -64.5t-160 64.5t-69.5 144.5z" />
<glyph unicode="&#x16d;" d="M184 369v610h62v-602q0 -176 70.5 -260t224.5 -84q106 0 198 56t203 181v709h62v-979h-54l-8 197h-8q-188 -221 -393 -222q-180 0 -268.5 96.5t-88.5 297.5zM365 1417h53q10 -76 57 -130t127 -54t127 54t57 130h54q-12 -92 -69.5 -164.5t-168 -72.5t-168 72.5 t-69.5 164.5z" />
<glyph unicode="&#x16e;" d="M188 504v848h66v-832q0 -260 100.5 -371.5t259.5 -111.5q162 0 263.5 111.5t101.5 371.5v832h61v-848q0 -150 -35.5 -257.5t-98 -164.5t-134.5 -82t-158 -25t-157.5 25t-134 82t-98.5 164.5t-36 257.5zM455 1597.5q0 73.5 45 118.5t114 45q66 0 113 -46t47 -117.5 t-47 -117.5t-113 -46q-70 0 -114.5 45t-44.5 118.5zM504 1597q0 -57 30.5 -87.5t79.5 -30.5q45 0 76 31.5t31 86.5q0 53 -31 86t-76 33q-47 0 -78.5 -32.5t-31.5 -86.5z" />
<glyph unicode="&#x16f;" d="M184 369v610h62v-602q0 -176 70.5 -260t224.5 -84q106 0 198 56t203 181v709h62v-979h-54l-8 197h-8q-188 -221 -393 -222q-180 0 -268.5 96.5t-88.5 297.5zM442 1274q0 76 46.5 124t114 48t113.5 -48t46 -124t-46 -124t-113.5 -48t-114 48t-46.5 124zM492 1274 q0 -57 31.5 -92t78.5 -35t79 35t32 92t-32 92t-79 35t-78.5 -35t-31.5 -92z" />
<glyph unicode="&#x170;" d="M188 504v848h66v-832q0 -260 100.5 -371.5t259.5 -111.5q162 0 263.5 111.5t101.5 371.5v832h61v-848q0 -150 -35.5 -257.5t-98 -164.5t-134.5 -82t-158 -25t-157.5 25t-134 82t-98.5 164.5t-36 257.5zM438 1454l140 213h77l-159 -213h-58zM725 1454l139 213h78 l-160 -213h-57z" />
<glyph unicode="&#x171;" d="M184 369v610h62v-602q0 -176 70.5 -260t224.5 -84q106 0 198 56t203 181v709h62v-979h-54l-8 197h-8q-188 -221 -393 -222q-180 0 -268.5 96.5t-88.5 297.5zM446 1167l148 279h74l-168 -279h-54zM709 1167l147 279h74l-168 -279h-53z" />
<glyph unicode="&#x172;" d="M188 504v848h66v-832q0 -260 99.5 -371.5t258.5 -111.5q162 0 264.5 112.5t102.5 370.5v832h61v-848q0 -387 -254 -500q-96 -43 -156.5 -113.5t-60.5 -136.5q0 -53 32 -81.5t75 -28.5q49 0 90 28l29 -41q-53 -45 -123 -45q-72 0 -118 42t-46 122q0 16 2 31.5t8 31 t10 26.5t15.5 26.5t16.5 24t19.5 23.5t19.5 20.5t22.5 22.5t21.5 21q-227 -8 -341 126.5t-114 400.5z" />
<glyph unicode="&#x173;" d="M184 369v610h62v-602q0 -176 70.5 -260t224.5 -84q106 0 198 56t203 181v709h62v-979q-176 -117 -177 -246q0 -53 30 -81.5t73 -28.5q49 0 90 28l29 -41q-53 -45 -123 -45q-72 0 -116 42t-44 122q0 135 184 266l-8 181h-8q-188 -221 -393 -222q-180 0 -268.5 96.5 t-88.5 297.5z" />
<glyph unicode="&#x174;" d="M31 1354h59l160 -953q6 -59 23.5 -168.5t23.5 -154.5h4q57 178 98 323l181 598h71l185 -598q33 -123 94 -323h8q6 51 22.5 159.5t24.5 163.5l154 953h57l-223 -1354h-86l-207 678q-12 41 -31.5 118.5t-30.5 114.5h-6q-8 -29 -20 -74.5t-23.5 -84.5t-21.5 -74l-201 -678 h-86zM389 1454l197 213h57l197 -213h-62l-160 152h-8l-159 -152h-62z" />
<glyph unicode="&#x175;" d="M25 979h69l170 -660q57 -229 64 -258h8q8 29 21.5 80.5t24.5 94.5t21 83l170 660h86l170 -660l68 -258h8q51 199 66 258l168 660h65l-262 -979h-86l-168 639q-10 35 -32.5 130t-37.5 149h-8q-59 -252 -69 -283l-164 -635h-86zM393 1171l193 275h57l193 -275h-58l-160 209 h-8l-159 -209h-58z" />
<glyph unicode="&#x176;" d="M115 1352h65l254 -463q35 -57 94.5 -165t85.5 -155h9q66 109 184 322l246 461h61l-467 -850v-502h-65v502zM389 1454l197 213h57l197 -213h-62l-160 152h-8l-159 -152h-62z" />
<glyph unicode="&#x177;" d="M131 979h66l303 -643q86 -182 139 -275h8q20 43 119 275l270 643h62l-471 -1118q-45 -131 -141.5 -223.5t-235.5 -92.5q-68 0 -113 21l21 57q49 -16 98 -16q211 0 322 278l36 90zM397 1171l193 275h57l193 -275h-58l-159 209h-9l-159 -209h-58z" />
<glyph unicode="&#x178;" d="M115 1352h65l254 -463q35 -57 94.5 -165t85.5 -155h9q66 109 184 322l246 461h61l-467 -850v-502h-65v502zM393 1556.5q0 30.5 18.5 48t47 17.5t47 -17.5t18.5 -48t-18.5 -48t-47 -17.5t-47 17.5t-18.5 48zM705 1556.5q0 30.5 18 48t47 17.5t47.5 -17.5t18.5 -48 t-18.5 -48t-47.5 -17.5t-47 17.5t-18 48z" />
<glyph unicode="&#x179;" d="M147 0v39l852 1259h-780v56h858v-39l-854 -1258h869v-57h-945zM582 1454l192 213h90l-221 -213h-61z" />
<glyph unicode="&#x17a;" d="M147 0v33l803 889h-717v57h816v-33l-803 -889h827v-57h-926zM545 1171l188 275h82l-213 -275h-57z" />
<glyph unicode="&#x17b;" d="M147 0v39l852 1259h-780v56h858v-39l-854 -1258h869v-57h-945zM578 1556q0 31 20 50.5t49 19.5t49.5 -19.5t20.5 -50.5q0 -33 -20.5 -53t-49.5 -20t-49 20.5t-20 52.5z" />
<glyph unicode="&#x17c;" d="M147 0v33l803 889h-717v57h816v-33l-803 -889h827v-57h-926zM569 1315q0 39 23.5 62.5t58.5 23.5t58.5 -23.5t23.5 -62.5t-23.5 -62.5t-58.5 -23.5t-58.5 23.5t-23.5 62.5z" />
<glyph unicode="&#x17d;" d="M147 0v39l852 1259h-780v56h858v-39l-854 -1258h869v-57h-945zM422 1667h61l160 -151h8l160 151h61l-196 -213h-58z" />
<glyph unicode="&#x17e;" d="M147 0v33l803 889h-717v57h816v-33l-803 -889h827v-57h-926zM430 1446h57l160 -209h8l160 209h57l-192 -275h-57z" />
<glyph unicode="&#x180;" d="M66 1196v49l159 8v226h62v-226h483v-57h-483v-197l-4 -217q184 180 385 181q205 0 311 -128t106 -352q0 -231 -134 -369.5t-324 -138.5q-76 0 -168 37t-168 99h-4l-8 -111h-54v1196h-159zM287 188q86 -78 179 -116.5t165 -38.5q170 0 279.5 127t109.5 323q0 190 -87 306 t-269 116q-184 1 -377 -192v-525z" />
<glyph unicode="&#x18f;" d="M135 668v4h909v8q0 295 -109.5 467t-311.5 172q-181 0 -308 -139l-36 45q137 152 339 151q233 0 362.5 -186t129.5 -510q0 -319 -137 -512t-363 -193q-219 0 -347 193.5t-128 499.5zM201 610q16 -266 124.5 -421.5t284.5 -155.5q186 0 302 158.5t130 422.5h-841v-4z" />
<glyph unicode="&#x192;" d="M106 -160l25 49q78 -33 131 -32q209 0 250 344l61 569h-241v49l135 8h113l14 136q45 414 303 413q96 0 176 -45l-29 -49q-61 37 -151 37q-113 0 -169 -100.5t-69 -251.5l-14 -140h334v-57h-340l-62 -565q-25 -201 -99.5 -303.5t-219.5 -102.5q-61 0 -148 41z" />
<glyph unicode="&#x1a0;" d="M115 680q0 315 139 505.5t360 190.5q127 0 228 -65q195 27 194 143q1 37 -28 78l53 33q37 -55 37 -107q0 -145 -197 -190q213 -190 213 -588q0 -317 -140 -511t-359.5 -194t-359.5 193.5t-140 511.5zM184 680q0 -291 119 -467t311.5 -176t311 176t118.5 467t-118.5 463 t-311 172t-311.5 -172t-119 -463z" />
<glyph unicode="&#x1a1;" d="M143 487q0 238 135.5 377.5t335.5 139.5q111 0 209 -48q205 25 205 146q0 37 -29 78l54 32q37 -55 37 -106q0 -145 -197 -191q193 -145 192 -428q0 -236 -136 -374t-334.5 -138t-335 138.5t-136.5 373.5zM209 487.5q0 -200.5 114.5 -327.5t291 -127t291 127t114.5 327.5 t-114.5 329.5t-291 129t-291 -129t-114.5 -329.5z" />
<glyph unicode="&#x1af;" d="M188 504v848h66v-832q0 -260 100.5 -371.5t259.5 -111.5q162 0 263.5 111.5t101.5 371.5v832h12q98 16 143.5 49t45.5 94q0 37 -29 78l53 33q37 -55 37 -107q0 -84 -54 -127t-147 -65v-803q0 -150 -35.5 -257.5t-98 -164.5t-134.5 -82t-158 -25t-157.5 25t-134 82 t-98.5 164.5t-36 257.5z" />
<glyph unicode="&#x1b0;" d="M184 369v610h62v-602q0 -176 70.5 -260t224.5 -84q106 0 198 56t203 181v709h4q176 27 176 143q1 37 -28 78l53 33q37 -55 37 -107q0 -141 -180 -188v-938h-54l-8 197h-8q-188 -221 -393 -222q-180 0 -268.5 96.5t-88.5 297.5z" />
<glyph unicode="&#x1cd;" d="M102 0l484 1352h57l483 -1352h-69l-168 483h-551l-170 -483h-66zM358 541h510l-94 270q-109 309 -156 471h-8q-47 -162 -155 -471zM389 1667h62l159 -151h8l160 151h62l-197 -213h-57z" />
<glyph unicode="&#x1ce;" d="M197 240q0 164 178 248.5t588 121.5q0 336 -304 336q-197 0 -380 -139l-33 49q70 53 185.5 100.5t232.5 47.5q184 0 272 -103.5t88 -265.5v-635h-53l-8 152h-5q-219 -176 -417 -177q-143 0 -243.5 67t-100.5 198zM262 242q0 -106 83 -157.5t200 -51.5q195 0 418 188v336 q-385 -37 -543 -110.5t-158 -204.5zM430 1446h57l160 -209h8l160 209h57l-192 -275h-57z" />
<glyph unicode="&#x1cf;" d="M229 0v57h353v1237h-353v58h770v-58h-352v-1237h352v-57h-770zM389 1667h62l159 -151h8l160 151h62l-197 -213h-57z" />
<glyph unicode="&#x1d0;" d="M205 922v57h565v-979h-61v922h-504zM496 1446h57l160 -209h8l160 209h57l-193 -275h-57z" />
<glyph unicode="&#x1d1;" d="M115 680q0 315 139 505.5t360.5 190.5t360.5 -190.5t139 -505.5q0 -317 -140 -511t-359.5 -194t-359.5 193.5t-140 511.5zM184 680q0 -291 119 -467t311.5 -176t311 176t118.5 467t-118.5 463t-311 172t-311.5 -172t-119 -463zM389 1667h62l159 -151h8l160 151h62 l-197 -213h-57z" />
<glyph unicode="&#x1d2;" d="M143 487q0 238 135.5 377.5t336 139.5t335.5 -139.5t135 -377.5q0 -236 -136 -374t-334.5 -138t-335 138t-136.5 374zM209 487.5q0 -200.5 114.5 -327.5t291 -127t291 127t114.5 327.5t-114.5 329.5t-291 129t-291 -129t-114.5 -329.5zM393 1446h58l159 -209h8l160 209 h58l-193 -275h-57z" />
<glyph unicode="&#x1d3;" d="M188 504v848h66v-832q0 -260 100.5 -371.5t259.5 -111.5q162 0 263.5 111.5t101.5 371.5v832h61v-848q0 -150 -35.5 -257.5t-98 -164.5t-134.5 -82t-158 -25t-157.5 25t-134 82t-98.5 164.5t-36 257.5zM389 1667h62l159 -151h8l160 151h62l-197 -213h-57z" />
<glyph unicode="&#x1d4;" d="M184 369v610h62v-602q0 -176 70.5 -260t224.5 -84q106 0 198 56t203 181v709h62v-979h-54l-8 197h-8q-188 -221 -393 -222q-180 0 -268.5 96.5t-88.5 297.5zM381 1446h57l160 -209h8l160 209h57l-192 -275h-58z" />
<glyph unicode="&#x1d5;" d="M188 504v848h66v-832q0 -260 100.5 -371.5t259.5 -111.5q162 0 263.5 111.5t101.5 371.5v832h61v-848q0 -150 -35.5 -257.5t-98 -164.5t-134.5 -82t-158 -25t-157.5 25t-134 82t-98.5 164.5t-36 257.5zM389 1745v57h451v-57h-451zM393 1556.5q0 30.5 18.5 48t47 17.5 t47 -17.5t18.5 -48t-18.5 -48t-47 -17.5t-47 17.5t-18.5 48zM705 1556.5q0 30.5 18 48t47 17.5t47.5 -17.5t18.5 -48t-18.5 -48t-47.5 -17.5t-47 17.5t-18 48z" />
<glyph unicode="&#x1d6;" d="M184 369v610h62v-602q0 -176 70.5 -260t224.5 -84q106 0 198 56t203 181v709h62v-979h-54l-8 197h-8q-188 -221 -393 -222q-180 0 -268.5 96.5t-88.5 297.5zM373 1528v57h454v-57h-454zM381 1298.5q0 28.5 18.5 47t47 18.5t47 -18.5t18.5 -47t-18.5 -47t-47 -18.5 t-47 18.5t-18.5 47zM692 1298.5q0 28.5 18.5 47t47 18.5t47 -18.5t18.5 -47t-18.5 -47t-47 -18.5t-47 18.5t-18.5 47z" />
<glyph unicode="&#x1d7;" d="M188 504v848h66v-832q0 -260 100.5 -371.5t259.5 -111.5q162 0 263.5 111.5t101.5 371.5v832h61v-848q0 -150 -35.5 -257.5t-98 -164.5t-134.5 -82t-158 -25t-157.5 25t-134 82t-98.5 164.5t-36 257.5zM393 1556.5q0 30.5 18.5 48t47 17.5t47 -17.5t18.5 -48t-18.5 -48 t-47 -17.5t-47 17.5t-18.5 48zM549 1692l196 213h82l-221 -213h-57zM705 1556.5q0 30.5 18 48t47 17.5t47.5 -17.5t18.5 -48t-18.5 -48t-47.5 -17.5t-47 17.5t-18 48z" />
<glyph unicode="&#x1d8;" d="M184 369v610h62v-602q0 -176 70.5 -260t224.5 -84q106 0 198 56t203 181v709h62v-979h-54l-8 197h-8q-188 -221 -393 -222q-180 0 -268.5 96.5t-88.5 297.5zM381 1298.5q0 28.5 18.5 47t47 18.5t47 -18.5t18.5 -47t-18.5 -47t-47 -18.5t-47 18.5t-18.5 47zM520 1446 l164 196h86l-192 -196h-58zM692 1298.5q0 28.5 18.5 47t47 18.5t47 -18.5t18.5 -47t-18.5 -47t-47 -18.5t-47 18.5t-18.5 47z" />
<glyph unicode="&#x1d9;" d="M188 504v848h66v-832q0 -260 100.5 -371.5t259.5 -111.5q162 0 263.5 111.5t101.5 371.5v832h61v-848q0 -150 -35.5 -257.5t-98 -164.5t-134.5 -82t-158 -25t-157.5 25t-134 82t-98.5 164.5t-36 257.5zM389 1905h62l159 -152h8l160 152h62l-197 -213h-57zM393 1556.5 q0 30.5 18.5 48t47 17.5t47 -17.5t18.5 -48t-18.5 -48t-47 -17.5t-47 17.5t-18.5 48zM705 1556.5q0 30.5 18 48t47 17.5t47.5 -17.5t18.5 -48t-18.5 -48t-47.5 -17.5t-47 17.5t-18 48z" />
<glyph unicode="&#x1da;" d="M184 369v610h62v-602q0 -176 70.5 -260t224.5 -84q106 0 198 56t203 181v709h62v-979h-54l-8 197h-8q-188 -221 -393 -222q-180 0 -268.5 96.5t-88.5 297.5zM381 1298.5q0 28.5 18.5 47t47 18.5t47 -18.5t18.5 -47t-18.5 -47t-47 -18.5t-47 18.5t-18.5 47zM381 1642h61 l156 -139h8l156 139h61l-192 -196h-58zM692 1298.5q0 28.5 18.5 47t47 18.5t47 -18.5t18.5 -47t-18.5 -47t-47 -18.5t-47 18.5t-18.5 47z" />
<glyph unicode="&#x1db;" d="M188 504v848h66v-832q0 -260 100.5 -371.5t259.5 -111.5q162 0 263.5 111.5t101.5 371.5v832h61v-848q0 -150 -35.5 -257.5t-98 -164.5t-134.5 -82t-158 -25t-157.5 25t-134 82t-98.5 164.5t-36 257.5zM393 1556.5q0 30.5 18.5 48t47 17.5t47 -17.5t18.5 -48t-18.5 -48 t-47 -17.5t-47 17.5t-18.5 48zM401 1905h82l197 -213h-57zM705 1556.5q0 30.5 18 48t47 17.5t47.5 -17.5t18.5 -48t-18.5 -48t-47.5 -17.5t-47 17.5t-18 48z" />
<glyph unicode="&#x1dc;" d="M184 369v610h62v-602q0 -176 70.5 -260t224.5 -84q106 0 198 56t203 181v709h62v-979h-54l-8 197h-8q-188 -221 -393 -222q-180 0 -268.5 96.5t-88.5 297.5zM381 1298.5q0 28.5 18.5 47t47 18.5t47 -18.5t18.5 -47t-18.5 -47t-47 -18.5t-47 18.5t-18.5 47zM434 1642h86 l164 -196h-57zM692 1298.5q0 28.5 18.5 47t47 18.5t47 -18.5t18.5 -47t-18.5 -47t-47 -18.5t-47 18.5t-18.5 47z" />
<glyph unicode="&#x1e6;" d="M125 680q0 317 157.5 506.5t419.5 189.5q203 0 355 -159l-41 -46q-129 143 -314 144q-236 0 -371.5 -171t-135.5 -464q0 -295 131 -469t360 -174q209 0 315 110v447h-327v57h395v-524q-137 -152 -387 -152q-252 0 -404.5 193t-152.5 512zM455 1667h61l160 -151h8l160 151 h61l-196 -213h-58z" />
<glyph unicode="&#x1e7;" d="M180 -190q0 57 45 121.5t123 113.5v8q-102 47 -102 156q0 102 119 184v8q-115 100 -115 254q0 147 104.5 248t251.5 101q76 0 131 -25h410v-57h-311q127 -119 127 -267q0 -145 -103.5 -244.5t-253.5 -99.5q-100 0 -192 49q-102 -61 -103 -145q0 -145 234 -145h252 q186 0 268 -50.5t82 -166.5q0 -129 -142.5 -230.5t-365.5 -101.5q-225 0 -342 78t-117 211zM246 -199q0 -98 97 -160.5t284 -62.5q203 0 328.5 83t125.5 187q0 86 -64.5 121t-203.5 35h-248q-88 0 -149 19q-170 -91 -170 -222zM315 655q0 -125 85 -205.5t206 -80.5t206 80.5 t85 205.5t-85 208t-206 83t-206 -83t-85 -208zM414 1446h57l160 -209h8l160 209h57l-192 -275h-58z" />
<glyph unicode="&#x1ea;" d="M115 680q0 315 139 505.5t360.5 190.5t360.5 -190.5t139 -505.5q0 -264 -95 -438t-265 -246q-82 -35 -128 -104.5t-46 -137.5q0 -53 31.5 -81.5t74.5 -28.5q49 -1 90 28l29 -41q-53 -45 -123 -45q-72 0 -118 42t-46 122q0 125 123 225q-133 -2 -236.5 56.5t-165 160 t-93 226.5t-31.5 262zM184 680q0 -291 119 -467t311.5 -176t311 176t118.5 467t-118.5 463t-311 172t-311.5 -172t-119 -463z" />
<glyph unicode="&#x1eb;" d="M143 487.5q0 237.5 135.5 377t336 139.5t335.5 -139.5t135 -377.5q0 -201 -90 -317.5t-266 -185.5q-68 -31 -112 -96.5t-44 -133.5q0 -53 30 -81.5t73 -28.5q49 0 90 28l29 -41q-53 -45 -123 -45q-72 0 -116 42t-44 122q0 70 36 130.5t79 94.5q-209 -4 -346.5 135.5 t-137.5 377zM209 487.5q0 -200.5 114.5 -327.5t291 -127t291 127t114.5 327.5t-114.5 329.5t-291 129t-291 -129t-114.5 -329.5z" />
<glyph unicode="&#x218;" d="M164 180l45 45q168 -188 426 -188q170 0 273.5 81t103.5 210q0 66 -19.5 112.5t-63.5 82.5t-82 55.5t-106 48.5l-209 94q-59 25 -100 47.5t-91 61t-76.5 95t-26.5 128.5q0 143 113.5 233t287.5 90q233 0 389 -159l-41 -46q-137 143 -348 144q-152 0 -244 -70.5 t-92 -187.5q0 -47 18.5 -89t41 -68t64.5 -51.5t66.5 -36.5t67.5 -30l209 -94q150 -63 228.5 -139t78.5 -217q0 -156 -123 -256.5t-319 -100.5q-287 0 -471 205zM492 -369q193 27 192 107q0 78 -119 102l21 54q80 -18 119.5 -53.5t39.5 -94.5q0 -135 -241 -168z" />
<glyph unicode="&#x219;" d="M178 131l39 49q174 -147 447 -147q154 0 238.5 60.5t84.5 148.5q0 78 -74.5 132t-289.5 105q-389 92 -390 271q0 109 94.5 181.5t278.5 72.5q94 0 196.5 -33t172.5 -86l-37 -49q-145 111 -336 110q-160 0 -231.5 -54t-71.5 -138q0 -131 340 -215q238 -59 326 -124 t88 -169q0 -113 -106.5 -192t-287.5 -79q-268 0 -481 156zM496 -369q193 27 192 107q0 78 -119 102l21 54q80 -18 120 -53.5t40 -94.5q0 -135 -242 -168z" />
<glyph unicode="&#x21a;" d="M102 1294v58h1024v-58h-479v-1294h-65v1294h-480zM473 -369q193 27 193 107q0 78 -119 102l20 54q80 -18 120 -53.5t40 -94.5q0 -135 -242 -168z" />
<glyph unicode="&#x21b;" d="M174 922v49l301 8l8 287h54v-287h534v-57h-534v-570q0 -160 60 -239.5t220 -79.5q141 0 270 53l21 -49q-147 -61 -295 -62q-184 0 -261 99.5t-77 285.5v562h-301zM651 -369q193 27 193 107q0 78 -119 102l20 54q80 -18 120 -53.5t40 -94.5q0 -135 -241 -168z" />
<glyph unicode="&#x237;" d="M135 -414l29 54q119 -61 244 -62q168 0 234.5 81t66.5 235v1028h-504v57h565v-1073q0 -190 -85 -287.5t-288 -97.5q-135 0 -262 65z" />
<glyph unicode="&#x243;" d="M86 365v49l160 8v930h352q207 0 322.5 -83t115.5 -245q0 -109 -61 -186.5t-180 -108.5v-8q154 -23 240.5 -106t86.5 -222q0 -190 -133 -291.5t-366 -101.5h-377v365h-160zM311 57h287q219 0 339 82t120 250q0 152 -119 227.5t-340 75.5h-287v-270h353v-57h-353v-308z M311 750h246q217 0 315.5 69.5t98.5 212.5q0 262 -402 262h-258v-544z" />
<glyph unicode="&#x251;" d="M143 487q0 229 137.5 373t329.5 144q166 0 328 -140h4l8 115h54v-979h-54l-8 152h-4q-168 -176 -360 -177q-199 0 -317 134t-118 378zM209 487q0 -205 100.5 -329.5t272.5 -124.5q178 0 360 192v566q-164 156 -336 155q-166 0 -281.5 -134.5t-115.5 -324.5z" />
<glyph unicode="&#x259;" d="M164 446q0 41 4 66h852q0 193 -110.5 313.5t-319.5 120.5q-178 0 -336 -98l-29 53q166 102 369 103q227 0 359 -134.5t132 -377.5q0 -240 -129 -378.5t-350 -138.5q-193 0 -317.5 123t-124.5 348zM225 459q0 -211 105.5 -318.5t275.5 -107.5q190 0 296 112.5t118 313.5 h-795z" />
<glyph unicode="&#x261;" d="M143 500q0 225 137.5 364.5t329.5 139.5q168 0 328 -140h4l8 115h54v-1077q0 -172 -112 -276.5t-302 -104.5q-205 0 -369 106l33 54q147 -104 336 -105q166 0 259 91t93 251v258q-72 -78 -168 -129t-196 -51q-199 0 -317 131t-118 373zM209 500q0 -203 99.5 -325 t273.5 -122q178 0 360 193v545q-164 156 -336 155q-166 0 -281.5 -130t-115.5 -316z" />
<glyph unicode="&#x2b0;" d="M389 532v971h66v-280l-4 -156q135 131 251 131q225 0 226 -250v-416h-66v408q0 102 -41 151.5t-131 49.5q-61 0 -113.5 -31t-121.5 -100v-478h-66z" />
<glyph unicode="&#x2b2;" d="M299 268l25 51q72 -39 145 -38q106 0 149.5 50t43.5 146v649h-316v56h379v-697q0 -127 -58.5 -194.5t-199.5 -67.5q-86 0 -168 45zM625 1403q0 31 19.5 49t48 18t47 -18t18.5 -49t-18.5 -48.5t-47.5 -17.5q-31 0 -49 17.5t-18 48.5z" />
<glyph unicode="&#x2b3;" d="M547 532v650h55l6 -160h4q104 176 273 176q78 0 131 -27l-15 -57q-68 23 -124 23q-160 0 -265 -205v-400h-65z" />
<glyph unicode="&#x2b7;" d="M166 1182h70l104 -416q14 -59 39 -174h6q29 115 43 174l102 403h70l105 -403q14 -59 43 -174h6q8 31 21 90t20 84l102 416h66l-166 -650h-84l-103 392q-4 14 -18 80.5t-25 105.5h-6q-39 -166 -45 -188l-100 -390h-78z" />
<glyph unicode="&#x2b8;" d="M303 1182h68l178 -404q14 -29 40.5 -93t39.5 -89h6q0 2 67 182l158 404h66l-289 -727q-76 -217 -244 -217q-41 0 -76 14l17 55q41 -10 59 -10q125 0 189 168l20 57z" />
<glyph unicode="&#x2bb;" d="M471 997q0 139 66.5 256.5t175.5 180.5l37 -50q-188 -133 -201 -360q35 25 65 25q49 0 80 -33t31 -82q0 -51 -31.5 -85t-83.5 -34q-57 0 -98 50t-41 132z" />
<glyph unicode="&#x2bc;" d="M471 864q188 133 201 361q-35 -25 -66 -25q-49 0 -79.5 33t-30.5 82q0 51 31.5 85t82.5 34q57 0 98.5 -50.5t41.5 -132.5q0 -139 -66.5 -256t-175.5 -180z" />
<glyph unicode="&#x2be;" d="M522 1020v41q102 0 153.5 46t51.5 126t-51 126t-154 46v41q117 4 187.5 -54.5t70.5 -158.5t-70.5 -158.5t-187.5 -54.5z" />
<glyph unicode="&#x2bf;" d="M465 1233q0 100 70.5 158.5t187.5 54.5v-41q-102 0 -153.5 -46t-51.5 -126t51.5 -126t153.5 -46v-41q-117 -4 -187.5 54.5t-70.5 158.5z" />
<glyph unicode="&#x2c6;" d="M393 1171l193 275h57l193 -275h-58l-160 209h-8l-159 -209h-58z" />
<glyph unicode="&#x2c7;" d="M393 1446h58l159 -209h8l160 209h58l-193 -275h-57z" />
<glyph unicode="&#x2c8;" d="M551 1425h127l-35 -581h-57z" />
<glyph unicode="&#x2c9;" d="M389 1245v58h451v-58h-451z" />
<glyph unicode="&#x2ca;" d="M504 1171l188 275h82l-213 -275h-57z" />
<glyph unicode="&#x2cb;" d="M446 1446h82l189 -275h-58z" />
<glyph unicode="&#x2cc;" d="M551 -500l35 582h57l35 -582h-127z" />
<glyph unicode="&#x2d8;" d="M377 1417h53q10 -76 57.5 -130t127 -54t126.5 54t58 130h53q-12 -92 -69.5 -164.5t-168 -72.5t-168 72.5t-69.5 164.5z" />
<glyph unicode="&#x2d9;" d="M532 1315q0 39 24 62.5t58.5 23.5t58 -23.5t23.5 -62.5t-23.5 -62.5t-58 -23.5t-58.5 23.5t-24 62.5z" />
<glyph unicode="&#x2da;" d="M455 1274q0 76 46 124t113.5 48t113.5 -48t46 -124t-46 -124t-113.5 -48t-113.5 48t-46 124zM504 1274q0 -57 31.5 -92t79 -35t79 35t31.5 92t-31.5 92t-79 35t-79 -35t-31.5 -92z" />
<glyph unicode="&#x2db;" d="M512 -250q0 141 147 258h78q-164 -117 -164 -254q0 -53 30 -81.5t73 -28.5q49 0 90 28l29 -41q-53 -45 -123 -45q-72 0 -116 42t-44 122z" />
<glyph unicode="&#x2dc;" d="M373 1192q4 68 34.5 118t96.5 50q53 0 122.5 -57.5t102.5 -57.5q63 0 78 115h49q-4 -66 -34.5 -117t-96.5 -51q-51 0 -120.5 57.5t-104.5 57.5q-66 0 -78 -115h-49z" />
<glyph unicode="&#x2dd;" d="M459 1167l147 279h74l-168 -279h-53zM721 1167l147 279h74l-168 -279h-53z" />
<glyph unicode="&#x2e1;" d="M424 1448v55h254v-792q0 -137 117 -138q45 0 112 23l17 -53q-98 -27 -140 -27q-172 0 -172 203v729h-188z" />
<glyph unicode="&#x2e2;" d="M358 606l35 47q104 -82 256 -82q92 0 144.5 36t52.5 89q0 37 -33 67t-68.5 44t-95.5 31q-51 16 -74.5 23t-65.5 25.5t-61.5 35t-37 43t-17.5 59.5q0 74 66.5 124t185.5 50q121 0 223 -68l-34 -45q-90 59 -191 60q-90 0 -138 -34t-48 -83q0 -47 48 -73.5t140 -55.5 q8 -2 27 -8q59 -18 89 -29.5t70.5 -34t59 -53.5t18.5 -74q0 -78 -70.5 -131t-193.5 -53q-160 0 -287 90z" />
<glyph unicode="&#x2e3;" d="M385 532l225 340l-207 310h72l107 -162q20 -37 69 -107h6q45 70 70 107l100 162h70l-207 -316l225 -334h-71l-117 175q-43 70 -80 118h-4q-6 -8 -78 -118l-112 -175h-68z" />
<glyph unicode="&#x300;" d="M451 1446h81l189 -275h-57z" />
<glyph unicode="&#x301;" d="M508 1171l188 275h82l-213 -275h-57z" />
<glyph unicode="&#x302;" d="M393 1171l193 275h57l193 -275h-58l-160 209h-8l-159 -209h-58z" />
<glyph unicode="&#x303;" d="M373 1192q4 68 34.5 118t96.5 50q53 0 122.5 -57.5t102.5 -57.5q63 0 78 115h49q-4 -66 -34.5 -117t-96.5 -51q-51 0 -120.5 57.5t-104.5 57.5q-66 0 -78 -115h-49z" />
<glyph unicode="&#x304;" d="M389 1245v58h451v-58h-451z" />
<glyph unicode="&#x306;" d="M377 1417h53q10 -76 57.5 -130t127 -54t126.5 54t58 130h53q-12 -92 -69.5 -164.5t-168 -72.5t-168 72.5t-69.5 164.5z" />
<glyph unicode="&#x307;" d="M532 1315q0 39 24 62.5t58.5 23.5t58 -23.5t23.5 -62.5t-23.5 -62.5t-58 -23.5t-58.5 23.5t-24 62.5z" />
<glyph unicode="&#x308;" d="M369 1306.5q0 30.5 19.5 52t50 21.5t50 -21.5t19.5 -52t-19.5 -52t-50 -21.5t-50 21.5t-19.5 52zM721 1306.5q0 30.5 19.5 52t50 21.5t50 -21.5t19.5 -52t-19.5 -52t-50 -21.5t-50 21.5t-19.5 52z" />
<glyph unicode="&#x309;" d="M512 1393l4 53q100 -4 167 -40t67 -108q0 -70 -48.5 -107.5t-132.5 -64.5l-16 45q135 43 135 119q0 96 -176 103z" />
<glyph unicode="&#x30a;" d="M455 1274q0 76 46 124t113.5 48t113.5 -48t46 -124t-46 -124t-113.5 -48t-113.5 48t-46 124zM504 1274q0 -57 31.5 -92t79 -35t79 35t31.5 92t-31.5 92t-79 35t-79 -35t-31.5 -92z" />
<glyph unicode="&#x30b;" d="M459 1167l147 279h74l-168 -279h-53zM721 1167l147 279h74l-168 -279h-53z" />
<glyph unicode="&#x30c;" d="M393 1446h58l159 -209h8l160 209h58l-193 -275h-57z" />
<glyph unicode="&#x30f;" d="M287 1446h73l148 -279h-53zM549 1446h74l147 -279h-53z" />
<glyph unicode="&#x312;" d="M532 1237q1 147 136 221l28 -45q-106 -61 -106 -166q4 2 16 2q25 0 45.5 -15t20.5 -46q0 -70 -62 -70q-78 0 -78 119z" />
<glyph unicode="&#x313;" d="M532 1163q106 61 107 166q-4 -2 -16 -2q-25 0 -45.5 15.5t-20.5 46.5q0 70 61 69q78 0 78 -119q0 -147 -135 -221z" />
<glyph unicode="&#x31b;" d="M598 958q201 25 201 144q0 37 -29 78l53 32q37 -55 37 -106q0 -166 -250 -201z" />
<glyph unicode="&#x323;" d="M532 -332q0 39 24 62.5t58.5 23.5t58 -23.5t23.5 -62.5t-23.5 -62.5t-58 -23.5t-58.5 23.5t-24 62.5z" />
<glyph unicode="&#x324;" d="M393 -319.5q0 28.5 18.5 47t47 18.5t47 -18.5t18.5 -47t-18.5 -47t-47 -18.5t-47 18.5t-18.5 47zM705 -319.5q0 28.5 18 47t47 18.5t47.5 -18.5t18.5 -47t-18.5 -47t-47.5 -18.5t-47 18.5t-18 47z" />
<glyph unicode="&#x326;" d="M471 -369q193 27 193 107q0 78 -119 102l20 54q80 -18 120 -53.5t40 -94.5q0 -135 -242 -168z" />
<glyph unicode="&#x327;" d="M471 -369q193 27 193 107q0 45 -36 68.5t-104 41.5l82 156h58l-62 -119q123 -39 123 -139q0 -135 -242 -168z" />
<glyph unicode="&#x328;" d="M512 -250q0 141 147 258h78q-164 -117 -164 -254q0 -53 30 -81.5t73 -28.5q49 0 90 28l29 -41q-53 -45 -123 -45q-72 0 -116 42t-44 122z" />
<glyph unicode="&#x32e;" d="M377 -176h53q10 -76 57.5 -130t127 -54t126.5 54t58 130h53q-12 -92 -69.5 -165t-168 -73t-168 73t-69.5 165z" />
<glyph unicode="&#x331;" d="M385 -262h455v-57h-455v57z" />
<glyph unicode="&#x3c0;" d="M135 918v53l135 8h811v-61h-163v-775q0 -111 77 -110q20 0 58 12l12 -53q-43 -16 -78 -17q-131 0 -131 181v762h-483v-918h-62v918h-176z" />
<glyph unicode="&#x1d43;" d="M365 694q0 106 110.5 163.5t347.5 82.5q0 203 -170 203q-109 0 -227 -76l-31 47q131 84 264 84q119 0 174.5 -68.5t55.5 -183.5v-414h-55l-7 84h-2q-135 -100 -252 -100q-88 0 -148 46t-60 132zM430 698q0 -63 44 -95t112 -32q106 0 237 103v217q-211 -23 -302 -69 t-91 -124z" />
<glyph unicode="&#x1d47;" d="M381 532v971h65v-280l-4 -125q127 100 238 100q137 0 207.5 -88t70.5 -244q0 -158 -89 -254t-214 -96q-102 0 -211 78h-2l-8 -62h-53zM446 655q104 -82 203 -82q106 0 173 81t67 212q0 274 -219 275q-100 0 -224 -105v-381z" />
<glyph unicode="&#x1d48;" d="M295 856q0 154 89 248t216 94q102 0 211 -80l-4 119v266h65v-971h-55l-8 84h-2q-109 -100 -227 -100q-131 0 -208 89t-77 251zM362 856q0 -129 60.5 -206t167 -77t217.5 105v381q-102 82 -203 82q-102 0 -172 -82t-70 -203z" />
<glyph unicode="&#x1d49;" d="M348 856q0 154 91 248t214 94q125 0 198 -80t73 -221q0 -16 -4 -49h-506q4 -123 75.5 -200t188.5 -77q102 0 190 58l27 -49q-115 -63 -225 -64q-137 0 -229.5 92t-92.5 248zM414 897h448q0 119 -56 182.5t-153 63.5q-90 0 -158.5 -66.5t-80.5 -179.5z" />
<glyph unicode="&#x1d4d;" d="M332 410q0 84 110 151v4q-68 33 -67 105q0 68 80 123v6q-80 66 -80 168q0 100 70.5 165.5t172.5 65.5q57 0 91 -16h274v-54h-197q72 -72 72 -161q0 -100 -68.5 -164t-171.5 -64q-57 0 -120 29q-61 -37 -62 -88q0 -88 146 -88h161q127 0 184.5 -35t57.5 -113 q0 -90 -97 -156.5t-253 -66.5q-150 0 -226.5 50.5t-76.5 138.5zM393 410q0 -61 60.5 -99.5t177.5 -38.5q129 0 209 50.5t80 113.5q0 51 -41 72.5t-131 21.5h-154q-59 0 -96 13q-105 -55 -105 -133zM440 966.5q0 -77.5 51.5 -126.5t127 -49t126 49t50.5 126.5t-51.5 129 t-125.5 51.5q-76 0 -127 -51.5t-51 -129z" />
<glyph unicode="&#x1d4f;" d="M434 532v971h66v-706h2l401 385h78l-254 -252l297 -398h-76l-264 355l-184 -174v-181h-66z" />
<glyph unicode="&#x1d50;" d="M293 532v650h53l6 -88h4q61 104 152 104q104 0 131 -115q70 115 162 115q141 0 141 -194v-472h-63v463q0 145 -93 146q-78 0 -139 -121v-488h-59v463q0 145 -92 146q-74 0 -140 -121v-488h-63z" />
<glyph unicode="&#x1d52;" d="M307 856q0 158 89 250t218 92q131 0 219.5 -92t88.5 -250q0 -156 -88.5 -248t-219.5 -92q-129 0 -218 92t-89 248zM375 856q0 -125 67.5 -204t172 -79t172 79t67.5 204t-67.5 206t-172 81t-172 -81t-67.5 -206z" />
<glyph unicode="&#x1d56;" d="M381 240v942h55l6 -80h4q127 96 236 96q135 0 205.5 -88t70.5 -244q0 -158 -89 -254t-214 -96q-96 0 -211 80l2 -119v-237h-65zM446 655q106 -82 203 -82q106 0 173 81t67 212q0 274 -219 275q-94 0 -224 -105v-381z" />
<glyph unicode="&#x1d57;" d="M358 1126v52l172 4l9 188h55v-188h321v-56h-321v-354q0 -100 39 -150.5t141 -50.5q74 0 150 35l16 -49q-86 -41 -176 -41q-129 0 -182.5 67.5t-53.5 192.5v350h-170z" />
<glyph unicode="&#x1d58;" d="M348 766v416h66v-408q0 -102 40 -150.5t130 -48.5q115 0 237 132v475h64v-650h-54l-8 113h-4q-119 -129 -248 -129q-223 0 -223 250z" />
<glyph unicode="&#x1d5b;" d="M350 1182h70l149 -404q12 -35 35 -97.5t33 -88.5h4q10 29 31.5 91t34.5 95l149 404h66l-246 -650h-76z" />
<glyph unicode="&#x1d9c;" d="M387 856q0 158 94 250t230 92q113 0 209 -80l-39 -45q-80 70 -168 70q-111 0 -185.5 -81t-74.5 -206q0 -127 70.5 -205t187.5 -78q104 0 192 74l33 -45q-109 -86 -227 -86q-141 0 -231.5 91t-90.5 249z" />
<glyph unicode="&#x1da0;" d="M430 1126v52l170 4v75q0 125 62.5 194t185.5 69q90 0 174 -33l-18 -51q-70 29 -152 28q-188 0 -188 -200v-82h290v-56h-290v-594h-64v594h-170z" />
<glyph unicode="&#x1dbb;" d="M291 532v35l510 559h-455v56h553v-35l-510 -559h526v-56h-624z" />
<glyph unicode="&#x1e0c;" d="M205 0v1352h303q303 0 454.5 -179.5t151.5 -492.5t-151.5 -496.5t-454.5 -183.5h-303zM270 57h230q276 0 410 170t134 453t-134 448.5t-410 165.5h-230v-1237zM512 -332q0 39 23.5 62.5t58.5 23.5t58.5 -23.5t23.5 -62.5t-23.5 -62.5t-58.5 -23.5t-58.5 23.5t-23.5 62.5z " />
<glyph unicode="&#x1e0d;" d="M143 487q0 229 137.5 373t329.5 144q164 0 336 -144l-4 205v414h62v-1479h-54l-8 152h-4q-168 -176 -360 -177q-199 0 -317 134t-118 378zM209 487q0 -205 100.5 -329.5t272.5 -124.5q178 0 360 192v566q-164 156 -336 155q-166 0 -281.5 -134.5t-115.5 -324.5zM541 -332 q0 39 23.5 62.5t58 23.5t58.5 -23.5t24 -62.5t-24 -62.5t-58.5 -23.5t-58 23.5t-23.5 62.5z" />
<glyph unicode="&#x1e0e;" d="M205 0v1352h303q303 0 454.5 -179.5t151.5 -492.5t-151.5 -496.5t-454.5 -183.5h-303zM270 57h230q276 0 410 170t134 453t-134 448.5t-410 165.5h-230v-1237zM365 -262h454v-57h-454v57z" />
<glyph unicode="&#x1e0f;" d="M143 487q0 229 137.5 373t329.5 144q164 0 336 -144l-4 205v414h62v-1479h-54l-8 152h-4q-168 -176 -360 -177q-199 0 -317 134t-118 378zM209 487q0 -205 100.5 -329.5t272.5 -124.5q178 0 360 192v566q-164 156 -336 155q-166 0 -281.5 -134.5t-115.5 -324.5zM393 -262 h455v-57h-455v57z" />
<glyph unicode="&#x1e20;" d="M125 680q0 317 157.5 506.5t419.5 189.5q203 0 355 -159l-41 -46q-129 143 -314 144q-236 0 -371.5 -171t-135.5 -464q0 -295 131 -469t360 -174q209 0 315 110v447h-327v57h395v-524q-137 -152 -387 -152q-252 0 -404.5 193t-152.5 512zM455 1507v58h450v-58h-450z" />
<glyph unicode="&#x1e21;" d="M180 -190q0 57 45 121.5t123 113.5v8q-102 47 -102 156q0 102 119 184v8q-115 100 -115 254q0 147 104.5 248t251.5 101q76 0 131 -25h410v-57h-311q127 -119 127 -267q0 -145 -103.5 -244.5t-253.5 -99.5q-100 0 -192 49q-102 -61 -103 -145q0 -145 234 -145h252 q186 0 268 -50.5t82 -166.5q0 -129 -142.5 -230.5t-365.5 -101.5q-225 0 -342 78t-117 211zM246 -199q0 -98 97 -160.5t284 -62.5q203 0 328.5 83t125.5 187q0 86 -64.5 121t-203.5 35h-248q-88 0 -149 19q-170 -91 -170 -222zM315 655q0 -125 85 -205.5t206 -80.5t206 80.5 t85 205.5t-85 208t-206 83t-206 -83t-85 -208zM410 1245v58h450v-58h-450z" />
<glyph unicode="&#x1e24;" d="M188 0v1352h66v-602h721v602h65v-1352h-65v692h-721v-692h-66zM532 -332q0 39 24 62.5t58.5 23.5t58 -23.5t23.5 -62.5t-23.5 -62.5t-58 -23.5t-58.5 23.5t-24 62.5z" />
<glyph unicode="&#x1e25;" d="M225 0v1479h62v-439l-4 -266q109 115 202 172.5t203 57.5q180 0 268 -96.5t88 -297.5v-610h-61v602q0 176 -70.5 260t-224.5 84q-104 0 -192 -54t-209 -183v-709h-62zM571 -332q0 39 23.5 62.5t58.5 23.5t58.5 -23.5t23.5 -62.5t-23.5 -62.5t-58.5 -23.5t-58.5 23.5 t-23.5 62.5z" />
<glyph unicode="&#x1e2a;" d="M188 0v1352h66v-602h721v602h65v-1352h-65v692h-721v-692h-66zM377 -176h53q10 -76 57.5 -130t127 -54t126.5 54t58 130h53q-12 -92 -69.5 -165t-168 -73t-168 73t-69.5 165z" />
<glyph unicode="&#x1e2b;" d="M225 0v1479h62v-439l-4 -266q109 115 202 172.5t203 57.5q180 0 268 -96.5t88 -297.5v-610h-61v602q0 176 -70.5 260t-224.5 84q-104 0 -192 -54t-209 -183v-709h-62zM414 -176h53q10 -76 57 -130t127 -54t127 54t58 130h53q-12 -92 -69.5 -165t-168 -73t-168 73 t-69.5 165z" />
<glyph unicode="&#x1e36;" d="M319 0v1352h62v-1295h721v-57h-783zM651 -332q0 39 23.5 62.5t58.5 23.5t58.5 -23.5t23.5 -62.5t-23.5 -62.5t-58.5 -23.5t-58.5 23.5t-23.5 62.5z" />
<glyph unicode="&#x1e37;" d="M199 1421v58h436v-1209q0 -238 219 -237q94 0 211 55l25 -51q-156 -61 -240 -62q-276 0 -277 308v1138h-374zM692 -332q0 39 23.5 62.5t58.5 23.5t58.5 -23.5t23.5 -62.5t-23.5 -62.5t-58.5 -23.5t-58.5 23.5t-23.5 62.5z" />
<glyph unicode="&#x1e38;" d="M156 1507v58h450v-58h-450zM319 0v1352h62v-1295h721v-57h-783zM651 -332q0 39 23.5 62.5t58.5 23.5t58.5 -23.5t23.5 -62.5t-23.5 -62.5t-58.5 -23.5t-58.5 23.5t-23.5 62.5z" />
<glyph unicode="&#x1e39;" d="M199 1421v58h436v-1209q0 -238 219 -237q94 0 211 55l25 -51q-156 -61 -240 -62q-276 0 -277 308v1138h-374zM377 1716v58h450v-58h-450zM692 -332q0 39 23.5 62.5t58.5 23.5t58.5 -23.5t23.5 -62.5t-23.5 -62.5t-58.5 -23.5t-58.5 23.5t-23.5 62.5z" />
<glyph unicode="&#x1e3a;" d="M319 0v1352h62v-1295h721v-57h-783zM504 -262h454v-57h-454v57z" />
<glyph unicode="&#x1e3b;" d="M199 1421v58h436v-1209q0 -238 219 -237q94 0 211 55l25 -51q-156 -61 -240 -62q-276 0 -277 308v1138h-374zM545 -262h454v-57h-454v57z" />
<glyph unicode="&#x1e42;" d="M195 0v1352h94l237 -652l86 -245h9l81 245l238 652h94v-1352h-65v1014q0 10 6 262h-6l-74 -225l-252 -680h-55l-254 680l-80 225h-4q0 -27 4 -120t4 -142v-1014h-63zM532 -332q0 39 24 62.5t58.5 23.5t58 -23.5t23.5 -62.5t-23.5 -62.5t-58 -23.5t-58.5 23.5t-24 62.5z " />
<glyph unicode="&#x1e43;" d="M164 0v979h53l8 -135h4q49 82 100.5 121t127.5 39q160 0 198 -177q61 94 114.5 135.5t129.5 41.5q211 0 211 -291v-713h-61v705q0 242 -154 241q-70 0 -121 -47t-106 -149v-750h-62v705q0 242 -153 241q-70 0 -121 -47t-107 -149v-750h-61zM547 -332q0 39 23.5 62.5 t58.5 23.5t58.5 -23.5t23.5 -62.5t-23.5 -62.5t-58.5 -23.5t-58.5 23.5t-23.5 62.5z" />
<glyph unicode="&#x1e44;" d="M197 0v1352h67l561 -996l150 -262h4q0 45 -4 176t-4 203v879h61v-1352h-67l-562 995l-149 262h-4q0 -47 4 -173t4 -197v-887h-61zM557 1556q0 31 20.5 50.5t49 19.5t49 -19.5t20.5 -50.5q0 -33 -20.5 -53t-49 -20t-49 20.5t-20.5 52.5z" />
<glyph unicode="&#x1e45;" d="M225 0v979h54l8 -197h8q98 109 190.5 165.5t202.5 56.5q180 0 268 -96.5t88 -297.5v-610h-61v602q0 176 -70.5 260t-224.5 84q-104 0 -192 -54t-209 -183v-709h-62zM573 1315q0 39 24 62.5t58.5 23.5t58 -23.5t23.5 -62.5t-23.5 -62.5t-58 -23.5t-58.5 23.5t-24 62.5z " />
<glyph unicode="&#x1e46;" d="M197 0v1352h67l561 -996l150 -262h4q0 45 -4 176t-4 203v879h61v-1352h-67l-562 995l-149 262h-4q0 -47 4 -173t4 -197v-887h-61zM532 -332q0 39 24 62.5t58.5 23.5t58 -23.5t23.5 -62.5t-23.5 -62.5t-58 -23.5t-58.5 23.5t-24 62.5z" />
<glyph unicode="&#x1e47;" d="M225 0v979h54l8 -197h8q98 109 190.5 165.5t202.5 56.5q180 0 268 -96.5t88 -297.5v-610h-61v602q0 176 -70.5 260t-224.5 84q-104 0 -192 -54t-209 -183v-709h-62zM569 -332q0 39 23.5 62.5t58.5 23.5t58.5 -23.5t23.5 -62.5t-23.5 -62.5t-58.5 -23.5t-58.5 23.5 t-23.5 62.5z" />
<glyph unicode="&#x1e48;" d="M197 0v1352h67l561 -996l150 -262h4q0 45 -4 176t-4 203v879h61v-1352h-67l-562 995l-149 262h-4q0 -47 4 -173t4 -197v-887h-61zM385 -262h455v-57h-455v57z" />
<glyph unicode="&#x1e49;" d="M225 0v979h54l8 -197h8q98 109 190.5 165.5t202.5 56.5q180 0 268 -96.5t88 -297.5v-610h-61v602q0 176 -70.5 260t-224.5 84q-104 0 -192 -54t-209 -183v-709h-62zM422 -262h455v-57h-455v57z" />
<glyph unicode="&#x1e5a;" d="M254 0v1352h373q434 0 434 -348q0 -160 -96.5 -252.5t-268.5 -108.5l385 -643h-77l-381 639h-304v-639h-65zM319 696h283q389 0 389 308q0 156 -97 223t-292 67h-283v-598zM573 -332q0 39 24 62.5t58.5 23.5t58 -23.5t23.5 -62.5t-23.5 -62.5t-58 -23.5t-58.5 23.5 t-24 62.5z" />
<glyph unicode="&#x1e5b;" d="M324 -332q0 39 23.5 62.5t58 23.5t58 -23.5t23.5 -62.5t-23.5 -62.5t-58 -23.5t-58 23.5t-23.5 62.5zM348 0v979h53l9 -246h4q84 123 204.5 197t264.5 74q117 0 196 -41l-16 -58q-102 37 -189 37q-268 0 -464 -315v-627h-62z" />
<glyph unicode="&#x1e5c;" d="M254 0v1352h373q434 0 434 -348q0 -160 -96.5 -252.5t-268.5 -108.5l385 -643h-77l-381 639h-304v-639h-65zM319 696h283q389 0 389 308q0 156 -97 223t-292 67h-283v-598zM401 1507v58h451v-58h-451zM573 -332q0 39 24 62.5t58.5 23.5t58 -23.5t23.5 -62.5t-23.5 -62.5 t-58 -23.5t-58.5 23.5t-24 62.5z" />
<glyph unicode="&#x1e5d;" d="M324 -332q0 39 23.5 62.5t58 23.5t58 -23.5t23.5 -62.5t-23.5 -62.5t-58 -23.5t-58 23.5t-23.5 62.5zM348 0v979h53l9 -246h4q84 123 204.5 197t264.5 74q117 0 196 -41l-16 -58q-102 37 -189 37q-268 0 -464 -315v-627h-62zM479 1245v58h451v-58h-451z" />
<glyph unicode="&#x1e5e;" d="M254 0v1352h373q434 0 434 -348q0 -160 -96.5 -252.5t-268.5 -108.5l385 -643h-77l-381 639h-304v-639h-65zM319 696h283q389 0 389 308q0 156 -97 223t-292 67h-283v-598zM426 -262h455v-57h-455v57z" />
<glyph unicode="&#x1e5f;" d="M176 -262h455v-57h-455v57zM348 0v979h53l9 -246h4q84 123 204.5 197t264.5 74q117 0 196 -41l-16 -58q-102 37 -189 37q-268 0 -464 -315v-627h-62z" />
<glyph unicode="&#x1e60;" d="M164 180l45 45q168 -188 426 -188q170 0 273.5 81t103.5 210q0 66 -19.5 112.5t-63.5 82.5t-82 55.5t-106 48.5l-209 94q-59 25 -100 47.5t-91 61t-76.5 95t-26.5 128.5q0 143 113.5 233t287.5 90q233 0 389 -159l-41 -46q-137 143 -348 144q-152 0 -244 -70.5 t-92 -187.5q0 -47 18.5 -89t41 -68t64.5 -51.5t66.5 -36.5t67.5 -30l209 -94q150 -63 228.5 -139t78.5 -217q0 -156 -123 -256.5t-319 -100.5q-287 0 -471 205zM573 1556q0 31 20.5 50.5t49.5 19.5t49.5 -19.5t20.5 -50.5q0 -33 -20.5 -53t-49.5 -20t-49.5 20.5t-20.5 52.5z " />
<glyph unicode="&#x1e61;" d="M178 131l39 49q174 -147 447 -147q154 0 238.5 60.5t84.5 148.5q0 78 -74.5 132t-289.5 105q-389 92 -390 271q0 109 94.5 181.5t278.5 72.5q94 0 196.5 -33t172.5 -86l-37 -49q-145 111 -336 110q-160 0 -231.5 -54t-71.5 -138q0 -131 340 -215q238 -59 326 -124 t88 -169q0 -113 -106.5 -192t-287.5 -79q-268 0 -481 156zM524 1315q0 39 23.5 62.5t58.5 23.5t58.5 -23.5t23.5 -62.5t-23.5 -62.5t-58.5 -23.5t-58.5 23.5t-23.5 62.5z" />
<glyph unicode="&#x1e62;" d="M164 180l45 45q168 -188 426 -188q170 0 273.5 81t103.5 210q0 66 -19.5 112.5t-63.5 82.5t-82 55.5t-106 48.5l-209 94q-59 25 -100 47.5t-91 61t-76.5 95t-26.5 128.5q0 143 113.5 233t287.5 90q233 0 389 -159l-41 -46q-137 143 -348 144q-152 0 -244 -70.5 t-92 -187.5q0 -47 18.5 -89t41 -68t64.5 -51.5t66.5 -36.5t67.5 -30l209 -94q150 -63 228.5 -139t78.5 -217q0 -156 -123 -256.5t-319 -100.5q-287 0 -471 205zM553 -332q0 39 23.5 62.5t58.5 23.5t58.5 -23.5t23.5 -62.5t-23.5 -62.5t-58.5 -23.5t-58.5 23.5t-23.5 62.5z " />
<glyph unicode="&#x1e63;" d="M178 131l39 49q174 -147 447 -147q154 0 238.5 60.5t84.5 148.5q0 78 -74.5 132t-289.5 105q-389 92 -390 271q0 109 94.5 181.5t278.5 72.5q94 0 196.5 -33t172.5 -86l-37 -49q-145 111 -336 110q-160 0 -231.5 -54t-71.5 -138q0 -131 340 -215q238 -59 326 -124 t88 -169q0 -113 -106.5 -192t-287.5 -79q-268 0 -481 156zM557 -332q0 39 23.5 62.5t58.5 23.5t58.5 -23.5t23.5 -62.5t-23.5 -62.5t-58.5 -23.5t-58.5 23.5t-23.5 62.5z" />
<glyph unicode="&#x1e6c;" d="M102 1294v58h1024v-58h-479v-1294h-65v1294h-480zM535 -332q0 39 23.5 62.5t58 23.5t58 -23.5t23.5 -62.5t-23.5 -62.5t-58 -23.5t-58 23.5t-23.5 62.5z" />
<glyph unicode="&#x1e6d;" d="M174 922v49l301 8l8 287h54v-287h534v-57h-534v-570q0 -160 60 -239.5t220 -79.5q141 0 270 53l21 -49q-147 -61 -295 -62q-184 0 -261 99.5t-77 285.5v562h-301zM713 -332q0 39 23.5 62.5t58 23.5t58.5 -23.5t24 -62.5t-24 -62.5t-58.5 -23.5t-58 23.5t-23.5 62.5z" />
<glyph unicode="&#x1e6e;" d="M102 1294v58h1024v-58h-479v-1294h-65v1294h-480zM387 -262h455v-57h-455v57z" />
<glyph unicode="&#x1e6f;" d="M174 922v49l301 8l8 287h54v-287h534v-57h-534v-570q0 -160 60 -239.5t220 -79.5q141 0 270 53l21 -49q-147 -61 -295 -62q-184 0 -261 99.5t-77 285.5v562h-301zM565 -262h455v-57h-455v57z" />
<glyph unicode="&#x1e80;" d="M31 1354h59l160 -953q6 -59 23.5 -168.5t23.5 -154.5h4q57 178 98 323l181 598h71l185 -598q33 -123 94 -323h8q6 51 22.5 159.5t24.5 163.5l154 953h57l-223 -1354h-86l-207 678q-12 41 -31.5 118.5t-30.5 114.5h-6q-8 -29 -20 -74.5t-23.5 -84.5t-21.5 -74l-201 -678 h-86zM397 1667h90l193 -213h-62z" />
<glyph unicode="&#x1e81;" d="M25 979h69l170 -660q57 -229 64 -258h8q8 29 21.5 80.5t24.5 94.5t21 83l170 660h86l170 -660l68 -258h8q51 199 66 258l168 660h65l-262 -979h-86l-168 639q-10 35 -32.5 130t-37.5 149h-8q-59 -252 -69 -283l-164 -635h-86zM451 1446h81l189 -275h-57z" />
<glyph unicode="&#x1e82;" d="M31 1354h59l160 -953q6 -59 23.5 -168.5t23.5 -154.5h4q57 178 98 323l181 598h71l185 -598q33 -123 94 -323h8q6 51 22.5 159.5t24.5 163.5l154 953h57l-223 -1354h-86l-207 678q-12 41 -31.5 118.5t-30.5 114.5h-6q-8 -29 -20 -74.5t-23.5 -84.5t-21.5 -74l-201 -678 h-86zM549 1454l192 213h90l-221 -213h-61z" />
<glyph unicode="&#x1e83;" d="M25 979h69l170 -660q57 -229 64 -258h8q8 29 21.5 80.5t24.5 94.5t21 83l170 660h86l170 -660l68 -258h8q51 199 66 258l168 660h65l-262 -979h-86l-168 639q-10 35 -32.5 130t-37.5 149h-8q-59 -252 -69 -283l-164 -635h-86zM508 1171l188 275h82l-213 -275h-57z" />
<glyph unicode="&#x1e84;" d="M31 1354h59l160 -953q6 -59 23.5 -168.5t23.5 -154.5h4q57 178 98 323l181 598h71l185 -598q33 -123 94 -323h8q6 51 22.5 159.5t24.5 163.5l154 953h57l-223 -1354h-86l-207 678q-12 41 -31.5 118.5t-30.5 114.5h-6q-8 -29 -20 -74.5t-23.5 -84.5t-21.5 -74l-201 -678 h-86zM393 1556.5q0 30.5 18.5 48t47 17.5t47 -17.5t18.5 -48t-18.5 -48t-47 -17.5t-47 17.5t-18.5 48zM705 1556.5q0 30.5 18 48t47 17.5t47.5 -17.5t18.5 -48t-18.5 -48t-47.5 -17.5t-47 17.5t-18 48z" />
<glyph unicode="&#x1e85;" d="M25 979h69l170 -660q57 -229 64 -258h8q8 29 21.5 80.5t24.5 94.5t21 83l170 660h86l170 -660l68 -258h8q51 199 66 258l168 660h65l-262 -979h-86l-168 639q-10 35 -32.5 130t-37.5 149h-8q-59 -252 -69 -283l-164 -635h-86zM369 1306.5q0 30.5 19.5 52t50 21.5 t50 -21.5t19.5 -52t-19.5 -52t-50 -21.5t-50 21.5t-19.5 52zM721 1306.5q0 30.5 19.5 52t50 21.5t50 -21.5t19.5 -52t-19.5 -52t-50 -21.5t-50 21.5t-19.5 52z" />
<glyph unicode="&#x1e8e;" d="M115 1352h65l254 -463q35 -57 94.5 -165t85.5 -155h9q66 109 184 322l246 461h61l-467 -850v-502h-65v502zM545 1556q0 31 20.5 50.5t49 19.5t49 -19.5t20.5 -50.5q0 -33 -20.5 -53t-49 -20t-49 20.5t-20.5 52.5z" />
<glyph unicode="&#x1e8f;" d="M131 979h66l303 -643q86 -182 139 -275h8q20 43 119 275l270 643h62l-471 -1118q-45 -131 -141.5 -223.5t-235.5 -92.5q-68 0 -113 21l21 57q49 -16 98 -16q211 0 322 278l36 90zM537 1315q0 39 23.5 62.5t58 23.5t58 -23.5t23.5 -62.5t-23.5 -62.5t-58 -23.5t-58 23.5 t-23.5 62.5z" />
<glyph unicode="&#x1e92;" d="M147 0v39l852 1259h-780v56h858v-39l-854 -1258h869v-57h-945zM557 -332q0 39 23.5 62.5t58.5 23.5t58.5 -23.5t23.5 -62.5t-23.5 -62.5t-58.5 -23.5t-58.5 23.5t-23.5 62.5z" />
<glyph unicode="&#x1e93;" d="M147 0v33l803 889h-717v57h816v-33l-803 -889h827v-57h-926zM565 -332q0 39 23.5 62.5t58.5 23.5t58.5 -23.5t23.5 -62.5t-23.5 -62.5t-58.5 -23.5t-58.5 23.5t-23.5 62.5z" />
<glyph unicode="&#x1e97;" d="M174 922v49l301 8l8 287h54v-287h534v-57h-534v-570q0 -160 60 -239.5t220 -79.5q141 0 270 53l21 -49q-147 -61 -295 -62q-184 0 -261 99.5t-77 285.5v562h-301zM291 1573q0 31 19.5 52.5t50 21.5t50 -21.5t19.5 -52.5t-19.5 -52.5t-50 -21.5t-50 21.5t-19.5 52.5z M643 1573q0 31 19.5 52.5t50 21.5t50 -21.5t19.5 -52.5t-19.5 -52.5t-50 -21.5t-50 21.5t-19.5 52.5z" />
<glyph unicode="&#x1e9e;" d="M184 0v868q0 225 122 366.5t343 141.5q250 0 379 -270l-315 -361q436 -70 436 -405q0 -156 -101.5 -260.5t-252.5 -104.5q-215 0 -344 164l49 49q125 -152 299 -151q131 0 204.5 83t73.5 216q0 137 -92 225t-348 131l-4 58l313 360q-92 205 -301 205q-184 0 -288.5 -117 t-104.5 -354v-844h-68z" />
<glyph unicode="&#x1ea0;" d="M102 0l484 1352h57l483 -1352h-69l-168 483h-551l-170 -483h-66zM358 541h510l-94 270q-109 309 -156 471h-8q-47 -162 -155 -471zM532 -332q0 39 24 62.5t58.5 23.5t58 -23.5t23.5 -62.5t-23.5 -62.5t-58 -23.5t-58.5 23.5t-24 62.5z" />
<glyph unicode="&#x1ea1;" d="M197 240q0 164 178 248.5t588 121.5q0 336 -304 336q-197 0 -380 -139l-33 49q70 53 185.5 100.5t232.5 47.5q184 0 272 -103.5t88 -265.5v-635h-53l-8 152h-5q-219 -176 -417 -177q-143 0 -243.5 67t-100.5 198zM262 242q0 -106 83 -157.5t200 -51.5q195 0 418 188v336 q-385 -37 -543 -110.5t-158 -204.5zM528 -332q0 39 23.5 62.5t58.5 23.5t58.5 -23.5t23.5 -62.5t-23.5 -62.5t-58.5 -23.5t-58.5 23.5t-23.5 62.5z" />
<glyph unicode="&#x1ea2;" d="M102 0l484 1352h57l483 -1352h-69l-168 483h-551l-170 -483h-66zM358 541h510l-94 270q-109 309 -156 471h-8q-47 -162 -155 -471zM512 1708l4 53q100 -4 167 -39.5t67 -107.5q0 -70 -48.5 -107.5t-132.5 -64.5l-16 45q135 43 135 119q0 96 -176 102z" />
<glyph unicode="&#x1ea3;" d="M197 240q0 164 178 248.5t588 121.5q0 336 -304 336q-197 0 -380 -139l-33 49q70 53 185.5 100.5t232.5 47.5q184 0 272 -103.5t88 -265.5v-635h-53l-8 152h-5q-219 -176 -417 -177q-143 0 -243.5 67t-100.5 198zM262 242q0 -106 83 -157.5t200 -51.5q195 0 418 188v336 q-385 -37 -543 -110.5t-158 -204.5zM549 1393l4 53q100 -4 166.5 -40t66.5 -108q0 -70 -48 -107.5t-132 -64.5l-16 45q135 43 135 119q0 96 -176 103z" />
<glyph unicode="&#x1ea4;" d="M102 0l484 1352h57l483 -1352h-69l-168 483h-551l-170 -483h-66zM358 541h510l-94 270q-109 309 -156 471h-8q-47 -162 -155 -471zM401 1454l185 201h57l184 -201h-61l-148 139h-8l-147 -139h-62zM766 1577l147 213h78l-172 -213h-53z" />
<glyph unicode="&#x1ea5;" d="M197 240q0 164 178 248.5t588 121.5q0 336 -304 336q-197 0 -380 -139l-33 49q70 53 185.5 100.5t232.5 47.5q184 0 272 -103.5t88 -265.5v-635h-53l-8 152h-5q-219 -176 -417 -177q-143 0 -243.5 67t-100.5 198zM262 242q0 -106 83 -157.5t200 -51.5q195 0 418 188v336 q-385 -37 -543 -110.5t-158 -204.5zM451 1171l172 230h57l172 -230h-57l-140 164h-8l-139 -164h-57zM803 1303l160 225h77l-184 -225h-53z" />
<glyph unicode="&#x1ea6;" d="M102 0l484 1352h57l483 -1352h-69l-168 483h-551l-170 -483h-66zM358 541h510l-94 270q-109 309 -156 471h-8q-47 -162 -155 -471zM401 1454l185 201h57l184 -201h-61l-148 139h-8l-147 -139h-62zM676 1790h78l147 -213h-53z" />
<glyph unicode="&#x1ea7;" d="M197 240q0 164 178 248.5t588 121.5q0 336 -304 336q-197 0 -380 -139l-33 49q70 53 185.5 100.5t232.5 47.5q184 0 272 -103.5t88 -265.5v-635h-53l-8 152h-5q-219 -176 -417 -177q-143 0 -243.5 67t-100.5 198zM262 242q0 -106 83 -157.5t200 -51.5q195 0 418 188v336 q-385 -37 -543 -110.5t-158 -204.5zM451 1171l172 230h57l172 -230h-57l-140 164h-8l-139 -164h-57zM745 1528h78l160 -225h-53z" />
<glyph unicode="&#x1ea8;" d="M102 0l484 1352h57l483 -1352h-69l-168 483h-551l-170 -483h-66zM358 541h510l-94 270q-109 309 -156 471h-8q-47 -162 -155 -471zM401 1454l185 201h57l184 -201h-61l-148 139h-8l-147 -139h-62zM752 1782l8 53q205 -8 205 -135q0 -103 -152 -148l-20 50q111 29 110 90 q0 47 -37 66.5t-114 23.5z" />
<glyph unicode="&#x1ea9;" d="M197 240q0 164 178 248.5t588 121.5q0 336 -304 336q-197 0 -380 -139l-33 49q70 53 185.5 100.5t232.5 47.5q184 0 272 -103.5t88 -265.5v-635h-53l-8 152h-5q-219 -176 -417 -177q-143 0 -243.5 67t-100.5 198zM262 242q0 -106 83 -157.5t200 -51.5q195 0 418 188v336 q-385 -37 -543 -110.5t-158 -204.5zM451 1171l172 230h57l172 -230h-57l-140 164h-8l-139 -164h-57zM795 1528l4 49q205 -8 205 -139q0 -59 -42 -93t-110 -59l-16 45q106 35 106 99q0 92 -147 98z" />
<glyph unicode="&#x1eaa;" d="M102 0l484 1352h57l483 -1352h-69l-168 483h-551l-170 -483h-66zM358 541h510l-94 270q-109 309 -156 471h-8q-47 -162 -155 -471zM373 1729q4 57 38.5 102t100.5 45q53 0 114.5 -47t94.5 -47q74 0 86 94h49q-4 -57 -39 -102t-100 -45q-53 0 -114.5 47t-94.5 47 q-74 0 -86 -94h-49zM401 1454l185 201h57l184 -201h-61l-148 139h-8l-147 -139h-62z" />
<glyph unicode="&#x1eab;" d="M197 240q0 164 178 248.5t588 121.5q0 336 -304 336q-197 0 -380 -139l-33 49q70 53 185.5 100.5t232.5 47.5q184 0 272 -103.5t88 -265.5v-635h-53l-8 152h-5q-219 -176 -417 -177q-143 0 -243.5 67t-100.5 198zM262 242q0 -106 83 -157.5t200 -51.5q195 0 418 188v336 q-385 -37 -543 -110.5t-158 -204.5zM410 1442q4 57 38.5 102t100.5 45q53 0 113.5 -47t95.5 -47q74 0 86 94h49q-4 -57 -39 -102t-100 -45q-53 0 -114.5 47t-94.5 47q-74 0 -86 -94h-49zM434 1167l189 201h57l188 -201h-57l-156 144h-8l-155 -144h-58z" />
<glyph unicode="&#x1eac;" d="M102 0l484 1352h57l483 -1352h-69l-168 483h-551l-170 -483h-66zM358 541h510l-94 270q-109 309 -156 471h-8q-47 -162 -155 -471zM389 1454l197 213h57l197 -213h-62l-160 152h-8l-159 -152h-62zM532 -332q0 39 24 62.5t58.5 23.5t58 -23.5t23.5 -62.5t-23.5 -62.5 t-58 -23.5t-58.5 23.5t-24 62.5z" />
<glyph unicode="&#x1ead;" d="M197 240q0 164 178 248.5t588 121.5q0 336 -304 336q-197 0 -380 -139l-33 49q70 53 185.5 100.5t232.5 47.5q184 0 272 -103.5t88 -265.5v-635h-53l-8 152h-5q-219 -176 -417 -177q-143 0 -243.5 67t-100.5 198zM262 242q0 -106 83 -157.5t200 -51.5q195 0 418 188v336 q-385 -37 -543 -110.5t-158 -204.5zM430 1171l193 275h57l192 -275h-57l-160 209h-8l-160 -209h-57zM528 -332q0 39 23.5 62.5t58.5 23.5t58.5 -23.5t23.5 -62.5t-23.5 -62.5t-58.5 -23.5t-58.5 23.5t-23.5 62.5z" />
<glyph unicode="&#x1eae;" d="M102 0l484 1352h57l483 -1352h-69l-168 483h-551l-170 -483h-66zM358 541h510l-94 270q-109 309 -156 471h-8q-47 -162 -155 -471zM389 1659h53q33 -147 172 -147t172 147h54q-10 -76 -68.5 -138.5t-157 -62.5t-157 62.5t-68.5 138.5zM545 1634l168 193h82l-193 -193h-57 z" />
<glyph unicode="&#x1eaf;" d="M197 240q0 164 178 248.5t588 121.5q0 336 -304 336q-197 0 -380 -139l-33 49q70 53 185.5 100.5t232.5 47.5q184 0 272 -103.5t88 -265.5v-635h-53l-8 152h-5q-219 -176 -417 -177q-143 0 -243.5 67t-100.5 198zM262 242q0 -106 83 -157.5t200 -51.5q195 0 418 188v336 q-385 -37 -543 -110.5t-158 -204.5zM414 1417h53q10 -76 57 -130t127 -54t127 54t58 130h53q-12 -92 -69.5 -164.5t-168 -72.5t-168 72.5t-69.5 164.5zM590 1360l155 221h78l-176 -221h-57z" />
<glyph unicode="&#x1eb0;" d="M102 0l484 1352h57l483 -1352h-69l-168 483h-551l-170 -483h-66zM358 541h510l-94 270q-109 309 -156 471h-8q-47 -162 -155 -471zM389 1659h53q33 -147 172 -147t172 147h54q-10 -76 -68.5 -138.5t-157 -62.5t-157 62.5t-68.5 138.5zM434 1827h82l168 -193h-57z" />
<glyph unicode="&#x1eb1;" d="M197 240q0 164 178 248.5t588 121.5q0 336 -304 336q-197 0 -380 -139l-33 49q70 53 185.5 100.5t232.5 47.5q184 0 272 -103.5t88 -265.5v-635h-53l-8 152h-5q-219 -176 -417 -177q-143 0 -243.5 67t-100.5 198zM262 242q0 -106 83 -157.5t200 -51.5q195 0 418 188v336 q-385 -37 -543 -110.5t-158 -204.5zM414 1417h53q10 -76 57 -130t127 -54t127 54t58 130h53q-12 -92 -69.5 -164.5t-168 -72.5t-168 72.5t-69.5 164.5zM479 1581h78l156 -221h-58z" />
<glyph unicode="&#x1eb2;" d="M102 0l484 1352h57l483 -1352h-69l-168 483h-551l-170 -483h-66zM358 541h510l-94 270q-109 309 -156 471h-8q-47 -162 -155 -471zM389 1659h53q33 -147 172 -147t172 147h54q-10 -76 -68.5 -138.5t-157 -62.5t-157 62.5t-68.5 138.5zM522 1860l8 53q205 -8 205 -135 q1 -103 -151 -148l-21 49q111 29 111 90q0 47 -37 66.5t-115 24.5z" />
<glyph unicode="&#x1eb3;" d="M197 240q0 164 178 248.5t588 121.5q0 336 -304 336q-197 0 -380 -139l-33 49q70 53 185.5 100.5t232.5 47.5q184 0 272 -103.5t88 -265.5v-635h-53l-8 152h-5q-219 -176 -417 -177q-143 0 -243.5 67t-100.5 198zM262 242q0 -106 83 -157.5t200 -51.5q195 0 418 188v336 q-385 -37 -543 -110.5t-158 -204.5zM414 1417h53q10 -76 57 -130t127 -54t127 54t58 130h53q-12 -92 -69.5 -164.5t-168 -72.5t-168 72.5t-69.5 164.5zM553 1618l4 49q205 -8 205 -139q0 -59 -42 -93t-110 -59l-16 45q106 35 106 99q0 92 -147 98z" />
<glyph unicode="&#x1eb4;" d="M102 0l484 1352h57l483 -1352h-69l-168 483h-551l-170 -483h-66zM358 541h510l-94 270q-109 309 -156 471h-8q-47 -162 -155 -471zM373 1724q4 59 38.5 107.5t100.5 48.5q53 0 114.5 -51t94.5 -51t56.5 27.5t29.5 74.5h49q-4 -59 -39 -107.5t-100 -48.5 q-53 0 -114.5 51.5t-94.5 51.5t-56.5 -27.5t-29.5 -75.5h-49zM389 1659h53q33 -147 172.5 -147.5t171.5 147.5h54q-10 -76 -68.5 -138.5t-157 -62.5t-157 62.5t-68.5 138.5z" />
<glyph unicode="&#x1eb5;" d="M197 240q0 164 178 248.5t588 121.5q0 336 -304 336q-197 0 -380 -139l-33 49q70 53 185.5 100.5t232.5 47.5q184 0 272 -103.5t88 -265.5v-635h-53l-8 152h-5q-219 -176 -417 -177q-143 0 -243.5 67t-100.5 198zM262 242q0 -106 83 -157.5t200 -51.5q195 0 418 188v336 q-385 -37 -543 -110.5t-158 -204.5zM410 1442q4 57 38.5 102t100.5 45q53 0 113.5 -47t95.5 -47q74 0 86 94h49q-4 -57 -39 -102t-100 -45q-53 0 -114.5 47t-94.5 47q-74 0 -86 -94h-49zM418 1376h53q10 -61 56 -102t124 -41t124 41t56 102h54q-10 -82 -65.5 -139t-168 -57 t-168 57t-65.5 139z" />
<glyph unicode="&#x1eb6;" d="M102 0l484 1352h57l483 -1352h-69l-168 483h-551l-170 -483h-66zM358 541h510l-94 270q-109 309 -156 471h-8q-47 -162 -155 -471zM385 1667h53q10 -63 55.5 -109.5t121 -46.5t121 46.5t55.5 109.5h53q-12 -80 -69.5 -144.5t-160 -64.5t-160 64.5t-69.5 144.5zM532 -332 q0 39 24 62.5t58.5 23.5t58 -23.5t23.5 -62.5t-23.5 -62.5t-58 -23.5t-58.5 23.5t-24 62.5z" />
<glyph unicode="&#x1eb7;" d="M197 240q0 164 178 248.5t588 121.5q0 336 -304 336q-197 0 -380 -139l-33 49q70 53 185.5 100.5t232.5 47.5q184 0 272 -103.5t88 -265.5v-635h-53l-8 152h-5q-219 -176 -417 -177q-143 0 -243.5 67t-100.5 198zM262 242q0 -106 83 -157.5t200 -51.5q195 0 418 188v336 q-385 -37 -543 -110.5t-158 -204.5zM414 1417h53q10 -76 57 -130t127 -54t127 54t58 130h53q-12 -92 -69.5 -164.5t-168 -72.5t-168 72.5t-69.5 164.5zM528 -332q0 39 23.5 62.5t58.5 23.5t58.5 -23.5t23.5 -62.5t-23.5 -62.5t-58.5 -23.5t-58.5 23.5t-23.5 62.5z" />
<glyph unicode="&#x1eb8;" d="M270 0v1352h787v-58h-721v-544h606v-58h-606v-635h741v-57h-807zM618 -332q0 39 24 62.5t58.5 23.5t58 -23.5t23.5 -62.5t-23.5 -62.5t-58 -23.5t-58.5 23.5t-24 62.5z" />
<glyph unicode="&#x1eb9;" d="M164 487q0 229 145.5 373t341.5 144q199 0 316.5 -120t117.5 -331q0 -41 -4 -66h-852q0 -199 125 -326.5t326 -127.5q180 0 336 110l28 -53q-178 -115 -368 -115q-217 0 -364.5 139.5t-147.5 372.5zM229 541h795q0 197 -100.5 301t-272.5 104q-160 0 -282 -111.5 t-140 -293.5zM565 -332q0 39 23.5 62.5t58.5 23.5t58.5 -23.5t23.5 -62.5t-23.5 -62.5t-58.5 -23.5t-58.5 23.5t-23.5 62.5z" />
<glyph unicode="&#x1eba;" d="M270 0v1352h787v-58h-721v-544h606v-58h-606v-635h741v-57h-807zM590 1708l4 53q100 -4 166.5 -39.5t66.5 -107.5q0 -70 -48 -107.5t-132 -64.5l-16 45q135 43 135 119q0 96 -176 102z" />
<glyph unicode="&#x1ebb;" d="M164 487q0 229 145.5 373t341.5 144q199 0 316.5 -120t117.5 -331q0 -41 -4 -66h-852q0 -199 125 -326.5t326 -127.5q180 0 336 110l28 -53q-178 -115 -368 -115q-217 0 -364.5 139.5t-147.5 372.5zM229 541h795q0 197 -100.5 301t-272.5 104q-160 0 -282 -111.5 t-140 -293.5zM545 1393l4 53q100 -4 166.5 -40t66.5 -108q0 -70 -48 -107.5t-132 -64.5l-16 45q135 43 135 119q0 96 -176 103z" />
<glyph unicode="&#x1ebc;" d="M270 0v1352h787v-58h-721v-544h606v-58h-606v-635h741v-57h-807zM438 1470q4 68 39 122.5t96 54.5q55 0 128 -59.5t114 -59.5q33 0 56.5 32.5t29.5 86.5h45q-4 -68 -39 -122.5t-96 -54.5q-55 0 -128 59.5t-114 59.5q-33 0 -56.5 -32.5t-29.5 -86.5h-45z" />
<glyph unicode="&#x1ebd;" d="M164 487q0 229 145.5 373t341.5 144q199 0 316.5 -120t117.5 -331q0 -41 -4 -66h-852q0 -199 125 -326.5t326 -127.5q180 0 336 110l28 -53q-178 -115 -368 -115q-217 0 -364.5 139.5t-147.5 372.5zM229 541h795q0 197 -100.5 301t-272.5 104q-160 0 -282 -111.5 t-140 -293.5zM406 1192q4 68 34.5 118t96.5 50q53 0 122.5 -57.5t102.5 -57.5q63 0 78 115h49q-4 -66 -35 -117t-96 -51q-51 0 -121 57.5t-105 57.5q-66 0 -77 -115h-49z" />
<glyph unicode="&#x1ebe;" d="M270 0v1352h787v-58h-721v-544h606v-58h-606v-635h741v-57h-807zM479 1454l185 201h57l184 -201h-61l-148 139h-8l-147 -139h-62zM844 1577l147 213h78l-172 -213h-53z" />
<glyph unicode="&#x1ebf;" d="M164 487q0 229 145.5 373t341.5 144q199 0 316.5 -120t117.5 -331q0 -41 -4 -66h-852q0 -199 125 -326.5t326 -127.5q180 0 336 110l28 -53q-178 -115 -368 -115q-217 0 -364.5 139.5t-147.5 372.5zM229 541h795q0 197 -100.5 301t-272.5 104q-160 0 -282 -111.5 t-140 -293.5zM446 1171l172 230h58l172 -230h-57l-140 164h-8l-139 -164h-58zM799 1303l159 225h78l-184 -225h-53z" />
<glyph unicode="&#x1ec0;" d="M270 0v1352h787v-58h-721v-544h606v-58h-606v-635h741v-57h-807zM479 1454l185 201h57l184 -201h-61l-148 139h-8l-147 -139h-62zM754 1790h77l148 -213h-53z" />
<glyph unicode="&#x1ec1;" d="M164 487q0 229 145.5 373t341.5 144q199 0 316.5 -120t117.5 -331q0 -41 -4 -66h-852q0 -199 125 -326.5t326 -127.5q180 0 336 110l28 -53q-178 -115 -368 -115q-217 0 -364.5 139.5t-147.5 372.5zM229 541h795q0 197 -100.5 301t-272.5 104q-160 0 -282 -111.5 t-140 -293.5zM446 1171l172 230h58l172 -230h-57l-140 164h-8l-139 -164h-58zM741 1528h78l160 -225h-53z" />
<glyph unicode="&#x1ec2;" d="M270 0v1352h787v-58h-721v-544h606v-58h-606v-635h741v-57h-807zM479 1454l185 201h57l184 -201h-61l-148 139h-8l-147 -139h-62zM829 1782l9 53q205 -8 204 -135q1 -103 -151 -148l-21 50q111 29 111 90q0 47 -37 66.5t-115 23.5z" />
<glyph unicode="&#x1ec3;" d="M164 487q0 229 145.5 373t341.5 144q199 0 316.5 -120t117.5 -331q0 -41 -4 -66h-852q0 -199 125 -326.5t326 -127.5q180 0 336 110l28 -53q-178 -115 -368 -115q-217 0 -364.5 139.5t-147.5 372.5zM229 541h795q0 197 -100.5 301t-272.5 104q-160 0 -282 -111.5 t-140 -293.5zM446 1171l172 230h58l172 -230h-57l-140 164h-8l-139 -164h-58zM791 1528l4 49q205 -8 204 -139q0 -59 -41.5 -93t-109.5 -59l-17 45q106 35 107 99q0 92 -147 98z" />
<glyph unicode="&#x1ec4;" d="M270 0v1352h787v-58h-721v-544h606v-58h-606v-635h741v-57h-807zM451 1729q4 57 38.5 102t100.5 45q53 0 114.5 -47t94.5 -47q74 0 86 94h49q-4 -57 -39 -102t-100 -45q-53 0 -115 47t-94 47q-74 0 -86 -94h-49zM479 1454l185 201h57l184 -201h-61l-148 139h-8l-147 -139 h-62z" />
<glyph unicode="&#x1ec5;" d="M164 487q0 229 145.5 373t341.5 144q199 0 316.5 -120t117.5 -331q0 -41 -4 -66h-852q0 -199 125 -326.5t326 -127.5q180 0 336 110l28 -53q-178 -115 -368 -115q-217 0 -364.5 139.5t-147.5 372.5zM229 541h795q0 197 -100.5 301t-272.5 104q-160 0 -282 -111.5 t-140 -293.5zM406 1442q4 57 38.5 102t100.5 45q53 0 114.5 -47t94.5 -47q74 0 86 94h49q-4 -57 -39 -102t-100 -45q-53 0 -115 47t-94 47q-74 0 -86 -94h-49zM430 1167l188 201h58l188 -201h-57l-156 144h-8l-156 -144h-57z" />
<glyph unicode="&#x1ec6;" d="M270 0v1352h787v-58h-721v-544h606v-58h-606v-635h741v-57h-807zM467 1454l197 213h57l197 -213h-62l-160 152h-8l-160 -152h-61zM618 -332q0 39 24 62.5t58.5 23.5t58 -23.5t23.5 -62.5t-23.5 -62.5t-58 -23.5t-58.5 23.5t-24 62.5z" />
<glyph unicode="&#x1ec7;" d="M164 487q0 229 145.5 373t341.5 144q199 0 316.5 -120t117.5 -331q0 -41 -4 -66h-852q0 -199 125 -326.5t326 -127.5q180 0 336 110l28 -53q-178 -115 -368 -115q-217 0 -364.5 139.5t-147.5 372.5zM229 541h795q0 197 -100.5 301t-272.5 104q-160 0 -282 -111.5 t-140 -293.5zM426 1171l192 275h58l192 -275h-57l-160 209h-8l-160 -209h-57zM565 -332q0 39 23.5 62.5t58.5 23.5t58.5 -23.5t23.5 -62.5t-23.5 -62.5t-58.5 -23.5t-58.5 23.5t-23.5 62.5z" />
<glyph unicode="&#x1ec8;" d="M229 0v57h353v1237h-353v58h770v-58h-352v-1237h352v-57h-770zM512 1708l4 53q100 -4 167 -39.5t67 -107.5q0 -70 -48.5 -107.5t-132.5 -64.5l-16 45q135 43 135 119q0 96 -176 102z" />
<glyph unicode="&#x1ec9;" d="M205 922v57h565v-979h-61v922h-504zM614 1393l4 53q100 -4 167 -40t67 -108q0 -70 -48 -107.5t-132 -64.5l-17 45q135 43 136 119q0 96 -177 103z" />
<glyph unicode="&#x1eca;" d="M229 0v57h353v1237h-353v58h770v-58h-352v-1237h352v-57h-770zM535 -332q0 39 23.5 62.5t58 23.5t58 -23.5t23.5 -62.5t-23.5 -62.5t-58 -23.5t-58 23.5t-23.5 62.5z" />
<glyph unicode="&#x1ecb;" d="M205 922v57h565v-979h-61v922h-504zM635 -332q0 39 23.5 62.5t58.5 23.5t58.5 -23.5t23.5 -62.5t-23.5 -62.5t-58.5 -23.5t-58.5 23.5t-23.5 62.5zM635 1315q0 39 23.5 62.5t58.5 23.5t58.5 -23.5t23.5 -62.5t-23.5 -62.5t-58.5 -23.5t-58.5 23.5t-23.5 62.5z" />
<glyph unicode="&#x1ecc;" d="M115 680q0 315 139 505.5t360.5 190.5t360.5 -190.5t139 -505.5q0 -317 -140 -511t-359.5 -194t-359.5 193.5t-140 511.5zM184 680q0 -291 119 -467t311.5 -176t311 176t118.5 467t-118.5 463t-311 172t-311.5 -172t-119 -463zM532 -332q0 39 24 62.5t58.5 23.5t58 -23.5 t23.5 -62.5t-23.5 -62.5t-58 -23.5t-58.5 23.5t-24 62.5z" />
<glyph unicode="&#x1ecd;" d="M143 487q0 238 135.5 377.5t336 139.5t335.5 -139.5t135 -377.5q0 -236 -136 -374t-334.5 -138t-335 138t-136.5 374zM209 487.5q0 -200.5 114.5 -327.5t291 -127t291 127t114.5 327.5t-114.5 329.5t-291 129t-291 -129t-114.5 -329.5zM535 -332q0 39 23.5 62.5t58 23.5 t58 -23.5t23.5 -62.5t-23.5 -62.5t-58 -23.5t-58 23.5t-23.5 62.5z" />
<glyph unicode="&#x1ece;" d="M115 680q0 315 139 505.5t360.5 190.5t360.5 -190.5t139 -505.5q0 -317 -140 -511t-359.5 -194t-359.5 193.5t-140 511.5zM184 680q0 -291 119 -467t311.5 -176t311 176t118.5 467t-118.5 463t-311 172t-311.5 -172t-119 -463zM512 1708l4 53q100 -4 167 -39.5t67 -107.5 q0 -70 -48.5 -107.5t-132.5 -64.5l-16 45q135 43 135 119q0 96 -176 102z" />
<glyph unicode="&#x1ecf;" d="M143 487q0 238 135.5 377.5t336 139.5t335.5 -139.5t135 -377.5q0 -236 -136 -374t-334.5 -138t-335 138t-136.5 374zM209 487.5q0 -200.5 114.5 -327.5t291 -127t291 127t114.5 327.5t-114.5 329.5t-291 129t-291 -129t-114.5 -329.5zM512 1393l4 53q100 -4 167 -40 t67 -108q0 -70 -48.5 -107.5t-132.5 -64.5l-16 45q135 43 135 119q0 96 -176 103z" />
<glyph unicode="&#x1ed0;" d="M115 680q0 315 139 505.5t360.5 190.5t360.5 -190.5t139 -505.5q0 -317 -140 -511t-359.5 -194t-359.5 193.5t-140 511.5zM184 680q0 -291 119 -467t311.5 -176t311 176t118.5 467t-118.5 463t-311 172t-311.5 -172t-119 -463zM401 1454l185 201h57l184 -201h-61 l-148 139h-8l-147 -139h-62zM766 1577l147 213h78l-172 -213h-53z" />
<glyph unicode="&#x1ed1;" d="M143 487q0 238 135.5 377.5t336 139.5t335.5 -139.5t135 -377.5q0 -236 -136 -374t-334.5 -138t-335 138t-136.5 374zM209 487.5q0 -200.5 114.5 -327.5t291 -127t291 127t114.5 327.5t-114.5 329.5t-291 129t-291 -129t-114.5 -329.5zM414 1171l172 230h57l172 -230h-57 l-140 164h-8l-139 -164h-57zM766 1303l160 225h78l-185 -225h-53z" />
<glyph unicode="&#x1ed2;" d="M115 680q0 315 139 505.5t360.5 190.5t360.5 -190.5t139 -505.5q0 -317 -140 -511t-359.5 -194t-359.5 193.5t-140 511.5zM184 680q0 -291 119 -467t311.5 -176t311 176t118.5 467t-118.5 463t-311 172t-311.5 -172t-119 -463zM401 1454l185 201h57l184 -201h-61 l-148 139h-8l-147 -139h-62zM676 1790h78l147 -213h-53z" />
<glyph unicode="&#x1ed3;" d="M143 487q0 238 135.5 377.5t336 139.5t335.5 -139.5t135 -377.5q0 -236 -136 -374t-334.5 -138t-335 138t-136.5 374zM209 487.5q0 -200.5 114.5 -327.5t291 -127t291 127t114.5 327.5t-114.5 329.5t-291 129t-291 -129t-114.5 -329.5zM414 1171l172 230h57l172 -230h-57 l-140 164h-8l-139 -164h-57zM709 1528h77l160 -225h-53z" />
<glyph unicode="&#x1ed4;" d="M115 680q0 315 139 505.5t360.5 190.5t360.5 -190.5t139 -505.5q0 -317 -140 -511t-359.5 -194t-359.5 193.5t-140 511.5zM184 680q0 -291 119 -467t311.5 -176t311 176t118.5 467t-118.5 463t-311 172t-311.5 -172t-119 -463zM401 1454l185 201h57l184 -201h-61 l-148 139h-8l-147 -139h-62zM752 1782l8 53q205 -8 205 -135q0 -103 -152 -148l-20 50q111 29 110 90q0 47 -37 66.5t-114 23.5z" />
<glyph unicode="&#x1ed5;" d="M143 487q0 238 135.5 377.5t336 139.5t335.5 -139.5t135 -377.5q0 -236 -136 -374t-334.5 -138t-335 138t-136.5 374zM209 487.5q0 -200.5 114.5 -327.5t291 -127t291 127t114.5 327.5t-114.5 329.5t-291 129t-291 -129t-114.5 -329.5zM414 1171l172 230h57l172 -230h-57 l-140 164h-8l-139 -164h-57zM758 1528l4 49q205 -8 205 -139q0 -59 -42 -93t-110 -59l-16 45q106 35 106 99q0 92 -147 98z" />
<glyph unicode="&#x1ed6;" d="M115 680q0 315 139 505.5t360.5 190.5t360.5 -190.5t139 -505.5q0 -317 -140 -511t-359.5 -194t-359.5 193.5t-140 511.5zM184 680q0 -291 119 -467t311.5 -176t311 176t118.5 467t-118.5 463t-311 172t-311.5 -172t-119 -463zM373 1729q4 57 38.5 102t100.5 45 q53 0 114.5 -47t94.5 -47q74 0 86 94h49q-4 -57 -39 -102t-100 -45q-53 0 -114.5 47t-94.5 47q-74 0 -86 -94h-49zM401 1454l185 201h57l184 -201h-61l-148 139h-8l-147 -139h-62z" />
<glyph unicode="&#x1ed7;" d="M143 487q0 238 135.5 377.5t336 139.5t335.5 -139.5t135 -377.5q0 -236 -136 -374t-334.5 -138t-335 138t-136.5 374zM209 487.5q0 -200.5 114.5 -327.5t291 -127t291 127t114.5 327.5t-114.5 329.5t-291 129t-291 -129t-114.5 -329.5zM373 1442q4 57 38.5 102t100.5 45 q53 0 114.5 -47t94.5 -47q74 0 86 94h49q-4 -57 -39 -102t-100 -45q-53 0 -114.5 47t-94.5 47q-74 0 -86 -94h-49zM397 1167l189 201h57l188 -201h-57l-156 144h-8l-155 -144h-58z" />
<glyph unicode="&#x1ed8;" d="M115 680q0 315 139 505.5t360.5 190.5t360.5 -190.5t139 -505.5q0 -317 -140 -511t-359.5 -194t-359.5 193.5t-140 511.5zM184 680q0 -291 119 -467t311.5 -176t311 176t118.5 467t-118.5 463t-311 172t-311.5 -172t-119 -463zM389 1454l197 213h57l197 -213h-62 l-160 152h-8l-159 -152h-62zM532 -332q0 39 24 62.5t58.5 23.5t58 -23.5t23.5 -62.5t-23.5 -62.5t-58 -23.5t-58.5 23.5t-24 62.5z" />
<glyph unicode="&#x1ed9;" d="M143 487q0 238 135.5 377.5t336 139.5t335.5 -139.5t135 -377.5q0 -236 -136 -374t-334.5 -138t-335 138t-136.5 374zM209 487.5q0 -200.5 114.5 -327.5t291 -127t291 127t114.5 327.5t-114.5 329.5t-291 129t-291 -129t-114.5 -329.5zM393 1171l193 275h57l193 -275h-58 l-160 209h-8l-159 -209h-58zM532 -332q0 39 24 62.5t58.5 23.5t58 -23.5t23.5 -62.5t-23.5 -62.5t-58 -23.5t-58.5 23.5t-24 62.5z" />
<glyph unicode="&#x1eda;" d="M115 680q0 315 139 505.5t360 190.5q127 0 228 -65q195 27 194 143q1 37 -28 78l53 33q37 -55 37 -107q0 -145 -197 -190q213 -190 213 -588q0 -317 -140 -511t-359.5 -194t-359.5 193.5t-140 511.5zM184 680q0 -291 119 -467t311.5 -176t311 176t118.5 467t-118.5 463 t-311 172t-311.5 -172t-119 -463zM549 1454l192 213h90l-221 -213h-61z" />
<glyph unicode="&#x1edb;" d="M143 487q0 238 135.5 377.5t335.5 139.5q111 0 209 -48q205 25 205 146q0 37 -29 78l54 32q37 -55 37 -106q0 -145 -197 -191q193 -145 192 -428q0 -236 -136 -374t-334.5 -138t-335 138.5t-136.5 373.5zM209 487.5q0 -200.5 114.5 -327.5t291 -127t291 127t114.5 327.5 t-114.5 329.5t-291 129t-291 -129t-114.5 -329.5zM508 1171l188 275h82l-213 -275h-57z" />
<glyph unicode="&#x1edc;" d="M115 680q0 315 139 505.5t360 190.5q127 0 228 -65q195 27 194 143q1 37 -28 78l53 33q37 -55 37 -107q0 -145 -197 -190q213 -190 213 -588q0 -317 -140 -511t-359.5 -194t-359.5 193.5t-140 511.5zM184 680q0 -291 119 -467t311.5 -176t311 176t118.5 467t-118.5 463 t-311 172t-311.5 -172t-119 -463zM397 1667h90l193 -213h-62z" />
<glyph unicode="&#x1edd;" d="M143 487q0 238 135.5 377.5t335.5 139.5q111 0 209 -48q205 25 205 146q0 37 -29 78l54 32q37 -55 37 -106q0 -145 -197 -191q193 -145 192 -428q0 -236 -136 -374t-334.5 -138t-335 138.5t-136.5 373.5zM209 487.5q0 -200.5 114.5 -327.5t291 -127t291 127t114.5 327.5 t-114.5 329.5t-291 129t-291 -129t-114.5 -329.5zM451 1446h81l189 -275h-57z" />
<glyph unicode="&#x1ede;" d="M115 680q0 315 139 505.5t360 190.5q127 0 228 -65q195 27 194 143q1 37 -28 78l53 33q37 -55 37 -107q0 -145 -197 -190q213 -190 213 -588q0 -317 -140 -511t-359.5 -194t-359.5 193.5t-140 511.5zM184 680q0 -291 119 -467t311.5 -176t311 176t118.5 467t-118.5 463 t-311 172t-311.5 -172t-119 -463zM512 1708l4 53q100 -4 167 -39.5t67 -107.5q0 -70 -48.5 -107.5t-132.5 -64.5l-16 45q135 43 135 119q0 96 -176 102z" />
<glyph unicode="&#x1edf;" d="M143 487q0 238 135.5 377.5t335.5 139.5q111 0 209 -48q205 25 205 146q0 37 -29 78l54 32q37 -55 37 -106q0 -145 -197 -191q193 -145 192 -428q0 -236 -136 -374t-334.5 -138t-335 138.5t-136.5 373.5zM209 487.5q0 -200.5 114.5 -327.5t291 -127t291 127t114.5 327.5 t-114.5 329.5t-291 129t-291 -129t-114.5 -329.5zM512 1393l4 53q100 -4 167 -40t67 -108q0 -70 -48.5 -107.5t-132.5 -64.5l-16 45q135 43 135 119q0 96 -176 103z" />
<glyph unicode="&#x1ee0;" d="M115 680q0 315 139 505.5t360 190.5q127 0 228 -65q195 27 194 143q1 37 -28 78l53 33q37 -55 37 -107q0 -145 -197 -190q213 -190 213 -588q0 -317 -140 -511t-359.5 -194t-359.5 193.5t-140 511.5zM184 680q0 -291 119 -467t311.5 -176t311 176t118.5 467t-118.5 463 t-311 172t-311.5 -172t-119 -463zM360 1470q4 68 39 122.5t97 54.5q55 0 127.5 -59.5t113.5 -59.5q33 0 56.5 33t29.5 86h45q-4 -68 -38.5 -122.5t-96.5 -54.5q-55 0 -128 59.5t-113 59.5q-33 0 -56.5 -32.5t-29.5 -86.5h-46z" />
<glyph unicode="&#x1ee1;" d="M143 487q0 238 135.5 377.5t335.5 139.5q111 0 209 -48q205 25 205 146q0 37 -29 78l54 32q37 -55 37 -106q0 -145 -197 -191q193 -145 192 -428q0 -236 -136 -374t-334.5 -138t-335 138.5t-136.5 373.5zM209 487.5q0 -200.5 114.5 -327.5t291 -127t291 127t114.5 327.5 t-114.5 329.5t-291 129t-291 -129t-114.5 -329.5zM373 1192q4 68 34.5 118t96.5 50q53 0 122.5 -57.5t102.5 -57.5q64 0 78 115h49q-4 -66 -34.5 -117t-96.5 -51q-51 0 -120.5 57.5t-104.5 57.5q-66 0 -78 -115h-49z" />
<glyph unicode="&#x1ee2;" d="M115 680q0 315 139 505.5t360 190.5q127 0 228 -65q195 27 194 143q1 37 -28 78l53 33q37 -55 37 -107q0 -145 -197 -190q213 -190 213 -588q0 -317 -140 -511t-359.5 -194t-359.5 193.5t-140 511.5zM184 680q0 -291 119 -467t311.5 -176t311 176t118.5 467t-118.5 463 t-311 172t-311.5 -172t-119 -463zM532 -332q0 39 24 62.5t58.5 23.5t58 -23.5t23.5 -62.5t-23.5 -62.5t-58 -23.5t-58.5 23.5t-24 62.5z" />
<glyph unicode="&#x1ee3;" d="M143 487q0 238 135.5 377.5t335.5 139.5q111 0 209 -48q205 25 205 146q0 37 -29 78l54 32q37 -55 37 -106q0 -145 -197 -191q193 -145 192 -428q0 -236 -136 -374t-334.5 -138t-335 138.5t-136.5 373.5zM209 487.5q0 -200.5 114.5 -327.5t291 -127t291 127t114.5 327.5 t-114.5 329.5t-291 129t-291 -129t-114.5 -329.5zM535 -332q0 39 23.5 62.5t58 23.5t58 -23.5t23.5 -62.5t-23.5 -62.5t-58 -23.5t-58 23.5t-23.5 62.5z" />
<glyph unicode="&#x1ee4;" d="M188 504v848h66v-832q0 -260 100.5 -371.5t259.5 -111.5q162 0 263.5 111.5t101.5 371.5v832h61v-848q0 -150 -35.5 -257.5t-98 -164.5t-134.5 -82t-158 -25t-157.5 25t-134 82t-98.5 164.5t-36 257.5zM532 -332q0 39 24 62.5t58.5 23.5t58 -23.5t23.5 -62.5t-23.5 -62.5 t-58 -23.5t-58.5 23.5t-24 62.5z" />
<glyph unicode="&#x1ee5;" d="M184 369v610h62v-602q0 -176 70.5 -260t224.5 -84q106 0 198 56t203 181v709h62v-979h-54l-8 197h-8q-188 -221 -393 -222q-180 0 -268.5 96.5t-88.5 297.5zM578 -332q0 39 23.5 62.5t58 23.5t58 -23.5t23.5 -62.5t-23.5 -62.5t-58 -23.5t-58 23.5t-23.5 62.5z" />
<glyph unicode="&#x1ee6;" d="M188 504v848h66v-832q0 -260 100.5 -371.5t259.5 -111.5q162 0 263.5 111.5t101.5 371.5v832h61v-848q0 -150 -35.5 -257.5t-98 -164.5t-134.5 -82t-158 -25t-157.5 25t-134 82t-98.5 164.5t-36 257.5zM512 1708l4 53q100 -4 167 -39.5t67 -107.5q0 -70 -48.5 -107.5 t-132.5 -64.5l-16 45q135 43 135 119q0 96 -176 102z" />
<glyph unicode="&#x1ee7;" d="M184 369v610h62v-602q0 -176 70.5 -260t224.5 -84q106 0 198 56t203 181v709h62v-979h-54l-8 197h-8q-188 -221 -393 -222q-180 0 -268.5 96.5t-88.5 297.5zM500 1393l4 53q100 -4 166.5 -40t66.5 -108q0 -70 -48 -107.5t-132 -64.5l-16 45q135 43 135 119q0 96 -176 103 z" />
<glyph unicode="&#x1ee8;" d="M188 504v848h66v-832q0 -260 100.5 -371.5t259.5 -111.5q162 0 263.5 111.5t101.5 371.5v832h12q98 16 143.5 49t45.5 94q0 37 -29 78l53 33q37 -55 37 -107q0 -84 -54 -127t-147 -65v-803q0 -150 -35.5 -257.5t-98 -164.5t-134.5 -82t-158 -25t-157.5 25t-134 82 t-98.5 164.5t-36 257.5zM549 1454l192 213h90l-221 -213h-61z" />
<glyph unicode="&#x1ee9;" d="M184 369v610h62v-602q0 -176 70.5 -260t224.5 -84q106 0 198 56t203 181v709h4q176 27 176 143q1 37 -28 78l53 33q37 -55 37 -107q0 -141 -180 -188v-938h-54l-8 197h-8q-188 -221 -393 -222q-180 0 -268.5 96.5t-88.5 297.5zM496 1171l188 275h82l-213 -275h-57z" />
<glyph unicode="&#x1eea;" d="M188 504v848h66v-832q0 -260 100.5 -371.5t259.5 -111.5q162 0 263.5 111.5t101.5 371.5v832h12q98 16 143.5 49t45.5 94q0 37 -29 78l53 33q37 -55 37 -107q0 -84 -54 -127t-147 -65v-803q0 -150 -35.5 -257.5t-98 -164.5t-134.5 -82t-158 -25t-157.5 25t-134 82 t-98.5 164.5t-36 257.5zM397 1667h90l193 -213h-62z" />
<glyph unicode="&#x1eeb;" d="M184 369v610h62v-602q0 -176 70.5 -260t224.5 -84q106 0 198 56t203 181v709h4q176 27 176 143q1 37 -28 78l53 33q37 -55 37 -107q0 -141 -180 -188v-938h-54l-8 197h-8q-188 -221 -393 -222q-180 0 -268.5 96.5t-88.5 297.5zM438 1446h82l189 -275h-58z" />
<glyph unicode="&#x1eec;" d="M188 504v848h66v-832q0 -260 100.5 -371.5t259.5 -111.5q162 0 263.5 111.5t101.5 371.5v832h12q98 16 143.5 49t45.5 94q0 37 -29 78l53 33q37 -55 37 -107q0 -84 -54 -127t-147 -65v-803q0 -150 -35.5 -257.5t-98 -164.5t-134.5 -82t-158 -25t-157.5 25t-134 82 t-98.5 164.5t-36 257.5zM512 1708l4 53q100 -4 167 -39.5t67 -107.5q0 -70 -48.5 -107.5t-132.5 -64.5l-16 45q135 43 135 119q0 96 -176 102z" />
<glyph unicode="&#x1eed;" d="M184 369v610h62v-602q0 -176 70.5 -260t224.5 -84q106 0 198 56t203 181v709h4q176 27 176 143q1 37 -28 78l53 33q37 -55 37 -107q0 -141 -180 -188v-938h-54l-8 197h-8q-188 -221 -393 -222q-180 0 -268.5 96.5t-88.5 297.5zM500 1393l4 53q100 -4 166.5 -40t66.5 -108 q0 -70 -48 -107.5t-132 -64.5l-16 45q135 43 135 119q0 96 -176 103z" />
<glyph unicode="&#x1eee;" d="M188 504v848h66v-832q0 -260 100.5 -371.5t259.5 -111.5q162 0 263.5 111.5t101.5 371.5v832h12q98 16 143.5 49t45.5 94q0 37 -29 78l53 33q37 -55 37 -107q0 -84 -54 -127t-147 -65v-803q0 -150 -35.5 -257.5t-98 -164.5t-134.5 -82t-158 -25t-157.5 25t-134 82 t-98.5 164.5t-36 257.5zM360 1470q4 68 39 122.5t97 54.5q55 0 127.5 -59.5t113.5 -59.5q33 0 56.5 33t29.5 86h45q-4 -68 -38.5 -122.5t-96.5 -54.5q-55 0 -128 59.5t-113 59.5q-33 0 -56.5 -32.5t-29.5 -86.5h-46z" />
<glyph unicode="&#x1eef;" d="M184 369v610h62v-602q0 -176 70.5 -260t224.5 -84q106 0 198 56t203 181v709h4q176 27 176 143q1 37 -28 78l53 33q37 -55 37 -107q0 -141 -180 -188v-938h-54l-8 197h-8q-188 -221 -393 -222q-180 0 -268.5 96.5t-88.5 297.5zM360 1192q4 68 35 118t97 50 q53 0 122.5 -57.5t102.5 -57.5q64 0 78 115h49q-4 -66 -35 -117t-96 -51q-51 0 -121 57.5t-105 57.5q-66 0 -77 -115h-50z" />
<glyph unicode="&#x1ef0;" d="M188 504v848h66v-832q0 -260 100.5 -371.5t259.5 -111.5q162 0 263.5 111.5t101.5 371.5v832h12q98 16 143.5 49t45.5 94q0 37 -29 78l53 33q37 -55 37 -107q0 -84 -54 -127t-147 -65v-803q0 -150 -35.5 -257.5t-98 -164.5t-134.5 -82t-158 -25t-157.5 25t-134 82 t-98.5 164.5t-36 257.5zM532 -332q0 39 24 62.5t58.5 23.5t58 -23.5t23.5 -62.5t-23.5 -62.5t-58 -23.5t-58.5 23.5t-24 62.5z" />
<glyph unicode="&#x1ef1;" d="M184 369v610h62v-602q0 -176 70.5 -260t224.5 -84q106 0 198 56t203 181v709h4q176 27 176 143q1 37 -28 78l53 33q37 -55 37 -107q0 -141 -180 -188v-938h-54l-8 197h-8q-188 -221 -393 -222q-180 0 -268.5 96.5t-88.5 297.5zM549 -332q0 39 23.5 62.5t58.5 23.5 t58.5 -23.5t23.5 -62.5t-23.5 -62.5t-58.5 -23.5t-58.5 23.5t-23.5 62.5z" />
<glyph unicode="&#x1ef2;" d="M115 1352h65l254 -463q35 -57 94.5 -165t85.5 -155h9q66 109 184 322l246 461h61l-467 -850v-502h-65v502zM397 1667h90l193 -213h-62z" />
<glyph unicode="&#x1ef3;" d="M131 979h66l303 -643q86 -182 139 -275h8q20 43 119 275l270 643h62l-471 -1118q-45 -131 -141.5 -223.5t-235.5 -92.5q-68 0 -113 21l21 57q49 -16 98 -16q211 0 322 278l36 90zM455 1446h82l188 -275h-57z" />
<glyph unicode="&#x1ef4;" d="M115 1352h65l254 -463q35 -57 94.5 -165t85.5 -155h9q66 109 184 322l246 461h61l-467 -850v-502h-65v502zM532 -332q0 39 24 62.5t58.5 23.5t58 -23.5t23.5 -62.5t-23.5 -62.5t-58 -23.5t-58.5 23.5t-24 62.5z" />
<glyph unicode="&#x1ef5;" d="M131 979h66l303 -643q86 -182 139 -275h8q20 43 119 275l270 643h62l-471 -1118q-45 -131 -141.5 -223.5t-235.5 -92.5q-68 0 -113 21l21 57q49 -16 98 -16q211 0 322 278l36 90zM811 -332q0 39 23.5 62.5t58.5 23.5t58.5 -23.5t23.5 -62.5t-23.5 -62.5t-58.5 -23.5 t-58.5 23.5t-23.5 62.5z" />
<glyph unicode="&#x1ef6;" d="M115 1352h65l254 -463q35 -57 94.5 -165t85.5 -155h9q66 109 184 322l246 461h61l-467 -850v-502h-65v502zM512 1708l4 53q100 -4 167 -39.5t67 -107.5q0 -70 -48.5 -107.5t-132.5 -64.5l-16 45q135 43 135 119q0 96 -176 102z" />
<glyph unicode="&#x1ef7;" d="M131 979h66l303 -643q86 -182 139 -275h8q20 43 119 275l270 643h62l-471 -1118q-45 -131 -141.5 -223.5t-235.5 -92.5q-68 0 -113 21l21 57q49 -16 98 -16q211 0 322 278l36 90zM537 1393l4 53q100 -4 166.5 -40t66.5 -108q0 -70 -48 -107.5t-132 -64.5l-16 45 q135 43 135 119q0 96 -176 103z" />
<glyph unicode="&#x1ef8;" d="M115 1352h65l254 -463q35 -57 94.5 -165t85.5 -155h9q66 109 184 322l246 461h61l-467 -850v-502h-65v502zM360 1470q4 68 39 122.5t97 54.5q55 0 127.5 -59.5t113.5 -59.5q33 0 56.5 32.5t29.5 86.5h45q-4 -68 -39 -122.5t-96 -54.5q-55 0 -128 59.5t-113 59.5 q-33 0 -56.5 -32.5t-29.5 -86.5h-46z" />
<glyph unicode="&#x1ef9;" d="M131 979h66l303 -643q86 -182 139 -275h8q20 43 119 275l270 643h62l-471 -1118q-45 -131 -141.5 -223.5t-235.5 -92.5q-68 0 -113 21l21 57q49 -16 98 -16q211 0 322 278l36 90zM377 1192q4 68 34.5 118t96.5 50q53 0 122.5 -57.5t102.5 -57.5q63 0 78 115h49 q-4 -66 -34.5 -117t-96.5 -51q-51 0 -120.5 57.5t-104.5 57.5q-66 0 -78 -115h-49z" />
<glyph unicode="&#x2000;" horiz-adv-x="956" />
<glyph unicode="&#x2001;" horiz-adv-x="1913" />
<glyph unicode="&#x2002;" horiz-adv-x="956" />
<glyph unicode="&#x2003;" horiz-adv-x="1913" />
<glyph unicode="&#x2004;" horiz-adv-x="637" />
<glyph unicode="&#x2005;" horiz-adv-x="478" />
<glyph unicode="&#x2006;" horiz-adv-x="318" />
<glyph unicode="&#x2007;" />
<glyph unicode="&#x2008;" horiz-adv-x="239" />
<glyph unicode="&#x2009;" horiz-adv-x="382" />
<glyph unicode="&#x200a;" horiz-adv-x="106" />
<glyph unicode="&#x2010;" d="M291 557v82h647v-82h-647z" />
<glyph unicode="&#x2011;" d="M291 557v82h647v-82h-647z" />
<glyph unicode="&#x2012;" d="M164 557v82h901v-82h-901z" />
<glyph unicode="&#x2013;" d="M164 557v82h901v-82h-901z" />
<glyph unicode="&#x2014;" d="M41 557v82h1147v-82h-1147z" />
<glyph unicode="&#x2015;" d="M41 557v82h1147v-82h-1147z" />
<glyph unicode="&#x2018;" d="M471 997q0 139 66.5 256.5t175.5 180.5l37 -50q-188 -133 -201 -360q35 25 65 25q49 0 80 -33t31 -82q0 -51 -31.5 -85t-83.5 -34q-57 0 -98 50t-41 132z" />
<glyph unicode="&#x2019;" d="M471 864q188 133 201 361q-35 -25 -66 -25q-49 0 -79.5 33t-30.5 82q0 51 31.5 85t82.5 34q57 0 98.5 -50.5t41.5 -132.5q0 -139 -66.5 -256t-175.5 -180z" />
<glyph unicode="&#x201a;" d="M471 -406q188 133 201 361q-35 -25 -66 -25q-49 0 -79.5 33t-30.5 82q0 51 31.5 85t82.5 34q57 0 98.5 -50.5t41.5 -131.5q0 -139 -66.5 -256.5t-175.5 -180.5z" />
<glyph unicode="&#x201c;" d="M266 997q0 139 66.5 256.5t175.5 180.5l37 -50q-188 -133 -201 -360q35 25 66 25q49 0 79.5 -33t30.5 -82q0 -51 -31.5 -85t-82.5 -34q-57 0 -98.5 50t-41.5 132zM676 997q0 139 66.5 256.5t175.5 180.5l36 -50q-188 -133 -200 -360q35 25 65 25q49 0 80 -33t31 -82 q0 -51 -32 -85t-83 -34q-57 0 -98 50t-41 132z" />
<glyph unicode="&#x201d;" d="M266 864q188 133 201 361q-35 -25 -66 -25q-49 0 -79.5 33t-30.5 82q0 51 31.5 85t83.5 34q57 0 98 -50.5t41 -132.5q0 -139 -66.5 -256t-175.5 -180zM676 864q188 133 201 361q-35 -25 -66 -25q-49 0 -80 33t-31 82q0 51 32 85t83 34q57 0 98 -50.5t41 -132.5 q0 -139 -66 -256t-175 -180z" />
<glyph unicode="&#x201e;" d="M266 -406q188 133 201 361q-35 -25 -66 -25q-49 0 -79.5 33t-30.5 82q0 51 31.5 85t83.5 34q57 0 98 -50.5t41 -131.5q0 -139 -66.5 -256.5t-175.5 -180.5zM676 -406q188 133 201 361q-35 -25 -66 -25q-49 0 -80 33t-31 82q0 51 32 85t83 34q57 0 98 -50.5t41 -131.5 q0 -139 -66 -256.5t-175 -180.5z" />
<glyph unicode="&#x2020;" d="M324 1090v65l262 -4l-4 307h65l-4 -307l262 4v-65l-262 4l4 -1258h-65l4 1258z" />
<glyph unicode="&#x2021;" d="M324 139v66l262 -4l-4 446l4 447l-262 -4v65l262 -4l-4 307h65l-4 -307l262 4v-65l-262 4l4 -447l-4 -446l262 4v-66l-262 4l4 -307h-65l4 307z" />
<glyph unicode="&#x2022;" d="M336 622.5q0 122.5 84 200.5t194.5 78t194.5 -78t84 -200.5t-84 -200.5t-194.5 -78t-194.5 78t-84 200.5z" />
<glyph unicode="&#x2026;" d="M119 94q0 55 32.5 88t73.5 33t74 -32.5t33 -88.5q0 -53 -33 -86t-74 -33t-73.5 33t-32.5 86zM508 94q0 55 32.5 88t73.5 33t74 -32.5t33 -88.5q0 -53 -33 -86t-74 -33t-73.5 33t-32.5 86zM897 94q0 55 33 88t73.5 33t73.5 -32.5t33 -88.5q0 -53 -33 -86t-73.5 -33 t-73.5 33t-33 86z" />
<glyph unicode="&#x202f;" horiz-adv-x="382" />
<glyph unicode="&#x2030;" d="M127 246q0 125 59.5 195.5t162 70.5t161.5 -70.5t59 -195.5q0 -131 -59 -201t-161.5 -70t-162 70t-59.5 201zM127 1069q0 125 59.5 195.5t162 70.5t161.5 -70.5t59 -195.5q0 -131 -59 -200.5t-161.5 -69.5t-162 69.5t-59.5 200.5zM188 246q0 -104 43 -160.5t117 -56.5 t117 56t43 161q0 100 -44 156.5t-116 56.5t-116 -56.5t-44 -156.5zM188 1069q0 -104 43 -160.5t117 -56.5t117 56.5t43 160.5q0 100 -44 156.5t-116 56.5t-116 -56.5t-44 -156.5zM236 621l903 419l28 -61l-913 -397zM659 246q0 125 59.5 195.5t162 70.5t162 -70.5 t59.5 -195.5q0 -131 -59.5 -201t-162 -70t-162 70t-59.5 201zM721 246q0 -104 43 -160.5t116.5 -56.5t116.5 56t43 161q0 100 -44 156.5t-115.5 56.5t-115.5 -56.5t-44 -156.5z" />
<glyph unicode="&#x2032;" d="M569 1020l49 401h58l-17 -131l-49 -270h-41z" />
<glyph unicode="&#x2033;" d="M438 1020l49 401h58l-17 -131l-49 -270h-41zM700 1020l50 401h57l-16 -131l-50 -270h-41z" />
<glyph unicode="&#x2039;" d="M440 487v58l283 336l41 -37l-258 -328l258 -332l-41 -32z" />
<glyph unicode="&#x203a;" d="M465 184l258 332l-258 328l41 37l282 -336v-58l-282 -335z" />
<glyph unicode="&#x2044;" d="M78 119l368 409l37 -32l-352 -422zM745 856l353 422l53 -45l-369 -410z" />
<glyph unicode="&#x205f;" horiz-adv-x="478" />
<glyph unicode="&#x2070;" d="M344 1212q0 156 74 242t196.5 86t196.5 -86t74 -242q0 -158 -74 -246.5t-196.5 -88.5t-196.5 89t-74 246zM406 1212q0 -131 58 -206.5t150.5 -75.5t150.5 75.5t58 206.5q0 133 -58 204t-150.5 71t-150.5 -70.5t-58 -204.5z" />
<glyph unicode="&#x2071;" d="M369 1126v56h379v-650h-64v594h-315zM647 1403q0 31 19.5 49t48 18t47 -18t18.5 -49t-18 -48.5t-47 -17.5q-31 0 -49.5 17.5t-18.5 48.5z" />
<glyph unicode="&#x2074;" d="M369 1071v31l352 414h41v-396h100v-49h-100v-170h-57v170h-336zM451 1120h254v170l8 140h-8l-109 -136z" />
<glyph unicode="&#x2075;" d="M365 1008l49 36q86 -115 204 -114q78 0 125.5 43t47.5 112q0 74 -46.5 115t-130.5 41q-76 0 -151 -61l-41 28l37 308h348v-58h-295l-29 -201q61 37 135 37q104 0 169 -55t65 -154q0 -96 -66.5 -152t-171.5 -56q-147 0 -249 131z" />
<glyph unicode="&#x2076;" d="M381 1163q0 193 84 285t215 92q80 0 164 -53l-29 -49q-68 49 -139 49q-98 0 -165 -72t-73 -223q102 82 209 82t160 -55.5t53 -141.5q0 -84 -62.5 -142t-158.5 -58q-104 0 -181 77.5t-77 208.5zM440 1126q10 -94 67.5 -145t135.5 -51q72 0 114 41t42 106q0 143 -156 144 q-106 0 -203 -95z" />
<glyph unicode="&#x2077;" d="M383 1462v54h463v-41q-131 -145 -180.5 -271.5t-59.5 -302.5h-57q10 176 60 303t161 258h-387z" />
<glyph unicode="&#x2078;" d="M373 1053q0 106 139 172v8q-111 66 -111 145q0 68 62.5 115t150.5 47q94 0 155.5 -47t61.5 -115q0 -88 -108 -157v-9q133 -53 133 -159q0 -76 -70.5 -126t-171.5 -50q-106 0 -173.5 52t-67.5 124zM434 1053q0 -51 52.5 -87t127.5 -36q70 0 125.5 34.5t55.5 86.5 q0 18 -6.5 34.5t-13.5 27.5t-24.5 22.5t-28.5 18.5t-35.5 16.5t-37 13.5t-42 12t-42.5 12q-131 -57 -131 -155zM463 1378q0 -51 54.5 -82.5t150.5 -58.5q102 59 102 141q0 47 -41 78t-115 31q-70 0 -110.5 -31t-40.5 -78z" />
<glyph unicode="&#x2079;" d="M369 1339q0 84 62.5 142.5t158.5 58.5q104 0 181 -78t77 -209q0 -193 -84 -284.5t-215 -91.5q-80 0 -164 53l29 49q68 -49 139 -49q98 0 162.5 71.5t70.5 221.5q-100 -80 -204 -80q-106 0 -159.5 55t-53.5 141zM430 1339q0 -143 156 -143q102 0 198 90q-8 96 -63 148.5 t-135 52.5q-72 0 -114 -41t-42 -107z" />
<glyph unicode="&#x207d;" d="M520 1216.5q0 262.5 211 450.5l39 -41q-178 -162 -178 -409.5t178 -409.5l-39 -41q-211 188 -211 450.5z" />
<glyph unicode="&#x207e;" d="M459 807q178 162 178 409.5t-178 409.5l39 41q211 -188 211 -450.5t-211 -450.5z" />
<glyph unicode="&#x207f;" d="M389 532v650h55l7 -111h6q127 127 245 127q225 0 226 -250v-416h-66v408q0 102 -41 151.5t-131 49.5q-61 0 -113.5 -31t-121.5 -100v-478h-66z" />
<glyph unicode="&#x2080;" d="M344 -37q0 156 74 242t196.5 86t196.5 -86t74 -242q0 -158 -74 -247t-196.5 -89t-196.5 89t-74 247zM406 -37q0 -131 58 -206.5t150.5 -75.5t150.5 75.5t58 206.5q0 133 -58 204t-150.5 71t-150.5 -71t-58 -204z" />
<glyph unicode="&#x2081;" d="M446 154v49q98 18 177 63h49v-614h-58v502h-168z" />
<glyph unicode="&#x2082;" d="M381 172q90 119 217 119q102 0 157.5 -52.5t55.5 -150.5q0 -20 -4 -39.5t-15.5 -41t-21.5 -39t-31.5 -41t-36 -39t-45 -43t-47 -43t-55.5 -48.5t-57 -49h350v-53h-453v41q241 199 293 260q61 72 62 137q0 70 -40 109t-112 39q-102 0 -172 -99z" />
<glyph unicode="&#x2083;" d="M365 -242l49 37q72 -115 200 -114q160 0 160 126q0 131 -233 132v49q100 0 150 37.5t50 97.5q0 115 -139 115q-41 0 -88 -21.5t-76 -60.5l-41 37q35 45 91.5 71.5t117.5 26.5q90 0 143.5 -43t53.5 -121q0 -117 -119 -160q66 -12 109 -54t43 -106q0 -88 -61.5 -134 t-164.5 -46q-74 0 -141 39t-104 92z" />
<glyph unicode="&#x2084;" d="M369 -147l352 413h41v-395h100v-49h-100v-170h-57v170h-336v31zM451 -129h254v170l8 139h-8l-109 -135z" />
<glyph unicode="&#x2085;" d="M365 -242l49 37q86 -115 204 -114q78 0 125.5 43t47.5 112q0 74 -46.5 115t-130.5 41q-76 0 -151 -62l-41 29l37 307h348v-57h-295l-29 -201q61 37 135 37q104 0 169 -55.5t65 -153.5q0 -96 -66.5 -152.5t-171.5 -56.5q-147 0 -249 131z" />
<glyph unicode="&#x2086;" d="M381 -86q0 193 84 285t215 92q80 0 164 -53l-29 -50q-68 49 -139 50q-98 0 -165 -72t-73 -223q102 82 209 82t160 -55.5t53 -141.5q0 -84 -62.5 -142.5t-158.5 -58.5q-104 0 -181 78t-77 209zM440 -123q10 -94 67.5 -145t135.5 -51q72 0 114 40.5t42 106.5 q0 143 -156 143q-106 0 -203 -94z" />
<glyph unicode="&#x2087;" d="M383 213v53h463v-41q-131 -145 -180.5 -271t-59.5 -302h-57q10 176 60 303t161 258h-387z" />
<glyph unicode="&#x2088;" d="M373 -197q0 106 139 172v9q-111 66 -111 145q0 68 62.5 115t150.5 47q94 0 155.5 -47t61.5 -115q0 -88 -108 -158v-8q133 -53 133 -160q0 -76 -70.5 -126t-171.5 -50q-106 0 -173.5 52t-67.5 124zM434 -197q0 -51 52.5 -86.5t127.5 -35.5q70 0 125.5 34.5t55.5 85.5 q0 18 -6.5 35t-13.5 28t-24.5 22.5t-28.5 18.5t-35.5 16t-37 13.5t-42 12.5t-42.5 12q-131 -58 -131 -156zM463 129q0 -51 54.5 -82.5t150.5 -58.5q102 59 102 141q0 47 -41 78t-115 31q-70 0 -110.5 -31t-40.5 -78z" />
<glyph unicode="&#x2089;" d="M369 90q0 84 62.5 142.5t158.5 58.5q104 0 181 -78t77 -209q0 -193 -84 -285t-215 -92q-80 1 -164 54l29 49q68 -49 139 -49q98 0 162.5 71.5t70.5 220.5q-100 -80 -204 -79q-106 0 -159.5 55t-53.5 141zM430 90q0 -143 156 -143q102 0 198 90q-8 96 -63 148.5t-135 52.5 q-72 0 -114 -41t-42 -107z" />
<glyph unicode="&#x208d;" d="M520 -33q0 262 211 451l39 -41q-178 -162 -178 -410t178 -409l-39 -41q-211 188 -211 450z" />
<glyph unicode="&#x208e;" d="M459 377l39 41q211 -189 211 -451t-211 -450l-39 41q178 162 178 409.5t-178 409.5z" />
<glyph unicode="&#x2094;" d="M328 829q0 33 4 50h504q-2 119 -64.5 191.5t-177.5 72.5q-102 0 -199 -62l-26 49q104 68 231 68q137 0 219 -90t82 -250q0 -158 -81 -250t-212 -92q-125 0 -202.5 83t-77.5 230zM389 829q0 -127 59.5 -192.5t160 -65.5t158.5 69t69 189h-447z" />
<glyph unicode="&#x20a1;" d="M225 659q0 276 113 453.5t309 214.5l25 209h57l-24 -203q14 2 40 2q45 0 107 -14l25 215h57l-29 -236q96 -43 164 -124l-45 -41q-61 72 -125 104l-143 -1204q157 14 288 170l46 -37q-147 -180 -340 -191l-25 -202h-57l24 200q-72 2 -145 33l-27 -233h-57l31 260 q-127 76 -198 238.5t-71 385.5zM295 659q0 -403 207 -557l137 1164q-164 -39 -254 -200t-90 -407zM555 70q66 -35 143 -37l146 1231q-53 14 -99 14q-33 0 -47 -2z" />
<glyph unicode="&#x20a4;" d="M172 512v49l193 8h61q-14 61 -45 140h-209v53l188 4q-49 139 -49 229q0 158 106.5 249t293.5 91q211 0 342 -143l-45 -41q-127 127 -306 127q-158 0 -244.5 -80t-86.5 -199q0 -88 53 -233h457v-57h-437q29 -78 41 -140h396v-57h-385q4 -41 4 -66q0 -131 -46 -219 t-141 -161v-9h744v-57h-879v37q137 63 200.5 171.5t63.5 237.5q0 20 -4 66h-266z" />
<glyph unicode="&#x20a6;" d="M127 500v53l160 8v144h-160v49l160 8v549h86l231 -549h273v549h65v-549h152v-57h-152v-144h152v-61h-152v-500h-86l-209 500h-295v-500h-65v500h-160zM340 1217l12 -455h185l-37 90l-152 365h-8zM352 561h269l-60 144h-209v-144zM627 705l61 -144h189v144h-250zM713 500 l16 -37l152 -369h8l-10 406h-166z" />
<glyph unicode="&#x20a7;" d="M123 913v50l168 8v340h246q418 0 434 -340h135v-58h-135q-10 -178 -126 -269t-308 -91h-185v-553h-61v913h-168zM352 610h160q373 0 393 303h-553v-303zM352 971h553q-8 154 -105.5 218t-287.5 64h-160v-282z" />
<glyph unicode="&#x20ab;" d="M254 602q0 162 103.5 263.5t248.5 101.5q80 0 137.5 -26t124.5 -81l-8 197v102h-319v58h319v167h62v-167h168v-50l-168 -8v-921h-50l-8 98h-8q-123 -119 -266 -119q-156 0 -246 100.5t-90 284.5zM274 0v57h709v-57h-709zM319 606q0 -154 72 -243t203 -89q139 1 266 136 v389q-74 61 -129 85.5t-129 24.5q-119 0 -201 -89t-82 -214z" />
<glyph unicode="&#x20ac;" d="M139 512v49l131 8q-4 57 -4 90q0 49 2 74h-129v49l135 9q29 254 164 399t348 145q98 0 184.5 -46t139.5 -113l-45 -41q-123 143 -279 143q-186 0 -301.5 -129t-140.5 -358h668v-58h-674q-2 -25 -2 -74q0 -33 4 -90h590v-57h-586q29 -223 136.5 -351t277.5 -128 q184 0 327 172l45 -37q-156 -193 -376 -193q-193 0 -321 144.5t-159 392.5h-135z" />
<glyph unicode="&#x20b1;" d="M123 823v49l168 9v143h-168v49l168 8v230h246q342 0 415 -230h154v-57h-141q6 -37 6 -78q0 -25 -4 -65h139v-58h-150q-35 -133 -144.5 -201.5t-274.5 -68.5h-185v-553h-61v823h-168zM352 610h160q313 0 377 213h-537v-213zM352 881h549q4 41 4 65q0 41 -6 78h-547v-143z M352 1081h531q-66 172 -371 172h-160v-172z" />
<glyph unicode="&#x20b2;" d="M201 659q0 291 124 471.5t339 202.5v203h61v-201q96 -2 181 -47t138 -112l-45 -41q-123 143 -278 143q-213 0 -332 -166t-119 -452.5t113 -456.5t309 -170q92 0 176 32.5t127 81.5v422h-303v58h365v-504q-137 -137 -332 -146v-202h-61v200q-211 10 -337 196.5t-126 487.5 z" />
<glyph unicode="&#x20b5;" d="M225 659q0 291 124 471.5t339 202.5v207h62v-205q96 -2 181 -47t138 -112l-45 -41q-123 141 -274 143v-1243q161 10 294 170l46 -37q-147 -180 -340 -191v-202h-62v200q-211 10 -337 196.5t-126 487.5zM295 659q0 -274 104.5 -443t288.5 -183v1241 q-186 -23 -289.5 -186.5t-103.5 -428.5z" />
<glyph unicode="&#x20b9;" d="M252 598v57h172q444 0 444 320h-616v49l147 8h465q-43 221 -440 221h-172v58h823v-58h-336q160 -53 191 -221h145v-57h-141q-2 -170 -112.5 -266.5t-303.5 -108.5l465 -600h-76l-463 598h-192z" />
<glyph unicode="&#x20ba;" d="M147 492v61l246 111v176l-246 -111v62l246 110v410h66v-377l411 192v-61l-411 -193v-176l411 193v-62l-411 -192v-598q125 0 247.5 40t216 133t93.5 220q0 66 -15 111l56 20q18 -80 18 -127q0 -154 -102.5 -262.5t-252 -153.5t-327.5 -43v627z" />
<glyph unicode="&#x2113;" d="M307 324q72 49 156 127v622q0 209 62.5 305.5t166.5 96.5q96 0 156.5 -76t60.5 -215q0 -184 -108.5 -384t-276.5 -366v-82q0 -164 57.5 -241.5t147.5 -77.5q94 0 184 90l33 -41q-106 -106 -221 -107q-113 0 -187.5 94.5t-74.5 262.5v45q-61 -55 -123 -98zM524 512 q143 152 231.5 327t88.5 341q0 238 -152 237q-72 0 -120 -83.5t-48 -239.5v-582z" />
<glyph unicode="&#x2117;" d="M82 659q0 307 147.5 491.5t385 184.5t385 -184t147.5 -492q0 -309 -147.5 -496.5t-385 -187.5t-385 187.5t-147.5 496.5zM143 659q0 -283 130 -456.5t341 -173.5t341 174t130 456q0 281 -129 452t-342 171t-342 -171t-129 -452zM424 279v737h209q109 0 177.5 -56.5 t68.5 -160.5q0 -117 -69 -181.5t-177 -64.5h-144v-274h-65zM489 610h119q201 0 201 189q0 160 -201 159h-119v-348z" />
<glyph unicode="&#x2120;" d="M70 827l41 41q82 -82 180 -82q61 0 96 31t35 80q0 33 -12.5 54.5t-26.5 31.5t-59 33l-103 53q-119 61 -119 164q0 76 53.5 118t139.5 42q98 0 172 -74l-37 -45q-74 66 -139 65q-59 0 -93 -30.5t-34 -75.5q0 -63 94 -111l102 -53q123 -57 123 -172q0 -68 -54 -116 t-142 -48q-137 0 -217 94zM627 758v626h90l110 -266l66 -180h8l66 180l106 266h90v-626h-61v348l8 197h-8l-176 -447h-62l-176 447h-8l8 -197v-348h-61z" />
<glyph unicode="&#x2122;" d="M4 1327v57h512v-57h-225v-569h-62v569h-225zM627 758v626h90l110 -266l66 -180h8l66 180l106 266h90v-626h-61v348l8 197h-8l-176 -447h-62l-176 447h-8l8 -197v-348h-61z" />
<glyph unicode="&#x2126;" d="M37 0v57h303v9q-279 262 -279 643q0 301 150.5 484t402.5 183t402.5 -183t150.5 -484q0 -381 -278 -643v-9h303v-57h-422v49q143 98 235.5 263t92.5 401q0 274 -129 438t-354.5 164t-354.5 -164t-129 -438q0 -236 92 -401t236 -263v-49h-422z" />
<glyph unicode="&#x212e;" d="M53 663.5q0 284.5 165 486.5t396.5 202t396.5 -202t165 -486v-17h-848q-8 0 -9 -8v-459q1 -16 17 -41q111 -123 282 -123q106 0 204 61.5t169 168.5h78q-86 -127 -202.5 -199t-252.5 -72q-231 0 -396 202t-165 486.5zM319 696q1 -12 9 -12h573q12 0 12 12v459 q0 25 -20 45q-111 111 -275 111q-170 0 -282 -119q-16 -25 -17 -45v-451z" />
<glyph unicode="&#x2153;" d="M78 119l368 409l37 -32l-352 -422zM160 1198v49q98 18 176 64h49v-615h-57v502h-168zM651 106l49 37q72 -115 201 -114q160 0 160 127q0 131 -234 131v49q100 0 150.5 38t50.5 97q0 115 -139 115q-41 0 -88 -21.5t-76 -60.5l-41 37q35 45 91 71.5t118 26.5 q90 0 143.5 -43t53.5 -121q0 -117 -119 -160q66 -12 108.5 -54t42.5 -105q0 -88 -61.5 -134.5t-163.5 -46.5q-74 0 -141.5 39t-104.5 92zM745 856l353 422l53 -45l-369 -410z" />
<glyph unicode="&#x2154;" d="M78 119l368 409l37 -32l-352 -422zM94 1217q90 119 217 118q102 0 157.5 -52t55.5 -150q0 -20 -4 -40t-15 -41.5t-21.5 -39t-32 -41t-36 -38.5t-45 -43t-47 -43.5t-55.5 -48t-57 -48.5h350v-54h-452v41q241 199 293 260q61 72 61 138q0 70 -40 108.5t-112 38.5 q-102 0 -172 -98zM651 106l49 37q72 -115 201 -114q160 0 160 127q0 131 -234 131v49q100 0 150.5 38t50.5 97q0 115 -139 115q-41 0 -88 -21.5t-76 -60.5l-41 37q35 45 91 71.5t118 26.5q90 0 143.5 -43t53.5 -121q0 -117 -119 -160q66 -12 108.5 -54t42.5 -105 q0 -88 -61.5 -134.5t-163.5 -46.5q-74 0 -141.5 39t-104.5 92zM745 856l353 422l53 -45l-369 -410z" />
<glyph unicode="&#x215b;" d="M78 119l368 409l37 -32l-352 -422zM160 1198v49q98 18 176 64h49v-615h-57v502h-168zM659 152q0 106 140 172v8q-111 66 -111 145q0 68 62.5 115t150.5 47q94 0 155.5 -47t61.5 -115q0 -88 -108 -158v-8q133 -53 133 -159q0 -76 -71 -126.5t-171 -50.5q-106 0 -174 52.5 t-68 124.5zM721 152q0 -51 52 -87t128 -36q70 0 125 34.5t55 86.5q0 18 -6 34.5t-13 27.5t-24.5 22.5t-29 18.5t-36 16.5t-36.5 13.5t-42 12t-42 12q-131 -57 -131 -155zM745 856l353 422l53 -45l-369 -410zM750 477q0 -51 54 -82.5t150 -58.5q102 59 103 141q0 47 -41 78 t-115 31q-70 0 -110.5 -31t-40.5 -78z" />
<glyph unicode="&#x215c;" d="M78 119l368 409l37 -32l-352 -422zM78 803l49 37q72 -115 201 -115q160 0 159 127q0 131 -233 131v49q100 0 150.5 38t50.5 97q0 115 -140 115q-41 0 -88 -21.5t-75 -60.5l-41 37q35 45 91 71.5t117 26.5q90 0 143.5 -43t53.5 -121q0 -117 -119 -159q66 -12 109 -54.5 t43 -105.5q0 -88 -61.5 -134t-163.5 -46q-74 0 -141.5 39t-104.5 92zM659 152q0 106 140 172v8q-111 66 -111 145q0 68 62.5 115t150.5 47q94 0 155.5 -47t61.5 -115q0 -88 -108 -158v-8q133 -53 133 -159q0 -76 -71 -126.5t-171 -50.5q-106 0 -174 52.5t-68 124.5zM721 152 q0 -51 52 -87t128 -36q70 0 125 34.5t55 86.5q0 18 -6 34.5t-13 27.5t-24.5 22.5t-29 18.5t-36 16.5t-36.5 13.5t-42 12t-42 12q-131 -57 -131 -155zM745 856l353 422l53 -45l-369 -410zM750 477q0 -51 54 -82.5t150 -58.5q102 59 103 141q0 47 -41 78t-115 31 q-70 0 -110.5 -31t-40.5 -78z" />
<glyph unicode="&#x215d;" d="M78 119l368 409l37 -32l-352 -422zM78 803l49 37q86 -115 205 -115q78 0 125 43t47 113q0 74 -46 114.5t-130 40.5q-76 0 -152 -61l-41 29l37 307h348v-58h-295l-28 -200q61 37 135 37q104 0 168.5 -55.5t64.5 -153.5q0 -96 -66.5 -152.5t-170.5 -56.5q-148 0 -250 131z M659 152q0 106 140 172v8q-111 66 -111 145q0 68 62.5 115t150.5 47q94 0 155.5 -47t61.5 -115q0 -88 -108 -158v-8q133 -53 133 -159q0 -76 -71 -126.5t-171 -50.5q-106 0 -174 52.5t-68 124.5zM721 152q0 -51 52 -87t128 -36q70 0 125 34.5t55 86.5q0 18 -6 34.5t-13 27.5 t-24.5 22.5t-29 18.5t-36 16.5t-36.5 13.5t-42 12t-42 12q-131 -57 -131 -155zM745 856l353 422l53 -45l-369 -410zM750 477q0 -51 54 -82.5t150 -58.5q102 59 103 141q0 47 -41 78t-115 31q-70 0 -110.5 -31t-40.5 -78z" />
<glyph unicode="&#x215e;" d="M78 119l368 409l37 -32l-352 -422zM96 1257v54h463v-41q-131 -145 -180 -271.5t-60 -302.5h-57q10 176 60.5 303t160.5 258h-387zM659 152q0 106 140 172v8q-111 66 -111 145q0 68 62.5 115t150.5 47q94 0 155.5 -47t61.5 -115q0 -88 -108 -158v-8q133 -53 133 -159 q0 -76 -71 -126.5t-171 -50.5q-106 0 -174 52.5t-68 124.5zM721 152q0 -51 52 -87t128 -36q70 0 125 34.5t55 86.5q0 18 -6 34.5t-13 27.5t-24.5 22.5t-29 18.5t-36 16.5t-36.5 13.5t-42 12t-42 12q-131 -57 -131 -155zM745 856l353 422l53 -45l-369 -410zM750 477 q0 -51 54 -82.5t150 -58.5q102 59 103 141q0 47 -41 78t-115 31q-70 0 -110.5 -31t-40.5 -78z" />
<glyph unicode="&#x2190;" d="M41 512v8l549 541l41 -41l-496 -475h1032v-58h-1032l496 -475l-41 -41z" />
<glyph unicode="&#x2191;" d="M70 528l540 549h8l541 -549l-41 -41l-475 496v-1032h-57v1032l-475 -496z" />
<glyph unicode="&#x2192;" d="M57 487v58h1033l-496 475l41 41l549 -541v-8l-549 -541l-41 41l496 475h-1033z" />
<glyph unicode="&#x2193;" d="M70 500l41 41l475 -496v1032h57v-1032l475 496l41 -41l-541 -549h-8z" />
<glyph unicode="&#x2202;" d="M184 360q0 203 117 327t330 124q188 0 342 -160q2 29 2 90q0 578 -336 578q-142 0 -246 -111l-37 41q113 127 287 127q180 0 288.5 -153.5t108.5 -481.5q0 -342 -139 -554t-369 -212q-141 0 -244.5 105.5t-103.5 279.5zM250 365q0 -145 84 -238.5t203 -93.5 q174 0 285.5 150.5t142.5 391.5q-158 178 -338 179q-190 0 -283.5 -112t-93.5 -277z" />
<glyph unicode="&#x2206;" d="M109 0v37l475 1315h61l475 -1315v-37h-1011zM182 57h865l-267 746l-159 459h-9l-163 -459z" />
<glyph unicode="&#x220f;" d="M152 -246v1557h925v-1557h-69v1499h-791v-1499h-65z" />
<glyph unicode="&#x2211;" d="M160 -193l540 725l-516 725v54h860v-58h-774v-8l508 -708l-532 -717v-8h864v-58h-950v53z" />
<glyph unicode="&#x2212;" d="M201 606v58h827v-58h-827z" />
<glyph unicode="&#x2215;" d="M78 119l368 409l37 -32l-352 -422zM745 856l353 422l53 -45l-369 -410z" />
<glyph unicode="&#x2219;" d="M496 700.5q0 55.5 31.5 87t74.5 31.5t75 -31.5t32 -87t-32 -87t-75 -31.5t-74.5 31.5t-31.5 87z" />
<glyph unicode="&#x221a;" d="M176 672l205 98l266 -795q12 -33 29 -98h8q4 16 10 49t11 49l397 1704h61l-446 -1900h-66l-307 905l-139 -66z" />
<glyph unicode="&#x221e;" d="M8 676q0 129 79 210t192 81q170 0 294 -234h9q145 266 340 266q135 0 217 -89t82 -230q0 -137 -81 -230.5t-210 -93.5q-109 0 -187.5 62.5t-160.5 195.5h-9q-139 -229 -307 -229q-104 0 -181 84t-77 207zM70 679.5q0 -104.5 60 -171t144 -66.5q158 0 267 230 q-66 121 -129.5 175t-137.5 54q-90 0 -147 -58.5t-57 -163zM614 680q82 -145 157 -201.5t163 -56.5q104 0 164.5 72.5t60.5 181.5q0 117 -64.5 191.5t-176.5 74.5q-86 0 -159 -62.5t-145 -199.5z" />
<glyph unicode="&#x222b;" d="M444 -311l13 53q33 -8 69 -8q86 0 115 91t29 281q0 145 -47.5 539.5t-47.5 530.5q0 209 44.5 323.5t160.5 114.5q59 0 78 -12l-12 -54q-33 8 -70 8q-82 0 -110.5 -93t-28.5 -283q0 -145 45 -537.5t45 -527.5q0 -100 -8 -175t-29.5 -137.5t-62.5 -94.5t-101 -32 q-57 0 -82 13z" />
<glyph unicode="&#x2248;" d="M197 328q74 225 233 225q66 0 134.5 -47t129 -94t109.5 -47q61 0 102 34.5t78 149.5l49 -21q-74 -221 -233 -221q-66 0 -134.5 47t-129 94.5t-109.5 47.5q-61 0 -102 -36t-78 -149zM197 737q74 225 233 226q66 0 134.5 -47.5t129 -94.5t109.5 -47q61 0 102 35t78 149 l49 -20q-74 -221 -233 -221q-66 0 -134.5 47t-129 94t-109.5 47q-61 0 -102 -35.5t-78 -148.5z" />
<glyph unicode="&#x2260;" d="M201 401v58h270l217 352h-487v57h524l164 267h69l-163 -267h233v-57h-270l-217 -352h487v-58h-524l-164 -266h-70l164 266h-233z" />
<glyph unicode="&#x2264;" d="M201 0v57h827v-57h-827zM201 602v74l827 332v-66l-491 -192l-271 -107v-8l271 -107l491 -192v-66z" />
<glyph unicode="&#x2265;" d="M201 0v57h827v-57h-827zM201 270v66l491 192l271 107v8l-271 107l-491 192v66l827 -332v-74z" />
<glyph unicode="&#x25a0;" d="M444 365v352h340v-352h-340z" />
<glyph unicode="&#x25b2;" d="M100 106v5l512 962h9l507 -962v-5h-1028z" />
<glyph unicode="&#x25b3;" d="M100 106v5l512 962h9l507 -962v-5h-1028zM211 164h811l-406 790z" />
<glyph unicode="&#x25b6;" d="M170 61v1029h4l963 -508v-9l-963 -512h-4z" />
<glyph unicode="&#x25b7;" d="M170 61v1029h4l963 -508v-9l-963 -512h-4zM231 172l779 406l-779 405v-811z" />
<glyph unicode="&#x25bc;" d="M100 1040v4h1028v-4l-507 -958h-9z" />
<glyph unicode="&#x25bd;" d="M100 1040v4h1028v-4l-507 -962h-9zM211 987l405 -790l406 790h-811z" />
<glyph unicode="&#x25c0;" d="M92 573v9l963 508h4v-1029h-4z" />
<glyph unicode="&#x25c1;" d="M92 573v9l963 508h4v-1029h-4zM219 578l778 -406v811z" />
<glyph unicode="&#x25c6;" d="M367 541l249 245l246 -245l-246 -246z" />
<glyph unicode="&#x25c9;" d="M279 541q0 156 98 250t237.5 94t237.5 -94.5t98 -249.5q0 -160 -98 -252t-237.5 -92t-237.5 92t-98 252zM344 541q0 -133 81 -210t189.5 -77t189.5 77t81 210t-81 209.5t-189.5 76.5t-189.5 -76.5t-81 -209.5zM512 541q0 47 30.5 76.5t71.5 29.5t72 -29.5t31 -76.5 q0 -49 -31 -80t-72 -31t-71.5 31t-30.5 80z" />
<glyph unicode="&#x25ca;" d="M233 676l340 696h82l340 -696l-340 -696h-82zM303 676l164 -352l143 -291h8l144 291l164 352l-164 348l-144 295h-8l-143 -295z" />
<glyph unicode="&#x2610;" d="M-45 -20v1306l102 82h1217v-1286l-86 -102h-1233zM16 41h1127v1200h-1127v-1200z" />
<glyph unicode="&#x2611;" d="M-45 -20v1306l102 82h1129q90 112 211 229l49 -53q-89 -83 -172 -178v-1284l-86 -102h-1233zM16 41h1127v1165q-348 -459 -500 -989l-90 -12q-109 309 -287 577l53 39q186 -287 267 -547h8q143 492 493 967h-1071v-1200z" />
<glyph unicode="&#x266a;" d="M199 98q0 84 84 148.5t219 64.5q86 0 127 -24v1134h53q14 -45 40 -72.5t103 -82.5q125 -92 169 -182.5t44 -211.5q0 -113 -37 -241l-49 16q25 84 25 188.5t-74 192.5t-205 127v-909q0 -135 -95 -211t-216 -76q-82 0 -135 38t-53 101z" />
<glyph unicode="&#x2713;" d="M4 557l53 39q193 -285 283 -567h8q106 362 333.5 735t494.5 629l49 -54q-276 -256 -499.5 -620.5t-332.5 -747.5l-90 -12q-121 340 -299 598z" />
<glyph unicode="&#x2752;" d="M373 283v409l106 86h377v-389l-86 -106h-397zM430 336h295v311h-295v-311z" />
<glyph unicode="&#xe000;" horiz-adv-x="980" d="M0 980h980v-980h-980v980z" />
<glyph unicode="&#xfb01;" d="M180 922v49l135 8v242q0 141 59.5 211.5t166.5 70.5q63 0 135 -33l-21 -53q-57 29 -118 29q-160 0 -160 -234v-233h233v-57h-233v-922h-62v922h-135zM809 1313q0 39 24.5 62.5t57.5 23.5t57.5 -23.5t24.5 -62.5q0 -37 -24.5 -60.5t-57.5 -23.5t-57.5 23.5t-24.5 60.5z M860 0v979h62v-979h-62z" />
<glyph unicode="&#xfb02;" d="M190 922v49l136 8v242q0 141 59 211.5t166 70.5q63 0 135 -33l-20 -53q-57 29 -119 29q-160 0 -160 -234v-233h234v-57h-234v-922h-61v922h-136zM834 106v1373h61v-1385q0 -61 41 -61q17 0 37 4l12 -53q-33 -8 -53 -9q-98 0 -98 131z" />
<glyph d="M125 680q0 317 157.5 506.5t419.5 189.5q203 0 355 -159l-41 -46q-129 143 -314 144q-236 0 -371.5 -171t-135.5 -464q0 -295 131 -469t360 -174q209 0 315 110v447h-327v57h395v-524q-137 -152 -387 -152q-252 0 -404.5 193t-152.5 512zM426 1470q4 68 39 122.5t96 54.5 q55 0 128 -59.5t114 -59.5q33 0 56.5 32.5t29.5 86.5h45q-4 -68 -39 -122.5t-96 -54.5q-55 0 -128 59.5t-114 59.5q-33 0 -56.5 -32.5t-29.5 -86.5h-45z" />
<glyph d="M180 -190q0 57 45 121.5t123 113.5v8q-102 47 -102 156q0 102 119 184v8q-115 100 -115 254q0 147 104.5 248t251.5 101q76 0 131 -25h410v-57h-311q127 -119 127 -267q0 -145 -103.5 -244.5t-253.5 -99.5q-100 0 -192 49q-102 -61 -103 -145q0 -145 234 -145h252 q186 0 268 -50.5t82 -166.5q0 -129 -142.5 -230.5t-365.5 -101.5q-225 0 -342 78t-117 211zM246 -199q0 -98 97 -160.5t284 -62.5q203 0 328.5 83t125.5 187q0 86 -64.5 121t-203.5 35h-248q-88 0 -149 19q-170 -91 -170 -222zM315 655q0 -125 85 -205.5t206 -80.5t206 80.5 t85 205.5t-85 208t-206 83t-206 -83t-85 -208zM393 1192q4 68 35 118t96 50q53 0 123 -57.5t103 -57.5q63 0 77 115h50q-4 -66 -35 -117t-97 -51q-51 0 -120.5 57.5t-104.5 57.5q-66 0 -78 -115h-49z" />
<glyph d="M205 922v57h565v-979q-123 -147 -123 -246q0 -53 30 -81.5t73 -28.5q49 0 90 28l28 -41q-53 -45 -123 -45q-72 0 -115.5 42t-43.5 122q0 106 127 250h-4v922h-504z" />
<glyph d="M143 487q0 229 137.5 373t329.5 144q166 0 328 -140h4l8 115h54v-979h-54l-8 152h-4q-168 -176 -360 -177q-199 0 -317 134t-118 378zM209 487q0 -205 100.5 -329.5t272.5 -124.5q178 0 360 192v566q-164 156 -336 155q-166 0 -281.5 -134.5t-115.5 -324.5z" />
<glyph d="M143 487q0 229 137.5 373t329.5 144q166 0 328 -140h4l8 115h54v-979h-54l-8 152h-4q-168 -176 -360 -177q-199 0 -317 134t-118 378zM209 487q0 -205 100.5 -329.5t272.5 -124.5q178 0 360 192v566q-164 156 -336 155q-166 0 -281.5 -134.5t-115.5 -324.5zM455 1446h82 l188 -275h-57z" />
<glyph d="M143 487q0 229 137.5 373t329.5 144q166 0 328 -140h4l8 115h54v-979h-54l-8 152h-4q-168 -176 -360 -177q-199 0 -317 134t-118 378zM209 487q0 -205 100.5 -329.5t272.5 -124.5q178 0 360 192v566q-164 156 -336 155q-166 0 -281.5 -134.5t-115.5 -324.5zM512 1171 l188 275h82l-213 -275h-57z" />
<glyph d="M143 487q0 229 137.5 373t329.5 144q166 0 328 -140h4l8 115h54v-979h-54l-8 152h-4q-168 -176 -360 -177q-199 0 -317 134t-118 378zM209 487q0 -205 100.5 -329.5t272.5 -124.5q178 0 360 192v566q-164 156 -336 155q-166 0 -281.5 -134.5t-115.5 -324.5zM397 1171 l193 275h57l193 -275h-58l-159 209h-9l-159 -209h-58z" />
<glyph d="M143 487q0 229 137.5 373t329.5 144q166 0 328 -140h4l8 115h54v-979h-54l-8 152h-4q-168 -176 -360 -177q-199 0 -317 134t-118 378zM209 487q0 -205 100.5 -329.5t272.5 -124.5q178 0 360 192v566q-164 156 -336 155q-166 0 -281.5 -134.5t-115.5 -324.5zM377 1192 q4 68 34.5 118t96.5 50q53 0 122.5 -57.5t102.5 -57.5q63 0 78 115h49q-4 -66 -34.5 -117t-96.5 -51q-51 0 -120.5 57.5t-104.5 57.5q-66 0 -78 -115h-49z" />
<glyph d="M143 487q0 229 137.5 373t329.5 144q166 0 328 -140h4l8 115h54v-979h-54l-8 152h-4q-168 -176 -360 -177q-199 0 -317 134t-118 378zM209 487q0 -205 100.5 -329.5t272.5 -124.5q178 0 360 192v566q-164 156 -336 155q-166 0 -281.5 -134.5t-115.5 -324.5zM373 1306.5 q0 30.5 19.5 52t50 21.5t50 -21.5t19.5 -52t-19.5 -52t-50 -21.5t-50 21.5t-19.5 52zM725 1306.5q0 30.5 19.5 52t50 21.5t50 -21.5t19.5 -52t-19.5 -52t-50 -21.5t-50 21.5t-19.5 52z" />
<glyph d="M143 487q0 229 137.5 373t329.5 144q166 0 328 -140h4l8 115h54v-979h-54l-8 152h-4q-168 -176 -360 -177q-199 0 -317 134t-118 378zM209 487q0 -205 100.5 -329.5t272.5 -124.5q178 0 360 192v566q-164 156 -336 155q-166 0 -281.5 -134.5t-115.5 -324.5zM393 1245v58 h451v-58h-451z" />
<glyph d="M143 487q0 229 137.5 373t329.5 144q166 0 328 -140h4l8 115h54v-979h-54l-8 152h-4q-168 -176 -360 -177q-199 0 -317 134t-118 378zM209 487q0 -205 100.5 -329.5t272.5 -124.5q178 0 360 192v566q-164 156 -336 155q-166 0 -281.5 -134.5t-115.5 -324.5zM381 1417h53 q10 -76 57.5 -130t127 -54t127 54t57.5 130h53q-12 -92 -69.5 -164.5t-168 -72.5t-168 72.5t-69.5 164.5z" />
<glyph d="M143 487q0 229 137.5 373t329.5 144q166 0 328 -140h4l8 115h54v-979h-54l-8 152h-4q-168 -176 -360 -177q-199 0 -317 134t-118 378zM209 487q0 -205 100.5 -329.5t272.5 -124.5q178 0 360 192v566q-164 156 -336 155q-166 0 -281.5 -134.5t-115.5 -324.5zM459 1274 q0 76 46 124t113.5 48t113.5 -48t46 -124t-46 -124t-113.5 -48t-113.5 48t-46 124zM508 1274q0 -57 31.5 -92t79 -35t79 35t31.5 92t-31.5 92t-79 35t-79 -35t-31.5 -92z" />
<glyph d="M143 487q0 229 137.5 373t329.5 144q166 0 328 -140h4l8 115h54v-979h-54l-8 152h-4q-168 -176 -360 -177q-199 0 -317 134t-118 378zM209 487q0 -205 100.5 -329.5t272.5 -124.5q178 0 360 192v566q-164 156 -336 155q-166 0 -281.5 -134.5t-115.5 -324.5zM397 1446h58 l159 -209h9l159 209h58l-193 -275h-57z" />
<glyph d="M143 487q0 229 137.5 373t329.5 144q166 0 328 -140h4l8 115h54v-979h-54l-8 152h-4q-168 -176 -360 -177q-199 0 -317 134t-118 378zM209 487q0 -205 100.5 -329.5t272.5 -124.5q178 0 360 192v566q-164 156 -336 155q-166 0 -281.5 -134.5t-115.5 -324.5zM541 -332 q0 39 23.5 62.5t58 23.5t58.5 -23.5t24 -62.5t-24 -62.5t-58.5 -23.5t-58 23.5t-23.5 62.5z" />
<glyph d="M143 487q0 229 137.5 373t329.5 144q166 0 328 -140h4l8 115h54v-979h-54l-8 152h-4q-168 -176 -360 -177q-199 0 -317 134t-118 378zM209 487q0 -205 100.5 -329.5t272.5 -124.5q178 0 360 192v566q-164 156 -336 155q-166 0 -281.5 -134.5t-115.5 -324.5zM516 1393 l4 53q100 -4 167 -40t67 -108q0 -70 -48.5 -107.5t-132.5 -64.5l-16 45q135 43 135 119q0 96 -176 103z" />
<glyph d="M143 487q0 229 137.5 373t329.5 144q166 0 328 -140h4l8 115h54v-979h-54l-8 152h-4q-168 -176 -360 -177q-199 0 -317 134t-118 378zM209 487q0 -205 100.5 -329.5t272.5 -124.5q178 0 360 192v566q-164 156 -336 155q-166 0 -281.5 -134.5t-115.5 -324.5zM418 1171 l172 230h57l172 -230h-57l-139 164h-9l-139 -164h-57zM770 1303l160 225h78l-185 -225h-53z" />
<glyph d="M143 487q0 229 137.5 373t329.5 144q166 0 328 -140h4l8 115h54v-979h-54l-8 152h-4q-168 -176 -360 -177q-199 0 -317 134t-118 378zM209 487q0 -205 100.5 -329.5t272.5 -124.5q178 0 360 192v566q-164 156 -336 155q-166 0 -281.5 -134.5t-115.5 -324.5zM418 1171 l172 230h57l172 -230h-57l-139 164h-9l-139 -164h-57zM713 1528h78l159 -225h-53z" />
<glyph d="M143 487q0 229 137.5 373t329.5 144q166 0 328 -140h4l8 115h54v-979h-54l-8 152h-4q-168 -176 -360 -177q-199 0 -317 134t-118 378zM209 487q0 -205 100.5 -329.5t272.5 -124.5q178 0 360 192v566q-164 156 -336 155q-166 0 -281.5 -134.5t-115.5 -324.5zM418 1171 l172 230h57l172 -230h-57l-139 164h-9l-139 -164h-57zM762 1528l4 49q205 -8 205 -139q0 -59 -42 -93t-110 -59l-16 45q106 35 106 99q0 92 -147 98z" />
<glyph d="M143 487q0 229 137.5 373t329.5 144q166 0 328 -140h4l8 115h54v-979h-54l-8 152h-4q-168 -176 -360 -177q-199 0 -317 134t-118 378zM209 487q0 -205 100.5 -329.5t272.5 -124.5q178 0 360 192v566q-164 156 -336 155q-166 0 -281.5 -134.5t-115.5 -324.5zM377 1442 q4 57 39 102t100 45q53 0 114.5 -47t94.5 -47q74 0 86 94h49q-4 -57 -39 -102t-100 -45q-53 0 -114.5 47t-94.5 47q-74 0 -86 -94h-49zM401 1167l189 201h57l189 -201h-58l-155 144h-9l-155 -144h-58z" />
<glyph d="M143 487q0 229 137.5 373t329.5 144q166 0 328 -140h4l8 115h54v-979h-54l-8 152h-4q-168 -176 -360 -177q-199 0 -317 134t-118 378zM209 487q0 -205 100.5 -329.5t272.5 -124.5q178 0 360 192v566q-164 156 -336 155q-166 0 -281.5 -134.5t-115.5 -324.5zM397 1171 l193 275h57l193 -275h-58l-159 209h-9l-159 -209h-58zM537 -332q0 39 23.5 62.5t58 23.5t58 -23.5t23.5 -62.5t-23.5 -62.5t-58 -23.5t-58 23.5t-23.5 62.5z" />
<glyph d="M143 487q0 229 137.5 373t329.5 144q166 0 328 -140h4l8 115h54v-979h-54l-8 152h-4q-168 -176 -360 -177q-199 0 -317 134t-118 378zM209 487q0 -205 100.5 -329.5t272.5 -124.5q178 0 360 192v566q-164 156 -336 155q-166 0 -281.5 -134.5t-115.5 -324.5zM381 1417h53 q10 -76 57.5 -130t127 -54t127 54t57.5 130h53q-12 -92 -69.5 -164.5t-168 -72.5t-168 72.5t-69.5 164.5zM557 1360l156 221h78l-177 -221h-57z" />
<glyph d="M143 487q0 229 137.5 373t329.5 144q166 0 328 -140h4l8 115h54v-979h-54l-8 152h-4q-168 -176 -360 -177q-199 0 -317 134t-118 378zM209 487q0 -205 100.5 -329.5t272.5 -124.5q178 0 360 192v566q-164 156 -336 155q-166 0 -281.5 -134.5t-115.5 -324.5zM381 1417h53 q10 -76 57.5 -130t127 -54t127 54t57.5 130h53q-12 -92 -69.5 -164.5t-168 -72.5t-168 72.5t-69.5 164.5zM446 1581h78l156 -221h-57z" />
<glyph d="M143 487q0 229 137.5 373t329.5 144q166 0 328 -140h4l8 115h54v-979h-54l-8 152h-4q-168 -176 -360 -177q-199 0 -317 134t-118 378zM209 487q0 -205 100.5 -329.5t272.5 -124.5q178 0 360 192v566q-164 156 -336 155q-166 0 -281.5 -134.5t-115.5 -324.5zM381 1417h53 q10 -76 57.5 -130t127 -54t127 54t57.5 130h53q-12 -92 -69.5 -164.5t-168 -72.5t-168 72.5t-69.5 164.5zM520 1618l4 49q205 -8 205 -139q0 -59 -41.5 -93t-109.5 -59l-17 45q106 35 107 99q0 92 -148 98z" />
<glyph d="M143 487q0 229 137.5 373t329.5 144q166 0 328 -140h4l8 115h54v-979h-54l-8 152h-4q-168 -176 -360 -177q-199 0 -317 134t-118 378zM209 487q0 -205 100.5 -329.5t272.5 -124.5q178 0 360 192v566q-164 156 -336 155q-166 0 -281.5 -134.5t-115.5 -324.5zM377 1442 q4 57 39 102t100 45q53 0 114.5 -47t94.5 -47q74 0 86 94h49q-4 -57 -39 -102t-100 -45q-53 0 -114.5 47t-94.5 47q-74 0 -86 -94h-49zM385 1376h53q10 -61 56.5 -102t124 -41t123.5 41t57 102h53q-10 -82 -65.5 -139t-168 -57t-168 57t-65.5 139z" />
<glyph d="M143 487q0 229 137.5 373t329.5 144q166 0 328 -140h4l8 115h54v-979h-54l-8 152h-4q-168 -176 -360 -177q-199 0 -317 134t-118 378zM209 487q0 -205 100.5 -329.5t272.5 -124.5q178 0 360 192v566q-164 156 -336 155q-166 0 -281.5 -134.5t-115.5 -324.5zM381 1417h53 q10 -76 57.5 -130t127 -54t127 54t57.5 130h53q-12 -92 -69.5 -164.5t-168 -72.5t-168 72.5t-69.5 164.5zM537 -332q0 39 23.5 62.5t58 23.5t58 -23.5t23.5 -62.5t-23.5 -62.5t-58 -23.5t-58 23.5t-23.5 62.5z" />
<glyph d="M143 487q0 229 137.5 373t329.5 144q166 0 328 -140h4l8 115h54v-979q-176 -117 -177 -246q0 -53 30 -81.5t73 -28.5q49 0 90 28l29 -41q-53 -45 -123 -45q-72 0 -116 42t-44 122q0 135 184 266l-8 136h-4q-168 -176 -360 -177q-199 0 -317 134t-118 378zM209 487 q0 -205 100.5 -329.5t272.5 -124.5q178 0 360 192v566q-164 156 -336 155q-166 0 -281.5 -134.5t-115.5 -324.5z" />
<glyph d="M143 500q0 225 137.5 364.5t329.5 139.5q168 0 328 -140h4l8 115h54v-1077q0 -172 -112 -276.5t-302 -104.5q-205 0 -369 106l33 54q147 -104 336 -105q166 0 259 91t93 251v258q-72 -78 -168 -129t-196 -51q-199 0 -317 131t-118 373zM209 500q0 -203 99.5 -325 t273.5 -122q178 0 360 193v545q-164 156 -336 155q-166 0 -281.5 -130t-115.5 -316z" />
<glyph d="M143 500q0 225 137.5 364.5t329.5 139.5q168 0 328 -140h4l8 115h54v-1077q0 -172 -112 -276.5t-302 -104.5q-205 0 -369 106l33 54q147 -104 336 -105q166 0 259 91t93 251v258q-72 -78 -168 -129t-196 -51q-199 0 -317 131t-118 373zM209 500q0 -203 99.5 -325 t273.5 -122q178 0 360 193v545q-164 156 -336 155q-166 0 -281.5 -130t-115.5 -316zM406 1171l192 275h57l193 -275h-57l-160 209h-8l-160 -209h-57z" />
<glyph d="M143 500q0 225 137.5 364.5t329.5 139.5q168 0 328 -140h4l8 115h54v-1077q0 -172 -112 -276.5t-302 -104.5q-205 0 -369 106l33 54q147 -104 336 -105q166 0 259 91t93 251v258q-72 -78 -168 -129t-196 -51q-199 0 -317 131t-118 373zM209 500q0 -203 99.5 -325 t273.5 -122q178 0 360 193v545q-164 156 -336 155q-166 0 -281.5 -130t-115.5 -316zM389 1417h53q10 -76 57.5 -130t127.5 -54t127 54t57 130h53q-12 -92 -69.5 -164.5t-168 -72.5t-168 72.5t-69.5 164.5z" />
<glyph d="M143 500q0 225 137.5 364.5t329.5 139.5q168 0 328 -140h4l8 115h54v-1077q0 -172 -112 -276.5t-302 -104.5q-205 0 -369 106l33 54q147 -104 336 -105q166 0 259 91t93 251v258q-72 -78 -168 -129t-196 -51q-199 0 -317 131t-118 373zM209 500q0 -203 99.5 -325 t273.5 -122q178 0 360 193v545q-164 156 -336 155q-166 0 -281.5 -130t-115.5 -316zM545 1315q0 39 23.5 62.5t58.5 23.5t58.5 -23.5t23.5 -62.5t-23.5 -62.5t-58.5 -23.5t-58.5 23.5t-23.5 62.5z" />
<glyph d="M143 500q0 225 137.5 364.5t329.5 139.5q168 0 328 -140h4l8 115h54v-1077q0 -172 -112 -276.5t-302 -104.5q-205 0 -369 106l33 54q147 -104 336 -105q166 0 259 91t93 251v258q-72 -78 -168 -129t-196 -51q-199 0 -317 131t-118 373zM209 500q0 -203 99.5 -325 t273.5 -122q178 0 360 193v545q-164 156 -336 155q-166 0 -281.5 -130t-115.5 -316zM512 1249q0 135 242 168l12 -53q-193 -27 -193 -107q0 -78 119 -102l-20 -53q-80 18 -120 53t-40 94z" />
<glyph d="M143 500q0 225 137.5 364.5t329.5 139.5q168 0 328 -140h4l8 115h54v-1077q0 -172 -112 -276.5t-302 -104.5q-205 0 -369 106l33 54q147 -104 336 -105q166 0 259 91t93 251v258q-72 -78 -168 -129t-196 -51q-199 0 -317 131t-118 373zM209 500q0 -203 99.5 -325 t273.5 -122q178 0 360 193v545q-164 156 -336 155q-166 0 -281.5 -130t-115.5 -316zM406 1446h57l160 -209h8l160 209h57l-193 -275h-57z" />
<glyph d="M143 500q0 225 137.5 364.5t329.5 139.5q168 0 328 -140h4l8 115h54v-1077q0 -172 -112 -276.5t-302 -104.5q-205 0 -369 106l33 54q147 -104 336 -105q166 0 259 91t93 251v258q-72 -78 -168 -129t-196 -51q-199 0 -317 131t-118 373zM209 500q0 -203 99.5 -325 t273.5 -122q178 0 360 193v545q-164 156 -336 155q-166 0 -281.5 -130t-115.5 -316zM401 1245v58h451v-58h-451z" />
<glyph d="M143 500q0 225 137.5 364.5t329.5 139.5q168 0 328 -140h4l8 115h54v-1077q0 -172 -112 -276.5t-302 -104.5q-205 0 -369 106l33 54q147 -104 336 -105q166 0 259 91t93 251v258q-72 -78 -168 -129t-196 -51q-199 0 -317 131t-118 373zM209 500q0 -203 99.5 -325 t273.5 -122q178 0 360 193v545q-164 156 -336 155q-166 0 -281.5 -130t-115.5 -316zM385 1192q4 68 35 118t96 50q53 0 123 -57.5t102 -57.5q63 0 78 115h49q-4 -66 -34.5 -117t-96.5 -51q-51 0 -120.5 57.5t-104.5 57.5q-66 0 -78 -115h-49z" />
<glyph d="M172 590q0 287 115.5 444.5t326.5 157.5t327 -157.5t116 -444.5q0 -295 -115 -455t-328 -160t-327.5 160t-114.5 455zM238 590q0 -268 101 -412.5t275 -144.5t275.5 144.5t101.5 412.5q0 260 -102.5 402.5t-274.5 142.5t-274 -142.5t-102 -402.5zM508 610.5 q0 55.5 31.5 87t74.5 31.5t75 -31.5t32 -87t-32 -87t-75 -31.5t-74.5 31.5t-31.5 87z" />
<glyph d="M229 0v57h398v987h-287v46q180 23 301 77h47v-1110h377v-57h-836z" />
<glyph d="M170 999q193 193 403 193q188 0 294 -101.5t106 -275.5q0 -156 -169 -337t-517 -429q168 8 248 8h512v-57h-873v41q381 260 558 445.5t177 328.5t-84 231.5t-254 88.5q-199 0 -356 -177z" />
<glyph d="M143 16l41 45q172 -172 422 -172q160 0 264.5 85t104.5 223q0 147 -135 233t-406 86v62q252 0 372 82.5t120 216.5q0 117 -91.5 187.5t-236.5 70.5q-100 0 -195.5 -41t-160.5 -107l-41 45q174 160 397 160q168 0 280.5 -84t112.5 -227q0 -125 -84 -207t-219 -121v-8 q147 -27 249.5 -118t102.5 -226q0 -166 -124.5 -267.5t-313.5 -101.5q-266 0 -459 184z" />
<glyph d="M88 213v35l741 921h31v-897h236v-59h-236v-356h-61v356h-711zM184 272h615v600q2 31 5 93.5t5 93.5h-12q-53 -82 -125 -178z" />
<glyph d="M131 8l41 45q84 -76 179 -120t243 -44q162 0 277.5 105.5t115.5 267.5q0 166 -104.5 261t-284.5 95q-139 0 -303 -90l-53 33l49 606h692v-57h-635l-45 -504q152 74 299 74q205 0 328 -103.5t123 -310.5q0 -199 -137.5 -316.5t-325.5 -117.5q-160 0 -263.5 48t-195.5 128z " />
<glyph d="M188 590q0 389 152 567t385 178q185 0 324 -123l-41 -45q-117 111 -287 111q-205 0 -335 -163t-132 -517q193 188 414 188q193 0 301 -105.5t108 -299.5q0 -172 -120.5 -289t-288.5 -117q-225 0 -352.5 162t-127.5 453zM256 520q14 -225 117.5 -356t298.5 -131 q145 0 242.5 101.5t97.5 246.5q0 166 -88 257t-260 91q-215 0 -408 -209z" />
<glyph d="M156 1110v57h921v-37q-262 -307 -366.5 -590.5t-120.5 -682.5h-74q14 401 123 679.5t352 573.5h-835z" />
<glyph d="M152 336q0 233 309 373v8q-207 117 -207 303q0 137 105.5 226t265.5 89q184 0 287.5 -95t103.5 -245q0 -180 -211 -336v-8q137 -68 202.5 -136.5t65.5 -199.5q0 -145 -121 -242.5t-327 -97.5q-215 0 -344 102.5t-129 258.5zM217 336q0 -129 110.5 -216t297.5 -87 q182 0 282.5 80t100.5 202q0 63 -23.5 112.5t-57.5 82.5t-95.5 62.5t-114.5 48t-137 44.5q-19 7 -32 11t-28 8q-147 -70 -225 -149.5t-78 -198.5zM319 1020q0 -133 105.5 -207t310.5 -137q215 143 215 319q0 121 -86 202t-239 81q-137 0 -221.5 -72.5t-84.5 -185.5z" />
<glyph d="M160 786q0 172 120.5 289t288.5 117q225 0 352.5 -162t127.5 -452q0 -389 -152 -567.5t-385 -178.5q-185 0 -324 123l41 45q117 -111 287 -111q205 0 335 163t132 517q-193 -188 -414 -188q-193 0 -301 105.5t-108 299.5zM225 786q0 -166 88 -257t260 -91q215 0 408 209 q-14 225 -117.5 356.5t-298.5 131.5q-145 0 -242.5 -101.5t-97.5 -247.5z" />
<glyph d="M131 672q0 326 165 515t425 189q188 0 288.5 -112.5t100.5 -288.5v-606h-53l-8 131h-9q-53 -61 -135 -108.5t-155 -47.5q-113 0 -190 65.5t-77 188.5q0 145 139.5 229t426.5 119v27q0 152 -82 249t-252 97q-225 0 -371.5 -177t-146.5 -474q0 -289 139 -462t364 -173 q178 0 304 102l32 -45q-145 -115 -336 -115q-246 0 -407.5 187.5t-161.5 509.5zM549 598q0 -92 56.5 -144.5t152.5 -52.5q145 0 291 177v315q-262 -37 -381 -107.5t-119 -187.5z" />
<glyph d="M549 954.5q0 32.5 18.5 51t47 18.5t47 -18.5t18.5 -51t-18.5 -51t-47 -18.5t-47 18.5t-18.5 51z" />
<glyph d="M528 733q106 49 111 166q-6 -2 -21 -2q-66 0 -65 57q0 33 19.5 51.5t45.5 18.5q82 0 82 -111q0 -70 -40.5 -132t-106.5 -93z" />
<glyph d="M549 -295q0 33 18.5 51.5t47 18.5t47 -18.5t18.5 -51.5t-18.5 -51.5t-47 -18.5t-47 18.5t-18.5 51.5z" />
<glyph d="M528 -516q106 49 111 166q-6 -2 -21 -2q-66 0 -65 57q0 33 19.5 51.5t45.5 18.5q82 0 82 -111q0 -70 -40.5 -132t-106.5 -93z" />
<glyph d="M344 311q0 156 74 242t196.5 86t196.5 -86t74 -242q0 -158 -74 -247t-196.5 -89t-196.5 89.5t-74 246.5zM406 311q0 -131 58 -206.5t150.5 -75.5t150.5 75.5t58 206.5q0 133 -58 204t-150.5 71t-150.5 -71t-58 -204z" />
<glyph d="M446 502v49q98 18 177 63h49v-614h-58v502h-168z" />
<glyph d="M381 520q90 119 217 119q102 0 157.5 -52t55.5 -151q0 -20 -4 -39.5t-15.5 -41t-21.5 -39t-31.5 -41t-36 -39t-45 -43t-47 -43t-55.5 -48t-57 -49.5h350v-53h-453v41q241 199 293 260q61 72 62 137q0 70 -40 109t-112 39q-102 0 -172 -99z" />
<glyph d="M365 106l49 37q72 -115 200 -114q160 0 160 127q0 131 -233 131v49q100 0 150 38t50 97q0 115 -139 115q-41 0 -88 -21.5t-76 -60.5l-41 37q35 45 91.5 71.5t117.5 26.5q90 0 143.5 -43t53.5 -121q0 -117 -119 -160q66 -12 109 -54t43 -105q0 -88 -61.5 -134.5 t-164.5 -46.5q-74 0 -141 39t-104 92z" />
<glyph d="M369 170v31l352 413h41v-395h100v-49h-100v-170h-57v170h-336zM451 219h254v170l8 139h-8l-109 -135z" />
<glyph d="M365 106l49 37q86 -115 204 -114q78 0 125.5 43t47.5 112q0 74 -46.5 115t-130.5 41q-76 0 -151 -61l-41 28l37 307h348v-57h-295l-29 -201q61 37 135 37q104 0 169 -55t65 -154q0 -96 -66.5 -152.5t-171.5 -56.5q-147 0 -249 131z" />
<glyph d="M385 262q0 193 84 285t215 92q80 0 164 -53l-29 -49q-68 49 -139 49q-98 0 -164.5 -72t-73.5 -223q102 82 209 82t160 -55.5t53 -141.5q0 -84 -62.5 -142.5t-158.5 -58.5q-104 0 -181 78t-77 209zM444 225q10 -94 67.5 -145t135.5 -51q72 0 114 41t42 106q0 143 -156 143 q-106 0 -203 -94z" />
<glyph d="M383 561v53h463v-41q-131 -145 -180.5 -271t-59.5 -302h-57q10 176 60 303t161 258h-387z" />
<glyph d="M373 152q0 106 139 172v8q-111 66 -111 145q0 68 62.5 115t150.5 47q94 0 155.5 -47t61.5 -115q0 -88 -108 -158v-8q133 -53 133 -159q0 -76 -70.5 -126.5t-171.5 -50.5q-106 0 -173.5 52.5t-67.5 124.5zM434 152q0 -51 52.5 -87t127.5 -36q70 0 125.5 34.5t55.5 86.5 q0 18 -6.5 34.5t-13.5 27.5t-24.5 22.5t-28.5 18.5t-35.5 16.5t-37 13.5t-42 12t-42.5 12q-131 -57 -131 -155zM463 477q0 -51 54.5 -82.5t150.5 -58.5q102 59 102 141q0 47 -41 78t-115 31q-70 0 -110.5 -31t-40.5 -78z" />
<glyph d="M369 438q0 84 62.5 142.5t158.5 58.5q104 0 181 -78t77 -209q0 -193 -84 -285t-215 -92q-80 1 -164 54l29 49q68 -49 139 -49q98 0 162.5 71.5t70.5 221.5q-100 -80 -204 -80q-106 0 -159.5 55t-53.5 141zM430 438q0 -143 156 -143q102 0 198 90q-8 96 -63 148.5 t-135 52.5q-72 0 -114 -41t-42 -107z" />
<glyph d="M520 315.5q0 262.5 211 450.5l39 -41q-178 -162 -178 -409.5t178 -409.5l-39 -41q-211 188 -211 450.5z" />
<glyph d="M459 -94q178 162 178 409.5t-178 409.5l39 41q211 -188 211 -450.5t-211 -450.5z" />
<glyph d="M549 53q0 33 18.5 51.5t47 18.5t47 -18.5t18.5 -51.5t-18.5 -51t-47 -18t-47 18t-18.5 51z" />
<glyph d="M528 -168q106 49 111 166q-6 -2 -21 -2q-66 0 -65 57q0 33 19.5 51.5t45.5 18.5q82 0 82 -111q0 -70 -40.5 -132t-106.5 -93z" />
<glyph d="M344 1008q0 156 74 241.5t196.5 85.5t196.5 -86t74 -241q0 -158 -74 -247t-196.5 -89t-196.5 89t-74 247zM406 1008q0 -131 58 -207t150.5 -76t150.5 76t58 207q0 133 -58 203.5t-150.5 70.5t-150.5 -70.5t-58 -203.5z" />
<glyph d="M446 1198v49q98 18 177 64h49v-615h-58v502h-168z" />
<glyph d="M381 1217q90 119 217 118q102 0 157.5 -52t55.5 -150q0 -20 -4 -40t-15.5 -41.5t-21.5 -39t-31.5 -41t-36 -38.5t-45 -43t-47 -43.5t-55.5 -48t-57 -48.5h350v-54h-453v41q241 199 293 260q61 72 62 138q0 70 -40 108.5t-112 38.5q-102 0 -172 -98z" />
<glyph d="M365 803l49 37q72 -115 200 -115q160 0 160 127q0 131 -233 131v49q100 0 150 38t50 97q0 115 -139 115q-41 0 -88 -21.5t-76 -60.5l-41 37q35 45 91.5 71.5t117.5 26.5q90 0 143.5 -43t53.5 -121q0 -117 -119 -159q66 -12 109 -54.5t43 -105.5q0 -88 -61.5 -134 t-164.5 -46q-74 0 -141 39t-104 92z" />
<glyph d="M369 866v31l352 414h41v-396h100v-49h-100v-170h-57v170h-336zM451 915h254v170l8 140h-8l-109 -135z" />
<glyph d="M365 803l49 37q86 -115 204 -115q78 0 125.5 43t47.5 113q0 74 -46.5 114.5t-130.5 40.5q-76 0 -151 -61l-41 29l37 307h348v-58h-295l-29 -200q61 37 135 37q104 0 169 -55.5t65 -153.5q0 -96 -66.5 -152.5t-171.5 -56.5q-147 0 -249 131z" />
<glyph d="M381 958q0 193 84 285t215 92q80 0 164 -53l-29 -49q-68 49 -139 49q-98 0 -165 -71.5t-73 -223.5q102 82 209 82t160 -55.5t53 -141.5q0 -84 -62.5 -142t-158.5 -58q-104 0 -181 77.5t-77 208.5zM440 922q10 -94 67.5 -145.5t135.5 -51.5q72 0 114 41t42 106 q0 143 -156 144q-106 0 -203 -94z" />
<glyph d="M383 1257v54h463v-41q-131 -145 -180.5 -271.5t-59.5 -302.5h-57q10 176 60 303t161 258h-387z" />
<glyph d="M373 848q0 106 139 172v8q-111 66 -111 146q0 68 62.5 114.5t150.5 46.5q94 0 155.5 -47t61.5 -114q0 -88 -108 -158v-8q133 -53 133 -160q0 -76 -70.5 -126t-171.5 -50q-106 0 -173.5 52t-67.5 124zM434 848q0 -51 52.5 -87t127.5 -36q70 0 125.5 35t55.5 86 q0 18 -6.5 34.5t-13.5 28t-24.5 22.5t-28.5 18t-35.5 16.5t-37 13.5t-42 12t-42.5 13q-131 -58 -131 -156zM463 1174q0 -51 54.5 -83t150.5 -59q102 59 102 142q0 47 -41 77.5t-115 30.5q-70 0 -110.5 -30.5t-40.5 -77.5z" />
<glyph d="M369 1135q0 84 62.5 142t158.5 58q104 0 181 -77.5t77 -208.5q0 -193 -84 -285t-215 -92q-80 0 -164 53l29 49q68 -49 139 -49q98 0 162.5 71.5t70.5 221.5q-100 -80 -204 -80q-106 0 -159.5 55.5t-53.5 141.5zM430 1135q0 -143 156 -144q102 0 198 90q-8 96 -63 148.5 t-135 52.5q-72 0 -114 -40.5t-42 -106.5z" />
<glyph d="M520 868q0 262 211 451l39 -41q-178 -162 -178 -409.5t178 -409.5l-39 -41q-211 188 -211 450z" />
<glyph d="M459 459q178 162 178 409.5t-178 409.5l39 41q211 -189 211 -451t-211 -450z" />
<glyph d="M549 606q0 33 18.5 51.5t47 18.5t47 -18.5t18.5 -51.5t-18.5 -51t-47 -18t-47 18t-18.5 51z" />
<glyph d="M528 385q106 49 111 166q-6 -2 -21 -2q-66 0 -65 57q0 33 19.5 51.5t45.5 18.5q82 0 82 -111q0 -70 -40.5 -132t-106.5 -93z" />
<glyph d="M295 856q0 154 89 248t216 94q102 0 207 -78h4l4 62h57v-650h-55l-8 84h-2q-109 -100 -227 -100q-131 0 -208 89t-77 251zM362 856q0 -129 60.5 -206t167 -77t217.5 105v381q-102 82 -203 82q-102 0 -172 -82t-70 -203z" />
<glyph d="M295 856q0 154 89 248t216 94q102 0 207 -76h4l6 60h55v-942h-65v249l4 125q-117 -98 -231 -98q-131 0 -208 89t-77 251zM362 856q0 -129 60.5 -206t167 -77t217.5 105v381q-102 82 -203 82q-102 0 -172 -82t-70 -203z" />
<glyph d="M348 856q0 154 91 248t214 94q125 0 198 -80t73 -221q0 -16 -4 -49h-506q4 -123 75.5 -200t188.5 -77q102 0 190 58l27 -49q-115 -63 -225 -64q-137 0 -229.5 92t-92.5 248zM414 897h448q0 119 -56 182.5t-153 63.5q-90 0 -158.5 -66.5t-80.5 -179.5zM526 1493h78 l125 -186h-55z" />
<glyph d="M348 856q0 154 91 248t214 94q125 0 198 -80t73 -221q0 -16 -4 -49h-506q4 -123 75.5 -200t188.5 -77q102 0 190 58l27 -49q-115 -63 -225 -64q-137 0 -229.5 92t-92.5 248zM414 897h448q0 119 -56 182.5t-153 63.5q-90 0 -158.5 -66.5t-80.5 -179.5zM573 1307l127 186 h76l-147 -186h-56z" />
<glyph d="M295 856q0 154 89 248t216 94q102 0 207 -78h4l4 62h57v-650h-55l-8 84h-2q-109 -100 -227 -100q-131 0 -208 89t-77 251zM362 856q0 -129 60.5 -206t167 -77t217.5 105v381q-102 82 -203 82q-102 0 -172 -82t-70 -203z" />
<glyph d="M295 864q0 150 89 242t216 92q102 0 205 -76h2l8 60h57v-703q0 -117 -74.5 -185.5t-207.5 -68.5q-131 0 -244 70l29 51q100 -68 215 -67q106 0 161.5 55t55.5 153v146q-104 -100 -227 -101q-131 0 -208 87.5t-77 244.5zM362 866q0 -127 60.5 -201.5t167 -74.5t217.5 106 v363q-102 82 -203 82q-102 0 -172 -79t-70 -196z" />
<glyph d="M78 119l368 409l37 -32l-352 -422zM745 856l353 422l53 -45l-369 -410z" />
<glyph d="M397 1667h90l193 -213h-62z" />
<glyph d="M549 1454l192 213h90l-221 -213h-61z" />
<glyph d="M389 1454l197 213h57l197 -213h-62l-160 152h-8l-159 -152h-62z" />
<glyph d="M360 1470q4 68 39 122.5t97 54.5q55 0 127.5 -59.5t113.5 -59.5q33 0 56.5 32.5t29.5 86.5h45q-4 -68 -39 -122.5t-96 -54.5q-55 0 -128 59.5t-113 59.5q-33 0 -56.5 -32.5t-29.5 -86.5h-46z" />
<glyph d="M389 1507v58h451v-58h-451z" />
<glyph d="M385 1667h53q10 -63 55.5 -109.5t121 -46.5t120.5 46.5t56 109.5h53q-12 -80 -69.5 -144.5t-160 -64.5t-160 64.5t-69.5 144.5z" />
<glyph d="M545 1556q0 31 20.5 50.5t49 19.5t49 -19.5t20.5 -50.5q0 -33 -20.5 -53t-49 -20t-49 20.5t-20.5 52.5z" />
<glyph d="M393 1556.5q0 30.5 18.5 48t47 17.5t47 -17.5t18.5 -48t-18.5 -48t-47 -17.5t-47 17.5t-18.5 48zM705 1556.5q0 30.5 18 48t47 17.5t47.5 -17.5t18.5 -48t-18.5 -48t-47.5 -17.5t-47 17.5t-18 48z" />
<glyph d="M512 1708l4 53q100 -4 167 -39.5t67 -107.5q0 -70 -48.5 -107.5t-132.5 -64.5l-16 45q135 43 135 119q0 96 -176 102z" />
<glyph d="M455 1597.5q0 73.5 45 118.5t114 45q66 0 113 -46t47 -117.5t-47 -117.5t-113 -46q-70 0 -114.5 45t-44.5 118.5zM504 1597q0 -57 30.5 -87.5t79.5 -30.5q45 0 76 31.5t31 86.5q0 53 -31 86t-76 33q-47 0 -78.5 -32.5t-31.5 -86.5z" />
<glyph d="M438 1454l140 213h77l-159 -213h-58zM725 1454l139 213h78l-160 -213h-57z" />
<glyph d="M389 1667h62l159 -151h8l160 151h62l-197 -213h-57z" />
<glyph d="M287 1667h78l139 -213h-58zM573 1667h78l140 -213h-58z" />
<glyph d="M455 -369q193 27 192 107q0 45 -35.5 68.5t-103.5 41.5l82 156h57l-61 -119q123 -39 123 -139q0 -135 -242 -168z" />
<glyph d="M516 -250q0 145 143 258h74q-156 -111 -155 -254q0 -53 31.5 -81.5t74.5 -28.5q49 0 90 28l29 -41q-53 -45 -123 -45q-72 0 -118 42t-46 122z" />
<glyph d="M385 1528v57h455v-57h-455zM393 1298.5q0 28.5 18.5 47t47 18.5t47 -18.5t18.5 -47t-18.5 -47t-47 -18.5t-47 18.5t-18.5 47zM705 1298.5q0 28.5 18 47t47 18.5t47.5 -18.5t18.5 -47t-18.5 -47t-47.5 -18.5t-47 18.5t-18 47z" />
<glyph d="M389 1745v57h451v-57h-451zM393 1556.5q0 30.5 18.5 48t47 17.5t47 -17.5t18.5 -48t-18.5 -48t-47 -17.5t-47 17.5t-18.5 48zM705 1556.5q0 30.5 18 48t47 17.5t47.5 -17.5t18.5 -48t-18.5 -48t-47.5 -17.5t-47 17.5t-18 48z" />
<glyph d="M393 1298.5q0 28.5 18.5 47t47 18.5t47 -18.5t18.5 -47t-18.5 -47t-47 -18.5t-47 18.5t-18.5 47zM532 1446l164 196h86l-192 -196h-58zM705 1298.5q0 28.5 18 47t47 18.5t47.5 -18.5t18.5 -47t-18.5 -47t-47.5 -18.5t-47 18.5t-18 47z" />
<glyph d="M393 1556.5q0 30.5 18.5 48t47 17.5t47 -17.5t18.5 -48t-18.5 -48t-47 -17.5t-47 17.5t-18.5 48zM549 1692l196 213h82l-221 -213h-57zM705 1556.5q0 30.5 18 48t47 17.5t47.5 -17.5t18.5 -48t-18.5 -48t-47.5 -17.5t-47 17.5t-18 48z" />
<glyph d="M393 1298.5q0 28.5 18.5 47t47 18.5t47 -18.5t18.5 -47t-18.5 -47t-47 -18.5t-47 18.5t-18.5 47zM393 1642h62l155 -139h8l156 139h62l-193 -196h-57zM705 1298.5q0 28.5 18 47t47 18.5t47.5 -18.5t18.5 -47t-18.5 -47t-47.5 -18.5t-47 18.5t-18 47z" />
<glyph d="M389 1905h62l159 -152h8l160 152h62l-197 -213h-57zM393 1556.5q0 30.5 18.5 48t47 17.5t47 -17.5t18.5 -48t-18.5 -48t-47 -17.5t-47 17.5t-18.5 48zM705 1556.5q0 30.5 18 48t47 17.5t47.5 -17.5t18.5 -48t-18.5 -48t-47.5 -17.5t-47 17.5t-18 48z" />
<glyph d="M393 1298.5q0 28.5 18.5 47t47 18.5t47 -18.5t18.5 -47t-18.5 -47t-47 -18.5t-47 18.5t-18.5 47zM446 1642h86l164 -196h-57zM705 1298.5q0 28.5 18 47t47 18.5t47.5 -18.5t18.5 -47t-18.5 -47t-47.5 -18.5t-47 18.5t-18 47z" />
<glyph d="M393 1556.5q0 30.5 18.5 48t47 17.5t47 -17.5t18.5 -48t-18.5 -48t-47 -17.5t-47 17.5t-18.5 48zM401 1905h82l197 -213h-57zM705 1556.5q0 30.5 18 48t47 17.5t47.5 -17.5t18.5 -48t-18.5 -48t-47.5 -17.5t-47 17.5t-18 48z" />
<glyph d="M414 1171l172 230h57l172 -230h-57l-140 164h-8l-139 -164h-57zM766 1303l160 225h78l-185 -225h-53z" />
<glyph d="M401 1454l185 201h57l184 -201h-61l-148 139h-8l-147 -139h-62zM766 1577l147 213h78l-172 -213h-53z" />
<glyph d="M414 1171l172 230h57l172 -230h-57l-140 164h-8l-139 -164h-57zM709 1528h77l160 -225h-53z" />
<glyph d="M401 1454l185 201h57l184 -201h-61l-148 139h-8l-147 -139h-62zM676 1790h78l147 -213h-53z" />
<glyph d="M414 1171l172 230h57l172 -230h-57l-140 164h-8l-139 -164h-57zM758 1528l4 49q205 -8 205 -139q0 -59 -42 -93t-110 -59l-16 45q106 35 106 99q0 92 -147 98z" />
<glyph d="M401 1454l185 201h57l184 -201h-61l-148 139h-8l-147 -139h-62zM752 1782l8 53q205 -8 205 -135q0 -103 -152 -148l-20 50q111 29 110 90q0 47 -37 66.5t-114 23.5z" />
<glyph d="M373 1442q4 57 38.5 102t100.5 45q53 0 114.5 -47t94.5 -47q74 0 86 94h49q-4 -57 -39 -102t-100 -45q-53 0 -114.5 47t-94.5 47q-74 0 -86 -94h-49zM397 1167l189 201h57l188 -201h-57l-156 144h-8l-155 -144h-58z" />
<glyph d="M373 1729q4 57 38.5 102t100.5 45q53 0 114.5 -47t94.5 -47q74 0 86 94h49q-4 -57 -39 -102t-100 -45q-53 0 -114.5 47t-94.5 47q-74 0 -86 -94h-49zM401 1454l185 201h57l184 -201h-61l-148 139h-8l-147 -139h-62z" />
<glyph d="M377 1417h53q10 -76 57.5 -130t127 -54t126.5 54t58 130h53q-12 -92 -69.5 -164.5t-168 -72.5t-168 72.5t-69.5 164.5zM553 1360l156 221h77l-176 -221h-57z" />
<glyph d="M389 1659h53q33 -147 172.5 -147.5t171.5 147.5h54q-10 -76 -68.5 -138.5t-157 -62.5t-157 62.5t-68.5 138.5zM545 1634l168 193h82l-193 -193h-57z" />
</font>
</defs>
</svg>
