<?xml version="1.0" standalone="no"?>
<!DOCTYPE svg PUBLIC "-//W3C//DTD SVG 1.1//EN" "http://www.w3.org/Graphics/SVG/1.1/DTD/svg11.dtd" >
<svg xmlns="http://www.w3.org/2000/svg">
<metadata>
This is a custom SVG webfont generated by Font Squirrel.
Copyright   : Copyright 2010 2012 Adobe Systems Incorporated All Rights Reserved
Designer    : Paul D Hunt
Foundry     : Adobe Systems Incorporated
Foundry URL : httpwwwadobecomtype
</metadata>
<defs>
<font id="SourceCodeProRegular" horiz-adv-x="1228" >
<font-face units-per-em="2048" ascent="1536" descent="-512" />
<missing-glyph horiz-adv-x="500" />
<glyph unicode=" " />
<glyph unicode="!" d="M465 135q0 70 43 113t106.5 43t106.5 -43t43 -113q0 -72 -43 -116t-106.5 -44t-106.5 44t-43 116zM532 1372h164l-4 -192l-20 -705h-115l-20 705z" />
<glyph unicode="&#x22;" d="M266 1407h226l-3 -225l-53 -461h-114l-52 461zM737 1407h226l-5 -225l-51 -461h-114l-54 461z" />
<glyph unicode="#" d="M178 418v117h176l39 303h-174v118h187l49 375h108l-47 -375h270l50 375h108l-47 -375h166v-118h-178l-39 -303h176v-117h-191l-49 -418h-110l51 418h-272l-50 -418h-110l49 418h-162zM465 535h270l39 303h-272z" />
<glyph unicode="$" d="M174 231l80 117q193 -139 381 -139q119 0 183.5 49t64.5 129q0 59 -48.5 105.5t-120 75t-156.5 64.5t-156.5 71.5t-120 100t-48.5 148.5q0 127 90.5 210t241.5 100v270h123v-268q183 -15 326 -156l-90 -98q-80 61 -143.5 88.5t-157.5 27.5q-102 0 -164 -46t-62 -124 q0 -61 67.5 -107t163 -80t190.5 -75t163 -115.5t68 -179.5q0 -131 -99.5 -220t-261.5 -105v-299h-123v297q-223 18 -391 159z" />
<glyph unicode="%" d="M53 997q0 156 80 245t207 89t206 -89t79 -245q0 -158 -80 -249t-205 -91q-127 0 -207 91.5t-80 248.5zM59 158l375 385l66 -62l-342 -415zM180 997q0 -115 45 -177t115 -62t114 62.5t44 176.5q0 117 -44 174.5t-114 57.5q-72 0 -116 -57.5t-44 -174.5zM604 317 q0 156 79 244t206 88t207 -88t80 -244q0 -158 -80 -250t-207 -92q-125 0 -205 92.5t-80 249.5zM729 862l344 416l98 -92l-374 -385zM731 317q0 -117 44 -178t114 -61q72 0 116 61.5t44 178t-44 174t-116 57.5q-70 0 -114 -58.5t-44 -173.5z" />
<glyph unicode="&#x26;" d="M86 348q0 121 66.5 209t185.5 176q-90 174 -90 318q0 135 82 226t213 91q123 0 191.5 -72.5t68.5 -193.5q0 -61 -22.5 -115.5t-73 -108t-86 -84t-107.5 -85.5q127 -203 328 -377q111 158 170 393h155q-80 -283 -217 -481q123 -94 232 -129l-47 -140q-133 41 -281 154 q-160 -154 -367 -154q-178 0 -289.5 104.5t-111.5 268.5zM250 358q0 -111 73.5 -179t184.5 -68q123 0 235 106q-201 178 -342 401q-151 -133 -151 -260zM393 1053q0 -106 62 -236q102 74 156.5 137.5t54.5 145.5q0 63 -30 105t-93 42q-70 0 -110 -54t-40 -140z" />
<glyph unicode="'" d="M502 1407h225l-4 -225l-51 -461h-115l-51 461z" />
<glyph unicode="(" d="M426 569.5q0 571.5 461 929.5l92 -86q-401 -338 -401 -844t401 -843l-92 -86q-461 358 -461 929.5z" />
<glyph unicode=")" d="M250 -274q401 338 401 843.5t-401 843.5l92 86q461 -358 461 -929.5t-461 -929.5z" />
<glyph unicode="*" d="M213 1124l33 95l297 -84l22 323h99l22 -321l297 82l33 -95l-283 -127l178 -290l-86 -60l-211 268l-211 -268l-86 60l179 290z" />
<glyph unicode="+" d="M174 571v127h373v400h135v-400h373v-127h-373v-399h-135v399h-373z" />
<glyph unicode="," d="M403 -330q250 113 259 342q-25 -4 -39 -4q-70 0 -115 40t-45 114q0 72 47 113.5t117 41.5q90 0 137 -69.5t47 -192.5q0 -176 -94 -302t-266 -189z" />
<glyph unicode="-" d="M274 526v148h680v-148h-680z" />
<glyph unicode="." d="M449 147q0 78 48 126.5t117.5 48.5t117.5 -48.5t48 -126.5q0 -76 -48 -124t-117.5 -48t-117.5 48t-48 124z" />
<glyph unicode="/" d="M203 -328l671 1782h152l-672 -1782h-151z" />
<glyph unicode="0" d="M145 657q0 326 124 500t345.5 174t345 -174t123.5 -500q0 -324 -124.5 -503t-344 -179t-344.5 179.5t-125 502.5zM303 657.5q0 -272.5 84 -409.5t227.5 -137t227.5 137t84 409.5t-84 405.5t-227.5 133t-227.5 -133t-84 -405.5zM487 671.5q0 61.5 37 98.5t90.5 37t90 -37 t36.5 -98.5t-36.5 -99t-90 -37.5t-90.5 37.5t-37 99z" />
<glyph unicode="1" d="M201 0v139h370v963h-278v108q193 29 321 97h125v-1168h342v-139h-880z" />
<glyph unicode="2" d="M141 1133q195 199 430 198q195 0 310.5 -105.5t115.5 -279.5q0 -72 -30.5 -149.5t-76.5 -148t-130 -162t-163 -167t-202 -186.5q160 12 244 12h430v-145h-919v100q193 170 298 269.5t205.5 211t141.5 194.5t41 163q0 117 -73 186.5t-212 69.5q-164 0 -313 -158z" />
<glyph unicode="3" d="M117 160l86 110q164 -156 375 -155q135 0 224 66.5t89 172.5q0 260 -475 260v129q219 0 323.5 67t104.5 177q0 94 -73 150.5t-193 56.5q-174 0 -322 -133l-90 106q188 164 418 164q190 0 311 -89t121 -243q0 -219 -279 -311v-8q139 -29 231.5 -116t92.5 -216 q0 -170 -136.5 -271.5t-336.5 -101.5q-287 1 -471 185z" />
<glyph unicode="4" d="M80 360v113l653 834h180v-811h203v-136h-203v-360h-159v360h-674zM266 496h488v405q2 104 10 232h-10q-23 -35 -70 -100.5t-63 -90.5z" />
<glyph unicode="5" d="M115 154l84 110q166 -150 368 -149q141 0 236.5 83t95.5 216t-87 209.5t-234 76.5q-123 0 -267 -79l-90 57l43 629h740v-146h-590l-35 -387q123 53 242 53q199 0 323.5 -103t124.5 -306t-142.5 -323t-340.5 -120q-272 1 -471 179z" />
<glyph unicode="6" d="M158 604q0 369 155.5 548t391.5 179q214 0 364 -139l-94 -105q-109 102 -260 103q-174 0 -285 -133t-115 -428q170 170 371 170q186 0 297 -103.5t111 -300.5q0 -182 -128 -301t-309 -119q-223 0 -361 163t-138 466zM322 496q18 -188 105 -287.5t230 -99.5 q119 0 198 79.5t79 206.5q0 133 -71.5 205t-207.5 72q-180 0 -333 -176z" />
<glyph unicode="7" d="M143 1161v146h947v-105q-252 -287 -344.5 -545t-106.5 -657h-176q16 371 112.5 629t321.5 532h-754z" />
<glyph unicode="8" d="M139 334q0 217 281 348v8q-199 123 -199 305q0 150 114 243t290 93q188 0 296.5 -96t108.5 -252q0 -172 -199 -311v-8q125 -63 190.5 -137t65.5 -203q0 -152 -125.5 -250.5t-343 -98.5t-348.5 100.5t-131 258.5zM293 350q0 -111 90 -180.5t240 -69.5q143 0 223 62.5 t80 167.5q0 61 -26 105t-78 76t-110.5 55.5t-143.5 51.5q-33 11 -52 17q-223 -123 -223 -285zM375 995q0 -106 87 -166.5t259 -115.5q164 119 164 262q0 100 -70 165.5t-194 65.5q-109 0 -177.5 -58t-68.5 -153z" />
<glyph unicode="9" d="M137 911q0 182 128 301t306 119q223 0 362.5 -162.5t139.5 -466.5q0 -369 -156.5 -548t-390.5 -179q-212 1 -364 138l94 106q109 -104 260 -104q172 0 281.5 134t115.5 427q-172 -168 -370 -168q-186 0 -296 103.5t-110 299.5zM297 911q0 -133 70.5 -204.5t207.5 -71.5 q176 0 334 174q-20 190 -105 289.5t-231 99.5q-119 0 -197.5 -80t-78.5 -207z" />
<glyph unicode=":" d="M449 147q0 78 48 126.5t117.5 48.5t117.5 -48.5t48 -126.5q0 -76 -48 -124t-117.5 -48t-117.5 48t-48 124zM449 883q0 76 48 124t117.5 48t117.5 -48.5t48 -123.5q0 -78 -48 -126t-117.5 -48t-117.5 48t-48 126z" />
<glyph unicode=";" d="M403 -330q250 113 259 342q-25 -4 -39 -4q-70 0 -115 40t-45 114q0 72 47 113.5t117 41.5q90 0 137 -69.5t47 -192.5q0 -176 -94 -302t-266 -189zM449 883q0 76 48 124t117.5 48t117.5 -48.5t48 -123.5q0 -78 -48 -126t-117.5 -48t-117.5 48t-48 126z" />
<glyph unicode="&#x3c;" d="M246 575v127l764 519v-162l-617 -416v-8l617 -416v-162z" />
<glyph unicode="=" d="M174 352v127h881v-127h-881zM174 791v127h881v-127h-881z" />
<glyph unicode="&#x3e;" d="M219 57v162l617 416v8l-617 416v162l764 -519v-127z" />
<glyph unicode="?" d="M223 1231q160 166 377 166q172 0 276.5 -87t104.5 -233q0 -74 -38 -138.5t-91 -113.5t-104.5 -98t-82 -113.5t-20.5 -138.5h-149q-14 82 13.5 151.5t77.5 121t101 98.5t89 101t38 112q0 88 -58.5 143t-166.5 55q-147 0 -266 -118zM436 135q0 70 43 113t106.5 43 t106.5 -43t43 -113q0 -72 -43 -116t-106.5 -44t-106.5 44t-43 116z" />
<glyph unicode="@" d="M100 512q0 377 169 582.5t433 205.5q205 0 310.5 -135t105.5 -352v-608h-102l-15 119h-8q-47 -61 -120.5 -102.5t-149.5 -41.5q-113 0 -188.5 74t-75.5 195q0 152 135 234.5t405 115.5v28q0 158 -75.5 259.5t-229.5 101.5q-197 0 -331 -179.5t-134 -502.5 q0 -319 133.5 -503.5t339.5 -184.5q164 0 289 92l58 -92q-162 -113 -351 -113q-256 0 -427 214t-171 593zM594 453q0 -72 44 -113t120 -41q115 0 229 131v258q-209 -29 -301 -85t-92 -150z" />
<glyph unicode="A" d="M66 0l452 1343h193l452 -1343h-180l-127 410h-487l-129 -410h-174zM412 547h401l-63 205q-66 209 -134 452h-8q-68 -244 -133 -452z" />
<glyph unicode="B" d="M211 0v1343h369q460 0 460 -326q0 -105 -60 -184t-175 -110v-8q311 -49 311 -322q0 -193 -137 -293t-369 -100h-399zM383 135h203q362 0 362 266q0 242 -362 242h-203v-508zM383 770h168q321 0 321 230q0 208 -313 208h-176v-438z" />
<glyph unicode="C" d="M135 672q0 319 167 507.5t433 188.5q219 0 367 -164l-96 -108q-117 123 -271 123q-195 0 -309.5 -146.5t-114.5 -396.5q0 -254 115 -402.5t309 -148.5q168 0 301 149l99 -104q-168 -195 -410 -195q-260 0 -425 187.5t-165 509.5z" />
<glyph unicode="D" d="M174 0v1343h328q303 0 462.5 -172t159.5 -493q0 -324 -158.5 -501t-455.5 -177h-336zM344 139h148q225 0 340.5 140.5t115.5 398.5q0 256 -114.5 391t-341.5 135h-148v-1065z" />
<glyph unicode="E" d="M236 0v1343h829v-143h-657v-422h555v-145h-555v-488h677v-145h-849z" />
<glyph unicode="F" d="M276 0v1343h822v-143h-652v-455h551v-143h-551v-602h-170z" />
<glyph unicode="G" d="M109 672q0 322 164.5 509t431.5 187q215 0 370 -164l-96 -108q-115 123 -274 123q-190 0 -304 -146.5t-114 -396.5q0 -256 108.5 -403.5t304.5 -147.5q150 0 234 80v350h-268v141h426v-565q-156 -156 -402 -156q-258 0 -419.5 186.5t-161.5 510.5z" />
<glyph unicode="H" d="M162 0v1343h172v-563h561v563h172v-1343h-172v633h-561v-633h-172z" />
<glyph unicode="I" d="M195 0v145h333v1055h-333v143h839v-143h-334v-1055h334v-145h-839z" />
<glyph unicode="J" d="M166 199l110 102q115 -176 285 -176q145 0 212 77t67 242v758h-564v144h734v-916q0 -205 -104.5 -330t-340.5 -125q-121 0 -227 55.5t-172 168.5z" />
<glyph unicode="K" d="M201 0v1343h172v-673h6l565 673h193l-424 -512l473 -831h-191l-389 698l-233 -272v-426h-172z" />
<glyph unicode="L" d="M274 0v1343h168v-1198h666v-145h-834z" />
<glyph unicode="M" d="M166 0v1343h188l191 -571l67 -217h9l65 217l188 571h189v-1343h-145v756q0 141 20 413h-6l-88 -286l-185 -518h-92l-184 518l-90 286h-6q22 -287 22 -403v-10v-756h-143z" />
<glyph unicode="N" d="M170 0v1343h174l436 -847l135 -275h5q-2 27 -12.5 184.5t-10.5 241.5v696h162v-1343h-174l-436 848l-136 274h-4q2 -37 12.5 -187.5t10.5 -232.5v-702h-162z" />
<glyph unicode="O" d="M98 678q0 317 142.5 503.5t374 186.5t373.5 -186.5t142 -503.5q0 -322 -143 -512.5t-372.5 -190.5t-373 190.5t-143.5 512.5zM274 678q0 -252 93.5 -402.5t247 -150.5t246.5 150.5t93 402.5q0 250 -93 395.5t-246.5 145.5t-247 -145.5t-93.5 -395.5z" />
<glyph unicode="P" d="M209 0v1343h412q495 0 495 -393q0 -207 -133 -312.5t-362 -105.5h-242v-532h-170zM379 672h219q178 0 263 67.5t85 209t-84 199.5t-264 58h-219v-534z" />
<glyph unicode="Q" d="M100 678q0 319 140.5 505.5t371.5 186.5q229 0 369.5 -187.5t140.5 -504.5q0 -285 -111.5 -469t-299.5 -223q68 -174 290 -174q52 0 101 20l31 -137q-76 -29 -152 -29q-170 0 -284.5 86t-168.5 232q-195 35 -311.5 220t-116.5 474zM274 678q0 -252 92.5 -403.5 t246 -151.5t244.5 151.5t91 403.5q0 250 -91 397.5t-245 147.5q-156 0 -247 -147.5t-91 -397.5z" />
<glyph unicode="R" d="M205 0v1343h418q469 0 469 -376q0 -152 -80 -248t-221 -133l342 -586h-195l-324 567h-239v-567h-170zM375 707h223q324 0 324 260q0 129 -81 184t-243 55h-223v-499z" />
<glyph unicode="S" d="M137 174l103 119q168 -168 387 -168q141 0 220 59.5t79 159.5q0 49 -15.5 85t-56.5 64.5t-71.5 44t-98.5 44.5l-192 84q-291 115 -291 346q0 154 125 255t315 101q248 0 414 -166l-90 -110q-143 127 -324 127q-121 0 -193.5 -53.5t-72.5 -143.5q0 -45 18.5 -81 t62.5 -63.5t69.5 -40t88.5 -38.5l189 -82q141 -57 219 -139t78 -220q0 -164 -130 -273.5t-345 -109.5q-289 0 -488 199z" />
<glyph unicode="T" d="M86 1200v143h1057v-143h-443v-1200h-172v1200h-442z" />
<glyph unicode="U" d="M162 508v835h172v-839q0 -379 282 -379q131 0 208 90t77 289v839h166v-835q0 -276 -121 -404.5t-330 -128.5q-211 0 -332.5 129.5t-121.5 403.5z" />
<glyph unicode="V" d="M88 1343h180l217 -725q14 -51 57.5 -202.5t71.5 -241.5h9q39 125 129 444l215 725h174l-426 -1343h-199z" />
<glyph unicode="W" d="M20 1346h170l109 -844q4 -63 14.5 -176t14.5 -156h6q10 37 27.5 104.5t32 123t26.5 104.5l141 495h121l141 -495q14 -61 84 -332h8q4 55 14.5 165.5t14.5 166.5l103 844h161l-198 -1346h-189l-153 563q-27 113 -50 242h-6q-35 -170 -53 -242l-147 -563h-185z" />
<glyph unicode="X" d="M111 0l401 694l-375 649h189l188 -344q41 -74 109 -194h8q59 125 96 194l184 344h181l-375 -657l401 -686h-188l-203 362q-23 41 -119 216h-8q-47 -100 -108 -216l-201 -362h-180z" />
<glyph unicode="Y" d="M78 1343h180l203 -399q23 -43 73 -148.5t80 -164.5h9q27 55 80 159.5t77 155.5l195 397h176l-451 -864v-479h-172v479z" />
<glyph unicode="Z" d="M133 0v102l752 1100h-686v144h895v-103l-754 -1098h764v-145h-971z" />
<glyph unicode="[" d="M463 -311v1761h565v-98h-432v-1565h432v-98h-565z" />
<glyph unicode="\" d="M203 1454h151l672 -1782h-152z" />
<glyph unicode="]" d="M203 -213h430v1565h-430v98h565v-1761h-565v98z" />
<glyph unicode="^" d="M227 582l314 790h147l313 -790h-147l-135 360l-101 272h-8l-100 -272l-135 -360h-148z" />
<glyph unicode="_" d="M123 -141h983v-146h-983v146z" />
<glyph unicode="`" d="M379 1477h184l185 -303h-130z" />
<glyph unicode="a" d="M166 258q0 168 168 255t553 118q-4 113 -66.5 181.5t-197.5 68.5q-158 0 -349 -119l-65 115q219 143 442 143q199 0 301.5 -109.5t102.5 -300.5v-610h-137l-15 135h-6q-205 -160 -393 -160q-145 0 -241.5 77t-96.5 206zM330 270q0 -80 62.5 -119.5t156.5 -39.5 q162 0 338 147v262q-307 -25 -432 -86.5t-125 -163.5z" />
<glyph unicode="b" d="M190 0v1458h168v-397l-4 -193q156 152 338 152q199 0 306.5 -136t107.5 -370q0 -246 -132 -392.5t-319 -146.5q-158 0 -309 136h-6l-14 -111h-136zM358 233q130 -116 269 -116h2q133 0 218 107.5t85 287.5q0 367 -281 367q-143 0 -293 -150v-496z" />
<glyph unicode="c" d="M164 495.5q0 241.5 159.5 383t395.5 141.5q213 0 362 -146l-84 -108q-131 115 -272 115q-172 0 -279.5 -106.5t-107.5 -278.5q0 -170 105.5 -275.5t277.5 -105.5q158 0 309 125l74 -109q-172 -156 -395 -156q-240 0 -392.5 139.5t-152.5 381z" />
<glyph unicode="d" d="M123 496q0 233 134 378.5t318 145.5q152 0 302 -129l-7 184v383h168v-1458h-139l-14 131h-6q-152 -156 -324 -156q-199 0 -315.5 137.5t-116.5 383.5zM297 498q0 -178 78 -279.5t215 -101.5q147 0 280 149v496q-125 117 -262 117q-131 0 -221 -106.5t-90 -274.5z" />
<glyph unicode="e" d="M141 496q0 233 151.5 378.5t354.5 145.5q211 0 332 -127t121 -340q0 -55 -6 -92h-779q8 -160 112.5 -255t268.5 -95q156 0 303 92l60 -111q-180 -117 -383 -117q-229 0 -382 141.5t-153 379.5zM313 571h631q0 152 -78 234t-217 82q-127 0 -222.5 -85.5t-113.5 -230.5z " />
<glyph unicode="f" d="M211 858v127l285 10v84q0 188 100 296t301 108q148 -1 287 -58l-39 -127q-104 47 -232 48q-252 0 -251 -261v-90h417v-137h-417v-858h-166v858h-285z" />
<glyph unicode="g" d="M147 -182q0 127 164 221v8q-102 55 -102 164q0 106 119 186v9q-123 92 -123 258q0 158 113.5 257t277.5 99q84 0 147 -25h412v-129h-266q92 -96 92 -209q0 -156 -109.5 -249t-275.5 -93q-84 0 -168 37q-78 -49 -78 -114q0 -115 207 -115h223q195 0 287 -54.5t92 -179.5 q0 -145 -153.5 -246.5t-399.5 -101.5q-219 0 -339 73t-120 204zM293 -166q0 -80 85 -128t240 -48q166 0 270.5 61.5t104.5 143.5q0 68 -54 94.5t-173 26.5h-195q-94 0 -151 16q-127 -70 -127 -166zM367 664q0 -104 66.5 -170t162.5 -66q98 0 163.5 65.5t65.5 170.5 q0 102 -66.5 167.5t-162.5 65.5t-162.5 -65.5t-66.5 -167.5z" />
<glyph unicode="h" d="M190 0v1458h168v-397l-8 -236q186 195 377 195q344 0 344 -402v-618h-168v596q0 143 -54 210.5t-175 67.5q-84 0 -152.5 -41.5t-163.5 -138.5v-694h-168z" />
<glyph unicode="i" d="M184 858v137h631v-995h-168v858h-463zM578 1329q0 59 37.5 95t97.5 36q57 0 96 -35.5t39 -95.5q0 -57 -39 -93t-96 -36q-59 0 -97 36t-38 93z" />
<glyph unicode="j" d="M113 -377l55 125q115 -55 227 -55q141 0 196.5 66.5t55.5 203.5v895h-463v137h631v-1020q0 -201 -95 -310t-323 -109q-145 0 -284 67zM578 1329q0 59 37.5 95t97.5 36q57 0 96 -35.5t39 -95.5q0 -57 -39 -93t-96 -36q-59 0 -97 36t-38 93z" />
<glyph unicode="k" d="M217 0v1458h168v-987l6 2l539 522h192l-397 -395l451 -600h-189l-366 492l-236 -226v-266h-168z" />
<glyph unicode="l" d="M166 1321v137h508v-1136q0 -207 194 -207q82 0 189 47l43 -127q-164 -59 -269 -60q-160 0 -242.5 91.5t-82.5 267.5v987h-340z" />
<glyph unicode="m" d="M123 0v995h131l14 -131h6q84 156 224 156q152 0 188 -172q49 86 103.5 129t132.5 43q104 0 160.5 -80t56.5 -227v-713h-162v698q0 176 -109 176q-94 0 -170 -153v-721h-135v698q0 176 -112 176q-51 0 -88 -36.5t-78 -116.5v-721h-162z" />
<glyph unicode="n" d="M190 0v995h140l14 -170h8q184 195 375 195q344 0 344 -402v-618h-168v596q0 143 -54 210.5t-175 67.5q-84 0 -152.5 -41.5t-163.5 -138.5v-694h-168z" />
<glyph unicode="o" d="M123 496q0 242 142.5 383t349 141t349 -141.5t142.5 -382.5q0 -238 -143.5 -379.5t-348 -141.5t-348 141.5t-143.5 379.5zM297 496q0 -170 87 -275.5t230.5 -105.5t230.5 105.5t87 275.5q0 172 -87 278.5t-230.5 106.5t-230.5 -106.5t-87 -278.5z" />
<glyph unicode="p" d="M190 -420v1415h140l14 -127h6q158 152 344 152q199 0 305.5 -136t106.5 -372q0 -244 -132 -390.5t-321 -146.5q-158 0 -299 129l4 -188v-336h-168zM358 233q130 -117 265 -117h1q136 1 222 107.5t86 288.5q0 367 -281 367q-143 0 -293 -150v-496z" />
<glyph unicode="q" d="M123 496q0 233 134 378.5t318 145.5q162 0 308 -135h6l14 110h135v-1415h-168v367l9 180q-160 -152 -324 -152q-199 0 -315.5 137.5t-116.5 383.5zM297 498q0 -178 78 -279.5t215 -101.5q147 0 280 149v496q-125 117 -262 117q-131 0 -221 -106.5t-90 -274.5z" />
<glyph unicode="r" d="M299 0v995h139l15 -235h6q170 260 444 260q113 0 195 -41l-35 -145q-95 34 -181 34h-5q-246 0 -410 -284v-584h-168z" />
<glyph unicode="s" d="M147 131l82 111q182 -135 412 -136q129 0 197.5 44.5t68.5 111.5q0 59 -72.5 104.5t-250.5 88.5q-379 94 -379 282q0 125 109.5 204t308.5 79q215 0 399 -127l-82 -109q-150 104 -317 105q-246 0 -246 -144q0 -57 76.5 -98t226.5 -78q209 -53 303 -119.5t94 -177.5 q0 -127 -117.5 -212t-324.5 -85q-265 0 -488 156z" />
<glyph unicode="t" d="M141 858v127l287 10l23 279h139v-279h487v-137h-487v-473q0 -139 56 -205.5t196 -66.5q121 0 239 45l35 -123q-160 -59 -311 -60q-207 0 -295 107.5t-88 304.5v471h-281z" />
<glyph unicode="u" d="M158 377v618h170v-596q0 -143 53 -210.5t176 -67.5q84 0 154.5 43t154.5 141v690h168v-995h-137l-14 174h-9q-170 -199 -370 -199q-346 0 -346 402z" />
<glyph unicode="v" d="M104 995h170l230 -565q47 -115 112 -293h9q104 285 108 293l230 565h161l-411 -995h-189z" />
<glyph unicode="w" d="M16 995h170l123 -575q31 -154 49 -277h9q37 184 59 277l123 516h139l127 -516q8 -37 27.5 -131t31.5 -146h9q8 41 49 277l121 575h159l-215 -995h-204l-119 504q-8 39 -25.5 135t-30.5 154h-8q-6 -29 -15 -83.5t-19.5 -105.5t-20.5 -102l-115 -502h-200z" />
<glyph unicode="x" d="M131 0l379 516l-350 479h186l158 -219q57 -88 117 -168h8q78 117 112 172l150 215h178l-354 -493l381 -502h-185l-174 229q-82 115 -131 181h-8q-102 -147 -123 -181l-164 -229h-180z" />
<glyph unicode="y" d="M100 995h170l244 -551q16 -39 36.5 -87t46.5 -108.5t40 -92.5h8q92 252 107 288l217 551h159l-438 -1077q-129 -346 -422 -346q-74 0 -131 20l35 134q47 -14 90 -15q186 0 273 213l30 74z" />
<glyph unicode="z" d="M145 0v90l682 768h-606v137h848v-90l-684 -768h705v-137h-945z" />
<glyph unicode="{" d="M246 516v107q297 2 297 159q0 63 -9.5 193.5t-9.5 202.5q0 154 89 213t290 59h125v-98h-106q-152 0 -203 -40t-51 -145q0 -57 6 -181t6 -189q0 -102 -41 -153.5t-145 -70.5v-8q104 -18 145 -69.5t41 -153.5q0 -72 -6 -190.5t-6 -180.5q0 -104 51 -144t203 -40h106v-98 h-125q-201 0 -290 59t-89 213q0 76 9.5 202t9.5 193q0 158 -297 160z" />
<glyph unicode="|" d="M555 -512v2048h119v-2048h-119z" />
<glyph unicode="}" d="M203 -213h104q152 0 204 40t52 144q0 61 -6 180t-6 191q0 102 40 153.5t144 69.5v8q-104 18 -144 69.5t-40 154.5q0 66 6 189.5t6 180.5q0 104 -52 144.5t-204 40.5h-104v98h125q199 0 288 -59.5t89 -212.5q0 -72 -9.5 -202t-9.5 -194q0 -158 297 -159v-107 q-297 -2 -297 -160q0 -68 9.5 -193.5t9.5 -201.5q0 -154 -89.5 -213t-287.5 -59h-125v98z" />
<glyph unicode="~" d="M156 528q96 256 278 256q70 0 135.5 -43t124 -86t105.5 -43q53 0 93 38t73 138l108 -49q-96 -254 -278 -254q-70 0 -135.5 43t-124 86t-105.5 43q-53 0 -93 -38t-73 -138z" />
<glyph unicode="&#xa0;" />
<glyph unicode="&#xa1;" d="M465 862q0 70 43 114t106.5 44t106.5 -44t43 -114q0 -72 -43 -114.5t-106.5 -42.5t-106.5 43t-43 114zM532 -377l5 193l20 704h115l20 -704l4 -193h-164z" />
<glyph unicode="&#xa2;" d="M231 635q0 205 116 333t296 152v217h105v-211q150 -8 268 -118l-82 -107q-86 80 -186 86v-704q113 8 215 96l73 -107q-133 -117 -288 -129v-211h-105v213q-186 20 -299 148.5t-113 341.5zM397 635q0 -137 65.5 -227t180.5 -117v686q-115 -27 -180.5 -117t-65.5 -225z" />
<glyph unicode="&#xa3;" d="M158 584v106l202 8q-66 184 -65 256q0 172 116.5 274.5t313.5 102.5q221 0 360 -153l-98 -97q-109 109 -254 109q-131 0 -203.5 -65.5t-72.5 -174.5q0 -80 61 -252h387v-114h-354q12 -55 12 -115q0 -190 -153 -315v-9h677v-145h-927v102q125 55 189.5 152.5t64.5 216.5 q0 53 -17 113h-239z" />
<glyph unicode="&#xa4;" d="M119 262l172 174q-74 100 -74 238q0 139 72 239l-170 177l90 92l178 -185q98 76 227 76q127 0 228 -76l178 185l90 -92l-172 -177q74 -100 74 -239q0 -133 -74 -238l172 -174l-90 -92l-180 182q-96 -78 -226 -78q-127 0 -227 78l-178 -182zM373 674q0 -121 69.5 -198 t172 -77t172 77t69.5 198t-69.5 197.5t-172 76.5t-172 -76.5t-69.5 -197.5z" />
<glyph unicode="&#xa5;" d="M109 1307h174l188 -351q20 -39 66.5 -131t74.5 -145h9q109 213 143 276l188 351h168l-381 -656h332v-96h-375v-133h375v-98h-375v-324h-168v324h-370v98h370v133h-370v96h329z" />
<glyph unicode="&#xa6;" d="M555 438h119v-950h-119v950zM555 596v940h119v-940h-119z" />
<glyph unicode="&#xa7;" d="M186 702q0 168 187 267q-63 70 -64 166q0 113 81 189.5t228 76.5q178 0 330 -117l-82 -108q-123 94 -239 94q-82 0 -123 -37t-41 -92q0 -59 59.5 -105.5t144.5 -80t171 -75.5t145 -118t59 -180q0 -168 -184 -267q59 -70 60 -165q0 -123 -92.5 -202t-237.5 -79 q-227 0 -367 145l103 92q117 -106 264 -106q80 0 128 41t48 100q0 63 -59.5 110.5t-144.5 81.5t-170 75t-144.5 115.5t-59.5 178.5zM332 713q0 -63 45 -112.5t100 -76t145.5 -64.5t137.5 -67q70 31 103.5 71t33.5 105q0 63 -45 114.5t-99.5 78t-144.5 65.5t-137 66 q-139 -72 -139 -180z" />
<glyph unicode="&#xa8;" d="M307 1317q0 49 31 81t80 32q47 0 78.5 -33t31.5 -80t-31.5 -80t-78.5 -33q-49 0 -80 32t-31 81zM700 1317q0 47 32 80t79 33q49 0 80 -32t31 -81t-31 -81t-80 -32q-47 0 -79 33t-32 80z" />
<glyph unicode="&#xa9;" d="M61 661.5q0 307.5 157 491.5t396.5 184t396 -184t156.5 -491.5t-156.5 -496t-396 -188.5t-396.5 188.5t-157 496zM156 661.5q0 -268.5 126 -433.5t332.5 -165t332.5 165t126 433.5t-126 430t-332.5 161.5t-332.5 -161.5t-126 -430zM299 662q0 172 99.5 279.5t238.5 107.5 q121 0 213 -97l-70 -80q-70 63 -137 64q-92 0 -150.5 -77t-58.5 -197q0 -135 55.5 -214t145.5 -79q82 0 166 69l61 -86q-106 -96 -231 -96q-143 0 -237.5 110t-94.5 296z" />
<glyph unicode="&#xaa;" d="M342 707q0 106 104.5 164.5t327.5 80.5q-4 152 -143 152q-92 0 -211 -70l-51 88q145 86 282 86q127 0 190.5 -72.5t63.5 -203.5v-400h-106l-11 76h-4q-119 -92 -231 -92q-90 0 -150.5 52.5t-60.5 138.5zM471 715q0 -47 34 -72t87 -25q84 0 182 82v168q-303 -32 -303 -153 z" />
<glyph unicode="&#xab;" d="M168 434v164l313 328l80 -72l-260 -338l260 -340l-80 -70zM639 434v164l311 328l82 -72l-260 -338l260 -340l-82 -70z" />
<glyph unicode="&#xac;" d="M174 571v127h881v-526h-135v399h-746z" />
<glyph unicode="&#xad;" d="M274 526v148h680v-148h-680z" />
<glyph unicode="&#xae;" d="M229 1057q0 176 112 289.5t273.5 113.5t273 -113.5t111.5 -289.5t-111.5 -290t-273 -114t-273.5 114t-112 290zM309 1056.5q0 -143.5 87 -235.5t218 -92t217.5 91t86.5 237q0 143 -87.5 236t-216.5 93q-131 0 -218 -93t-87 -236.5zM465 854v416h156q162 0 161 -133 q0 -37 -21.5 -69t-55.5 -44l94 -170h-94l-72 143h-84v-143h-84zM549 1063h53q90 0 90 70q0 68 -86 67h-57v-137z" />
<glyph unicode="&#xaf;" d="M362 1231v117h504v-117h-504z" />
<glyph unicode="&#xb0;" d="M358 1139q0 119 75 191.5t181.5 72.5t182 -74t75.5 -190q0 -115 -75.5 -187.5t-182 -72.5t-181.5 72.5t-75 187.5zM461 1139q0 -72 42.5 -119t110.5 -47q70 0 113 47t43 119q0 76 -43 123t-113 47q-68 0 -110.5 -47.5t-42.5 -122.5z" />
<glyph unicode="&#xb1;" d="M174 0v127h881v-127h-881zM174 596v127h373v375h135v-375h373v-127h-373v-363h-135v363h-373z" />
<glyph unicode="&#xb2;" d="M354 1425q106 125 244 125q111 0 173.5 -55t62.5 -156q0 -51 -39 -111.5t-78 -98t-131 -119.5h278v-109h-487v74q180 137 255 211t75 137q0 55 -33 88t-92 33q-80 0 -146 -86z" />
<glyph unicode="&#xb3;" d="M352 987l66 80q74 -88 186 -88q127 0 127 96q0 104 -196 105v77q166 0 165 105q0 88 -112 88q-80 0 -150 -70l-61 78q86 92 235 92q96 0 156.5 -46t60.5 -126q0 -113 -114 -153q145 -35 145 -158q0 -88 -69.5 -139t-178.5 -51q-154 -1 -260 110z" />
<glyph unicode="&#xb4;" d="M481 1174l185 303h184l-240 -303h-129z" />
<glyph unicode="&#xb5;" d="M172 -410v1405h168v-608q0 -139 52 -202.5t169 -63.5q82 0 146.5 40t146.5 132v702h168v-995h-139l-15 162h-8q-131 -178 -309 -178q-154 0 -221 96l10 -193v-297h-168z" />
<glyph unicode="&#xb6;" d="M147 907q0 229 130.5 332.5t351.5 103.5h88v-880h-66q-229 0 -366.5 110.5t-137.5 333.5zM827 -164v1507h166v-1507h-166z" />
<glyph unicode="&#xb7;" d="M449 710.5q0 75.5 48 125t117.5 49.5t117.5 -49.5t48 -125t-48 -123.5t-117.5 -48t-117.5 48t-48 123.5z" />
<glyph unicode="&#xb8;" d="M455 -352q180 25 180 98q0 69 -129 100l82 160h110l-53 -108q121 -41 121 -146q0 -84 -84 -130t-211 -58z" />
<glyph unicode="&#xb9;" d="M426 1372v86q106 16 195 68h102v-625h-129v471h-168z" />
<glyph unicode="&#xba;" d="M291 862.5q0 157.5 94 251.5t229.5 94t229.5 -94t94 -251.5t-94 -252t-229.5 -94.5t-229.5 94.5t-94 252zM426 862q0 -109 51 -174t137 -65t137.5 65.5t51.5 173.5q0 106 -51.5 173t-137.5 67t-137 -67t-51 -173z" />
<glyph unicode="&#xbb;" d="M197 176l260 340l-260 338l82 72l311 -328v-164l-311 -328zM668 176l260 340l-260 338l80 72l313 -328v-164l-313 -328z" />
<glyph unicode="&#xbc;" d="M57 158l375 385l68 -62l-342 -415zM152 1153v86q115 18 192 68h105v-625h-130v471h-167zM627 150v63l303 412h145v-387h103v-88h-103v-150h-117v150h-331zM729 862l342 416l100 -92l-374 -385zM758 238h200v114l11 168h-8l-93 -133z" />
<glyph unicode="&#xbd;" d="M57 158l375 385l68 -62l-342 -415zM152 1153v86q115 18 192 68h105v-625h-130v471h-167zM631 524q104 125 241 125q111 0 174.5 -55t63.5 -156q0 -39 -15.5 -76.5t-62.5 -88t-70.5 -73t-99.5 -91.5h279v-109h-490v74q180 137 255 210.5t75 137.5q0 55 -33 88t-92 33 q-80 0 -145 -86zM729 862l342 416l100 -92l-374 -385z" />
<glyph unicode="&#xbe;" d="M78 768l63 80q78 -90 187 -90q127 0 127 96q0 106 -195 107v77q166 0 166 103q0 88 -113 88q-83 0 -151 -68l-62 78q88 92 238 92q96 0 156.5 -47t60.5 -125q0 -113 -115 -153q143 -33 144 -158q0 -88 -70 -139.5t-176 -51.5q-154 0 -260 111zM111 158l374 385l66 -62 l-342 -415zM627 150v63l305 412h145v-387h103v-88h-103v-150h-119v150h-331zM760 238h198v114l11 168h-8l-91 -133zM780 862l344 416l99 -92l-375 -385z" />
<glyph unicode="&#xbf;" d="M252 -82q0 74 38 138.5t90 113.5t103.5 98t82 113.5t20.5 138.5h149q14 -82 -13.5 -151.5t-77.5 -120.5t-101 -98.5t-89 -101.5t-38 -111q0 -88 59.5 -142.5t167.5 -54.5q150 0 266 117l99 -93q-156 -166 -377 -165q-172 0 -275.5 87t-103.5 232zM496 862q0 70 43 114 t106.5 44t107.5 -44t44 -114q0 -72 -44 -114.5t-107.5 -42.5t-106.5 43t-43 114z" />
<glyph unicode="&#xc0;" d="M66 0l452 1343h193l452 -1343h-180l-127 410h-487l-129 -410h-174zM346 1675h193l180 -229h-141zM412 547h401l-63 205q-66 209 -134 452h-8q-68 -244 -133 -452z" />
<glyph unicode="&#xc1;" d="M66 0l452 1343h193l452 -1343h-180l-127 410h-487l-129 -410h-174zM412 547h401l-63 205q-66 209 -134 452h-8q-68 -244 -133 -452zM510 1446l180 229h193l-232 -229h-141z" />
<glyph unicode="&#xc2;" d="M66 0l452 1343h193l452 -1343h-180l-127 410h-487l-129 -410h-174zM336 1446l196 229h164l197 -229h-137l-138 139h-8l-137 -139h-137zM412 547h401l-63 205q-66 209 -134 452h-8q-68 -244 -133 -452z" />
<glyph unicode="&#xc3;" d="M66 0l452 1343h193l452 -1343h-180l-127 410h-487l-129 -410h-174zM317 1456q10 98 56.5 159.5t118.5 61.5q57 0 132.5 -53t110.5 -53q66 0 82 106h94q-10 -96 -56 -158.5t-118 -62.5q-57 0 -133 53.5t-110 53.5q-66 0 -82 -107h-95zM412 547h401l-63 205 q-66 209 -134 452h-8q-68 -244 -133 -452z" />
<glyph unicode="&#xc4;" d="M66 0l452 1343h193l452 -1343h-180l-127 410h-487l-129 -410h-174zM338 1565q0 45 27.5 72.5t72.5 27.5q43 0 72 -27.5t29 -72.5q0 -43 -29 -72t-72 -29q-45 0 -72.5 29t-27.5 72zM412 547h401l-63 205q-66 209 -134 452h-8q-68 -244 -133 -452zM690 1565q0 45 29 72.5 t72 27.5q45 0 72.5 -27.5t27.5 -72.5q0 -43 -27.5 -72t-72.5 -29q-43 0 -72 29t-29 72z" />
<glyph unicode="&#xc5;" d="M66 0l452 1343h193l452 -1343h-180l-127 410h-487l-129 -410h-174zM412 547h401l-63 205q-66 209 -134 452h-8q-68 -244 -133 -452zM424 1612q0 80 53 130t137 50q82 0 136.5 -50t54.5 -130q0 -82 -54.5 -131t-136.5 -49q-84 0 -137 49t-53 131zM516 1612q0 -49 27.5 -78 t70.5 -29q41 0 69 29t28 78q0 47 -29 75.5t-68 28.5q-43 0 -70.5 -28.5t-27.5 -75.5z" />
<glyph unicode="&#xc6;" d="M-2 0l532 1343h662v-143h-387v-420h301v-145h-301v-490h405v-145h-561v391h-323l-150 -391h-178zM379 528h270v680h-6q-29 -78 -87 -224t-83 -212z" />
<glyph unicode="&#xc7;" d="M135 672q0 319 167 507.5t433 188.5q219 0 367 -164l-96 -108q-117 123 -271 123q-195 0 -309.5 -146.5t-114.5 -396.5q0 -254 115 -402.5t309 -148.5q168 -1 301 149l99 -104q-160 -182 -379 -195l-39 -77q123 -41 123 -146q0 -84 -84 -130t-213 -58l-17 84 q182 25 183 98q0 68 -131 100l69 134q-229 31 -370.5 214t-141.5 478z" />
<glyph unicode="&#xc8;" d="M236 0v1343h829v-143h-657v-422h555v-145h-555v-488h677v-145h-849zM410 1675h192l180 -229h-141z" />
<glyph unicode="&#xc9;" d="M236 0v1343h829v-143h-657v-422h555v-145h-555v-488h677v-145h-849zM573 1446l181 229h192l-231 -229h-142z" />
<glyph unicode="&#xca;" d="M236 0v1343h829v-143h-657v-422h555v-145h-555v-488h677v-145h-849zM399 1446l197 229h162l196 -229h-135l-137 139h-8l-137 -139h-138z" />
<glyph unicode="&#xcb;" d="M236 0v1343h829v-143h-657v-422h555v-145h-555v-488h677v-145h-849zM399 1565q0 45 29 72.5t72 27.5q45 0 72.5 -27.5t27.5 -72.5q0 -43 -27.5 -72t-72.5 -29q-43 0 -72 29t-29 72zM754 1565q0 45 28.5 72.5t71.5 27.5t71.5 -27.5t28.5 -72.5q0 -43 -28.5 -72t-71.5 -29 t-71.5 29t-28.5 72z" />
<glyph unicode="&#xcc;" d="M195 0v145h333v1055h-333v143h839v-143h-334v-1055h334v-145h-839zM346 1675h193l180 -229h-141z" />
<glyph unicode="&#xcd;" d="M195 0v145h333v1055h-333v143h839v-143h-334v-1055h334v-145h-839zM510 1446l180 229h193l-232 -229h-141z" />
<glyph unicode="&#xce;" d="M195 0v145h333v1055h-333v143h839v-143h-334v-1055h334v-145h-839zM336 1446l196 229h164l197 -229h-137l-138 139h-8l-137 -139h-137z" />
<glyph unicode="&#xcf;" d="M195 0v145h333v1055h-333v143h839v-143h-334v-1055h334v-145h-839zM338 1565q0 45 27.5 72.5t72.5 27.5q43 0 72 -27.5t29 -72.5q0 -43 -29 -72t-72 -29q-45 0 -72.5 29t-27.5 72zM690 1565q0 45 29 72.5t72 27.5q45 0 72.5 -27.5t27.5 -72.5q0 -43 -27.5 -72t-72.5 -29 q-43 0 -72 29t-29 72z" />
<glyph unicode="&#xd0;" d="M33 657v86l153 11v589h330q301 0 461 -173t160 -492q0 -322 -160 -500t-455 -178h-336v657h-153zM356 139h148q225 0 341 140.5t116 398.5q0 256 -115 391t-342 135h-148v-450h293v-97h-293v-518z" />
<glyph unicode="&#xd1;" d="M170 0v1343h174l436 -847l135 -275h5q-2 27 -12.5 184.5t-10.5 241.5v696h162v-1343h-174l-436 848l-136 274h-4q2 -37 12.5 -187.5t10.5 -232.5v-702h-162zM330 1456q10 98 56 159.5t118 61.5q57 0 133 -53t111 -53q66 0 81 106h95q-10 -96 -56 -158.5t-118 -62.5 q-57 0 -133 53.5t-111 53.5q-66 0 -82 -107h-94z" />
<glyph unicode="&#xd2;" d="M98 678q0 317 142.5 503.5t374 186.5t373.5 -186.5t142 -503.5q0 -322 -143 -512.5t-372.5 -190.5t-373 190.5t-143.5 512.5zM274 678q0 -252 93.5 -402.5t247 -150.5t246.5 150.5t93 402.5q0 250 -93 395.5t-246.5 145.5t-247 -145.5t-93.5 -395.5zM346 1675h193 l180 -229h-141z" />
<glyph unicode="&#xd3;" d="M98 678q0 317 142.5 503.5t374 186.5t373.5 -186.5t142 -503.5q0 -322 -143 -512.5t-372.5 -190.5t-373 190.5t-143.5 512.5zM274 678q0 -252 93.5 -402.5t247 -150.5t246.5 150.5t93 402.5q0 250 -93 395.5t-246.5 145.5t-247 -145.5t-93.5 -395.5zM510 1446l180 229 h193l-232 -229h-141z" />
<glyph unicode="&#xd4;" d="M98 678q0 317 142.5 503.5t374 186.5t373.5 -186.5t142 -503.5q0 -322 -143 -512.5t-372.5 -190.5t-373 190.5t-143.5 512.5zM274 678q0 -252 93.5 -402.5t247 -150.5t246.5 150.5t93 402.5q0 250 -93 395.5t-246.5 145.5t-247 -145.5t-93.5 -395.5zM336 1446l196 229 h164l197 -229h-137l-138 139h-8l-137 -139h-137z" />
<glyph unicode="&#xd5;" d="M98 678q0 317 142.5 503.5t374 186.5t373.5 -186.5t142 -503.5q0 -322 -143 -512.5t-372.5 -190.5t-373 190.5t-143.5 512.5zM274 678q0 -252 93.5 -402.5t247 -150.5t246.5 150.5t93 402.5q0 250 -93 395.5t-246.5 145.5t-247 -145.5t-93.5 -395.5zM317 1456 q10 98 56.5 159.5t118.5 61.5q57 0 132.5 -53t110.5 -53q66 0 82 106h94q-10 -96 -56 -158.5t-118 -62.5q-57 0 -133 53.5t-110 53.5q-66 0 -82 -107h-95z" />
<glyph unicode="&#xd6;" d="M98 678q0 317 142.5 503.5t374 186.5t373.5 -186.5t142 -503.5q0 -322 -143 -512.5t-372.5 -190.5t-373 190.5t-143.5 512.5zM274 678q0 -252 93.5 -402.5t247 -150.5t246.5 150.5t93 402.5q0 250 -93 395.5t-246.5 145.5t-247 -145.5t-93.5 -395.5zM338 1565 q0 45 27.5 72.5t72.5 27.5q43 0 72 -27.5t29 -72.5q0 -43 -29 -72t-72 -29q-45 0 -72.5 29t-27.5 72zM690 1565q0 45 29 72.5t72 27.5q45 0 72.5 -27.5t27.5 -72.5q0 -43 -27.5 -72t-72.5 -29q-43 0 -72 29t-29 72z" />
<glyph unicode="&#xd7;" d="M209 309l315 326l-315 323l90 93l315 -326l316 326l90 -93l-315 -323l315 -326l-90 -92l-316 328l-315 -328z" />
<glyph unicode="&#xd8;" d="M92 4l129 191q-123 190 -123 483q0 317 142.5 503.5t373.5 186.5q188 0 318 -125l110 162l97 -66l-129 -190q121 -182 120 -471q0 -322 -143 -512.5t-373 -190.5q-184 0 -315 125l-109 -161zM274 678q1 -195 56 -326l510 754q-90 113 -226 113q-154 0 -247 -145.5 t-93 -395.5zM393 238q90 -113 221 -113q154 0 247 150.5t93 402.5q0 182 -51 313z" />
<glyph unicode="&#xd9;" d="M162 508v835h172v-839q0 -379 282 -379q131 0 208 90t77 289v839h166v-835q0 -276 -121 -404.5t-330 -128.5q-211 0 -332.5 129.5t-121.5 403.5zM346 1675h193l180 -229h-141z" />
<glyph unicode="&#xda;" d="M162 508v835h172v-839q0 -379 282 -379q131 0 208 90t77 289v839h166v-835q0 -276 -121 -404.5t-330 -128.5q-211 0 -332.5 129.5t-121.5 403.5zM510 1446l180 229h193l-232 -229h-141z" />
<glyph unicode="&#xdb;" d="M162 508v835h172v-839q0 -379 282 -379q131 0 208 90t77 289v839h166v-835q0 -276 -121 -404.5t-330 -128.5q-211 0 -332.5 129.5t-121.5 403.5zM336 1446l196 229h164l197 -229h-137l-138 139h-8l-137 -139h-137z" />
<glyph unicode="&#xdc;" d="M162 508v835h172v-839q0 -379 282 -379q131 0 208 90t77 289v839h166v-835q0 -276 -121 -404.5t-330 -128.5q-211 0 -332.5 129.5t-121.5 403.5zM338 1565q0 45 27.5 72.5t72.5 27.5q43 0 72 -27.5t29 -72.5q0 -43 -29 -72t-72 -29q-45 0 -72.5 29t-27.5 72zM690 1565 q0 45 29 72.5t72 27.5q45 0 72.5 -27.5t27.5 -72.5q0 -43 -27.5 -72t-72.5 -29q-43 0 -72 29t-29 72z" />
<glyph unicode="&#xdd;" d="M78 1343h180l203 -399q23 -43 73 -148.5t80 -164.5h9q27 55 80 159.5t77 155.5l195 397h176l-451 -864v-479h-172v479zM510 1446l180 229h193l-232 -229h-141z" />
<glyph unicode="&#xde;" d="M207 0v1343h172v-225h242q496 0 495 -395q0 -207 -133 -311.5t-362 -104.5h-242v-307h-172zM379 446h219q178 0 263 67t85 210q0 139 -84 197.5t-264 58.5h-219v-533z" />
<glyph unicode="&#xdf;" d="M180 0v1063q0 190 110.5 305t301.5 115q156 0 246 -88t90 -215q0 -88 -46 -161t-92.5 -134.5t-46.5 -118.5q0 -53 42 -94t103.5 -71t122 -65.5t102.5 -100t42 -154.5q0 -131 -92 -218.5t-242 -87.5q-158 0 -295 93l68 118q115 -80 223 -80q82 0 130 47.5t48 113 t-43 112.5t-103.5 77.5t-120.5 63.5t-103 90.5t-43 135t46 147.5t92 137.5t46 138.5q0 78 -47 127.5t-129 49.5q-115 0 -178.5 -79t-63.5 -229v-1038h-168z" />
<glyph unicode="&#xe0;" d="M166 258q0 168 168 255t553 118q-4 113 -66.5 181.5t-197.5 68.5q-158 0 -349 -119l-65 115q219 143 442 143q199 0 301.5 -109.5t102.5 -300.5v-610h-137l-15 135h-6q-205 -160 -393 -160q-145 0 -241.5 77t-96.5 206zM330 270q0 -80 62.5 -119.5t156.5 -39.5 q162 0 338 147v262q-307 -25 -432 -86.5t-125 -163.5zM408 1477h182l186 -303h-129z" />
<glyph unicode="&#xe1;" d="M166 258q0 168 168 255t553 118q-4 113 -66.5 181.5t-197.5 68.5q-158 0 -349 -119l-65 115q219 143 442 143q199 0 301.5 -109.5t102.5 -300.5v-610h-137l-15 135h-6q-205 -160 -393 -160q-145 0 -241.5 77t-96.5 206zM330 270q0 -80 62.5 -119.5t156.5 -39.5 q162 0 338 147v262q-307 -25 -432 -86.5t-125 -163.5zM508 1174l186 303h183l-238 -303h-131z" />
<glyph unicode="&#xe2;" d="M166 258q0 168 168 255t553 118q-4 113 -66.5 181.5t-197.5 68.5q-158 0 -349 -119l-65 115q219 143 442 143q199 0 301.5 -109.5t102.5 -300.5v-610h-137l-15 135h-6q-205 -160 -393 -160q-145 0 -241.5 77t-96.5 206zM330 270q0 -80 62.5 -119.5t156.5 -39.5 q162 0 338 147v262q-307 -25 -432 -86.5t-125 -163.5zM371 1174l198 303h146l198 -303h-129l-137 202h-8l-137 -202h-131z" />
<glyph unicode="&#xe3;" d="M166 258q0 168 168 255t553 118q-4 113 -66.5 181.5t-197.5 68.5q-158 0 -349 -119l-65 115q219 143 442 143q199 0 301.5 -109.5t102.5 -300.5v-610h-137l-15 135h-6q-205 -160 -393 -160q-145 0 -241.5 77t-96.5 206zM330 270q0 -80 62.5 -119.5t156.5 -39.5 q162 0 338 147v262q-307 -25 -432 -86.5t-125 -163.5zM352 1186q10 102 55.5 162.5t124.5 60.5q53 0 123 -55.5t99 -55.5q63 0 82 111h96q-10 -100 -55.5 -161.5t-122.5 -61.5q-53 0 -123 56t-101 56q-63 0 -81 -112h-97z" />
<glyph unicode="&#xe4;" d="M166 258q0 168 168 255t553 118q-4 113 -66.5 181.5t-197.5 68.5q-158 0 -349 -119l-65 115q219 143 442 143q199 0 301.5 -109.5t102.5 -300.5v-610h-137l-15 135h-6q-205 -160 -393 -160q-145 0 -241.5 77t-96.5 206zM330 270q0 -80 62.5 -119.5t156.5 -39.5 q162 0 338 147v262q-307 -25 -432 -86.5t-125 -163.5zM334 1317q0 47 31.5 80t78.5 33q49 0 80 -32t31 -81t-31 -81t-80 -32q-47 0 -78.5 33t-31.5 80zM729 1317q0 49 31 81t80 32t79.5 -32t30.5 -81t-30.5 -81t-79.5 -32t-80 32t-31 81z" />
<glyph unicode="&#xe5;" d="M166 258q0 168 168 255t553 118q-4 113 -66.5 181.5t-197.5 68.5q-158 0 -349 -119l-65 115q219 143 442 143q199 0 301.5 -109.5t102.5 -300.5v-610h-137l-15 135h-6q-205 -160 -393 -160q-145 0 -241.5 77t-96.5 206zM330 270q0 -80 62.5 -119.5t156.5 -39.5 q162 0 338 147v262q-307 -25 -432 -86.5t-125 -163.5zM451 1300q0 84 54 136.5t138 52.5t137.5 -52.5t53.5 -136.5q0 -86 -53.5 -138t-137.5 -52q-86 0 -139 52t-53 138zM543 1300q0 -51 28.5 -82.5t71.5 -31.5q41 0 69.5 31.5t28.5 82.5q0 49 -28.5 81t-69.5 32 q-43 0 -71.5 -31.5t-28.5 -81.5z" />
<glyph unicode="&#xe6;" d="M35 264q0 289 508 367q-4 252 -178 252q-109 0 -234 -84l-63 114q164 106 317 107q92 0 155.5 -54.5t92.5 -146.5q104 201 289 201q145 0 223 -130t78 -325q0 -39 -9 -108h-528q6 -160 69.5 -253t180.5 -93q92 0 197 63l59 -111q-127 -88 -262 -88q-201 0 -305 187 q-170 -186 -324 -187q-121 0 -193.5 78t-72.5 211zM190 272q0 -78 41 -119.5t111 -41.5q53 0 117.5 38.5t115.5 106.5q-29 86 -32 213l-2 51q-184 -33 -267.5 -92.5t-83.5 -155.5zM684 569h397q0 317 -174 318q-96 0 -155.5 -84t-67.5 -234z" />
<glyph unicode="&#xe7;" d="M164 496q0 242 159.5 383t395.5 141q213 0 362 -146l-84 -108q-131 115 -272 115q-172 0 -279.5 -106.5t-107.5 -278.5q0 -170 105.5 -275.5t277.5 -105.5q158 0 309 125l74 -109q-151 -138 -348 -154l-37 -79q121 -41 121 -146q0 -84 -84 -130t-213 -58l-17 84 q182 25 183 98q0 68 -131 100l67 131q-215 18 -348 155.5t-133 363.5z" />
<glyph unicode="&#xe8;" d="M141 496q0 233 151.5 378.5t354.5 145.5q211 0 332 -127t121 -340q0 -55 -6 -92h-779q8 -160 112.5 -255t268.5 -95q156 0 303 92l60 -111q-180 -117 -383 -117q-229 0 -382 141.5t-153 379.5zM313 571h631q0 152 -78 234t-217 82q-127 0 -222.5 -85.5t-113.5 -230.5z M410 1477h182l186 -303h-131z" />
<glyph unicode="&#xe9;" d="M141 496q0 233 151.5 378.5t354.5 145.5q211 0 332 -127t121 -340q0 -55 -6 -92h-779q8 -160 112.5 -255t268.5 -95q156 0 303 92l60 -111q-180 -117 -383 -117q-229 0 -382 141.5t-153 379.5zM313 571h631q0 152 -78 234t-217 82q-127 0 -222.5 -85.5t-113.5 -230.5z M510 1174l186 303h183l-238 -303h-131z" />
<glyph unicode="&#xea;" d="M141 496q0 233 151.5 378.5t354.5 145.5q211 0 332 -127t121 -340q0 -55 -6 -92h-779q8 -160 112.5 -255t268.5 -95q156 0 303 92l60 -111q-180 -117 -383 -117q-229 0 -382 141.5t-153 379.5zM313 571h631q0 152 -78 234t-217 82q-127 0 -222.5 -85.5t-113.5 -230.5z M373 1174l198 303h146l198 -303h-131l-135 202h-8l-137 -202h-131z" />
<glyph unicode="&#xeb;" d="M141 496q0 233 151.5 378.5t354.5 145.5q211 0 332 -127t121 -340q0 -55 -6 -92h-779q8 -160 112.5 -255t268.5 -95q156 0 303 92l60 -111q-180 -117 -383 -117q-229 0 -382 141.5t-153 379.5zM313 571h631q0 152 -78 234t-217 82q-127 0 -222.5 -85.5t-113.5 -230.5z M338 1317q0 47 30.5 80t77.5 33q49 0 80 -32t31 -81t-31 -81t-80 -32q-47 0 -77.5 33t-30.5 80zM731 1317q0 49 31 81t80 32t79.5 -32t30.5 -81t-30.5 -81t-79.5 -32t-80 32t-31 81z" />
<glyph unicode="&#xec;" d="M184 858v137h631v-995h-168v858h-463zM477 1477h185l184 -303h-129z" />
<glyph unicode="&#xed;" d="M184 858v137h631v-995h-168v858h-463zM580 1174l184 303h182l-237 -303h-129z" />
<glyph unicode="&#xee;" d="M184 858v137h631v-995h-168v858h-463zM442 1174l197 303h145l199 -303h-129l-137 202h-8l-138 -202h-129z" />
<glyph unicode="&#xef;" d="M184 858v137h631v-995h-168v858h-463zM406 1317q0 47 30.5 80t77.5 33q49 0 80 -32t31 -81t-31 -81t-80 -32q-47 0 -77.5 33t-30.5 80zM799 1317q0 49 30.5 81t79.5 32t80 -32t31 -81t-31 -81t-80 -32t-79.5 32t-30.5 81z" />
<glyph unicode="&#xf0;" d="M123 455q0 207 131 333.5t336 126.5q96 0 182 -44t143 -119q-51 260 -247 430l-308 -158l-47 84l271 139q-94 68 -246 142l78 106q178 -84 303 -178l276 141l47 -84l-243 -125q299 -274 299 -723q0 -248 -132 -399.5t-356 -151.5q-201 0 -344 132.5t-143 347.5zM281 455 q0 -150 97 -245t236 -95q158 0 240 110.5t82 294.5q0 61 -2 90q-131 174 -320 174q-160 0 -246.5 -91t-86.5 -238z" />
<glyph unicode="&#xf1;" d="M190 0v995h140l14 -170h8q184 195 375 195q344 0 344 -402v-618h-168v596q0 143 -54 210.5t-175 67.5q-84 0 -152.5 -41.5t-163.5 -138.5v-694h-168zM360 1186q12 102 57.5 162.5t123.5 60.5q53 0 123.5 -55.5t97.5 -55.5q61 0 84 111h94q-10 -100 -55 -161.5t-123 -61.5 q-53 0 -123 56t-100 56q-63 0 -82 -112h-97z" />
<glyph unicode="&#xf2;" d="M123 496q0 242 142.5 383t349 141t349 -141.5t142.5 -382.5q0 -238 -143.5 -379.5t-348 -141.5t-348 141.5t-143.5 379.5zM297 496q0 -170 87 -275.5t230.5 -105.5t230.5 105.5t87 275.5q0 172 -87 278.5t-230.5 106.5t-230.5 -106.5t-87 -278.5zM379 1477h184l185 -303 h-130z" />
<glyph unicode="&#xf3;" d="M123 496q0 242 142.5 383t349 141t349 -141.5t142.5 -382.5q0 -238 -143.5 -379.5t-348 -141.5t-348 141.5t-143.5 379.5zM297 496q0 -170 87 -275.5t230.5 -105.5t230.5 105.5t87 275.5q0 172 -87 278.5t-230.5 106.5t-230.5 -106.5t-87 -278.5zM481 1174l185 303h184 l-240 -303h-129z" />
<glyph unicode="&#xf4;" d="M123 496q0 242 142.5 383t349 141t349 -141.5t142.5 -382.5q0 -238 -143.5 -379.5t-348 -141.5t-348 141.5t-143.5 379.5zM297 496q0 -170 87 -275.5t230.5 -105.5t230.5 105.5t87 275.5q0 172 -87 278.5t-230.5 106.5t-230.5 -106.5t-87 -278.5zM344 1174l199 303h143 l199 -303h-129l-138 202h-8l-137 -202h-129z" />
<glyph unicode="&#xf5;" d="M123 496q0 242 142.5 383t349 141t349 -141.5t142.5 -382.5q0 -238 -143.5 -379.5t-348 -141.5t-348 141.5t-143.5 379.5zM297 496q0 -170 87 -275.5t230.5 -105.5t230.5 105.5t87 275.5q0 172 -87 278.5t-230.5 106.5t-230.5 -106.5t-87 -278.5zM324 1186 q12 102 57 162.5t123 60.5q53 0 123.5 -55.5t99.5 -55.5q63 0 82 111h96q-12 -100 -57 -161.5t-123 -61.5q-53 0 -123 56t-100 56q-63 0 -82 -112h-96z" />
<glyph unicode="&#xf6;" d="M123 496q0 242 142.5 383t349 141t349 -141.5t142.5 -382.5q0 -238 -143.5 -379.5t-348 -141.5t-348 141.5t-143.5 379.5zM297 496q0 -170 87 -275.5t230.5 -105.5t230.5 105.5t87 275.5q0 172 -87 278.5t-230.5 106.5t-230.5 -106.5t-87 -278.5zM307 1317q0 49 31 81 t80 32q47 0 78.5 -33t31.5 -80t-31.5 -80t-78.5 -33q-49 0 -80 32t-31 81zM700 1317q0 47 32 80t79 33q49 0 80 -32t31 -81t-31 -81t-80 -32q-47 0 -79 33t-32 80z" />
<glyph unicode="&#xf7;" d="M174 571v127h881v-127h-881zM504 266q0 47 31.5 78t79 31t79 -31t31.5 -78q0 -49 -31.5 -79.5t-79 -30.5t-79 30.5t-31.5 79.5zM504 1004q0 47 31.5 77.5t79 30.5t79 -30.5t31.5 -77.5q0 -49 -31.5 -80t-79 -31t-79 30.5t-31.5 80.5z" />
<glyph unicode="&#xf8;" d="M123 496q0 242 142.5 383t348.5 141q170 0 299 -98l105 120l76 -59l-109 -127q121 -143 121 -360q0 -238 -143.5 -379.5t-348.5 -141.5q-170 0 -299 99l-104 -121l-76 59l109 127q-121 143 -121 357zM297 496q0 -132 55 -230l463 541q-82 78 -201 78q-141 0 -229 -108.5 t-88 -280.5zM412 188q84 -78 202 -77q141 0 229.5 106.5t88.5 278.5q0 133 -55 233z" />
<glyph unicode="&#xf9;" d="M158 377v618h170v-596q0 -143 53 -210.5t176 -67.5q84 0 154.5 43t154.5 141v690h168v-995h-137l-14 174h-9q-170 -199 -370 -199q-346 0 -346 402zM369 1477h182l186 -303h-129z" />
<glyph unicode="&#xfa;" d="M158 377v618h170v-596q0 -143 53 -210.5t176 -67.5q84 0 154.5 43t154.5 141v690h168v-995h-137l-14 174h-9q-170 -199 -370 -199q-346 0 -346 402zM469 1174l186 303h183l-238 -303h-131z" />
<glyph unicode="&#xfb;" d="M158 377v618h170v-596q0 -143 53 -210.5t176 -67.5q84 0 154.5 43t154.5 141v690h168v-995h-137l-14 174h-9q-170 -199 -370 -199q-346 0 -346 402zM332 1174l198 303h146l198 -303h-129l-137 202h-8l-137 -202h-131z" />
<glyph unicode="&#xfc;" d="M158 377v618h170v-596q0 -143 53 -210.5t176 -67.5q84 0 154.5 43t154.5 141v690h168v-995h-137l-14 174h-9q-170 -199 -370 -199q-346 0 -346 402zM297 1317q0 47 30.5 80t78.5 33q49 0 79.5 -32t30.5 -81t-30.5 -81t-79.5 -32q-47 0 -78 33t-31 80zM690 1317 q0 49 31 81t80 32t79.5 -32t30.5 -81t-30.5 -81t-79.5 -32t-80 32t-31 81z" />
<glyph unicode="&#xfd;" d="M100 995h170l244 -551q16 -39 36.5 -87t46.5 -108.5t40 -92.5h8q92 252 107 288l217 551h159l-438 -1077q-129 -346 -422 -346q-74 0 -131 20l35 134q47 -14 90 -15q186 0 273 213l30 74zM489 1174l185 303h184l-240 -303h-129z" />
<glyph unicode="&#xfe;" d="M190 -420v1878h168v-411l-4 -179q158 152 336 152q199 0 307.5 -136t108.5 -372q0 -244 -133 -390.5t-320 -146.5q-147 0 -297 129l2 -188v-336h-168zM358 233q131 -117 267 -116q133 0 220 107.5t87 287.5q0 172 -69.5 269.5t-213.5 97.5q-141 0 -291 -150v-496z" />
<glyph unicode="&#xff;" d="M100 995h170l244 -551q16 -39 36.5 -87t46.5 -108.5t40 -92.5h8q92 252 107 288l217 551h159l-438 -1077q-129 -346 -422 -346q-74 0 -131 20l35 134q47 -14 90 -15q186 0 273 213l30 74zM315 1317q0 49 31 81t80 32t80 -32t31 -81t-31 -81t-80 -32t-80 32t-31 81z M711 1317q0 49 30.5 81t79.5 32q47 0 78 -33t31 -80t-31 -80t-78 -33q-49 0 -79.5 32t-30.5 81z" />
<glyph unicode="&#x100;" d="M66 0l452 1343h193l452 -1343h-180l-127 410h-487l-129 -410h-174zM360 1493v117h508v-117h-508zM412 547h401l-63 205q-66 209 -134 452h-8q-68 -244 -133 -452z" />
<glyph unicode="&#x101;" d="M166 258q0 168 168 255t553 118q-4 113 -66.5 181.5t-197.5 68.5q-158 0 -349 -119l-65 115q219 143 442 143q199 0 301.5 -109.5t102.5 -300.5v-610h-137l-15 135h-6q-205 -160 -393 -160q-145 0 -241.5 77t-96.5 206zM330 270q0 -80 62.5 -119.5t156.5 -39.5 q162 0 338 147v262q-307 -25 -432 -86.5t-125 -163.5zM391 1231v117h502v-117h-502z" />
<glyph unicode="&#x102;" d="M66 0l452 1343h193l452 -1343h-180l-127 410h-487l-129 -410h-174zM362 1675h103q10 -55 48 -92t101.5 -37t101.5 37t48 92h102q-12 -96 -74.5 -160.5t-177 -64.5t-177 64.5t-75.5 160.5zM412 547h401l-63 205q-66 209 -134 452h-8q-68 -244 -133 -452z" />
<glyph unicode="&#x103;" d="M166 258q0 168 168 255t553 118q-4 113 -66.5 181.5t-197.5 68.5q-158 0 -349 -119l-65 115q219 143 442 143q199 0 301.5 -109.5t102.5 -300.5v-610h-137l-15 135h-6q-205 -160 -393 -160q-145 0 -241.5 77t-96.5 206zM330 270q0 -80 62.5 -119.5t156.5 -39.5 q162 0 338 147v262q-307 -25 -432 -86.5t-125 -163.5zM377 1452h104q8 -72 49 -121t113 -49q70 0 111 48t51 122h104q-8 -111 -74.5 -192.5t-191.5 -81.5q-127 0 -193.5 81.5t-72.5 192.5z" />
<glyph unicode="&#x104;" d="M66 0l452 1343h193l452 -1343q-70 -29 -117 -91.5t-47 -127.5q0 -45 28 -69.5t67 -24.5q47 -1 86 28l47 -92q-72 -57 -164 -57q-84 0 -139.5 47t-55.5 131q0 76 46.5 145.5t107.5 110.5h-39l-127 410h-487l-129 -410h-174zM412 547h401l-63 205q-66 209 -134 452h-8 q-68 -244 -133 -452z" />
<glyph unicode="&#x105;" d="M166 258q0 168 168 255t553 118q-4 113 -66.5 181.5t-197.5 68.5q-158 0 -349 -119l-65 115q219 143 442 143q199 0 301.5 -109.5t102.5 -300.5v-610q-82 -33 -129 -93.5t-47 -121.5q0 -45 27.5 -69.5t66.5 -24.5q45 0 82 26l45 -84q-70 -55 -162 -55q-80 0 -132 46 t-52 128q0 78 48 145.5t116 110.5l-15 127h-6q-205 -160 -393 -160q-145 0 -241.5 77t-96.5 206zM330 270q0 -80 62.5 -119.5t156.5 -39.5q162 0 338 147v262q-307 -25 -432 -86.5t-125 -163.5z" />
<glyph unicode="&#x106;" d="M135 672q0 319 167 507.5t433 188.5q219 0 367 -164l-96 -108q-117 123 -271 123q-195 0 -309.5 -146.5t-114.5 -396.5q0 -254 115 -402.5t309 -148.5q168 0 301 149l99 -104q-168 -195 -410 -195q-260 0 -425 187.5t-165 509.5zM606 1446l180 229h193l-231 -229h-142z " />
<glyph unicode="&#x107;" d="M164 495.5q0 241.5 159.5 383t395.5 141.5q213 0 362 -146l-84 -108q-131 115 -272 115q-172 0 -279.5 -106.5t-107.5 -278.5q0 -170 105.5 -275.5t277.5 -105.5q158 0 309 125l74 -109q-172 -156 -395 -156q-240 0 -392.5 139.5t-152.5 381zM569 1174l185 303h184 l-240 -303h-129z" />
<glyph unicode="&#x108;" d="M135 672q0 319 167 507.5t433 188.5q219 0 367 -164l-96 -108q-117 123 -271 123q-195 0 -309.5 -146.5t-114.5 -396.5q0 -254 115 -402.5t309 -148.5q168 0 301 149l99 -104q-168 -195 -410 -195q-260 0 -425 187.5t-165 509.5zM432 1446l197 229h164l196 -229h-137 l-137 139h-8l-138 -139h-137z" />
<glyph unicode="&#x109;" d="M164 495.5q0 241.5 159.5 383t395.5 141.5q213 0 362 -146l-84 -108q-131 115 -272 115q-172 0 -279.5 -106.5t-107.5 -278.5q0 -170 105.5 -275.5t277.5 -105.5q158 0 309 125l74 -109q-172 -156 -395 -156q-240 0 -392.5 139.5t-152.5 381zM432 1174l199 303h145 l197 -303h-129l-137 202h-9l-137 -202h-129z" />
<glyph unicode="&#x10a;" d="M135 672q0 319 167 507.5t433 188.5q219 0 367 -164l-96 -108q-117 123 -271 123q-195 0 -309.5 -146.5t-114.5 -396.5q0 -254 115 -402.5t309 -148.5q168 0 301 149l99 -104q-168 -195 -410 -195q-260 0 -425 187.5t-165 509.5zM594 1573q0 47 34 77.5t83 30.5 t82.5 -30.5t33.5 -77.5q0 -49 -33.5 -80t-82.5 -31t-83 31t-34 80z" />
<glyph unicode="&#x10b;" d="M164 495.5q0 241.5 159.5 383t395.5 141.5q213 0 362 -146l-84 -108q-131 115 -272 115q-172 0 -279.5 -106.5t-107.5 -278.5q0 -170 105.5 -275.5t277.5 -105.5q158 0 309 125l74 -109q-172 -156 -395 -156q-240 0 -392.5 139.5t-152.5 381zM567 1329q0 59 39 95t96 36 q59 0 97.5 -35.5t38.5 -95.5q0 -57 -38.5 -93t-97.5 -36q-57 0 -96 36t-39 93z" />
<glyph unicode="&#x10c;" d="M135 672q0 319 167 507.5t433 188.5q219 0 367 -164l-96 -108q-117 123 -271 123q-195 0 -309.5 -146.5t-114.5 -396.5q0 -254 115 -402.5t309 -148.5q168 0 301 149l99 -104q-168 -195 -410 -195q-260 0 -425 187.5t-165 509.5zM432 1675h137l138 -139h8l137 139h137 l-196 -229h-164z" />
<glyph unicode="&#x10d;" d="M164 495.5q0 241.5 159.5 383t395.5 141.5q213 0 362 -146l-84 -108q-131 115 -272 115q-172 0 -279.5 -106.5t-107.5 -278.5q0 -170 105.5 -275.5t277.5 -105.5q158 0 309 125l74 -109q-172 -156 -395 -156q-240 0 -392.5 139.5t-152.5 381zM432 1477h129l137 -203h9 l137 203h129l-197 -303h-145z" />
<glyph unicode="&#x10e;" d="M174 0v1343h328q303 0 462.5 -172t159.5 -493q0 -324 -158.5 -501t-455.5 -177h-336zM334 1675h137l137 -139h8l136 139h137l-197 -229h-162zM344 139h148q225 0 340.5 140.5t115.5 398.5q0 256 -114.5 391t-341.5 135h-148v-1065z" />
<glyph unicode="&#x10f;" d="M102 496q0 233 134.5 378.5t318.5 145.5q152 0 301 -129l-6 184v383h168v-1458h-139l-15 131h-6q-152 -156 -323 -156q-199 0 -316 137.5t-117 383.5zM276 498q0 -178 78 -279.5t215 -101.5q147 0 281 149v496q-125 117 -262 117q-131 0 -221.5 -106.5t-90.5 -274.5z M1100 1556h121l-2 -116l-29 -318h-82z" />
<glyph unicode="&#x110;" d="M33 657v86l153 11v589h330q301 0 461 -173t160 -492q0 -322 -160 -500t-455 -178h-336v657h-153zM356 139h148q225 0 341 140.5t116 398.5q0 256 -115 391t-342 135h-148v-450h293v-97h-293v-518z" />
<glyph unicode="&#x111;" d="M123 475q0 225 134 364.5t318 139.5q152 0 302 -129l-7 184v135h-356v99h356v190h168v-190h148v-88l-148 -11v-1169h-139l-14 131h-6q-152 -156 -324 -156q-199 0 -315.5 132.5t-116.5 367.5zM297 477q0 -170 78 -265t215 -95q147 -1 280 149v455q-125 117 -260 117 q-133 0 -223 -101.5t-90 -259.5z" />
<glyph unicode="&#x112;" d="M236 0v1343h829v-143h-657v-422h555v-145h-555v-488h677v-145h-849zM424 1493v117h508v-117h-508z" />
<glyph unicode="&#x113;" d="M141 496q0 233 151.5 378.5t354.5 145.5q211 0 332 -127t121 -340q0 -55 -6 -92h-779q8 -160 112.5 -255t268.5 -95q156 0 303 92l60 -111q-180 -117 -383 -117q-229 0 -382 141.5t-153 379.5zM313 571h631q0 152 -78 234t-217 82q-127 0 -222.5 -85.5t-113.5 -230.5z M393 1231v117h502v-117h-502z" />
<glyph unicode="&#x114;" d="M236 0v1343h829v-143h-657v-422h555v-145h-555v-488h677v-145h-849zM426 1675h102q25 -129 150 -129q123 0 147 129h105q-12 -96 -74.5 -160.5t-177.5 -64.5t-178.5 64.5t-73.5 160.5z" />
<glyph unicode="&#x115;" d="M141 496q0 233 151.5 378.5t354.5 145.5q211 0 332 -127t121 -340q0 -55 -6 -92h-779q8 -160 112.5 -255t268.5 -95q156 0 303 92l60 -111q-180 -117 -383 -117q-229 0 -382 141.5t-153 379.5zM313 571h631q0 152 -78 234t-217 82q-127 0 -222.5 -85.5t-113.5 -230.5z M379 1452h104q8 -72 49 -121t113 -49q70 0 111 49t49 121h106q-8 -111 -74.5 -192.5t-191.5 -81.5q-127 0 -193.5 81.5t-72.5 192.5z" />
<glyph unicode="&#x116;" d="M236 0v1343h829v-143h-657v-422h555v-145h-555v-488h677v-145h-849zM561 1573q0 47 34 77.5t83 30.5t82 -30.5t33 -77.5q0 -49 -33 -80t-82 -31t-83 31t-34 80z" />
<glyph unicode="&#x117;" d="M141 496q0 233 151.5 378.5t354.5 145.5q211 0 332 -127t121 -340q0 -55 -6 -92h-779q8 -160 112.5 -255t268.5 -95q156 0 303 92l60 -111q-180 -117 -383 -117q-229 0 -382 141.5t-153 379.5zM313 571h631q0 152 -78 234t-217 82q-127 0 -222.5 -85.5t-113.5 -230.5z M510 1329q0 59 38 95t97 36q57 0 95 -35.5t38 -95.5q0 -57 -38 -93t-95 -36q-59 0 -97 36t-38 93z" />
<glyph unicode="&#x118;" d="M236 0v1343h829v-143h-657v-422h555v-145h-555v-488h677v-145h-8q-72 -10 -129 -74.5t-57 -144.5q0 -45 28.5 -69.5t67.5 -24.5q43 0 84 28l45 -92q-72 -57 -164 -57q-84 0 -139 47t-55 131q0 78 45 146.5t108 109.5h-675z" />
<glyph unicode="&#x119;" d="M141 496q0 233 151.5 378.5t354.5 145.5q211 0 332 -127t121 -340q0 -55 -6 -92h-779q8 -160 112.5 -255t268.5 -95q156 0 303 92l60 -111q-135 -96 -187.5 -165.5t-52.5 -141.5q0 -45 27.5 -69.5t68.5 -24.5q39 0 82 26l43 -84q-70 -55 -159 -55q-82 0 -133.5 45 t-51.5 129q0 135 135 248q-66 -25 -155 -25q-229 0 -382 141.5t-153 379.5zM313 571h631q0 152 -78 234t-217 82q-127 0 -222.5 -85.5t-113.5 -230.5z" />
<glyph unicode="&#x11a;" d="M236 0v1343h829v-143h-657v-422h555v-145h-555v-488h677v-145h-849zM399 1675h138l137 -139h8l137 139h135l-196 -229h-162z" />
<glyph unicode="&#x11b;" d="M141 496q0 233 151.5 378.5t354.5 145.5q211 0 332 -127t121 -340q0 -55 -6 -92h-779q8 -160 112.5 -255t268.5 -95q156 0 303 92l60 -111q-180 -117 -383 -117q-229 0 -382 141.5t-153 379.5zM313 571h631q0 152 -78 234t-217 82q-127 0 -222.5 -85.5t-113.5 -230.5z M373 1477h131l137 -203h8l135 203h131l-198 -303h-146z" />
<glyph unicode="&#x11c;" d="M109 672q0 322 164.5 509t431.5 187q215 0 370 -164l-96 -108q-115 123 -274 123q-190 0 -304 -146.5t-114 -396.5q0 -256 108.5 -403.5t304.5 -147.5q150 0 234 80v350h-268v141h426v-565q-156 -156 -402 -156q-258 0 -419.5 186.5t-161.5 510.5zM401 1446l197 229h162 l196 -229h-137l-137 139h-8l-137 -139h-136z" />
<glyph unicode="&#x11d;" d="M147 -182q0 127 164 221v8q-102 55 -102 164q0 106 119 186v9q-123 92 -123 258q0 158 113.5 257t277.5 99q84 0 147 -25h412v-129h-266q92 -96 92 -209q0 -156 -109.5 -249t-275.5 -93q-84 0 -168 37q-78 -49 -78 -114q0 -115 207 -115h223q195 0 287 -54.5t92 -179.5 q0 -145 -153.5 -246.5t-399.5 -101.5q-219 0 -339 73t-120 204zM293 -166q0 -80 85 -128t240 -48q166 0 270.5 61.5t104.5 143.5q0 68 -54 94.5t-173 26.5h-195q-94 0 -151 16q-127 -70 -127 -166zM358 1174l199 303h145l199 -303h-131l-137 202h-8l-138 -202h-129zM367 664 q0 -104 66.5 -170t162.5 -66q98 0 163.5 65.5t65.5 170.5q0 102 -66.5 167.5t-162.5 65.5t-162.5 -65.5t-66.5 -167.5z" />
<glyph unicode="&#x11e;" d="M109 672q0 322 164.5 509t431.5 187q215 0 370 -164l-96 -108q-115 123 -274 123q-190 0 -304 -146.5t-114 -396.5q0 -256 108.5 -403.5t304.5 -147.5q150 0 234 80v350h-268v141h426v-565q-156 -156 -402 -156q-258 0 -419.5 186.5t-161.5 510.5zM426 1675h104 q25 -129 148 -129q63 0 101 37t48 92h103q-10 -96 -73.5 -160.5t-178.5 -64.5t-177.5 64.5t-74.5 160.5z" />
<glyph unicode="&#x11f;" d="M147 -182q0 127 164 221v8q-102 55 -102 164q0 106 119 186v9q-123 92 -123 258q0 158 113.5 257t277.5 99q84 0 147 -25h412v-129h-266q92 -96 92 -209q0 -156 -109.5 -249t-275.5 -93q-84 0 -168 37q-78 -49 -78 -114q0 -115 207 -115h223q195 0 287 -54.5t92 -179.5 q0 -145 -153.5 -246.5t-399.5 -101.5q-219 0 -339 73t-120 204zM293 -166q0 -80 85 -128t240 -48q166 0 270.5 61.5t104.5 143.5q0 68 -54 94.5t-173 26.5h-195q-94 0 -151 16q-127 -70 -127 -166zM362 1452h105q10 -74 51 -122t111 -48q72 0 112.5 49t49.5 121h104 q-6 -111 -72.5 -192.5t-193.5 -81.5q-125 0 -191.5 81.5t-75.5 192.5zM367 664q0 -104 66.5 -170t162.5 -66q98 0 163.5 65.5t65.5 170.5q0 102 -66.5 167.5t-162.5 65.5t-162.5 -65.5t-66.5 -167.5z" />
<glyph unicode="&#x120;" d="M109 672q0 322 164.5 509t431.5 187q215 0 370 -164l-96 -108q-115 123 -274 123q-190 0 -304 -146.5t-114 -396.5q0 -256 108.5 -403.5t304.5 -147.5q150 0 234 80v350h-268v141h426v-565q-156 -156 -402 -156q-258 0 -419.5 186.5t-161.5 510.5zM561 1573q0 47 34 77.5 t83 30.5t83 -30.5t34 -77.5q0 -49 -34 -80t-83 -31t-83 31t-34 80z" />
<glyph unicode="&#x121;" d="M147 -182q0 127 164 221v8q-102 55 -102 164q0 106 119 186v9q-123 92 -123 258q0 158 113.5 257t277.5 99q84 0 147 -25h412v-129h-266q92 -96 92 -209q0 -156 -109.5 -249t-275.5 -93q-84 0 -168 37q-78 -49 -78 -114q0 -115 207 -115h223q195 0 287 -54.5t92 -179.5 q0 -145 -153.5 -246.5t-399.5 -101.5q-219 0 -339 73t-120 204zM293 -166q0 -80 85 -128t240 -48q166 0 270.5 61.5t104.5 143.5q0 68 -54 94.5t-173 26.5h-195q-94 0 -151 16q-127 -70 -127 -166zM367 664q0 -104 66.5 -170t162.5 -66q98 0 163.5 65.5t65.5 170.5 q0 102 -66.5 167.5t-162.5 65.5t-162.5 -65.5t-66.5 -167.5zM496 1329q0 59 37.5 95t95.5 36q59 0 97 -35.5t38 -95.5q0 -57 -38 -93t-97 -36q-57 0 -95 36t-38 93z" />
<glyph unicode="&#x122;" d="M109 672q0 322 164.5 509t431.5 187q215 0 370 -164l-96 -108q-115 123 -274 123q-190 0 -304 -146.5t-114 -396.5q0 -256 108.5 -403.5t304.5 -147.5q150 0 234 80v350h-268v141h426v-565q-156 -156 -402 -156q-258 0 -419.5 186.5t-161.5 510.5zM514 -360 q180 25 180 94q0 66 -104 90l37 78q104 -16 151 -52t47 -106q0 -84 -84 -130t-211 -56z" />
<glyph unicode="&#x123;" d="M147 -182q0 127 164 221v8q-102 55 -102 164q0 106 119 186v9q-123 92 -123 258q0 158 113.5 257t277.5 99q84 0 147 -25h412v-129h-266q92 -96 92 -209q0 -156 -109.5 -249t-275.5 -93q-84 0 -168 37q-78 -49 -78 -114q0 -115 207 -115h223q195 0 287 -54.5t92 -179.5 q0 -145 -153.5 -246.5t-399.5 -101.5q-219 0 -339 73t-120 204zM293 -166q0 -80 85 -128t240 -48q166 0 270.5 61.5t104.5 143.5q0 68 -54 94.5t-173 26.5h-195q-94 0 -151 16q-127 -70 -127 -166zM367 664q0 -104 66.5 -170t162.5 -66q98 0 163.5 65.5t65.5 170.5 q0 102 -66.5 167.5t-162.5 65.5t-162.5 -65.5t-66.5 -167.5zM487 1266q0 84 84 130t213 58l17 -84q-182 -25 -183 -92q0 -66 105 -92l-37 -78q-102 16 -150.5 53t-48.5 105z" />
<glyph unicode="&#x124;" d="M162 0v1343h172v-563h561v563h172v-1343h-172v633h-561v-633h-172zM336 1446l196 229h162l197 -229h-135l-138 139h-8l-137 -139h-137z" />
<glyph unicode="&#x125;" d="M20 1534l197 227h162l196 -227h-137l-137 139h-8l-137 -139h-136zM190 0v1458h168v-397l-8 -236q186 195 377 195q344 0 344 -402v-618h-168v596q0 143 -54 210.5t-175 67.5q-84 0 -152.5 -41.5t-163.5 -138.5v-694h-168z" />
<glyph unicode="&#x126;" d="M20 1008v86l142 10v239h172v-239h561v239h172v-239h141v-96h-141v-1008h-172v633h-561v-633h-172v1008h-142zM334 780h561v228h-561v-228z" />
<glyph unicode="&#x127;" d="M41 1169v88l149 11v190h168v-190h435v-99h-435v-149l-8 -236q186 195 377 195q344 0 344 -401v-578h-168v555q0 143 -54 211t-175 68q-84 0 -152.5 -42t-163.5 -139v-653h-168v1169h-149z" />
<glyph unicode="&#x128;" d="M195 0v145h333v1055h-333v143h839v-143h-334v-1055h334v-145h-839zM317 1456q10 98 56.5 159.5t118.5 61.5q57 0 132.5 -53t110.5 -53q66 0 82 106h94q-10 -96 -56 -158.5t-118 -62.5q-57 0 -133 53.5t-110 53.5q-66 0 -82 -107h-95z" />
<glyph unicode="&#x129;" d="M184 858v137h631v-995h-168v858h-463zM422 1186q12 102 57 162.5t123 60.5q53 0 124 -55.5t97 -55.5q63 0 84 111h94q-10 -100 -55 -161.5t-123 -61.5q-55 0 -124.5 56t-98.5 56q-63 0 -82 -112h-96z" />
<glyph unicode="&#x12a;" d="M195 0v145h333v1055h-333v143h839v-143h-334v-1055h334v-145h-839zM360 1493v117h508v-117h-508z" />
<glyph unicode="&#x12b;" d="M184 858v137h631v-995h-168v858h-463zM461 1231v117h502v-117h-502z" />
<glyph unicode="&#x12c;" d="M195 0v145h333v1055h-333v143h839v-143h-334v-1055h334v-145h-839zM362 1675h103q10 -55 48 -92t101.5 -37t101.5 37t48 92h102q-12 -96 -74.5 -160.5t-177 -64.5t-177 64.5t-75.5 160.5z" />
<glyph unicode="&#x12d;" d="M184 858v137h631v-995h-168v858h-463zM446 1452h105q8 -72 49 -121t113 -49q70 0 110.5 48t50.5 122h105q-8 -111 -74.5 -192.5t-191.5 -81.5q-127 0 -193.5 81.5t-73.5 192.5z" />
<glyph unicode="&#x12e;" d="M195 0v145h333v1055h-333v143h839v-143h-334v-1055h334v-145h-334q-135 -102 -135 -219q0 -45 29 -69.5t70 -24.5q47 0 81 28l48 -92q-72 -57 -164 -57q-84 0 -139.5 47t-55.5 131q0 133 135 256h-374z" />
<glyph unicode="&#x12f;" d="M184 858v137h631v-995q-133 -96 -133 -215q0 -45 27.5 -69.5t68.5 -24.5q39 0 82 26l43 -84q-70 -55 -160 -55q-82 0 -134 45t-52 129q0 115 129 248h-39v858h-463zM578 1329q0 59 37.5 95t97.5 36q57 0 96 -35.5t39 -95.5q0 -57 -39 -93t-96 -36q-59 0 -97 36t-38 93z " />
<glyph unicode="&#x130;" d="M195 0v145h333v1055h-333v143h839v-143h-334v-1055h334v-145h-839zM498 1573q0 47 33.5 77.5t83 30.5t83 -30.5t33.5 -77.5q0 -49 -33.5 -80t-83 -31t-83 31t-33.5 80z" />
<glyph unicode="&#x131;" d="M184 858v137h631v-995h-168v858h-463z" />
<glyph unicode="&#x134;" d="M166 199l110 102q115 -176 285 -176q145 0 212 77t67 242v758h-564v144h734v-916q0 -205 -104.5 -330t-340.5 -125q-121 0 -227 55.5t-172 168.5zM379 1446l196 229h162l197 -229h-135l-137 139h-9l-137 -139h-137z" />
<glyph unicode="&#x135;" d="M113 -377l55 125q115 -55 227 -55q141 0 196.5 66.5t55.5 203.5v895h-463v137h631v-1020q0 -201 -95 -310t-323 -109q-145 0 -284 67zM442 1174l197 303h145l199 -303h-129l-137 202h-8l-138 -202h-129z" />
<glyph unicode="&#x136;" d="M201 0v1343h172v-673h6l565 673h193l-424 -512l473 -831h-191l-389 698l-233 -272v-426h-172zM518 -360q182 25 182 94q0 63 -106 90l37 78q104 -16 152 -53t48 -105q0 -84 -83.5 -130t-212.5 -56z" />
<glyph unicode="&#x137;" d="M217 0v1458h168v-987l6 2l539 522h192l-397 -395l451 -600h-189l-366 492l-236 -226v-266h-168zM512 -360q182 25 182 94q0 66 -104 90l37 78q104 -16 151 -52t47 -106q0 -84 -84 -130t-211 -56z" />
<glyph unicode="&#x138;" d="M217 0v995h168v-524l6 2l539 522h192l-397 -395l451 -600h-189l-366 492l-236 -226v-266h-168z" />
<glyph unicode="&#x139;" d="M274 0v1343h168v-1198h666v-145h-834zM285 1446l180 229h192l-231 -229h-141z" />
<glyph unicode="&#x13a;" d="M166 1321v137h508v-1136q0 -207 194 -207q82 0 189 47l43 -127q-164 -59 -269 -60q-160 0 -242.5 91.5t-82.5 267.5v987h-340zM461 1554l180 228h193l-232 -228h-141z" />
<glyph unicode="&#x13b;" d="M274 0v1343h168v-1198h666v-145h-834zM537 -360q180 25 180 94q0 66 -105 90l37 78q104 -16 151.5 -52t47.5 -106q0 -84 -84 -130t-211 -56z" />
<glyph unicode="&#x13c;" d="M166 1321v137h508v-1136q0 -207 194 -207q82 0 189 47l43 -127q-164 -59 -269 -60q-160 0 -242.5 91.5t-82.5 267.5v987h-340zM586 -360q182 25 182 94q0 63 -106 90l36 78q104 -16 152.5 -53t48.5 -105q0 -84 -84 -130t-213 -56z" />
<glyph unicode="&#x13d;" d="M274 0v1343h168v-1198h666v-145h-834zM791 1487h120l-2 -117l-28 -317h-84z" />
<glyph unicode="&#x13e;" d="M166 1321v137h508v-1136q0 -207 194 -207q82 0 189 47l43 -127q-164 -59 -269 -60q-160 0 -242.5 91.5t-82.5 267.5v987h-340zM815 1556h121l-2 -116l-29 -318h-82z" />
<glyph unicode="&#x13f;" d="M274 0v1343h168v-1198h666v-145h-834zM748 711q0 59 37.5 95t95.5 36q59 0 97 -36t38 -95q0 -57 -38 -93t-97 -36q-57 0 -95 35.5t-38 93.5z" />
<glyph unicode="&#x140;" d="M86 1321v137h508v-1136q0 -207 197 -207q80 0 186 47l43 -127q-164 -59 -268 -60q-160 0 -243 91.5t-83 267.5v987h-340zM760 709q0 59 39 95t96 36q59 0 97 -36t38 -95q0 -57 -38 -93t-97 -36q-57 0 -96 35.5t-39 93.5z" />
<glyph unicode="&#x141;" d="M109 377v137l165 90v739h168v-657l463 246v-139l-463 -246v-402h666v-145h-834v465z" />
<glyph unicode="&#x142;" d="M166 1321v137h508v-547l334 187v-146l-334 -186v-444q0 -207 194 -207q83 0 189 47l43 -127q-164 -59 -269 -60q-160 0 -242.5 91.5t-82.5 267.5v346l-254 -145v143l254 145v498h-340z" />
<glyph unicode="&#x143;" d="M170 0v1343h174l436 -847l135 -275h5q-2 27 -12.5 184.5t-10.5 241.5v696h162v-1343h-174l-436 848l-136 274h-4q2 -37 12.5 -187.5t10.5 -232.5v-702h-162zM522 1446l180 229h193l-231 -229h-142z" />
<glyph unicode="&#x144;" d="M190 0v995h140l14 -170h8q184 195 375 195q344 0 344 -402v-618h-168v596q0 143 -54 210.5t-175 67.5q-84 0 -152.5 -41.5t-163.5 -138.5v-694h-168zM518 1174l184 303h183l-238 -303h-129z" />
<glyph unicode="&#x145;" d="M170 0v1343h174l436 -847l135 -275h5q-2 27 -12.5 184.5t-10.5 241.5v696h162v-1343h-174l-436 848l-136 274h-4q2 -37 12.5 -187.5t10.5 -232.5v-702h-162zM440 -360q182 25 183 94q0 63 -105 90l37 78q104 -16 151.5 -52t47.5 -106q0 -84 -84 -130t-213 -56z" />
<glyph unicode="&#x146;" d="M190 0v995h140l14 -170h8q184 195 375 195q344 0 344 -402v-618h-168v596q0 143 -54 210.5t-175 67.5q-84 0 -152.5 -41.5t-163.5 -138.5v-694h-168zM467 -360q182 25 182 94q0 63 -104 90l37 78q104 -16 151 -53t47 -105q0 -84 -84 -130t-213 -56z" />
<glyph unicode="&#x147;" d="M170 0v1343h174l436 -847l135 -275h5q-2 27 -12.5 184.5t-10.5 241.5v696h162v-1343h-174l-436 848l-136 274h-4q2 -37 12.5 -187.5t10.5 -232.5v-702h-162zM348 1675h137l138 -139h8l137 139h137l-196 -229h-164z" />
<glyph unicode="&#x148;" d="M190 0v995h140l14 -170h8q184 195 375 195q344 0 344 -402v-618h-168v596q0 143 -54 210.5t-175 67.5q-84 0 -152.5 -41.5t-163.5 -138.5v-694h-168zM381 1477h129l137 -203h8l138 203h129l-199 -303h-145z" />
<glyph unicode="&#x149;" d="M-45 815q201 111 213 324q-25 -12 -53 -13q-66 0 -106 41t-40 105q0 70 43 115t109 45q82 0 133 -67t51 -181q0 -152 -78 -273.5t-215 -193.5zM401 0v995h140l14 -155h8q172 180 344 180q317 0 318 -389v-631h-170v608q0 137 -48.5 201.5t-152.5 64.5q-76 0 -136.5 -37.5 t-148.5 -127.5v-709h-168z" />
<glyph unicode="&#x14c;" d="M98 678q0 317 142.5 503.5t374 186.5t373.5 -186.5t142 -503.5q0 -322 -143 -512.5t-372.5 -190.5t-373 190.5t-143.5 512.5zM274 678q0 -252 93.5 -402.5t247 -150.5t246.5 150.5t93 402.5q0 250 -93 395.5t-246.5 145.5t-247 -145.5t-93.5 -395.5zM360 1493v117h508 v-117h-508z" />
<glyph unicode="&#x14d;" d="M123 496q0 242 142.5 383t349 141t349 -141.5t142.5 -382.5q0 -238 -143.5 -379.5t-348 -141.5t-348 141.5t-143.5 379.5zM297 496q0 -170 87 -275.5t230.5 -105.5t230.5 105.5t87 275.5q0 172 -87 278.5t-230.5 106.5t-230.5 -106.5t-87 -278.5zM362 1231v117h504v-117 h-504z" />
<glyph unicode="&#x14e;" d="M98 678q0 317 142.5 503.5t374 186.5t373.5 -186.5t142 -503.5q0 -322 -143 -512.5t-372.5 -190.5t-373 190.5t-143.5 512.5zM274 678q0 -252 93.5 -402.5t247 -150.5t246.5 150.5t93 402.5q0 250 -93 395.5t-246.5 145.5t-247 -145.5t-93.5 -395.5zM362 1675h103 q10 -55 48 -92t101.5 -37t101.5 37t48 92h102q-12 -96 -74.5 -160.5t-177 -64.5t-177 64.5t-75.5 160.5z" />
<glyph unicode="&#x14f;" d="M123 496q0 242 142.5 383t349 141t349 -141.5t142.5 -382.5q0 -238 -143.5 -379.5t-348 -141.5t-348 141.5t-143.5 379.5zM297 496q0 -170 87 -275.5t230.5 -105.5t230.5 105.5t87 275.5q0 172 -87 278.5t-230.5 106.5t-230.5 -106.5t-87 -278.5zM348 1452h105 q10 -74 51 -122t110.5 -48t110.5 48t51 122h105q-8 -111 -75 -192.5t-192 -81.5t-191.5 81.5t-74.5 192.5z" />
<glyph unicode="&#x150;" d="M98 678q0 317 142.5 503.5t374 186.5t373.5 -186.5t142 -503.5q0 -322 -143 -512.5t-372.5 -190.5t-373 190.5t-143.5 512.5zM274 678q0 -252 93.5 -402.5t247 -150.5t246.5 150.5t93 402.5q0 250 -93 395.5t-246.5 145.5t-247 -145.5t-93.5 -395.5zM391 1446l135 229 h158l-170 -229h-123zM715 1446l135 229h158l-172 -229h-121z" />
<glyph unicode="&#x151;" d="M123 496q0 242 142.5 383t349 141t349 -141.5t142.5 -382.5q0 -238 -143.5 -379.5t-348 -141.5t-348 141.5t-143.5 379.5zM297 496q0 -170 87 -275.5t230.5 -105.5t230.5 105.5t87 275.5q0 172 -87 278.5t-230.5 106.5t-230.5 -106.5t-87 -278.5zM414 1169l143 293h150 l-181 -293h-112zM715 1169l145 293h148l-181 -293h-112z" />
<glyph unicode="&#x152;" d="M68 677.5q0 319.5 144 494t400 174.5h578v-144h-397v-424h303v-145h-303v-488h417v-145h-604q-252 0 -395 179t-143 498.5zM244 678q0 -260 88 -399.5t260 -139.5h43v1065h-43q-348 0 -348 -526z" />
<glyph unicode="&#x153;" d="M23 498q0 242 101 382t259 140q94 0 166 -62.5t113 -177.5q88 240 272 240q135 0 211 -130t76 -325q0 -66 -7 -108h-493q8 -160 68.5 -253t168.5 -93q78 0 175 63l59 -111q-119 -88 -240 -88q-201 0 -290 230q-88 -229 -279 -230q-158 0 -259 139.5t-101 383.5zM180 498 q0 -176 54.5 -280.5t156.5 -104.5q92 0 147.5 106.5t55.5 278.5t-55.5 277.5t-147.5 105.5q-102 0 -156.5 -103.5t-54.5 -279.5zM719 569h362q0 317 -159 318q-176 -1 -203 -318z" />
<glyph unicode="&#x154;" d="M205 0v1343h418q469 0 469 -376q0 -152 -80 -248t-221 -133l342 -586h-195l-324 567h-239v-567h-170zM375 707h223q324 0 324 260q0 129 -81 184t-243 55h-223v-499zM518 1446l182 229h193l-234 -229h-141z" />
<glyph unicode="&#x155;" d="M299 0v995h139l15 -235h6q170 260 444 260q113 0 195 -41l-35 -145q-98 35 -186 34q-246 0 -410 -284v-584h-168zM567 1174l185 303h182l-238 -303h-129z" />
<glyph unicode="&#x156;" d="M205 0v1343h418q469 0 469 -376q0 -152 -80 -248t-221 -133l342 -586h-195l-324 567h-239v-567h-170zM375 707h223q324 0 324 260q0 129 -81 184t-243 55h-223v-499zM481 -360q182 25 183 94q-1 63 -105 90l37 78q104 -16 151.5 -52t47.5 -106q0 -84 -84 -130t-213 -56z " />
<glyph unicode="&#x157;" d="M236 -360q182 25 182 94q0 66 -105 90l37 78q104 -16 151.5 -52t47.5 -106q0 -84 -84 -130t-211 -56zM299 0v995h139l15 -235h6q170 260 444 260q113 0 195 -41l-35 -145q-98 35 -186 34q-246 0 -410 -284v-584h-168z" />
<glyph unicode="&#x158;" d="M205 0v1343h418q469 0 469 -376q0 -152 -80 -248t-221 -133l342 -586h-195l-324 567h-239v-567h-170zM346 1675h137l138 -139h8l135 139h137l-196 -229h-162zM375 707h223q324 0 324 260q0 129 -81 184t-243 55h-223v-499z" />
<glyph unicode="&#x159;" d="M299 0v995h139l15 -235h6q170 260 444 260q113 0 195 -41l-35 -145q-98 35 -186 34q-246 0 -410 -284v-584h-168zM430 1477h129l137 -203h9l137 203h129l-199 -303h-145z" />
<glyph unicode="&#x15a;" d="M137 174l103 119q168 -168 387 -168q141 0 220 59.5t79 159.5q0 49 -15.5 85t-56.5 64.5t-71.5 44t-98.5 44.5l-192 84q-291 115 -291 346q0 154 125 255t315 101q248 0 414 -166l-90 -110q-143 127 -324 127q-121 0 -193.5 -53.5t-72.5 -143.5q0 -45 18.5 -81 t62.5 -63.5t69.5 -40t88.5 -38.5l189 -82q141 -57 219 -139t78 -220q0 -164 -130 -273.5t-345 -109.5q-289 0 -488 199zM532 1446l181 229h192l-231 -229h-142z" />
<glyph unicode="&#x15b;" d="M147 131l82 111q182 -135 412 -136q129 0 197.5 44.5t68.5 111.5q0 59 -72.5 104.5t-250.5 88.5q-379 94 -379 282q0 125 109.5 204t308.5 79q215 0 399 -127l-82 -109q-150 104 -317 105q-246 0 -246 -144q0 -57 76.5 -98t226.5 -78q209 -53 303 -119.5t94 -177.5 q0 -127 -117.5 -212t-324.5 -85q-265 0 -488 156zM487 1174l187 303h182l-240 -303h-129z" />
<glyph unicode="&#x15c;" d="M137 174l103 119q168 -168 387 -168q141 0 220 59.5t79 159.5q0 49 -15.5 85t-56.5 64.5t-71.5 44t-98.5 44.5l-192 84q-291 115 -291 346q0 154 125 255t315 101q248 0 414 -166l-90 -110q-143 127 -324 127q-121 0 -193.5 -53.5t-72.5 -143.5q0 -45 18.5 -81 t62.5 -63.5t69.5 -40t88.5 -38.5l189 -82q141 -57 219 -139t78 -220q0 -164 -130 -273.5t-345 -109.5q-289 0 -488 199zM358 1446l197 229h164l196 -229h-137l-137 139h-8l-137 -139h-138z" />
<glyph unicode="&#x15d;" d="M147 131l82 111q182 -135 412 -136q129 0 197.5 44.5t68.5 111.5q0 59 -72.5 104.5t-250.5 88.5q-379 94 -379 282q0 125 109.5 204t308.5 79q215 0 399 -127l-82 -109q-150 104 -317 105q-246 0 -246 -144q0 -57 76.5 -98t226.5 -78q209 -53 303 -119.5t94 -177.5 q0 -127 -117.5 -212t-324.5 -85q-265 0 -488 156zM350 1174l199 303h145l199 -303h-131l-137 202h-9l-137 -202h-129z" />
<glyph unicode="&#x15e;" d="M137 174l103 119q168 -168 387 -168q141 0 220 59.5t79 159.5q0 49 -15.5 85t-56.5 64.5t-71.5 44t-98.5 44.5l-192 84q-291 115 -291 346q0 154 125 255t315 101q248 0 414 -166l-90 -110q-143 127 -324 127q-121 0 -193.5 -53.5t-72.5 -143.5q0 -45 18.5 -81 t62.5 -63.5t69.5 -39.5t88.5 -39l189 -82q141 -57 219 -139t78 -220q0 -152 -111.5 -258t-302.5 -123l-39 -79q123 -41 123 -146q0 -84 -84 -130t-213 -58l-16 84q182 25 182 98q0 68 -131 100l67 131q-260 18 -438 197z" />
<glyph unicode="&#x15f;" d="M147 131l82 111q182 -135 412 -136q129 0 197.5 44.5t68.5 111.5q0 59 -72.5 104.5t-250.5 88.5q-379 94 -379 282q0 125 109.5 204t308.5 79q215 0 399 -127l-82 -109q-150 104 -317 105q-246 0 -246 -144q0 -57 76.5 -98t226.5 -78q209 -53 303 -119.5t94 -177.5 q0 -117 -100 -198.5t-279 -96.5l-36 -79q121 -41 120 -146q0 -84 -84 -130t-213 -58l-16 84q182 25 182 98q0 68 -131 100l68 131q-242 14 -441 154z" />
<glyph unicode="&#x160;" d="M137 174l103 119q168 -168 387 -168q141 0 220 59.5t79 159.5q0 49 -15.5 85t-56.5 64.5t-71.5 44t-98.5 44.5l-192 84q-291 115 -291 346q0 154 125 255t315 101q248 0 414 -166l-90 -110q-143 127 -324 127q-121 0 -193.5 -53.5t-72.5 -143.5q0 -45 18.5 -81 t62.5 -63.5t69.5 -40t88.5 -38.5l189 -82q141 -57 219 -139t78 -220q0 -164 -130 -273.5t-345 -109.5q-289 0 -488 199zM358 1675h138l137 -139h8l137 139h137l-196 -229h-164z" />
<glyph unicode="&#x161;" d="M147 131l82 111q182 -135 412 -136q129 0 197.5 44.5t68.5 111.5q0 59 -72.5 104.5t-250.5 88.5q-379 94 -379 282q0 125 109.5 204t308.5 79q215 0 399 -127l-82 -109q-150 104 -317 105q-246 0 -246 -144q0 -57 76.5 -98t226.5 -78q209 -53 303 -119.5t94 -177.5 q0 -127 -117.5 -212t-324.5 -85q-265 0 -488 156zM350 1477h129l137 -203h9l137 203h131l-199 -303h-145z" />
<glyph unicode="&#x162;" d="M86 1200v143h1057v-143h-443v-1200h-28l-49 -102q121 -41 120 -146q0 -84 -84 -130t-213 -58l-16 84q182 25 182 98q0 68 -131 100l78 154h-31v1200h-442z" />
<glyph unicode="&#x163;" d="M141 858v127l287 10l23 279h139v-279h487v-137h-487v-473q0 -139 56 -205.5t196 -66.5q121 0 239 45l35 -123q-144 -54 -291 -60l-37 -77q121 -41 121 -146q0 -84 -84 -130t-213 -58l-16 84q182 25 182 98q0 68 -131 100l70 136q-295 41 -295 405v471h-281z" />
<glyph unicode="&#x164;" d="M86 1200v143h1057v-143h-443v-1200h-172v1200h-442zM336 1675h135l137 -139h8l138 139h137l-197 -229h-162z" />
<glyph unicode="&#x165;" d="M141 858v127l287 10l23 279h139v-279h487v-137h-487v-473q0 -139 56 -205.5t196 -66.5q121 0 239 45l35 -123q-160 -59 -311 -60q-207 0 -295 107.5t-88 304.5v471h-281zM803 1556h121l-2 -116l-29 -318h-82z" />
<glyph unicode="&#x168;" d="M162 508v835h172v-839q0 -379 282 -379q131 0 208 90t77 289v839h166v-835q0 -276 -121 -404.5t-330 -128.5q-211 0 -332.5 129.5t-121.5 403.5zM317 1456q10 98 56.5 159.5t118.5 61.5q57 0 132.5 -53t110.5 -53q66 0 82 106h94q-10 -96 -56 -158.5t-118 -62.5 q-57 0 -133 53.5t-110 53.5q-66 0 -82 -107h-95z" />
<glyph unicode="&#x169;" d="M158 377v618h170v-596q0 -143 53 -210.5t176 -67.5q84 0 154.5 43t154.5 141v690h168v-995h-137l-14 174h-9q-170 -199 -370 -199q-346 0 -346 402zM313 1186q25 223 181 223q53 0 123.5 -55.5t97.5 -55.5q63 0 82 111h96q-10 -100 -55 -161.5t-123 -61.5q-55 0 -125 56 t-98 56q-63 0 -82 -112h-97z" />
<glyph unicode="&#x16a;" d="M162 508v835h172v-839q0 -379 282 -379q131 0 208 90t77 289v839h166v-835q0 -276 -121 -404.5t-330 -128.5q-211 0 -332.5 129.5t-121.5 403.5zM360 1493v117h508v-117h-508z" />
<glyph unicode="&#x16b;" d="M158 377v618h170v-596q0 -143 53 -210.5t176 -67.5q84 0 154.5 43t154.5 141v690h168v-995h-137l-14 174h-9q-170 -199 -370 -199q-346 0 -346 402zM352 1231v117h502v-117h-502z" />
<glyph unicode="&#x16c;" d="M162 508v835h172v-839q0 -379 282 -379q131 0 208 90t77 289v839h166v-835q0 -276 -121 -404.5t-330 -128.5q-211 0 -332.5 129.5t-121.5 403.5zM362 1675h103q10 -55 48 -92t101.5 -37t101.5 37t48 92h102q-12 -96 -74.5 -160.5t-177 -64.5t-177 64.5t-75.5 160.5z" />
<glyph unicode="&#x16d;" d="M158 377v618h170v-596q0 -143 53 -210.5t176 -67.5q84 0 154.5 43t154.5 141v690h168v-995h-137l-14 174h-9q-170 -199 -370 -199q-346 0 -346 402zM338 1452h104q8 -72 49 -121t113 -49q70 0 111 48t51 122h104q-8 -111 -74.5 -192.5t-191.5 -81.5q-127 0 -193.5 81.5 t-72.5 192.5z" />
<glyph unicode="&#x16e;" d="M162 508v835h172v-839q0 -379 282 -379q131 0 208 90t77 289v839h166v-835q0 -276 -121 -404.5t-330 -128.5q-211 0 -332.5 129.5t-121.5 403.5zM424 1612q0 80 53 130t137 50q82 0 136.5 -50t54.5 -130q0 -82 -54.5 -131t-136.5 -49q-84 0 -137 49t-53 131zM516 1612 q0 -49 27.5 -78t70.5 -29q41 0 69 29t28 78q0 47 -29 75.5t-68 28.5q-43 0 -70.5 -28.5t-27.5 -75.5z" />
<glyph unicode="&#x16f;" d="M158 377v618h170v-596q0 -143 53 -210.5t176 -67.5q84 0 154.5 43t154.5 141v690h168v-995h-137l-14 174h-9q-170 -199 -370 -199q-346 0 -346 402zM412 1300q0 84 54 136.5t138 52.5t137.5 -52.5t53.5 -136.5q0 -86 -53.5 -138t-137.5 -52q-86 0 -139 52t-53 138z M506 1300q0 -51 27.5 -82.5t70.5 -31.5q41 0 69.5 31.5t28.5 82.5q0 49 -28.5 81t-69.5 32q-43 0 -70.5 -31.5t-27.5 -81.5z" />
<glyph unicode="&#x170;" d="M162 508v835h172v-839q0 -379 282 -379q131 0 208 90t77 289v839h166v-835q0 -276 -121 -404.5t-330 -128.5q-211 0 -332.5 129.5t-121.5 403.5zM391 1446l135 229h158l-170 -229h-123zM715 1446l135 229h158l-172 -229h-121z" />
<glyph unicode="&#x171;" d="M158 377v618h170v-596q0 -143 53 -210.5t176 -67.5q84 0 154.5 43t154.5 141v690h168v-995h-137l-14 174h-9q-170 -199 -370 -199q-346 0 -346 402zM403 1169l144 293h147l-180 -293h-111zM705 1169l143 293h147l-180 -293h-110z" />
<glyph unicode="&#x172;" d="M162 508v835h172v-839q0 -379 280 -379q131 0 209 91t78 288v839h166v-835q0 -381 -254 -498q-102 -47 -154.5 -108.5t-52.5 -120.5q0 -45 29 -69.5t67 -24.5q43 0 84 28l45 -92q-72 -57 -161 -57q-86 0 -141.5 47t-55.5 131q0 20 4 40.5t9.5 36t16.5 34t17 29t22.5 28.5 t20.5 23.5t22.5 22.5t20.5 19q-444 7 -444 531z" />
<glyph unicode="&#x173;" d="M158 377v618h170v-596q0 -143 53 -210.5t176 -67.5q84 0 154.5 43t154.5 141v690h168v-995q-176 -86 -176 -215q0 -45 27.5 -69.5t66.5 -24.5q45 0 82 26l45 -84q-70 -55 -161 -55q-80 0 -132.5 46t-52.5 128q0 137 164 256l-14 166h-9q-170 -199 -370 -199 q-346 0 -346 402z" />
<glyph unicode="&#x174;" d="M20 1346h170l109 -844q4 -63 14.5 -176t14.5 -156h6q10 37 27.5 104.5t32 123t26.5 104.5l141 495h121l141 -495q14 -61 84 -332h8q4 55 14.5 165.5t14.5 166.5l103 844h161l-198 -1346h-189l-153 563q-27 113 -50 242h-6q-35 -170 -53 -242l-147 -563h-185zM336 1446 l196 229h164l197 -229h-137l-138 139h-8l-137 -139h-137z" />
<glyph unicode="&#x175;" d="M16 995h170l123 -575q31 -154 49 -277h9q37 184 59 277l123 516h139l127 -516q8 -37 27.5 -131t31.5 -146h9q8 41 49 277l121 575h159l-215 -995h-204l-119 504q-8 39 -25.5 135t-30.5 154h-8q-6 -29 -15 -83.5t-19.5 -105.5t-20.5 -102l-115 -502h-200zM344 1174 l199 303h145l199 -303h-131l-138 202h-8l-137 -202h-129z" />
<glyph unicode="&#x176;" d="M78 1343h180l203 -399q23 -43 73 -148.5t80 -164.5h9q27 55 80 159.5t77 155.5l195 397h176l-451 -864v-479h-172v479zM336 1446l196 229h164l197 -229h-137l-138 139h-8l-137 -139h-137z" />
<glyph unicode="&#x177;" d="M100 995h170l244 -551q16 -39 36.5 -87t46.5 -108.5t40 -92.5h8q92 252 107 288l217 551h159l-438 -1077q-129 -346 -422 -346q-74 0 -131 20l35 134q47 -14 90 -15q186 0 273 213l30 74zM352 1174l199 303h145l197 -303h-129l-137 202h-9l-137 -202h-129z" />
<glyph unicode="&#x178;" d="M78 1343h180l203 -399q23 -43 73 -148.5t80 -164.5h9q27 55 80 159.5t77 155.5l195 397h176l-451 -864v-479h-172v479zM338 1565q0 45 27.5 72.5t72.5 27.5q43 0 72 -27.5t29 -72.5q0 -43 -29 -72t-72 -29q-45 0 -72.5 29t-27.5 72zM690 1565q0 45 29 72.5t72 27.5 q45 0 72.5 -27.5t27.5 -72.5q0 -43 -27.5 -72t-72.5 -29q-43 0 -72 29t-29 72z" />
<glyph unicode="&#x179;" d="M133 0v102l752 1100h-686v144h895v-103l-754 -1098h764v-145h-971zM541 1446l180 229h192l-231 -229h-141z" />
<glyph unicode="&#x17a;" d="M145 0v90l682 768h-606v137h848v-90l-684 -768h705v-137h-945zM522 1174l185 303h184l-240 -303h-129z" />
<glyph unicode="&#x17b;" d="M133 0v102l752 1100h-686v144h895v-103l-754 -1098h764v-145h-971zM528 1573q0 47 34 77.5t83 30.5t83 -30.5t34 -77.5q0 -49 -34 -80t-83 -31t-83 31t-34 80z" />
<glyph unicode="&#x17c;" d="M145 0v90l682 768h-606v137h848v-90l-684 -768h705v-137h-945zM520 1329q0 59 39 95t96 36q59 0 97.5 -35.5t38.5 -95.5q0 -57 -38.5 -93t-97.5 -36q-57 0 -96 36t-39 93z" />
<glyph unicode="&#x17d;" d="M133 0v102l752 1100h-686v144h895v-103l-754 -1098h764v-145h-971zM369 1675h135l137 -139h8l137 139h138l-197 -229h-162z" />
<glyph unicode="&#x17e;" d="M145 0v90l682 768h-606v137h848v-90l-684 -768h705v-137h-945zM385 1477h129l137 -203h8l138 203h129l-197 -303h-145z" />
<glyph unicode="&#x180;" d="M41 1169v88l149 11v190h168v-190h435v-99h-435v-149l-4 -193q156 152 338 152q199 0 306.5 -130t107.5 -355q0 -236 -132 -377.5t-319 -141.5q-158 0 -309 136h-6l-14 -111h-136v1169h-149zM358 233q131 -117 271 -116q133 0 218 101t85 274q0 346 -281 346 q-143 0 -293 -150v-455z" />
<glyph unicode="&#x18f;" d="M127 666q0 16 4 45h825q-6 244 -94 378t-248 134q-151 0 -268 -121l-78 117q145 150 359 149q231 0 365 -185.5t134 -506.5q0 -319 -139 -510t-369 -191q-225 0 -358 189.5t-133 501.5zM301 580q14 -215 98 -337t219 -122q137 0 227.5 124t106.5 337z" />
<glyph unicode="&#x192;" d="M100 -162l33 127q68 -27 121 -26q102 0 150.5 76.5t68.5 242.5l49 449h-213v120l144 9h84l12 114q27 211 111.5 314.5t250.5 103.5q105 0 187 -41l-41 -127q-61 31 -137 31q-176 0 -207 -266l-15 -129h291v-129h-305l-55 -486q-25 -205 -107 -312.5t-252 -107.5 q-88 0 -170 37z" />
<glyph unicode="&#x1a0;" d="M98 678q0 317 142.5 503.5t373.5 186.5q129 0 238 -63q82 12 122 43.5t40 91.5q0 39 -31 84l121 59q47 -61 47 -133q0 -168 -209 -217q188 -184 188 -555q0 -322 -143 -512.5t-372.5 -190.5t-373 190.5t-143.5 512.5zM274 678q0 -252 93.5 -402.5t247 -150.5t246.5 150.5 t93 402.5q0 250 -93 395.5t-246.5 145.5t-247 -145.5t-93.5 -395.5z" />
<glyph unicode="&#x1a1;" d="M123 496q0 242 142.5 383t348.5 141q111 0 211 -45q174 25 174 135q1 41 -30 86l121 59q49 -63 49 -133q0 -166 -205 -215q172 -147 172 -411q0 -238 -143.5 -379.5t-348 -141.5t-348 141.5t-143.5 379.5zM297 496q0 -170 87 -275.5t230.5 -105.5t230.5 105.5t87 275.5 q0 172 -87 278.5t-230.5 106.5t-230.5 -106.5t-87 -278.5z" />
<glyph unicode="&#x1af;" d="M162 508v835h172v-839q0 -379 282 -379q131 0 208 90t77 289v839h72q90 12 135 42t45 96q0 39 -31 84l121 59q47 -61 47 -133q0 -172 -223 -221v-762q0 -276 -121 -404.5t-330 -128.5q-211 0 -332.5 129t-121.5 404z" />
<glyph unicode="&#x1b0;" d="M158 377v618h170v-596q0 -143 53 -210.5t176 -67.5q84 0 154.5 43t154.5 141v690h49q170 18 170 135q1 40 -28 87l121 59q47 -66 47 -133q0 -160 -191 -213v-930h-137l-14 174h-9q-170 -199 -370 -199q-346 0 -346 402z" />
<glyph unicode="&#x1cd;" d="M66 0l452 1343h193l452 -1343h-180l-127 410h-487l-129 -410h-174zM336 1675h137l137 -139h8l138 139h137l-197 -229h-164zM412 547h401l-63 205q-66 209 -134 452h-8q-68 -244 -133 -452z" />
<glyph unicode="&#x1ce;" d="M166 258q0 168 168 255t553 118q-4 113 -66.5 181.5t-197.5 68.5q-158 0 -349 -119l-65 115q219 143 442 143q199 0 301.5 -109.5t102.5 -300.5v-610h-137l-15 135h-6q-205 -160 -393 -160q-145 0 -241.5 77t-96.5 206zM330 270q0 -80 62.5 -119.5t156.5 -39.5 q162 0 338 147v262q-307 -25 -432 -86.5t-125 -163.5zM371 1477h131l137 -203h8l137 203h129l-198 -303h-146z" />
<glyph unicode="&#x1cf;" d="M195 0v145h333v1055h-333v143h839v-143h-334v-1055h334v-145h-839zM336 1675h137l137 -139h8l138 139h137l-197 -229h-164z" />
<glyph unicode="&#x1d0;" d="M184 858v137h631v-995h-168v858h-463zM442 1477h129l138 -203h8l137 203h129l-199 -303h-145z" />
<glyph unicode="&#x1d1;" d="M98 678q0 317 142.5 503.5t374 186.5t373.5 -186.5t142 -503.5q0 -322 -143 -512.5t-372.5 -190.5t-373 190.5t-143.5 512.5zM274 678q0 -252 93.5 -402.5t247 -150.5t246.5 150.5t93 402.5q0 250 -93 395.5t-246.5 145.5t-247 -145.5t-93.5 -395.5zM336 1675h137 l137 -139h8l138 139h137l-197 -229h-164z" />
<glyph unicode="&#x1d2;" d="M123 496q0 242 142.5 383t349 141t349 -141.5t142.5 -382.5q0 -238 -143.5 -379.5t-348 -141.5t-348 141.5t-143.5 379.5zM297 496q0 -170 87 -275.5t230.5 -105.5t230.5 105.5t87 275.5q0 172 -87 278.5t-230.5 106.5t-230.5 -106.5t-87 -278.5zM344 1477h129l137 -203 h8l138 203h129l-199 -303h-143z" />
<glyph unicode="&#x1d3;" d="M162 508v835h172v-839q0 -379 282 -379q131 0 208 90t77 289v839h166v-835q0 -276 -121 -404.5t-330 -128.5q-211 0 -332.5 129.5t-121.5 403.5zM336 1675h137l137 -139h8l138 139h137l-197 -229h-164z" />
<glyph unicode="&#x1d4;" d="M158 377v618h170v-596q0 -143 53 -210.5t176 -67.5q84 0 154.5 43t154.5 141v690h168v-995h-137l-14 174h-9q-170 -199 -370 -199q-346 0 -346 402zM332 1477h131l137 -203h8l137 203h129l-198 -303h-146z" />
<glyph unicode="&#x1d5;" d="M162 508v835h172v-839q0 -379 282 -379q131 0 208 90t77 289v839h166v-835q0 -276 -121 -404.5t-330 -128.5q-211 0 -332.5 129.5t-121.5 403.5zM344 1559q0 39 26.5 65.5t67.5 26.5t66.5 -27t25.5 -65q0 -41 -25.5 -68t-66.5 -27t-67.5 27t-26.5 68zM360 1763v95h508 v-95h-508zM698 1559q0 39 26 65.5t66.5 26.5t67.5 -27t27 -65q0 -41 -27 -68t-67.5 -27t-66.5 27t-26 68z" />
<glyph unicode="&#x1d6;" d="M158 377v618h170v-596q0 -143 53 -210.5t176 -67.5q84 0 154.5 43t154.5 141v690h168v-995h-137l-14 174h-9q-170 -199 -370 -199q-346 0 -346 402zM334 1296q0 41 26.5 68t65.5 27q41 0 67.5 -27t26.5 -68q0 -39 -26.5 -65.5t-67.5 -26.5q-39 0 -65.5 26.5t-26.5 65.5z M350 1536v96h504v-96h-504zM688 1296q0 41 26.5 68t65.5 27t65.5 -27t26.5 -68q0 -39 -26.5 -65.5t-65.5 -26.5t-65.5 26.5t-26.5 65.5z" />
<glyph unicode="&#x1d7;" d="M162 508v835h172v-839q0 -379 282 -379q131 0 208 90t77 289v839h166v-835q0 -276 -121 -404.5t-330 -128.5q-211 0 -332.5 129.5t-121.5 403.5zM344 1559q0 39 26.5 65.5t67.5 26.5t66.5 -27t25.5 -65q0 -41 -25.5 -68t-66.5 -27t-67.5 27t-26.5 68zM510 1718l182 228 h187l-230 -228h-139zM698 1559q0 39 26 65.5t66.5 26.5t67.5 -27t27 -65q0 -41 -27 -68t-67.5 -27t-66.5 27t-26 68z" />
<glyph unicode="&#x1d8;" d="M158 377v618h170v-596q0 -143 53 -210.5t176 -67.5q84 0 154.5 43t154.5 141v690h168v-995h-137l-14 174h-9q-170 -199 -370 -199q-346 0 -346 402zM334 1296q0 41 26.5 68t65.5 27q41 0 67.5 -27t26.5 -68q0 -39 -26.5 -65.5t-67.5 -26.5q-39 0 -65.5 26.5t-26.5 65.5z M496 1475l168 211h161l-211 -211h-118zM688 1296q0 41 26.5 68t65.5 27t65.5 -27t26.5 -68q0 -39 -26.5 -65.5t-65.5 -26.5t-65.5 26.5t-26.5 65.5z" />
<glyph unicode="&#x1d9;" d="M162 508v835h172v-839q0 -379 282 -379q131 0 208 90t77 289v839h166v-835q0 -276 -121 -404.5t-330 -128.5q-211 0 -332.5 129.5t-121.5 403.5zM336 1946h137l137 -140h8l138 140h137l-197 -228h-164zM344 1559q0 39 26.5 65.5t67.5 26.5t66.5 -27t25.5 -65 q0 -41 -25.5 -68t-66.5 -27t-67.5 27t-26.5 68zM698 1559q0 39 26 65.5t66.5 26.5t67.5 -27t27 -65q0 -41 -27 -68t-67.5 -27t-66.5 27t-26 68z" />
<glyph unicode="&#x1da;" d="M158 377v618h170v-596q0 -143 53 -210.5t176 -67.5q84 0 154.5 43t154.5 141v690h168v-995h-137l-14 174h-9q-170 -199 -370 -199q-346 0 -346 402zM334 1296q0 41 26.5 68t65.5 27q41 0 67.5 -27t26.5 -68q0 -39 -26.5 -65.5t-67.5 -26.5q-39 0 -65.5 26.5t-26.5 65.5z M346 1686h125l129 -132h8l127 132h125l-184 -211h-146zM688 1296q0 41 26.5 68t65.5 27t65.5 -27t26.5 -68q0 -39 -26.5 -65.5t-65.5 -26.5t-65.5 26.5t-26.5 65.5z" />
<glyph unicode="&#x1db;" d="M162 508v835h172v-839q0 -379 282 -379q131 0 208 90t77 289v839h166v-835q0 -276 -121 -404.5t-330 -128.5q-211 0 -332.5 129.5t-121.5 403.5zM344 1559q0 39 26.5 65.5t67.5 26.5t66.5 -27t25.5 -65q0 -41 -25.5 -68t-66.5 -27t-67.5 27t-26.5 68zM350 1946h187 l182 -228h-139zM698 1559q0 39 26 65.5t66.5 26.5t67.5 -27t27 -65q0 -41 -27 -68t-67.5 -27t-66.5 27t-26 68z" />
<glyph unicode="&#x1dc;" d="M158 377v618h170v-596q0 -143 53 -210.5t176 -67.5q84 0 154.5 43t154.5 141v690h168v-995h-137l-14 174h-9q-170 -199 -370 -199q-346 0 -346 402zM334 1296q0 41 26.5 68t65.5 27q41 0 67.5 -27t26.5 -68q0 -39 -26.5 -65.5t-67.5 -26.5q-39 0 -65.5 26.5t-26.5 65.5z M381 1686h164l166 -211h-117zM688 1296q0 41 26.5 68t65.5 27t65.5 -27t26.5 -68q0 -39 -26.5 -65.5t-65.5 -26.5t-65.5 26.5t-26.5 65.5z" />
<glyph unicode="&#x1e6;" d="M109 672q0 322 164.5 509t431.5 187q215 0 370 -164l-96 -108q-115 123 -274 123q-190 0 -304 -146.5t-114 -396.5q0 -256 108.5 -403.5t304.5 -147.5q150 0 234 80v350h-268v141h426v-565q-156 -156 -402 -156q-258 0 -419.5 186.5t-161.5 510.5zM401 1675h136l137 -139 h8l137 139h137l-196 -229h-162z" />
<glyph unicode="&#x1e7;" d="M147 -182q0 127 164 221v8q-102 55 -102 164q0 106 119 186v9q-123 92 -123 258q0 158 113.5 257t277.5 99q84 0 147 -25h412v-129h-266q92 -96 92 -209q0 -156 -109.5 -249t-275.5 -93q-84 0 -168 37q-78 -49 -78 -114q0 -115 207 -115h223q195 0 287 -54.5t92 -179.5 q0 -145 -153.5 -246.5t-399.5 -101.5q-219 0 -339 73t-120 204zM293 -166q0 -80 85 -128t240 -48q166 0 270.5 61.5t104.5 143.5q0 68 -54 94.5t-173 26.5h-195q-94 0 -151 16q-127 -70 -127 -166zM358 1477h129l138 -203h8l137 203h131l-199 -303h-145zM367 664 q0 -104 66.5 -170t162.5 -66q98 0 163.5 65.5t65.5 170.5q0 102 -66.5 167.5t-162.5 65.5t-162.5 -65.5t-66.5 -167.5z" />
<glyph unicode="&#x1ea;" d="M98 678q0 317 142.5 503.5t374 186.5t373.5 -186.5t142 -503.5q0 -264 -95 -434t-263 -244q-78 -33 -119 -95.5t-41 -123.5q0 -45 29 -69.5t68 -24.5q45 -1 84 28l47 -92q-76 -57 -164 -57q-86 0 -141.5 47t-55.5 131q0 129 127 233q-168 4 -286.5 107.5t-170 255.5 t-51.5 338zM274 678q0 -252 93.5 -402.5t247 -150.5t246.5 150.5t93 402.5q0 250 -93 395.5t-246.5 145.5t-247 -145.5t-93.5 -395.5z" />
<glyph unicode="&#x1eb;" d="M123 496q0 242 142.5 383t349 141t349 -141.5t142.5 -382.5q0 -197 -91 -315t-265 -189q-68 -31 -107 -88.5t-39 -118.5q0 -45 27.5 -69.5t66.5 -24.5q43 0 82 26l45 -84q-70 -55 -161 -55q-80 0 -132.5 46t-52.5 128q0 129 113 225q-201 8 -335 148.5t-134 370.5z M297 496q0 -170 87 -275.5t230.5 -105.5t230.5 105.5t87 275.5q0 172 -87 278.5t-230.5 106.5t-230.5 -106.5t-87 -278.5z" />
<glyph unicode="&#x218;" d="M137 174l103 119q168 -168 387 -168q141 0 220 59.5t79 159.5q0 49 -15.5 85t-56.5 64.5t-71.5 44t-98.5 44.5l-192 84q-291 115 -291 346q0 154 125 255t315 101q248 0 414 -166l-90 -110q-143 127 -324 127q-121 0 -193.5 -53.5t-72.5 -143.5q0 -45 18.5 -81 t62.5 -63.5t69.5 -40t88.5 -38.5l189 -82q141 -57 219 -139t78 -220q0 -164 -130 -273.5t-345 -109.5q-289 0 -488 199zM461 -360q182 25 182 94q0 63 -104 90l36 78q104 -16 151.5 -52t47.5 -106q0 -84 -84 -130t-213 -56z" />
<glyph unicode="&#x219;" d="M147 131l82 111q182 -135 412 -136q129 0 197.5 44.5t68.5 111.5q0 59 -72.5 104.5t-250.5 88.5q-379 94 -379 282q0 125 109.5 204t308.5 79q215 0 399 -127l-82 -109q-150 104 -317 105q-246 0 -246 -144q0 -57 76.5 -98t226.5 -78q209 -53 303 -119.5t94 -177.5 q0 -127 -117.5 -212t-324.5 -85q-265 0 -488 156zM461 -360q182 25 182 94q0 63 -104 90l36 78q104 -16 151.5 -53t47.5 -105q0 -84 -84 -130t-213 -56z" />
<glyph unicode="&#x21a;" d="M86 1200v143h1057v-143h-443v-1200h-172v1200h-442zM442 -360q182 25 183 94q0 63 -107 90l37 78q104 -16 152.5 -53t48.5 -105q0 -84 -84 -130t-213 -56z" />
<glyph unicode="&#x21b;" d="M141 858v127l287 10l23 279h139v-279h487v-137h-487v-473q0 -139 56 -205.5t196 -66.5q121 0 239 45l35 -123q-160 -59 -311 -60q-207 0 -295 107.5t-88 304.5v471h-281zM602 -360q182 25 182 94q0 66 -104 90l37 78q104 -16 151 -52t47 -106q0 -84 -83.5 -130 t-210.5 -56z" />
<glyph unicode="&#x237;" d="M113 -377l55 125q115 -55 227 -55q141 0 196.5 66.5t55.5 203.5v895h-463v137h631v-1020q0 -201 -95 -310t-323 -109q-145 0 -284 67z" />
<glyph unicode="&#x243;" d="M55 362v87l158 10v884h383q215 0 338 -78.5t123 -244.5q0 -102 -59.5 -177t-176.5 -106v-8q311 -49 312 -328q0 -197 -136.5 -299t-369.5 -102h-414v362h-158zM383 129h219q176 0 271.5 70.5t95.5 210.5q0 256 -367 256h-219v-207h293v-97h-293v-233zM383 778h184 q168 0 246 57.5t78 172.5q0 209 -316 209h-192v-439z" />
<glyph unicode="&#x251;" d="M123 496q0 236 134 380t321 144q164 0 305 -135h6l14 110h135v-995h-139l-14 131h-6q-147 -156 -326 -156q-195 0 -312.5 137.5t-117.5 383.5zM297 498q0 -178 78 -279.5t215 -101.5q147 0 280 149v496q-125 117 -262 117q-131 0 -221 -106.5t-90 -274.5z" />
<glyph unicode="&#x259;" d="M141 455q0 45 9 94h776q-8 156 -99.5 247t-257.5 91q-156 0 -305 -88l-59 114q170 106 383 107q233 0 372.5 -138.5t139.5 -381.5q0 -240 -138.5 -382.5t-359.5 -142.5q-211 0 -336 129.5t-125 350.5zM297 436q0 -160 82 -242.5t219 -82.5q147 0 231 84t99 241h-631z" />
<glyph unicode="&#x261;" d="M123 512q0 227 133 367.5t322 140.5q164 0 305 -135h6l14 110h135v-1034q0 -188 -122.5 -296.5t-342.5 -108.5q-213 0 -378 106l61 121q143 -92 317 -92q141 0 219 70.5t82 193.5l3 201q-61 -63 -148.5 -104.5t-175.5 -41.5q-195 0 -312.5 135.5t-117.5 366.5zM295 514 q0 -168 79 -266t216 -98q143 0 280 149v463q-125 117 -264 117q-129 0 -220 -103.5t-91 -261.5z" />
<glyph unicode="&#x2b0;" d="M358 532v959h131v-256l-8 -141q119 115 238 114q223 0 223 -260v-416h-131v400q0 86 -31.5 126t-105.5 40q-49 0 -89 -23.5t-96 -77.5v-465h-131z" />
<glyph unicode="&#x2b2;" d="M287 291l41 94q70 -35 135 -35q90 0 126 42t36 128v567h-289v105h418v-664q0 -285 -285 -284q-96 0 -182 47zM588 1413q0 41 28.5 67.5t71.5 26.5q41 0 69.5 -26.5t28.5 -67.5q0 -43 -27.5 -67.5t-70.5 -24.5t-71.5 24.5t-28.5 67.5z" />
<glyph unicode="&#x2b3;" d="M498 532v660h110l10 -154h5q98 170 262 170q72 0 131 -26l-27 -111q-68 20 -123 21q-147 0 -237 -185v-375h-131z" />
<glyph unicode="&#x2b7;" d="M168 1192h131l76 -365q8 -37 18 -107.5t13 -78.5h6q16 100 37 186l73 316h105l75 -316q8 -37 21.5 -106.5t15.5 -79.5h6q6 33 16.5 94.5t16.5 91.5l74 365h123l-137 -660h-158l-72 310q-2 10 -35 190h-6q0 -4 -12 -73.5t-23 -116.5l-69 -310h-152z" />
<glyph unicode="&#x2b8;" d="M287 1192h131l141 -348q12 -29 34.5 -91.5t35.5 -93.5h4q2 6 59 185l123 348h127l-266 -703q-86 -236 -270 -235q-45 0 -89 14l27 101l22 -4q22 -4 31 -5q109 0 158 129l14 48z" />
<glyph unicode="&#x2bb;" d="M428 963q0 152 78 274.5t217 194.5l55 -99q-199 -115 -211 -323q25 12 54 12q63 0 103 -41t40 -107q0 -70 -43 -113.5t-109 -43.5q-82 0 -133 66.5t-51 179.5z" />
<glyph unicode="&#x2bc;" d="M444 815q201 111 213 324q-25 -12 -53 -13q-63 0 -104 41t-41 105q0 70 43 115t108 45q82 0 133.5 -67t51.5 -181q0 -152 -78 -273.5t-215 -193.5z" />
<glyph unicode="&#x2be;" d="M502 1028v74q195 0 194 158q0 156 -194 155v74q137 2 213 -59.5t76 -170t-76 -171t-213 -60.5z" />
<glyph unicode="&#x2bf;" d="M449 1259.5q0 108.5 75.5 170t212.5 59.5v-74q-193 0 -192 -155q0 -158 192 -158v-74q-137 -2 -212.5 60.5t-75.5 171z" />
<glyph unicode="&#x2c6;" d="M344 1174l199 303h143l199 -303h-129l-138 202h-8l-137 -202h-129z" />
<glyph unicode="&#x2c7;" d="M344 1477h129l137 -203h8l138 203h129l-199 -303h-143z" />
<glyph unicode="&#x2c8;" d="M510 1466h209l-47 -653h-115z" />
<glyph unicode="&#x2c9;" d="M362 1231v117h504v-117h-504z" />
<glyph unicode="&#x2ca;" d="M477 1174l187 303h182l-238 -303h-131z" />
<glyph unicode="&#x2cb;" d="M377 1477h182l186 -303h-129z" />
<glyph unicode="&#x2cc;" d="M510 -520l47 655h115l47 -655h-209z" />
<glyph unicode="&#x2d8;" d="M348 1452h105q10 -74 51 -122t110.5 -48t110.5 48t51 122h105q-8 -111 -75 -192.5t-192 -81.5t-191.5 81.5t-74.5 192.5z" />
<glyph unicode="&#x2d9;" d="M479 1329q0 59 39 95t96.5 36t96.5 -35.5t39 -95.5q0 -57 -39 -93t-96.5 -36t-96.5 36t-39 93z" />
<glyph unicode="&#x2da;" d="M424 1300q0 84 53 136.5t137 52.5t137.5 -52.5t53.5 -136.5q0 -86 -53.5 -138t-137.5 -52t-137 52t-53 138zM516 1300q0 -51 27.5 -82.5t70.5 -31.5t71 31.5t28 82.5q0 49 -28 81t-71 32t-70.5 -31.5t-27.5 -81.5z" />
<glyph unicode="&#x2db;" d="M479 -248q0 143 146 254h118q-139 -104 -139 -221q0 -45 27.5 -69.5t66.5 -24.5q45 0 82 26l45 -84q-70 -55 -161 -55q-80 0 -132.5 46t-52.5 128z" />
<glyph unicode="&#x2dc;" d="M324 1186q12 102 57 162.5t123 60.5q53 0 123.5 -55.5t99.5 -55.5q63 0 82 111h96q-12 -100 -57 -161.5t-123 -61.5q-53 0 -123 56t-100 56q-63 0 -82 -112h-96z" />
<glyph unicode="&#x2dd;" d="M414 1169l143 293h150l-181 -293h-112zM715 1169l145 293h148l-181 -293h-112z" />
<glyph unicode="&#x2e1;" d="M401 1389v102h297v-746q0 -123 113 -122q35 0 102 22l25 -102q-98 -27 -158 -27q-213 0 -213 238v635h-166z" />
<glyph unicode="&#x2e2;" d="M332 608l61 86q111 -78 242 -78q78 0 119 26t41 67t-46.5 65.5t-134.5 50.5q-74 23 -117.5 41.5t-85.5 58.5t-42 93q0 84 74.5 137t201.5 53q133 0 250 -75l-61 -82q-94 59 -189 59q-74 0 -109.5 -23.5t-35.5 -62.5q0 -27 28.5 -48.5t56 -31.5t87 -28.5t91.5 -30t76 -35 t64.5 -56t20.5 -77.5q0 -86 -78 -143.5t-215 -57.5q-166 0 -299 92z" />
<glyph unicode="&#x2e3;" d="M326 532l227 345l-209 315h139l88 -135l68 -111h6q41 74 64 111l77 135h140l-213 -330l227 -330h-141l-97 144q-14 27 -77 119h-4q-45 -78 -70 -119l-88 -144h-137z" />
<glyph unicode="&#x300;" d="M379 1477h184l185 -303h-130z" />
<glyph unicode="&#x301;" d="M481 1174l185 303h184l-240 -303h-129z" />
<glyph unicode="&#x302;" d="M344 1174l199 303h143l199 -303h-129l-138 202h-8l-137 -202h-129z" />
<glyph unicode="&#x303;" d="M324 1186q12 102 57 162.5t123 60.5q53 0 123.5 -55.5t99.5 -55.5q63 0 82 111h96q-12 -100 -57 -161.5t-123 -61.5q-53 0 -123 56t-100 56q-63 0 -82 -112h-96z" />
<glyph unicode="&#x304;" d="M362 1231v117h504v-117h-504z" />
<glyph unicode="&#x306;" d="M348 1452h105q10 -74 51 -122t110.5 -48t110.5 48t51 122h105q-8 -111 -75 -192.5t-192 -81.5t-191.5 81.5t-74.5 192.5z" />
<glyph unicode="&#x307;" d="M479 1329q0 59 39 95t96.5 36t96.5 -35.5t39 -95.5q0 -57 -39 -93t-96.5 -36t-96.5 36t-39 93z" />
<glyph unicode="&#x308;" d="M307 1317q0 49 31 81t80 32q47 0 78.5 -33t31.5 -80t-31.5 -80t-78.5 -33q-49 0 -80 32t-31 81zM700 1317q0 47 32 80t79 33q49 0 80 -32t31 -81t-31 -81t-80 -32q-47 0 -79 33t-32 80z" />
<glyph unicode="&#x309;" d="M483 1391l19 98q283 -10 282 -166q0 -151 -227 -190l-18 77q115 33 114 95q0 80 -170 86z" />
<glyph unicode="&#x30a;" d="M424 1300q0 84 53 136.5t137 52.5t137.5 -52.5t53.5 -136.5q0 -86 -53.5 -138t-137.5 -52t-137 52t-53 138zM516 1300q0 -51 27.5 -82.5t70.5 -31.5t71 31.5t28 82.5q0 49 -28 81t-71 32t-70.5 -31.5t-27.5 -81.5z" />
<glyph unicode="&#x30b;" d="M414 1169l143 293h150l-181 -293h-112zM715 1169l145 293h148l-181 -293h-112z" />
<glyph unicode="&#x30c;" d="M344 1477h129l137 -203h8l138 203h129l-199 -303h-143z" />
<glyph unicode="&#x30f;" d="M221 1462h148l145 -293h-113zM522 1462h150l143 -293h-113z" />
<glyph unicode="&#x312;" d="M506 1257q0 166 166 242l37 -65q-111 -53 -117 -148q6 2 16 2q33 0 58.5 -21.5t25.5 -58.5q0 -45 -23.5 -68.5t-58.5 -23.5q-104 0 -104 141z" />
<glyph unicode="&#x313;" d="M518 1180q111 53 117 147q-6 -2 -19 -2q-33 0 -58.5 21.5t-25.5 58.5q0 43 25 66.5t59 23.5q102 0 103 -141q0 -164 -166 -240z" />
<glyph unicode="&#x31b;" d="M596 975q88 12 130 44t42 91q0 39 -29 86l121 59q47 -66 47 -133q0 -202 -295 -231z" />
<glyph unicode="&#x323;" d="M479 -334q0 59 39 95t96.5 36t96.5 -35.5t39 -95.5q0 -57 -39 -93t-96.5 -36t-96.5 36t-39 93z" />
<glyph unicode="&#x324;" d="M338 -311q0 43 27.5 71.5t72.5 28.5q43 0 72 -28.5t29 -71.5q0 -41 -29 -71t-72 -30t-71.5 29t-28.5 72zM690 -311q0 43 29 71.5t72 28.5q45 0 72.5 -28.5t27.5 -71.5t-28.5 -72t-71.5 -29t-72 30t-29 71z" />
<glyph unicode="&#x326;" d="M440 -360q182 25 183 94q0 63 -105 90l37 78q104 -16 151.5 -52t47.5 -106q0 -84 -84 -130t-213 -56z" />
<glyph unicode="&#x327;" d="M440 -352q182 25 183 98q0 67 -129 100l81 160h109l-51 -108q121 -41 121 -146q0 -84 -84 -130t-213 -58z" />
<glyph unicode="&#x328;" d="M479 -248q0 143 146 254h118q-139 -104 -139 -221q0 -45 27.5 -69.5t66.5 -24.5q45 0 82 26l45 -84q-70 -55 -161 -55q-80 0 -132.5 46t-52.5 128z" />
<glyph unicode="&#x32e;" d="M356 -162h105q8 -66 47 -110.5t106.5 -44.5t106.5 45t47 110h104q-6 -104 -71.5 -182t-186 -78t-186.5 78t-72 182z" />
<glyph unicode="&#x331;" d="M360 -231h506v-119h-506v119z" />
<glyph unicode="&#x3c0;" d="M88 856v129l143 10h893v-139h-151v-637q0 -104 71 -104q12 0 50 10l22 -129q-49 -20 -112 -21q-199 0 -199 256v625h-373v-856h-168v856h-176z" />
<glyph unicode="&#x1d43;" d="M342 707q0 106 104.5 164.5t327.5 80.5q-4 152 -143 152q-92 0 -211 -70l-51 88q145 86 282 86q127 0 190.5 -72.5t63.5 -203.5v-400h-106l-11 76h-4q-119 -92 -231 -92q-90 0 -150.5 52.5t-60.5 138.5zM471 715q0 -47 34 -72t87 -25q84 0 182 82v168q-303 -32 -303 -153 z" />
<glyph unicode="&#x1d47;" d="M352 532v959h131v-256l-4 -115q106 88 213 88q131 0 203 -90t72 -246q0 -162 -87 -259t-210 -97q-100 0 -199 82h-2l-14 -66h-103zM483 686q78 -61 160 -61q84 0 136 65.5t52 179.5q0 229 -174 230q-84 0 -174 -82v-332z" />
<glyph unicode="&#x1d48;" d="M281 862q0 156 88 251t211 95q98 0 190 -75l-4 110v248h131v-959h-109l-10 76h-4q-96 -92 -209 -92q-131 0 -207.5 92t-76.5 254zM416 862q0 -113 47 -175t133 -62q88 0 170 82v329q-78 63 -162 64q-82 0 -135 -66t-53 -172z" />
<glyph unicode="&#x1d49;" d="M328 862q0 156 96 251t225 95q135 0 211 -85t76 -226q0 -41 -6 -66h-473q8 -98 70.5 -155.5t158.5 -57.5q92 0 176 52l47 -84q-117 -70 -241 -70q-145 0 -242.5 93t-97.5 253zM455 915h366q0 90 -44 140.5t-126 50.5q-74 0 -129 -51.5t-67 -139.5z" />
<glyph unicode="&#x1d4d;" d="M305 414q0 82 109 143v6q-68 35 -68 109q0 70 80 123v6q-84 66 -84 170q0 109 77 173t189 64q61 0 101 -16h274v-98h-168q51 -51 51 -125q0 -106 -72.5 -167t-185.5 -61q-47 0 -108 23q-45 -29 -45 -70q0 -70 129 -69h145q258 0 258 -158q0 -100 -103.5 -167t-273.5 -67 q-143 0 -224 47.5t-81 133.5zM416 430q0 -49 53 -78.5t154 -29.5q104 0 171.5 36.5t67.5 85.5q0 41 -35.5 57.5t-111.5 16.5h-121q-66 0 -100 10q-78 -41 -78 -98zM467 970.5q0 -65.5 40 -104.5t101 -39q59 0 100.5 40t41.5 104q0 66 -41 106.5t-101 40.5q-61 0 -101 -41 t-40 -106.5z" />
<glyph unicode="&#x1d4f;" d="M387 532v959h131v-627h4l326 328h145l-254 -262l287 -398h-145l-219 312l-144 -137v-175h-131z" />
<glyph unicode="&#x1d50;" d="M266 532v660h103l10 -86h4q57 102 149 102q100 0 125 -112q57 113 156 112q70 0 107.5 -53t37.5 -151v-472h-124v461q0 104 -64 105q-59 0 -102 -94v-472h-109v461q0 104 -65 105q-51 0 -103 -94v-472h-125z" />
<glyph unicode="&#x1d52;" d="M291 862.5q0 157.5 94 251.5t229.5 94t229.5 -94t94 -251.5t-94 -252t-229.5 -94.5t-229.5 94.5t-94 252zM426 862q0 -109 51 -174t137 -65t137.5 65.5t51.5 173.5q0 106 -51.5 173t-137.5 67t-137 -67t-51 -173z" />
<glyph unicode="&#x1d56;" d="M352 260v932h107l10 -74h6q113 90 219 90q131 0 202 -90t71 -246q0 -162 -87 -259t-210 -97q-97 0 -191 76l4 -113v-219h-131zM483 686q78 -61 160 -61q84 0 136 65.5t52 179.5q0 229 -174 230q-80 0 -174 -82v-332z" />
<glyph unicode="&#x1d57;" d="M336 1087v99l164 6l16 184h109v-184h297v-105h-297v-294q0 -88 36.5 -130t124.5 -42q63 0 136 28l26 -94q-92 -39 -192 -39q-262 1 -262 277v294h-158z" />
<glyph unicode="&#x1d58;" d="M326 776v416h131v-399q0 -86 30.5 -125t102.5 -39q96 0 186 104v459h131v-660h-106l-13 105h-4q-106 -121 -239 -121q-219 0 -219 260z" />
<glyph unicode="&#x1d5b;" d="M301 1192h135l125 -361q12 -33 64 -196h4q10 33 30.5 98.5t32.5 97.5l127 361h125l-242 -660h-151z" />
<glyph unicode="&#x1d9c;" d="M371 862q0 158 101 252t247 94q123 0 211 -78l-66 -83q-66 55 -139 55q-96 0 -158.5 -66.5t-62.5 -173t60.5 -173t156.5 -66.5q86 0 168 63l55 -84q-106 -86 -235 -86q-147 0 -242.5 93t-95.5 253z" />
<glyph unicode="&#x1da0;" d="M406 1087v99l161 6v51q0 123 69 193.5t206 70.5q94 1 188 -32l-29 -99q-74 29 -145 29q-160 0 -160 -158v-55h262v-105h-262v-555h-129v555h-161z" />
<glyph unicode="&#x1dbb;" d="M299 532v70l436 485h-387v105h572v-70l-435 -485h449v-105h-635z" />
<glyph unicode="&#x1e0c;" d="M174 0v1343h328q303 0 462.5 -172t159.5 -493q0 -324 -158.5 -501t-455.5 -177h-336zM344 139h148q225 0 340.5 140.5t115.5 398.5q0 256 -114.5 391t-341.5 135h-148v-1065zM459 -334q0 59 39 95t96 36t96 -35.5t39 -95.5q0 -57 -39 -93t-96 -36t-96 36t-39 93z" />
<glyph unicode="&#x1e0d;" d="M123 496q0 233 134 378.5t318 145.5q152 0 302 -129l-7 184v383h168v-1458h-139l-14 131h-6q-152 -156 -324 -156q-199 0 -315.5 137.5t-116.5 383.5zM297 498q0 -178 78 -279.5t215 -101.5q147 0 280 149v496q-125 117 -262 117q-131 0 -221 -106.5t-90 -274.5z M492 -334q0 59 38.5 95t96.5 36q59 0 97 -35.5t38 -95.5q0 -57 -38 -93t-97 -36q-57 0 -96 36t-39 93z" />
<glyph unicode="&#x1e0e;" d="M174 0v1343h328q303 0 462.5 -172t159.5 -493q0 -324 -158.5 -501t-455.5 -177h-336zM340 -231h506v-119h-506v119zM344 139h148q225 0 340.5 140.5t115.5 398.5q0 256 -114.5 391t-341.5 135h-148v-1065z" />
<glyph unicode="&#x1e0f;" d="M123 496q0 233 134 378.5t318 145.5q152 0 302 -129l-7 184v383h168v-1458h-139l-14 131h-6q-152 -156 -324 -156q-199 0 -315.5 137.5t-116.5 383.5zM297 498q0 -178 78 -279.5t215 -101.5q147 0 280 149v496q-125 117 -262 117q-131 0 -221 -106.5t-90 -274.5z M373 -231h506v-119h-506v119z" />
<glyph unicode="&#x1e20;" d="M109 672q0 322 164.5 509t431.5 187q215 0 370 -164l-96 -108q-115 123 -274 123q-190 0 -304 -146.5t-114 -396.5q0 -256 108.5 -403.5t304.5 -147.5q150 0 234 80v350h-268v141h426v-565q-156 -156 -402 -156q-258 0 -419.5 186.5t-161.5 510.5zM424 1493v117h508v-117 h-508z" />
<glyph unicode="&#x1e21;" d="M147 -182q0 127 164 221v8q-102 55 -102 164q0 106 119 186v9q-123 92 -123 258q0 158 113.5 257t277.5 99q84 0 147 -25h412v-129h-266q92 -96 92 -209q0 -156 -109.5 -249t-275.5 -93q-84 0 -168 37q-78 -49 -78 -114q0 -115 207 -115h223q195 0 287 -54.5t92 -179.5 q0 -145 -153.5 -246.5t-399.5 -101.5q-219 0 -339 73t-120 204zM293 -166q0 -80 85 -128t240 -48q166 0 270.5 61.5t104.5 143.5q0 68 -54 94.5t-173 26.5h-195q-94 0 -151 16q-127 -70 -127 -166zM367 664q0 -104 66.5 -170t162.5 -66q98 0 163.5 65.5t65.5 170.5 q0 102 -66.5 167.5t-162.5 65.5t-162.5 -65.5t-66.5 -167.5zM379 1231v117h502v-117h-502z" />
<glyph unicode="&#x1e24;" d="M162 0v1343h172v-563h561v563h172v-1343h-172v633h-561v-633h-172zM479 -334q0 59 38 95t97 36q57 0 95.5 -35.5t38.5 -95.5q0 -57 -38.5 -93t-95.5 -36q-59 0 -97 36t-38 93z" />
<glyph unicode="&#x1e25;" d="M190 0v1458h168v-397l-8 -236q186 195 377 195q344 0 344 -402v-618h-168v596q0 143 -54 210.5t-175 67.5q-84 0 -152.5 -41.5t-163.5 -138.5v-694h-168zM508 -334q0 59 38 95t97 36q57 0 96 -35.5t39 -95.5q0 -57 -39 -93t-96 -36q-59 0 -97 36t-38 93z" />
<glyph unicode="&#x1e2a;" d="M162 0v1343h172v-563h561v563h172v-1343h-172v633h-561v-633h-172zM354 -162h105q10 -68 49 -111.5t106 -43.5q66 0 106 45t48 110h104q-8 -104 -72.5 -182t-185 -78t-186.5 78t-74 182z" />
<glyph unicode="&#x1e2b;" d="M190 0v1458h168v-397l-8 -236q186 195 377 195q344 0 344 -402v-618h-168v596q0 143 -54 210.5t-175 67.5q-84 0 -152.5 -41.5t-163.5 -138.5v-694h-168zM383 -162h104q8 -66 47 -110.5t107 -44.5t106.5 45t47.5 110h106q-8 -104 -73.5 -182t-186.5 -78t-186.5 78 t-71.5 182z" />
<glyph unicode="&#x1e36;" d="M274 0v1343h168v-1198h666v-145h-834zM573 -334q0 59 39 95t97 36q59 0 97 -35.5t38 -95.5q0 -57 -38 -93t-97 -36q-57 0 -96.5 36t-39.5 93z" />
<glyph unicode="&#x1e37;" d="M166 1321v137h508v-1136q0 -207 194 -207q82 0 189 47l43 -127q-164 -59 -269 -60q-160 0 -242.5 91.5t-82.5 267.5v987h-340zM625 -334q0 59 37.5 95t97.5 36q57 0 95 -35.5t38 -95.5q0 -57 -38 -93t-95 -36q-59 0 -97 36t-38 93z" />
<glyph unicode="&#x1e38;" d="M135 1493v117h508v-117h-508zM274 0v1343h168v-1198h666v-145h-834zM573 -334q0 59 39 95t97 36q59 0 97 -35.5t38 -95.5q0 -57 -38 -93t-97 -36q-57 0 -96.5 36t-39.5 93z" />
<glyph unicode="&#x1e39;" d="M166 1321v137h508v-1136q0 -207 194 -207q82 0 189 47l43 -127q-164 -59 -269 -60q-160 0 -242.5 91.5t-82.5 267.5v987h-340zM330 1686v116h501v-116h-501zM625 -334q0 59 37.5 95t97.5 36q57 0 95 -35.5t38 -95.5q0 -57 -38 -93t-95 -36q-59 0 -97 36t-38 93z" />
<glyph unicode="&#x1e3a;" d="M274 0v1343h168v-1198h666v-145h-834zM455 -231h506v-119h-506v119z" />
<glyph unicode="&#x1e3b;" d="M166 1321v137h508v-1136q0 -207 194 -207q82 0 189 47l43 -127q-164 -59 -269 -60q-160 0 -242.5 91.5t-82.5 267.5v987h-340zM506 -231h504v-119h-504v119z" />
<glyph unicode="&#x1e42;" d="M166 0v1343h188l191 -571l67 -217h9l65 217l188 571h189v-1343h-145v756q0 141 20 413h-6l-88 -286l-185 -518h-92l-184 518l-90 286h-6q23 -299 22 -413v-756h-143zM479 -334q0 59 39 95t96.5 36t96.5 -35.5t39 -95.5q0 -57 -39 -93t-96.5 -36t-96.5 36t-39 93z" />
<glyph unicode="&#x1e43;" d="M123 0v995h131l14 -131h6q84 156 224 156q152 0 188 -172q49 86 103.5 129t132.5 43q104 0 160.5 -80t56.5 -227v-713h-162v698q0 176 -109 176q-94 0 -170 -153v-721h-135v698q0 176 -112 176q-51 0 -88 -36.5t-78 -116.5v-721h-162zM489 -334q0 59 39 95t97 36 q59 0 97 -35.5t38 -95.5q0 -57 -38 -93t-97 -36q-57 0 -96.5 36t-39.5 93z" />
<glyph unicode="&#x1e44;" d="M170 0v1343h174l436 -847l135 -275h5q-2 27 -12.5 184.5t-10.5 241.5v696h162v-1343h-174l-436 848l-136 274h-4q2 -37 12.5 -187.5t10.5 -232.5v-702h-162zM510 1573q0 47 34 77.5t83 30.5t82.5 -30.5t33.5 -77.5q0 -49 -33.5 -80t-82.5 -31t-83 31t-34 80z" />
<glyph unicode="&#x1e45;" d="M190 0v995h140l14 -170h8q184 195 375 195q344 0 344 -402v-618h-168v596q0 143 -54 210.5t-175 67.5q-84 0 -152.5 -41.5t-163.5 -138.5v-694h-168zM516 1329q0 59 38 95t97 36q57 0 96 -35.5t39 -95.5q0 -57 -39 -93t-96 -36q-59 0 -97 36t-38 93z" />
<glyph unicode="&#x1e46;" d="M170 0v1343h174l436 -847l135 -275h5q-2 27 -12.5 184.5t-10.5 241.5v696h162v-1343h-174l-436 848l-136 274h-4q2 -37 12.5 -187.5t10.5 -232.5v-702h-162zM479 -334q0 59 39 95t96.5 36t96.5 -35.5t39 -95.5q0 -57 -39 -93t-96.5 -36t-96.5 36t-39 93z" />
<glyph unicode="&#x1e47;" d="M190 0v995h140l14 -170h8q184 195 375 195q344 0 344 -402v-618h-168v596q0 143 -54 210.5t-175 67.5q-84 0 -152.5 -41.5t-163.5 -138.5v-694h-168zM506 -334q0 59 38 95t97 36q57 0 96 -35.5t39 -95.5q0 -57 -39 -93t-96 -36q-59 0 -97 36t-38 93z" />
<glyph unicode="&#x1e48;" d="M170 0v1343h174l436 -847l135 -275h5q-2 27 -12.5 184.5t-10.5 241.5v696h162v-1343h-174l-436 848l-136 274h-4q2 -37 12.5 -187.5t10.5 -232.5v-702h-162zM360 -231h506v-119h-506v119z" />
<glyph unicode="&#x1e49;" d="M190 0v995h140l14 -170h8q184 195 375 195q344 0 344 -402v-618h-168v596q0 143 -54 210.5t-175 67.5q-84 0 -152.5 -41.5t-163.5 -138.5v-694h-168zM387 -231h504v-119h-504v119z" />
<glyph unicode="&#x1e5a;" d="M205 0v1343h418q469 0 469 -376q0 -152 -80 -248t-221 -133l342 -586h-195l-324 567h-239v-567h-170zM375 707h223q324 0 324 260q0 129 -81 184t-243 55h-223v-499zM520 -334q0 59 39 95t96.5 36t96.5 -35.5t39 -95.5q0 -57 -39 -93t-96.5 -36t-96.5 36t-39 93z" />
<glyph unicode="&#x1e5b;" d="M274 -334q0 59 39 95t97 36q59 0 97 -35.5t38 -95.5q0 -57 -38 -93t-97 -36q-57 0 -96.5 36t-39.5 93zM299 0v995h139l15 -235h6q170 260 444 260q113 0 195 -41l-35 -145q-98 35 -186 34q-246 0 -410 -284v-584h-168z" />
<glyph unicode="&#x1e5c;" d="M205 0v1343h418q469 0 469 -376q0 -152 -80 -248t-221 -133l342 -586h-195l-324 567h-239v-567h-170zM371 1493v117h508v-117h-508zM375 707h223q324 0 324 260q0 129 -81 184t-243 55h-223v-499zM520 -334q0 59 39 95t96.5 36t96.5 -35.5t39 -95.5q0 -57 -39 -93 t-96.5 -36t-96.5 36t-39 93z" />
<glyph unicode="&#x1e5d;" d="M274 -334q0 59 39 95t97 36q59 0 97 -35.5t38 -95.5q0 -57 -38 -93t-97 -36q-57 0 -96.5 36t-39.5 93zM299 0v995h139l15 -235h6q170 260 444 260q113 0 195 -41l-35 -145q-98 35 -186 34q-246 0 -410 -284v-584h-168zM449 1231v117h501v-117h-501z" />
<glyph unicode="&#x1e5e;" d="M205 0v1343h418q469 0 469 -376q0 -152 -80 -248t-221 -133l342 -586h-195l-324 567h-239v-567h-170zM375 707h223q324 0 324 260q0 129 -81 184t-243 55h-223v-499zM401 -231h506v-119h-506v119z" />
<glyph unicode="&#x1e5f;" d="M156 -231h506v-119h-506v119zM299 0v995h139l15 -235h6q170 260 444 260q113 0 195 -41l-35 -145q-98 35 -186 34q-246 0 -410 -284v-584h-168z" />
<glyph unicode="&#x1e60;" d="M137 174l103 119q168 -168 387 -168q141 0 220 59.5t79 159.5q0 49 -15.5 85t-56.5 64.5t-71.5 44t-98.5 44.5l-192 84q-291 115 -291 346q0 154 125 255t315 101q248 0 414 -166l-90 -110q-143 127 -324 127q-121 0 -193.5 -53.5t-72.5 -143.5q0 -45 18.5 -81 t62.5 -63.5t69.5 -40t88.5 -38.5l189 -82q141 -57 219 -139t78 -220q0 -164 -130 -273.5t-345 -109.5q-289 0 -488 199zM520 1573q0 47 34 77.5t83 30.5t83 -30.5t34 -77.5q0 -49 -34 -80t-83 -31t-83 31t-34 80z" />
<glyph unicode="&#x1e61;" d="M147 131l82 111q182 -135 412 -136q129 0 197.5 44.5t68.5 111.5q0 59 -72.5 104.5t-250.5 88.5q-379 94 -379 282q0 125 109.5 204t308.5 79q215 0 399 -127l-82 -109q-150 104 -317 105q-246 0 -246 -144q0 -57 76.5 -98t226.5 -78q209 -53 303 -119.5t94 -177.5 q0 -127 -117.5 -212t-324.5 -85q-265 0 -488 156zM487 1329q0 59 38 95t96 36q59 0 97 -35.5t38 -95.5q0 -57 -38 -93t-97 -36q-57 0 -95.5 36t-38.5 93z" />
<glyph unicode="&#x1e62;" d="M137 174l103 119q168 -168 387 -168q141 0 220 59.5t79 159.5q0 49 -15.5 85t-56.5 64.5t-71.5 44t-98.5 44.5l-192 84q-291 115 -291 346q0 154 125 255t315 101q248 0 414 -166l-90 -110q-143 127 -324 127q-121 0 -193.5 -53.5t-72.5 -143.5q0 -45 18.5 -81 t62.5 -63.5t69.5 -40t88.5 -38.5l189 -82q141 -57 219 -139t78 -220q0 -164 -130 -273.5t-345 -109.5q-289 0 -488 199zM500 -334q0 59 39 95t96 36t96 -35.5t39 -95.5q0 -57 -39 -93t-96 -36t-96 36t-39 93z" />
<glyph unicode="&#x1e63;" d="M147 131l82 111q182 -135 412 -136q129 0 197.5 44.5t68.5 111.5q0 59 -72.5 104.5t-250.5 88.5q-379 94 -379 282q0 125 109.5 204t308.5 79q215 0 399 -127l-82 -109q-150 104 -317 105q-246 0 -246 -144q0 -57 76.5 -98t226.5 -78q209 -53 303 -119.5t94 -177.5 q0 -127 -117.5 -212t-324.5 -85q-265 0 -488 156zM500 -334q0 59 37.5 95t97.5 36q57 0 96 -35.5t39 -95.5q0 -57 -39 -93t-96 -36q-59 0 -97 36t-38 93z" />
<glyph unicode="&#x1e6c;" d="M86 1200v143h1057v-143h-443v-1200h-172v1200h-442zM481 -334q0 59 38 95t97 36q57 0 95.5 -35.5t38.5 -95.5q0 -57 -38.5 -93t-95.5 -36q-59 0 -97 36t-38 93z" />
<glyph unicode="&#x1e6d;" d="M141 858v127l287 10l23 279h139v-279h487v-137h-487v-473q0 -139 56 -205.5t196 -66.5q121 0 239 45l35 -123q-160 -59 -311 -60q-207 0 -295 107.5t-88 304.5v471h-281zM641 -334q0 59 39 95t96 36q59 0 97 -35.5t38 -95.5q0 -57 -38 -93t-97 -36q-57 0 -96 36t-39 93z " />
<glyph unicode="&#x1e6e;" d="M86 1200v143h1057v-143h-443v-1200h-172v1200h-442zM362 -231h504v-119h-504v119z" />
<glyph unicode="&#x1e6f;" d="M141 858v127l287 10l23 279h139v-279h487v-137h-487v-473q0 -139 56 -205.5t196 -66.5q121 0 239 45l35 -123q-160 -59 -311 -60q-207 0 -295 107.5t-88 304.5v471h-281zM522 -231h506v-119h-506v119z" />
<glyph unicode="&#x1e80;" d="M20 1346h170l109 -844q4 -63 14.5 -176t14.5 -156h6q10 37 27.5 104.5t32 123t26.5 104.5l141 495h121l141 -495q14 -61 84 -332h8q4 55 14.5 165.5t14.5 166.5l103 844h161l-198 -1346h-189l-153 563q-27 113 -50 242h-6q-35 -170 -53 -242l-147 -563h-185zM346 1675 h193l180 -229h-141z" />
<glyph unicode="&#x1e81;" d="M16 995h170l123 -575q31 -154 49 -277h9q37 184 59 277l123 516h139l127 -516q8 -37 27.5 -131t31.5 -146h9q8 41 49 277l121 575h159l-215 -995h-204l-119 504q-8 39 -25.5 135t-30.5 154h-8q-6 -29 -15 -83.5t-19.5 -105.5t-20.5 -102l-115 -502h-200zM381 1477h182 l187 -303h-132z" />
<glyph unicode="&#x1e82;" d="M20 1346h170l109 -844q4 -63 14.5 -176t14.5 -156h6q10 37 27.5 104.5t32 123t26.5 104.5l141 495h121l141 -495q14 -61 84 -332h8q4 55 14.5 165.5t14.5 166.5l103 844h161l-198 -1346h-189l-153 563q-27 113 -50 242h-6q-35 -170 -53 -242l-147 -563h-185zM510 1446 l180 229h193l-232 -229h-141z" />
<glyph unicode="&#x1e83;" d="M16 995h170l123 -575q31 -154 49 -277h9q37 184 59 277l123 516h139l127 -516q8 -37 27.5 -131t31.5 -146h9q8 41 49 277l121 575h159l-215 -995h-204l-119 504q-8 39 -25.5 135t-30.5 154h-8q-6 -29 -15 -83.5t-19.5 -105.5t-20.5 -102l-115 -502h-200zM481 1174 l187 303h182l-240 -303h-129z" />
<glyph unicode="&#x1e84;" d="M20 1346h170l109 -844q4 -63 14.5 -176t14.5 -156h6q10 37 27.5 104.5t32 123t26.5 104.5l141 495h121l141 -495q14 -61 84 -332h8q4 55 14.5 165.5t14.5 166.5l103 844h161l-198 -1346h-189l-153 563q-27 113 -50 242h-6q-35 -170 -53 -242l-147 -563h-185zM338 1565 q0 45 27.5 72.5t72.5 27.5q43 0 72 -27.5t29 -72.5q0 -43 -29 -72t-72 -29q-45 0 -72.5 29t-27.5 72zM690 1565q0 45 29 72.5t72 27.5q45 0 72.5 -27.5t27.5 -72.5q0 -43 -27.5 -72t-72.5 -29q-43 0 -72 29t-29 72z" />
<glyph unicode="&#x1e85;" d="M16 995h170l123 -575q31 -154 49 -277h9q37 184 59 277l123 516h139l127 -516q8 -37 27.5 -131t31.5 -146h9q8 41 49 277l121 575h159l-215 -995h-204l-119 504q-8 39 -25.5 135t-30.5 154h-8q-6 -29 -15 -83.5t-19.5 -105.5t-20.5 -102l-115 -502h-200zM307 1317 q0 49 31 81t80 32t79.5 -32t30.5 -81t-30.5 -81t-79.5 -32t-80 32t-31 81zM702 1317q0 49 31 81t80 32q47 0 79 -33t32 -80t-32 -80t-79 -33q-49 0 -80 32t-31 81z" />
<glyph unicode="&#x1e8e;" d="M78 1343h180l203 -399q23 -43 73 -148.5t80 -164.5h9q27 55 80 159.5t77 155.5l195 397h176l-451 -864v-479h-172v479zM498 1573q0 47 33.5 77.5t83 30.5t83 -30.5t33.5 -77.5q0 -49 -33.5 -80t-83 -31t-83 31t-33.5 80z" />
<glyph unicode="&#x1e8f;" d="M100 995h170l244 -551q16 -39 36.5 -87t46.5 -108.5t40 -92.5h8q92 252 107 288l217 551h159l-438 -1077q-129 -346 -422 -346q-74 0 -131 20l35 134q47 -14 90 -15q186 0 273 213l30 74zM487 1329q0 59 39 95t97 36q59 0 97 -35.5t38 -95.5q0 -57 -38 -93t-97 -36 q-57 0 -96.5 36t-39.5 93z" />
<glyph unicode="&#x1e92;" d="M133 0v102l752 1100h-686v144h895v-103l-754 -1098h764v-145h-971zM504 -334q0 59 38 95t95 36q59 0 97 -35.5t38 -95.5q0 -57 -38 -93t-97 -36q-57 0 -95 36t-38 93z" />
<glyph unicode="&#x1e93;" d="M145 0v90l682 768h-606v137h848v-90l-684 -768h705v-137h-945zM514 -334q0 59 38 95t97 36q57 0 95 -35.5t38 -95.5q0 -57 -38 -93t-95 -36q-59 0 -97 36t-38 93z" />
<glyph unicode="&#x1e97;" d="M141 858v127l287 10l23 279h139v-279h487v-137h-487v-473q0 -139 56 -205.5t196 -66.5q121 0 239 45l35 -123q-160 -59 -311 -60q-207 0 -295 107.5t-88 304.5v471h-281zM231 1593q0 49 31 81t80 32t80 -32t31 -81t-31 -81.5t-80 -32.5t-80 32.5t-31 81.5zM627 1593 q0 49 30.5 81t79.5 32t80 -32t31 -81t-31 -81.5t-80 -32.5t-79.5 32.5t-30.5 81.5z" />
<glyph unicode="&#x1e9e;" d="M162 0v885q0 217 120.5 350t354.5 133q154 0 256 -83t151 -232l-239 -312q348 -84 348 -391q0 -164 -96 -269.5t-256 -105.5q-209 0 -332 150l98 108q96 -115 217 -114q88 0 138.5 64.5t50.5 166.5q0 104 -75 176t-263 109l-10 110l241 314q-72 168 -235 168 q-141 0 -218 -93.5t-77 -281.5v-852h-174z" />
<glyph unicode="&#x1ea0;" d="M66 0l452 1343h193l452 -1343h-180l-127 410h-487l-129 -410h-174zM412 547h401l-63 205q-66 209 -134 452h-8q-68 -244 -133 -452zM479 -334q0 59 39 95t96.5 36t96.5 -35.5t39 -95.5q0 -57 -39 -93t-96.5 -36t-96.5 36t-39 93z" />
<glyph unicode="&#x1ea1;" d="M166 258q0 168 168 255t553 118q-4 113 -66.5 181.5t-197.5 68.5q-158 0 -349 -119l-65 115q219 143 442 143q199 0 301.5 -109.5t102.5 -300.5v-610h-137l-15 135h-6q-205 -160 -393 -160q-145 0 -241.5 77t-96.5 206zM330 270q0 -80 62.5 -119.5t156.5 -39.5 q162 0 338 147v262q-307 -25 -432 -86.5t-125 -163.5zM485 -334q0 59 39 95t97 36q59 0 97 -35.5t38 -95.5q0 -57 -38 -93t-97 -36q-57 0 -96.5 36t-39.5 93z" />
<glyph unicode="&#x1ea2;" d="M66 0l452 1343h193l452 -1343h-180l-127 410h-487l-129 -410h-174zM412 547h401l-63 205q-66 209 -134 452h-8q-68 -244 -133 -452zM483 1688l19 98q283 -10 282 -166q0 -151 -227 -190l-18 77q115 33 114 95q0 80 -170 86z" />
<glyph unicode="&#x1ea3;" d="M166 258q0 168 168 255t553 118q-4 113 -66.5 181.5t-197.5 68.5q-158 0 -349 -119l-65 115q219 143 442 143q199 0 301.5 -109.5t102.5 -300.5v-610h-137l-15 135h-6q-205 -160 -393 -160q-145 0 -241.5 77t-96.5 206zM330 270q0 -80 62.5 -119.5t156.5 -39.5 q162 0 338 147v262q-307 -25 -432 -86.5t-125 -163.5zM512 1391l16 98q285 -10 285 -166q0 -151 -227 -190l-21 77q117 33 117 95q0 80 -170 86z" />
<glyph unicode="&#x1ea4;" d="M66 0l452 1343h193l452 -1343h-180l-127 410h-487l-129 -410h-174zM352 1446l189 217h147l189 -217h-129l-130 127h-8l-129 -127h-129zM412 547h401l-63 205q-66 209 -134 452h-8q-68 -244 -133 -452zM801 1577l145 227h148l-187 -227h-106z" />
<glyph unicode="&#x1ea5;" d="M166 258q0 168 168 255t553 118q-4 113 -66.5 181.5t-197.5 68.5q-158 0 -349 -119l-65 115q219 143 442 143q199 0 301.5 -109.5t102.5 -300.5v-610h-137l-15 135h-6q-205 -160 -393 -160q-145 0 -241.5 77t-96.5 206zM330 270q0 -80 62.5 -119.5t156.5 -39.5 q162 0 338 147v262q-307 -25 -432 -86.5t-125 -163.5zM403 1174l170 243h138l170 -243h-115l-119 149h-8l-121 -149h-115zM823 1311l152 233h143l-190 -233h-105z" />
<glyph unicode="&#x1ea6;" d="M66 0l452 1343h193l452 -1343h-180l-127 410h-487l-129 -410h-174zM352 1446l189 217h147l189 -217h-129l-130 127h-8l-129 -127h-129zM412 547h401l-63 205q-66 209 -134 452h-8q-68 -244 -133 -452zM698 1804h148l145 -227h-106z" />
<glyph unicode="&#x1ea7;" d="M166 258q0 168 168 255t553 118q-4 113 -66.5 181.5t-197.5 68.5q-158 0 -349 -119l-65 115q219 143 442 143q199 0 301.5 -109.5t102.5 -300.5v-610h-137l-15 135h-6q-205 -160 -393 -160q-145 0 -241.5 77t-96.5 206zM330 270q0 -80 62.5 -119.5t156.5 -39.5 q162 0 338 147v262q-307 -25 -432 -86.5t-125 -163.5zM403 1174l170 243h138l170 -243h-115l-119 149h-8l-121 -149h-115zM760 1544h143l152 -233h-105z" />
<glyph unicode="&#x1ea8;" d="M66 0l452 1343h193l452 -1343h-180l-127 410h-487l-129 -410h-174zM352 1446l189 217h147l189 -217h-129l-130 127h-8l-129 -127h-129zM412 547h401l-63 205q-66 209 -134 452h-8q-68 -244 -133 -452zM774 1769l19 86q246 -10 245 -149q0 -131 -188 -162l-23 72 q92 23 93 74q0 39 -34 57t-112 22z" />
<glyph unicode="&#x1ea9;" d="M166 258q0 168 168 255t553 118q-4 113 -66.5 181.5t-197.5 68.5q-158 0 -349 -119l-65 115q219 143 442 143q199 0 301.5 -109.5t102.5 -300.5v-610h-137l-15 135h-6q-205 -160 -393 -160q-145 0 -241.5 77t-96.5 206zM330 270q0 -80 62.5 -119.5t156.5 -39.5 q162 0 338 147v262q-307 -25 -432 -86.5t-125 -163.5zM403 1174l170 243h138l170 -243h-115l-119 149h-8l-121 -149h-115zM807 1522l14 84q248 -10 248 -150q0 -76 -51 -113t-139 -57l-17 72q86 25 86 80q0 76 -141 84z" />
<glyph unicode="&#x1eaa;" d="M66 0l452 1343h193l452 -1343h-180l-127 410h-487l-129 -410h-174zM344 1737q8 82 50 133t110 51q57 0 121.5 -43t93.5 -43q68 0 80 86h86q-8 -84 -49 -134t-111 -50q-57 0 -121.5 43t-93.5 43q-68 0 -80 -86h-86zM352 1446l189 217h147l189 -217h-129l-130 127h-8 l-129 -127h-129zM412 547h401l-63 205q-66 209 -134 452h-8q-68 -244 -133 -452z" />
<glyph unicode="&#x1eab;" d="M166 258q0 168 168 255t553 118q-4 113 -66.5 181.5t-197.5 68.5q-158 0 -349 -119l-65 115q219 143 442 143q199 0 301.5 -109.5t102.5 -300.5v-610h-137l-15 135h-6q-205 -160 -393 -160q-145 0 -241.5 77t-96.5 206zM330 270q0 -80 62.5 -119.5t156.5 -39.5 q162 0 338 147v262q-307 -25 -432 -86.5t-125 -163.5zM375 1456q8 84 49 135t111 51q57 0 118.5 -44t89.5 -44q68 0 80 88h86q-8 -84 -49 -135t-110 -51q-55 0 -118 44t-91 44q-68 0 -80 -88h-86zM387 1169l178 213h154l178 -213h-119l-131 134h-8l-133 -134h-119z" />
<glyph unicode="&#x1eac;" d="M66 0l452 1343h193l452 -1343h-180l-127 410h-487l-129 -410h-174zM336 1446l196 229h164l197 -229h-137l-138 139h-8l-137 -139h-137zM412 547h401l-63 205q-66 209 -134 452h-8q-68 -244 -133 -452zM479 -334q0 59 39 95t96.5 36t96.5 -35.5t39 -95.5q0 -57 -39 -93 t-96.5 -36t-96.5 36t-39 93z" />
<glyph unicode="&#x1ead;" d="M166 258q0 168 168 255t553 118q-4 113 -66.5 181.5t-197.5 68.5q-158 0 -349 -119l-65 115q219 143 442 143q199 0 301.5 -109.5t102.5 -300.5v-610h-137l-15 135h-6q-205 -160 -393 -160q-145 0 -241.5 77t-96.5 206zM330 270q0 -80 62.5 -119.5t156.5 -39.5 q162 0 338 147v262q-307 -25 -432 -86.5t-125 -163.5zM371 1174l198 303h146l198 -303h-129l-137 202h-8l-137 -202h-131zM485 -334q0 59 39 95t97 36q59 0 97 -35.5t38 -95.5q0 -57 -38 -93t-97 -36q-57 0 -96.5 36t-39.5 93z" />
<glyph unicode="&#x1eae;" d="M66 0l452 1343h193l452 -1343h-180l-127 410h-487l-129 -410h-174zM365 1669h92q31 -131 157.5 -131t157.5 131h92q-12 -92 -75.5 -155.5t-174 -63.5t-174 63.5t-75.5 155.5zM412 547h401l-63 205q-66 209 -134 452h-8q-68 -244 -133 -452zM535 1642l151 216h148 l-199 -216h-100z" />
<glyph unicode="&#x1eaf;" d="M166 258q0 168 168 255t553 118q-4 113 -66.5 181.5t-197.5 68.5q-158 0 -349 -119l-65 115q219 143 442 143q199 0 301.5 -109.5t102.5 -300.5v-610h-137l-15 135h-6q-205 -160 -393 -160q-145 0 -241.5 77t-96.5 206zM330 270q0 -80 62.5 -119.5t156.5 -39.5 q162 0 338 147v262q-307 -25 -432 -86.5t-125 -163.5zM383 1438h90q10 -70 53 -117t117 -47t116 47t52 117h90q-8 -104 -72.5 -182t-185.5 -78t-186.5 77.5t-73.5 182.5zM565 1386l140 230h139l-178 -230h-101z" />
<glyph unicode="&#x1eb0;" d="M66 0l452 1343h193l452 -1343h-180l-127 410h-487l-129 -410h-174zM365 1669h92q31 -131 157.5 -131t157.5 131h92q-12 -92 -75.5 -155.5t-174 -63.5t-174 63.5t-75.5 155.5zM395 1858h148l151 -216h-100zM412 547h401l-63 205q-66 209 -134 452h-8q-68 -244 -133 -452z " />
<glyph unicode="&#x1eb1;" d="M166 258q0 168 168 255t553 118q-4 113 -66.5 181.5t-197.5 68.5q-158 0 -349 -119l-65 115q219 143 442 143q199 0 301.5 -109.5t102.5 -300.5v-610h-137l-15 135h-6q-205 -160 -393 -160q-145 0 -241.5 77t-96.5 206zM330 270q0 -80 62.5 -119.5t156.5 -39.5 q162 0 338 147v262q-307 -25 -432 -86.5t-125 -163.5zM383 1438h90q10 -70 53 -117t117 -47t116 47t52 117h90q-8 -104 -72.5 -182t-185.5 -78t-186.5 77.5t-73.5 182.5zM440 1616h140l139 -230h-101z" />
<glyph unicode="&#x1eb2;" d="M66 0l452 1343h193l452 -1343h-180l-127 410h-487l-129 -410h-174zM365 1669h92q31 -131 157.5 -131t157.5 131h92q-12 -92 -75.5 -155.5t-174 -63.5t-174 63.5t-75.5 155.5zM412 547h401l-63 205q-66 209 -134 452h-8q-68 -244 -133 -452zM494 1864l16 86 q248 -10 248 -150q-1 -129 -191 -162l-20 72q90 23 90 74q0 39 -34 57.5t-109 22.5z" />
<glyph unicode="&#x1eb3;" d="M166 258q0 168 168 255t553 118q-4 113 -66.5 181.5t-197.5 68.5q-158 0 -349 -119l-65 115q219 143 442 143q199 0 301.5 -109.5t102.5 -300.5v-610h-137l-15 135h-6q-205 -160 -393 -160q-145 0 -241.5 77t-96.5 206zM330 270q0 -80 62.5 -119.5t156.5 -39.5 q162 0 338 147v262q-307 -25 -432 -86.5t-125 -163.5zM383 1438h90q10 -70 53 -117t117 -47t116 47t52 117h90q-8 -104 -72.5 -182t-185.5 -78t-186.5 77.5t-73.5 182.5zM516 1634l14 84q248 -6 248 -149q0 -74 -51 -112t-139 -58l-19 71q88 25 88 80q0 78 -141 84z" />
<glyph unicode="&#x1eb4;" d="M66 0l452 1343h193l452 -1343h-180l-127 410h-487l-129 -410h-174zM342 1733q6 84 49 137t113 53q51 0 116.5 -46t94.5 -46q66 0 82 92h86q-8 -84 -51.5 -137t-110.5 -53q-51 0 -116.5 46t-94.5 46q-31 0 -53.5 -24.5t-28.5 -67.5h-86zM365 1669h92q31 -131 157.5 -131 t157.5 131h92q-12 -92 -75.5 -155.5t-174 -63.5t-174 63.5t-75.5 155.5zM412 547h401l-63 205q-66 209 -134 452h-8q-68 -244 -133 -452z" />
<glyph unicode="&#x1eb5;" d="M166 258q0 168 168 255t553 118q-4 113 -66.5 181.5t-197.5 68.5q-158 0 -349 -119l-65 115q219 143 442 143q199 0 301.5 -109.5t102.5 -300.5v-610h-137l-15 135h-6q-205 -160 -393 -160q-145 0 -241.5 77t-96.5 206zM330 270q0 -80 62.5 -119.5t156.5 -39.5 q162 0 338 147v262q-307 -25 -432 -86.5t-125 -163.5zM375 1456q8 84 49 135t111 51q57 0 118.5 -44t89.5 -44q68 0 80 88h86q-8 -84 -49 -135t-110 -51q-55 0 -118 44t-91 44q-68 0 -80 -88h-86zM387 1397h92q10 -55 51 -91t113 -36q137 0 162 127h94q-8 -92 -71.5 -155.5 t-184.5 -63.5q-123 0 -186.5 63.5t-69.5 155.5z" />
<glyph unicode="&#x1eb6;" d="M66 0l452 1343h193l452 -1343h-180l-127 410h-487l-129 -410h-174zM362 1675h103q10 -55 48 -92t101.5 -37t101.5 37t48 92h102q-12 -96 -74.5 -160.5t-177 -64.5t-177 64.5t-75.5 160.5zM412 547h401l-63 205q-66 209 -134 452h-8q-68 -244 -133 -452zM479 -334 q0 59 39 95t96.5 36t96.5 -35.5t39 -95.5q0 -57 -39 -93t-96.5 -36t-96.5 36t-39 93z" />
<glyph unicode="&#x1eb7;" d="M166 258q0 168 168 255t553 118q-4 113 -66.5 181.5t-197.5 68.5q-158 0 -349 -119l-65 115q219 143 442 143q199 0 301.5 -109.5t102.5 -300.5v-610h-137l-15 135h-6q-205 -160 -393 -160q-145 0 -241.5 77t-96.5 206zM330 270q0 -80 62.5 -119.5t156.5 -39.5 q162 0 338 147v262q-307 -25 -432 -86.5t-125 -163.5zM377 1452h104q8 -72 49 -121t113 -49q70 0 111 48t51 122h104q-8 -111 -74.5 -192.5t-191.5 -81.5q-127 0 -193.5 81.5t-72.5 192.5zM485 -334q0 59 39 95t97 36q59 0 97 -35.5t38 -95.5q0 -57 -38 -93t-97 -36 q-57 0 -96.5 36t-39.5 93z" />
<glyph unicode="&#x1eb8;" d="M236 0v1343h829v-143h-657v-422h555v-145h-555v-488h677v-145h-849zM547 -334q0 59 38 95t95 36q59 0 97 -35.5t38 -95.5q0 -57 -38 -93t-97 -36q-57 0 -95 36t-38 93z" />
<glyph unicode="&#x1eb9;" d="M141 496q0 233 151.5 378.5t354.5 145.5q211 0 332 -127t121 -340q0 -55 -6 -92h-779q8 -160 112.5 -255t268.5 -95q156 0 303 92l60 -111q-180 -117 -383 -117q-229 0 -382 141.5t-153 379.5zM313 571h631q0 152 -78 234t-217 82q-127 0 -222.5 -85.5t-113.5 -230.5z M510 -334q0 59 38 95t97 36q57 0 95 -35.5t38 -95.5q0 -57 -38 -93t-95 -36q-59 0 -97 36t-38 93z" />
<glyph unicode="&#x1eba;" d="M236 0v1343h829v-143h-657v-422h555v-145h-555v-488h677v-145h-849zM547 1688l16 98q285 -10 285 -166q0 -151 -227 -190l-21 77q117 33 117 95q0 80 -170 86z" />
<glyph unicode="&#x1ebb;" d="M141 496q0 233 151.5 378.5t354.5 145.5q211 0 332 -127t121 -340q0 -55 -6 -92h-779q8 -160 112.5 -255t268.5 -95q156 0 303 92l60 -111q-180 -117 -383 -117q-229 0 -382 141.5t-153 379.5zM313 571h631q0 152 -78 234t-217 82q-127 0 -222.5 -85.5t-113.5 -230.5z M514 1391l16 98q283 -10 283 -166q0 -151 -225 -190l-21 77q117 33 117 95q0 80 -170 86z" />
<glyph unicode="&#x1ebc;" d="M236 0v1343h829v-143h-657v-422h555v-145h-555v-488h677v-145h-849zM381 1456q10 98 56 159.5t116 61.5q57 0 133 -53t111 -53q66 0 84 106h92q-8 -96 -54 -158.5t-118 -62.5q-59 0 -135 53.5t-109 53.5q-66 0 -82 -107h-94z" />
<glyph unicode="&#x1ebd;" d="M141 496q0 233 151.5 378.5t354.5 145.5q211 0 332 -127t121 -340q0 -55 -6 -92h-779q8 -160 112.5 -255t268.5 -95q156 0 303 92l60 -111q-180 -117 -383 -117q-229 0 -382 141.5t-153 379.5zM313 571h631q0 152 -78 234t-217 82q-127 0 -222.5 -85.5t-113.5 -230.5z M354 1186q10 102 55.5 162.5t125.5 60.5q53 0 122.5 -55.5t98.5 -55.5q63 0 82 111h96q-10 -100 -55 -161.5t-123 -61.5q-55 0 -125 56t-99 56q-63 0 -81 -112h-97z" />
<glyph unicode="&#x1ebe;" d="M236 0v1343h829v-143h-657v-422h555v-145h-555v-488h677v-145h-849zM414 1446l190 217h148l188 -217h-129l-129 127h-8l-131 -127h-129zM864 1577l144 227h147l-184 -227h-107z" />
<glyph unicode="&#x1ebf;" d="M141 496q0 233 151.5 378.5t354.5 145.5q211 0 332 -127t121 -340q0 -55 -6 -92h-779q8 -160 112.5 -255t268.5 -95q156 0 303 92l60 -111q-180 -117 -383 -117q-229 0 -382 141.5t-153 379.5zM313 571h631q0 152 -78 234t-217 82q-127 0 -222.5 -85.5t-113.5 -230.5z M406 1174l169 243h138l170 -243h-115l-119 149h-8l-121 -149h-114zM825 1311l152 233h141l-188 -233h-105z" />
<glyph unicode="&#x1ec0;" d="M236 0v1343h829v-143h-657v-422h555v-145h-555v-488h677v-145h-849zM414 1446l190 217h148l188 -217h-129l-129 127h-8l-131 -127h-129zM762 1804h147l144 -227h-105z" />
<glyph unicode="&#x1ec1;" d="M141 496q0 233 151.5 378.5t354.5 145.5q211 0 332 -127t121 -340q0 -55 -6 -92h-779q8 -160 112.5 -255t268.5 -95q156 0 303 92l60 -111q-180 -117 -383 -117q-229 0 -382 141.5t-153 379.5zM313 571h631q0 152 -78 234t-217 82q-127 0 -222.5 -85.5t-113.5 -230.5z M406 1174l169 243h138l170 -243h-115l-119 149h-8l-121 -149h-114zM762 1544h143l152 -233h-105z" />
<glyph unicode="&#x1ec2;" d="M236 0v1343h829v-143h-657v-422h555v-145h-555v-488h677v-145h-849zM414 1446l190 217h148l188 -217h-129l-129 127h-8l-131 -127h-129zM838 1769l16 86q248 -10 248 -149q-1 -129 -189 -162l-22 72q90 23 90 74q0 39 -34 57t-109 22z" />
<glyph unicode="&#x1ec3;" d="M141 496q0 233 151.5 378.5t354.5 145.5q211 0 332 -127t121 -340q0 -55 -6 -92h-779q8 -160 112.5 -255t268.5 -95q156 0 303 92l60 -111q-180 -117 -383 -117q-229 0 -382 141.5t-153 379.5zM313 571h631q0 152 -78 234t-217 82q-127 0 -222.5 -85.5t-113.5 -230.5z M406 1174l169 243h138l170 -243h-115l-119 149h-8l-121 -149h-114zM809 1522l14 84q248 -10 248 -150q0 -76 -51 -113t-139 -57l-19 72q88 25 88 80q0 76 -141 84z" />
<glyph unicode="&#x1ec4;" d="M236 0v1343h829v-143h-657v-422h555v-145h-555v-488h677v-145h-849zM408 1737q8 82 50 133t109 51q55 0 121 -43t94 -43q66 0 80 86h86q-8 -84 -50 -134t-112 -50q-55 0 -120.5 43t-94.5 43q-63 0 -79 -86h-84zM414 1446l190 217h148l188 -217h-129l-129 127h-8 l-131 -127h-129z" />
<glyph unicode="&#x1ec5;" d="M141 496q0 233 151.5 378.5t354.5 145.5q211 0 332 -127t121 -340q0 -55 -6 -92h-779q8 -160 112.5 -255t268.5 -95q156 0 303 92l60 -111q-180 -117 -383 -117q-229 0 -382 141.5t-153 379.5zM313 571h631q0 152 -78 234t-217 82q-127 0 -222.5 -85.5t-113.5 -230.5z M377 1456q8 84 49 135t111 51q57 0 118.5 -44t89.5 -44q68 0 80 88h86q-8 -84 -49 -135t-110 -51q-55 0 -118 44t-91 44q-68 0 -80 -88h-86zM389 1169l178 213h154l178 -213h-119l-131 134h-8l-133 -134h-119z" />
<glyph unicode="&#x1ec6;" d="M236 0v1343h829v-143h-657v-422h555v-145h-555v-488h677v-145h-849zM399 1446l197 229h162l196 -229h-135l-137 139h-8l-137 -139h-138zM547 -334q0 59 38 95t95 36q59 0 97 -35.5t38 -95.5q0 -57 -38 -93t-97 -36q-57 0 -95 36t-38 93z" />
<glyph unicode="&#x1ec7;" d="M141 496q0 233 151.5 378.5t354.5 145.5q211 0 332 -127t121 -340q0 -55 -6 -92h-779q8 -160 112.5 -255t268.5 -95q156 0 303 92l60 -111q-180 -117 -383 -117q-229 0 -382 141.5t-153 379.5zM313 571h631q0 152 -78 234t-217 82q-127 0 -222.5 -85.5t-113.5 -230.5z M373 1174l198 303h146l198 -303h-131l-135 202h-8l-137 -202h-131zM510 -334q0 59 38 95t97 36q57 0 95 -35.5t38 -95.5q0 -57 -38 -93t-95 -36q-59 0 -97 36t-38 93z" />
<glyph unicode="&#x1ec8;" d="M195 0v145h333v1055h-333v143h839v-143h-334v-1055h334v-145h-839zM483 1688l19 98q283 -10 282 -166q0 -151 -227 -190l-18 77q115 33 114 95q0 80 -170 86z" />
<glyph unicode="&#x1ec9;" d="M184 858v137h631v-995h-168v858h-463zM582 1391l16 98q285 -10 285 -166q-1 -151 -228 -190l-20 77q117 33 117 95q0 80 -170 86z" />
<glyph unicode="&#x1eca;" d="M195 0v145h333v1055h-333v143h839v-143h-334v-1055h334v-145h-839zM481 -334q0 59 38 95t97 36q57 0 95.5 -35.5t38.5 -95.5q0 -57 -38.5 -93t-95.5 -36q-59 0 -97 36t-38 93z" />
<glyph unicode="&#x1ecb;" d="M184 858v137h631v-995h-168v858h-463zM578 -334q0 59 37.5 95t97.5 36q57 0 96 -35.5t39 -95.5q0 -57 -39 -93t-96 -36q-59 0 -97 36t-38 93zM578 1329q0 59 37.5 95t97.5 36q57 0 96 -35.5t39 -95.5q0 -57 -39 -93t-96 -36q-59 0 -97 36t-38 93z" />
<glyph unicode="&#x1ecc;" d="M98 678q0 317 142.5 503.5t374 186.5t373.5 -186.5t142 -503.5q0 -322 -143 -512.5t-372.5 -190.5t-373 190.5t-143.5 512.5zM274 678q0 -252 93.5 -402.5t247 -150.5t246.5 150.5t93 402.5q0 250 -93 395.5t-246.5 145.5t-247 -145.5t-93.5 -395.5zM479 -334q0 59 39 95 t96.5 36t96.5 -35.5t39 -95.5q0 -57 -39 -93t-96.5 -36t-96.5 36t-39 93z" />
<glyph unicode="&#x1ecd;" d="M123 496q0 242 142.5 383t349 141t349 -141.5t142.5 -382.5q0 -238 -143.5 -379.5t-348 -141.5t-348 141.5t-143.5 379.5zM297 496q0 -170 87 -275.5t230.5 -105.5t230.5 105.5t87 275.5q0 172 -87 278.5t-230.5 106.5t-230.5 -106.5t-87 -278.5zM481 -334q0 59 38 95 t97 36q57 0 95.5 -35.5t38.5 -95.5q0 -57 -38.5 -93t-95.5 -36q-59 0 -97 36t-38 93z" />
<glyph unicode="&#x1ece;" d="M98 678q0 317 142.5 503.5t374 186.5t373.5 -186.5t142 -503.5q0 -322 -143 -512.5t-372.5 -190.5t-373 190.5t-143.5 512.5zM274 678q0 -252 93.5 -402.5t247 -150.5t246.5 150.5t93 402.5q0 250 -93 395.5t-246.5 145.5t-247 -145.5t-93.5 -395.5zM483 1688l19 98 q283 -10 282 -166q0 -151 -227 -190l-18 77q115 33 114 95q0 80 -170 86z" />
<glyph unicode="&#x1ecf;" d="M123 496q0 242 142.5 383t349 141t349 -141.5t142.5 -382.5q0 -238 -143.5 -379.5t-348 -141.5t-348 141.5t-143.5 379.5zM297 496q0 -170 87 -275.5t230.5 -105.5t230.5 105.5t87 275.5q0 172 -87 278.5t-230.5 106.5t-230.5 -106.5t-87 -278.5zM483 1391l19 98 q283 -10 282 -166q0 -151 -227 -190l-18 77q115 33 114 95q0 80 -170 86z" />
<glyph unicode="&#x1ed0;" d="M98 678q0 317 142.5 503.5t374 186.5t373.5 -186.5t142 -503.5q0 -322 -143 -512.5t-372.5 -190.5t-373 190.5t-143.5 512.5zM274 678q0 -252 93.5 -402.5t247 -150.5t246.5 150.5t93 402.5q0 250 -93 395.5t-246.5 145.5t-247 -145.5t-93.5 -395.5zM352 1446l189 217 h147l189 -217h-129l-130 127h-8l-129 -127h-129zM801 1577l145 227h148l-187 -227h-106z" />
<glyph unicode="&#x1ed1;" d="M123 496q0 242 142.5 383t349 141t349 -141.5t142.5 -382.5q0 -238 -143.5 -379.5t-348 -141.5t-348 141.5t-143.5 379.5zM297 496q0 -170 87 -275.5t230.5 -105.5t230.5 105.5t87 275.5q0 172 -87 278.5t-230.5 106.5t-230.5 -106.5t-87 -278.5zM377 1174l168 243h139 l168 -243h-115l-119 149h-8l-118 -149h-115zM797 1311l149 233h144l-189 -233h-104z" />
<glyph unicode="&#x1ed2;" d="M98 678q0 317 142.5 503.5t374 186.5t373.5 -186.5t142 -503.5q0 -322 -143 -512.5t-372.5 -190.5t-373 190.5t-143.5 512.5zM274 678q0 -252 93.5 -402.5t247 -150.5t246.5 150.5t93 402.5q0 250 -93 395.5t-246.5 145.5t-247 -145.5t-93.5 -395.5zM352 1446l189 217 h147l189 -217h-129l-130 127h-8l-129 -127h-129zM698 1804h148l145 -227h-106z" />
<glyph unicode="&#x1ed3;" d="M123 496q0 242 142.5 383t349 141t349 -141.5t142.5 -382.5q0 -238 -143.5 -379.5t-348 -141.5t-348 141.5t-143.5 379.5zM297 496q0 -170 87 -275.5t230.5 -105.5t230.5 105.5t87 275.5q0 172 -87 278.5t-230.5 106.5t-230.5 -106.5t-87 -278.5zM377 1174l168 243h139 l168 -243h-115l-119 149h-8l-118 -149h-115zM733 1544h141l152 -233h-104z" />
<glyph unicode="&#x1ed4;" d="M98 678q0 317 142.5 503.5t374 186.5t373.5 -186.5t142 -503.5q0 -322 -143 -512.5t-372.5 -190.5t-373 190.5t-143.5 512.5zM274 678q0 -252 93.5 -402.5t247 -150.5t246.5 150.5t93 402.5q0 250 -93 395.5t-246.5 145.5t-247 -145.5t-93.5 -395.5zM352 1446l189 217 h147l189 -217h-129l-130 127h-8l-129 -127h-129zM774 1769l19 86q246 -10 245 -149q0 -131 -188 -162l-23 72q92 23 93 74q0 39 -34 57t-112 22z" />
<glyph unicode="&#x1ed5;" d="M123 496q0 242 142.5 383t349 141t349 -141.5t142.5 -382.5q0 -238 -143.5 -379.5t-348 -141.5t-348 141.5t-143.5 379.5zM297 496q0 -170 87 -275.5t230.5 -105.5t230.5 105.5t87 275.5q0 172 -87 278.5t-230.5 106.5t-230.5 -106.5t-87 -278.5zM377 1174l168 243h139 l168 -243h-115l-119 149h-8l-118 -149h-115zM778 1522l15 84q250 -10 249 -150q0 -76 -51 -113t-139 -57l-18 72q86 25 86 80q0 76 -142 84z" />
<glyph unicode="&#x1ed6;" d="M98 678q0 317 142.5 503.5t374 186.5t373.5 -186.5t142 -503.5q0 -322 -143 -512.5t-372.5 -190.5t-373 190.5t-143.5 512.5zM274 678q0 -252 93.5 -402.5t247 -150.5t246.5 150.5t93 402.5q0 250 -93 395.5t-246.5 145.5t-247 -145.5t-93.5 -395.5zM344 1737 q8 82 50 133t110 51q57 0 121.5 -43t93.5 -43q68 0 80 86h86q-8 -84 -49 -134t-111 -50q-57 0 -121.5 43t-93.5 43q-68 0 -80 -86h-86zM352 1446l189 217h147l189 -217h-129l-130 127h-8l-129 -127h-129z" />
<glyph unicode="&#x1ed7;" d="M123 496q0 242 142.5 383t349 141t349 -141.5t142.5 -382.5q0 -238 -143.5 -379.5t-348 -141.5t-348 141.5t-143.5 379.5zM297 496q0 -170 87 -275.5t230.5 -105.5t230.5 105.5t87 275.5q0 172 -87 278.5t-230.5 106.5t-230.5 -106.5t-87 -278.5zM346 1456q8 84 50 135 t112 51q55 0 117.5 -44t91.5 -44q66 0 80 88h86q-8 -84 -50 -135t-112 -51q-55 0 -117.5 44t-91.5 44q-66 0 -80 -88h-86zM360 1169l177 213h155l176 -213h-118l-132 134h-8l-131 -134h-119z" />
<glyph unicode="&#x1ed8;" d="M98 678q0 317 142.5 503.5t374 186.5t373.5 -186.5t142 -503.5q0 -322 -143 -512.5t-372.5 -190.5t-373 190.5t-143.5 512.5zM274 678q0 -252 93.5 -402.5t247 -150.5t246.5 150.5t93 402.5q0 250 -93 395.5t-246.5 145.5t-247 -145.5t-93.5 -395.5zM336 1446l196 229 h164l197 -229h-137l-138 139h-8l-137 -139h-137zM479 -334q0 59 39 95t96.5 36t96.5 -35.5t39 -95.5q0 -57 -39 -93t-96.5 -36t-96.5 36t-39 93z" />
<glyph unicode="&#x1ed9;" d="M123 496q0 242 142.5 383t349 141t349 -141.5t142.5 -382.5q0 -238 -143.5 -379.5t-348 -141.5t-348 141.5t-143.5 379.5zM297 496q0 -170 87 -275.5t230.5 -105.5t230.5 105.5t87 275.5q0 172 -87 278.5t-230.5 106.5t-230.5 -106.5t-87 -278.5zM344 1174l199 303h143 l199 -303h-129l-138 202h-8l-137 -202h-129zM479 -334q0 59 39 95t96.5 36t96.5 -35.5t39 -95.5q0 -57 -39 -93t-96.5 -36t-96.5 36t-39 93z" />
<glyph unicode="&#x1eda;" d="M98 678q0 317 142.5 503.5t373.5 186.5q129 0 238 -63q82 12 122 43.5t40 91.5q0 39 -31 84l121 59q47 -61 47 -133q0 -168 -209 -217q188 -184 188 -555q0 -322 -143 -512.5t-372.5 -190.5t-373 190.5t-143.5 512.5zM274 678q0 -252 93.5 -402.5t247 -150.5t246.5 150.5 t93 402.5q0 250 -93 395.5t-246.5 145.5t-247 -145.5t-93.5 -395.5zM510 1446l180 229h193l-232 -229h-141z" />
<glyph unicode="&#x1edb;" d="M123 496q0 242 142.5 383t348.5 141q111 0 211 -45q174 25 174 135q1 41 -30 86l121 59q49 -63 49 -133q0 -166 -205 -215q172 -147 172 -411q0 -238 -143.5 -379.5t-348 -141.5t-348 141.5t-143.5 379.5zM297 496q0 -170 87 -275.5t230.5 -105.5t230.5 105.5t87 275.5 q0 172 -87 278.5t-230.5 106.5t-230.5 -106.5t-87 -278.5zM481 1174l185 303h184l-240 -303h-129z" />
<glyph unicode="&#x1edc;" d="M98 678q0 317 142.5 503.5t373.5 186.5q129 0 238 -63q82 12 122 43.5t40 91.5q0 39 -31 84l121 59q47 -61 47 -133q0 -168 -209 -217q188 -184 188 -555q0 -322 -143 -512.5t-372.5 -190.5t-373 190.5t-143.5 512.5zM274 678q0 -252 93.5 -402.5t247 -150.5t246.5 150.5 t93 402.5q0 250 -93 395.5t-246.5 145.5t-247 -145.5t-93.5 -395.5zM346 1675h193l180 -229h-141z" />
<glyph unicode="&#x1edd;" d="M123 496q0 242 142.5 383t348.5 141q111 0 211 -45q174 25 174 135q1 41 -30 86l121 59q49 -63 49 -133q0 -166 -205 -215q172 -147 172 -411q0 -238 -143.5 -379.5t-348 -141.5t-348 141.5t-143.5 379.5zM297 496q0 -170 87 -275.5t230.5 -105.5t230.5 105.5t87 275.5 q0 172 -87 278.5t-230.5 106.5t-230.5 -106.5t-87 -278.5zM379 1477h184l185 -303h-130z" />
<glyph unicode="&#x1ede;" d="M98 678q0 317 142.5 503.5t373.5 186.5q129 0 238 -63q82 12 122 43.5t40 91.5q0 39 -31 84l121 59q47 -61 47 -133q0 -168 -209 -217q188 -184 188 -555q0 -322 -143 -512.5t-372.5 -190.5t-373 190.5t-143.5 512.5zM274 678q0 -252 93.5 -402.5t247 -150.5t246.5 150.5 t93 402.5q0 250 -93 395.5t-246.5 145.5t-247 -145.5t-93.5 -395.5zM483 1688l19 98q283 -10 282 -166q0 -151 -227 -190l-18 77q115 33 114 95q0 80 -170 86z" />
<glyph unicode="&#x1edf;" d="M123 496q0 242 142.5 383t348.5 141q111 0 211 -45q174 25 174 135q1 41 -30 86l121 59q49 -63 49 -133q0 -166 -205 -215q172 -147 172 -411q0 -238 -143.5 -379.5t-348 -141.5t-348 141.5t-143.5 379.5zM297 496q0 -170 87 -275.5t230.5 -105.5t230.5 105.5t87 275.5 q0 172 -87 278.5t-230.5 106.5t-230.5 -106.5t-87 -278.5zM483 1391l19 98q283 -10 282 -166q0 -151 -227 -190l-18 77q115 33 114 95q0 80 -170 86z" />
<glyph unicode="&#x1ee0;" d="M98 678q0 317 142.5 503.5t373.5 186.5q129 0 238 -63q82 12 122 43.5t40 91.5q0 39 -31 84l121 59q47 -61 47 -133q0 -168 -209 -217q188 -184 188 -555q0 -322 -143 -512.5t-372.5 -190.5t-373 190.5t-143.5 512.5zM274 678q0 -252 93.5 -402.5t247 -150.5t246.5 150.5 t93 402.5q0 250 -93 395.5t-246.5 145.5t-247 -145.5t-93.5 -395.5zM317 1456q10 98 56.5 159.5t118.5 61.5q57 0 132.5 -53t110.5 -53q66 0 82 106h94q-10 -96 -56 -158.5t-118 -62.5q-57 0 -133 53.5t-110 53.5q-66 0 -82 -107h-95z" />
<glyph unicode="&#x1ee1;" d="M123 496q0 242 142.5 383t348.5 141q111 0 211 -45q174 25 174 135q1 41 -30 86l121 59q49 -63 49 -133q0 -166 -205 -215q172 -147 172 -411q0 -238 -143.5 -379.5t-348 -141.5t-348 141.5t-143.5 379.5zM297 496q0 -170 87 -275.5t230.5 -105.5t230.5 105.5t87 275.5 q0 172 -87 278.5t-230.5 106.5t-230.5 -106.5t-87 -278.5zM324 1186q12 102 57 162.5t123 60.5q53 0 123.5 -55.5t99.5 -55.5q64 0 82 111h96q-12 -100 -57 -161.5t-123 -61.5q-53 0 -123 56t-100 56q-63 0 -82 -112h-96z" />
<glyph unicode="&#x1ee2;" d="M98 678q0 317 142.5 503.5t373.5 186.5q129 0 238 -63q82 12 122 43.5t40 91.5q0 39 -31 84l121 59q47 -61 47 -133q0 -168 -209 -217q188 -184 188 -555q0 -322 -143 -512.5t-372.5 -190.5t-373 190.5t-143.5 512.5zM274 678q0 -252 93.5 -402.5t247 -150.5t246.5 150.5 t93 402.5q0 250 -93 395.5t-246.5 145.5t-247 -145.5t-93.5 -395.5zM479 -334q0 59 39 95t96.5 36t96.5 -35.5t39 -95.5q0 -57 -39 -93t-96.5 -36t-96.5 36t-39 93z" />
<glyph unicode="&#x1ee3;" d="M123 496q0 242 142.5 383t348.5 141q111 0 211 -45q174 25 174 135q1 41 -30 86l121 59q49 -63 49 -133q0 -166 -205 -215q172 -147 172 -411q0 -238 -143.5 -379.5t-348 -141.5t-348 141.5t-143.5 379.5zM297 496q0 -170 87 -275.5t230.5 -105.5t230.5 105.5t87 275.5 q0 172 -87 278.5t-230.5 106.5t-230.5 -106.5t-87 -278.5zM481 -334q0 59 38 95t97 36q57 0 95.5 -35.5t38.5 -95.5q0 -57 -38 -93t-96 -36q-59 0 -97 36t-38 93z" />
<glyph unicode="&#x1ee4;" d="M162 508v835h172v-839q0 -379 282 -379q131 0 208 90t77 289v839h166v-835q0 -276 -121 -404.5t-330 -128.5q-211 0 -332.5 129.5t-121.5 403.5zM479 -334q0 59 39 95t96.5 36t96.5 -35.5t39 -95.5q0 -57 -39 -93t-96.5 -36t-96.5 36t-39 93z" />
<glyph unicode="&#x1ee5;" d="M158 377v618h170v-596q0 -143 53 -210.5t176 -67.5q84 0 154.5 43t154.5 141v690h168v-995h-137l-14 174h-9q-170 -199 -370 -199q-346 0 -346 402zM522 -334q0 59 38 95t97 36q57 0 95.5 -35.5t38.5 -95.5q0 -57 -38.5 -93t-95.5 -36q-59 0 -97 36t-38 93z" />
<glyph unicode="&#x1ee6;" d="M162 508v835h172v-839q0 -379 282 -379q131 0 208 90t77 289v839h166v-835q0 -276 -121 -404.5t-330 -128.5q-211 0 -332.5 129.5t-121.5 403.5zM483 1688l19 98q283 -10 282 -166q0 -151 -227 -190l-18 77q115 33 114 95q0 80 -170 86z" />
<glyph unicode="&#x1ee7;" d="M158 377v618h170v-596q0 -143 53 -210.5t176 -67.5q84 0 154.5 43t154.5 141v690h168v-995h-137l-14 174h-9q-170 -199 -370 -199q-346 0 -346 402zM473 1391l16 98q285 -10 285 -166q0 -151 -227 -190l-21 77q117 33 117 95q0 80 -170 86z" />
<glyph unicode="&#x1ee8;" d="M162 508v835h172v-839q0 -379 282 -379q131 0 208 90t77 289v839h72q90 12 135 42t45 96q0 39 -31 84l121 59q47 -61 47 -133q0 -172 -223 -221v-762q0 -276 -121 -404.5t-330 -128.5q-211 0 -332.5 129t-121.5 404zM510 1446l180 229h193l-232 -229h-141z" />
<glyph unicode="&#x1ee9;" d="M158 377v618h170v-596q0 -143 53 -210.5t176 -67.5q84 0 154.5 43t154.5 141v690h49q170 18 170 135q1 40 -28 87l121 59q47 -66 47 -133q0 -160 -191 -213v-930h-137l-14 174h-9q-170 -199 -370 -199q-346 0 -346 402zM469 1174l186 303h183l-238 -303h-131z" />
<glyph unicode="&#x1eea;" d="M162 508v835h172v-839q0 -379 282 -379q131 0 208 90t77 289v839h72q90 12 135 42t45 96q0 39 -31 84l121 59q47 -61 47 -133q0 -172 -223 -221v-762q0 -276 -121 -404.5t-330 -128.5q-211 0 -332.5 129t-121.5 404zM346 1675h193l180 -229h-141z" />
<glyph unicode="&#x1eeb;" d="M158 377v618h170v-596q0 -143 53 -210.5t176 -67.5q84 0 154.5 43t154.5 141v690h49q170 18 170 135q1 40 -28 87l121 59q47 -66 47 -133q0 -160 -191 -213v-930h-137l-14 174h-9q-170 -199 -370 -199q-346 0 -346 402zM369 1477h182l186 -303h-129z" />
<glyph unicode="&#x1eec;" d="M162 508v835h172v-839q0 -379 282 -379q131 0 208 90t77 289v839h72q90 12 135 42t45 96q0 39 -31 84l121 59q47 -61 47 -133q0 -172 -223 -221v-762q0 -276 -121 -404.5t-330 -128.5q-211 0 -332.5 129t-121.5 404zM483 1688l19 98q283 -10 282 -166q0 -151 -227 -190 l-18 77q115 33 114 95q0 80 -170 86z" />
<glyph unicode="&#x1eed;" d="M158 377v618h170v-596q0 -143 53 -210.5t176 -67.5q84 0 154.5 43t154.5 141v690h49q170 18 170 135q1 40 -28 87l121 59q47 -66 47 -133q0 -160 -191 -213v-930h-137l-14 174h-9q-170 -199 -370 -199q-346 0 -346 402zM473 1391l16 98q285 -10 285 -166 q0 -151 -227 -190l-21 77q117 33 117 95q0 80 -170 86z" />
<glyph unicode="&#x1eee;" d="M162 508v835h172v-839q0 -379 282 -379q131 0 208 90t77 289v839h72q90 12 135 42t45 96q0 39 -31 84l121 59q47 -61 47 -133q0 -172 -223 -221v-762q0 -276 -121 -404.5t-330 -128.5q-211 0 -332.5 129t-121.5 404zM317 1456q10 98 56.5 159.5t118.5 61.5 q57 0 132.5 -53t110.5 -53q66 0 82 106h94q-10 -96 -56 -158.5t-118 -62.5q-57 0 -133 53.5t-110 53.5q-66 0 -82 -107h-95z" />
<glyph unicode="&#x1eef;" d="M158 377v618h170v-596q0 -143 53 -210.5t176 -67.5q84 0 154.5 43t154.5 141v690h49q170 18 170 135q1 40 -28 87l121 59q47 -66 47 -133q0 -160 -191 -213v-930h-137l-14 174h-9q-170 -199 -370 -199q-346 0 -346 402zM313 1186q25 223 181 223q53 0 123.5 -55.5 t97.5 -55.5q64 0 82 111h96q-10 -100 -55 -161.5t-123 -61.5q-55 0 -125 56t-98 56q-63 0 -82 -112h-97z" />
<glyph unicode="&#x1ef0;" d="M162 508v835h172v-839q0 -379 282 -379q131 0 208 90t77 289v839h72q90 12 135 42t45 96q0 39 -31 84l121 59q47 -61 47 -133q0 -172 -223 -221v-762q0 -276 -121 -404.5t-330 -128.5q-211 0 -332.5 129t-121.5 404zM479 -334q0 59 39 95t96.5 36t96.5 -35.5t39 -95.5 q0 -57 -39 -93t-96.5 -36t-96.5 36t-39 93z" />
<glyph unicode="&#x1ef1;" d="M158 377v618h170v-596q0 -143 53 -210.5t176 -67.5q84 0 154.5 43t154.5 141v690h49q170 18 170 135q1 40 -28 87l121 59q47 -66 47 -133q0 -160 -191 -213v-930h-137l-14 174h-9q-170 -199 -370 -199q-346 0 -346 402zM496 -334q0 59 38 95t95 36q59 0 97 -35.5 t38 -95.5q0 -57 -38 -93t-97 -36q-57 0 -95 36t-38 93z" />
<glyph unicode="&#x1ef2;" d="M78 1343h180l203 -399q23 -43 73 -148.5t80 -164.5h9q27 55 80 159.5t77 155.5l195 397h176l-451 -864v-479h-172v479zM346 1675h193l180 -229h-141z" />
<glyph unicode="&#x1ef3;" d="M100 995h170l244 -551q16 -39 36.5 -87t46.5 -108.5t40 -92.5h8q92 252 107 288l217 551h159l-438 -1077q-129 -346 -422 -346q-74 0 -131 20l35 134q47 -14 90 -15q186 0 273 213l30 74zM389 1477h182l185 -303h-129z" />
<glyph unicode="&#x1ef4;" d="M78 1343h180l203 -399q23 -43 73 -148.5t80 -164.5h9q27 55 80 159.5t77 155.5l195 397h176l-451 -864v-479h-172v479zM479 -334q0 59 39 95t96.5 36t96.5 -35.5t39 -95.5q0 -57 -39 -93t-96.5 -36t-96.5 36t-39 93z" />
<glyph unicode="&#x1ef5;" d="M100 995h170l244 -551q16 -39 36.5 -87t46.5 -108.5t40 -92.5h8q92 252 107 288l217 551h159l-438 -1077q-129 -346 -422 -346q-74 0 -131 20l35 134q47 -14 90 -15q186 0 273 213l30 74zM805 -326q0 57 38 94t95 37q59 0 97 -36.5t38 -94.5q0 -59 -38 -94t-97 -35 q-57 0 -95 35t-38 94z" />
<glyph unicode="&#x1ef6;" d="M78 1343h180l203 -399q23 -43 73 -148.5t80 -164.5h9q27 55 80 159.5t77 155.5l195 397h176l-451 -864v-479h-172v479zM483 1688l19 98q283 -10 282 -166q0 -151 -227 -190l-18 77q115 33 114 95q0 80 -170 86z" />
<glyph unicode="&#x1ef7;" d="M100 995h170l244 -551q16 -39 36.5 -87t46.5 -108.5t40 -92.5h8q92 252 107 288l217 551h159l-438 -1077q-129 -346 -422 -346q-74 0 -131 20l35 134q47 -14 90 -15q186 0 273 213l30 74zM502 1391l18 98q283 -10 283 -166q0 -151 -225 -190l-21 77q115 33 115 95 q0 80 -170 86z" />
<glyph unicode="&#x1ef8;" d="M78 1343h180l203 -399q23 -43 73 -148.5t80 -164.5h9q27 55 80 159.5t77 155.5l195 397h176l-451 -864v-479h-172v479zM317 1456q10 98 56.5 159.5t118.5 61.5q57 0 132.5 -53t110.5 -53q66 0 82 106h94q-10 -96 -56 -158.5t-118 -62.5q-57 0 -133 53.5t-110 53.5 q-66 0 -82 -107h-95z" />
<glyph unicode="&#x1ef9;" d="M100 995h170l244 -551q16 -39 36.5 -87t46.5 -108.5t40 -92.5h8q92 252 107 288l217 551h159l-438 -1077q-129 -346 -422 -346q-74 0 -131 20l35 134q47 -14 90 -15q186 0 273 213l30 74zM334 1186q10 102 55 162.5t123 60.5q55 0 125 -55.5t98 -55.5q63 0 82 111h96 q-12 -100 -57 -161.5t-123 -61.5q-53 0 -122.5 56t-98.5 56q-63 0 -84 -112h-94z" />
<glyph unicode="&#x2000;" horiz-adv-x="975" />
<glyph unicode="&#x2001;" horiz-adv-x="1950" />
<glyph unicode="&#x2002;" horiz-adv-x="975" />
<glyph unicode="&#x2003;" horiz-adv-x="1950" />
<glyph unicode="&#x2004;" horiz-adv-x="650" />
<glyph unicode="&#x2005;" horiz-adv-x="487" />
<glyph unicode="&#x2006;" horiz-adv-x="325" />
<glyph unicode="&#x2007;" />
<glyph unicode="&#x2008;" horiz-adv-x="243" />
<glyph unicode="&#x2009;" horiz-adv-x="390" />
<glyph unicode="&#x200a;" horiz-adv-x="108" />
<glyph unicode="&#x2010;" d="M274 526v148h680v-148h-680z" />
<glyph unicode="&#x2011;" d="M274 526v148h680v-148h-680z" />
<glyph unicode="&#x2012;" d="M164 526v148h901v-148h-901z" />
<glyph unicode="&#x2013;" d="M164 526v148h901v-148h-901z" />
<glyph unicode="&#x2014;" d="M41 526v148h1147v-148h-1147z" />
<glyph unicode="&#x2015;" d="M41 526v148h1147v-148h-1147z" />
<glyph unicode="&#x2018;" d="M428 963q0 152 78 274.5t217 194.5l55 -99q-199 -115 -211 -323q25 12 54 12q63 0 103 -41t40 -107q0 -70 -43 -113.5t-109 -43.5q-82 0 -133 66.5t-51 179.5z" />
<glyph unicode="&#x2019;" d="M444 815q201 111 213 324q-25 -12 -53 -13q-63 0 -104 41t-41 105q0 70 43 115t108 45q82 0 133.5 -67t51.5 -181q0 -152 -78 -273.5t-215 -193.5z" />
<glyph unicode="&#x201a;" d="M444 -365q201 111 213 324q-25 -12 -53 -12q-66 0 -105.5 41t-39.5 106q0 70 43 114t108 44q82 0 133.5 -66.5t51.5 -181.5q0 -152 -78 -273.5t-215 -193.5z" />
<glyph unicode="&#x201c;" d="M195 963q0 154 76.5 275.5t215.5 193.5l56 -99q-199 -115 -213 -323q28 12 55 12q63 0 103 -41t40 -107q0 -70 -42 -113.5t-107 -43.5q-82 0 -133 66.5t-51 179.5zM664 963q0 152 77.5 274.5t216.5 194.5l56 -99q-201 -115 -215 -323q28 12 55 12q63 0 104 -41t41 -107 q0 -70 -43 -113.5t-108 -43.5q-82 0 -133 66.5t-51 179.5z" />
<glyph unicode="&#x201d;" d="M211 815q199 113 211 324q-25 -12 -53 -13q-63 0 -103.5 41t-40.5 105q0 70 42 115t108 45q82 0 133 -67t51 -181q0 -154 -77 -274.5t-216 -192.5zM680 815q199 115 211 322q-27 -10 -51 -11q-66 0 -106 41t-40 105q0 70 43 115t109 45q82 0 133 -67t51 -181 q0 -152 -78 -273.5t-217 -193.5z" />
<glyph unicode="&#x201e;" d="M211 -365q199 113 211 324q-25 -12 -53 -12q-63 0 -103.5 41t-40.5 106q0 70 42 114t108 44q82 0 133 -66.5t51 -181.5q0 -154 -77 -274.5t-216 -192.5zM680 -365q199 115 211 322q-27 -10 -51 -10q-66 0 -106 41t-40 106q0 70 43 114t109 44q82 0 133 -66.5t51 -181.5 q0 -152 -78 -273.5t-217 -193.5z" />
<glyph unicode="&#x2020;" d="M260 995v146l293 -11l-10 328h143l-10 -328l293 11v-146l-293 11l10 -1170h-143l10 1170z" />
<glyph unicode="&#x2021;" d="M260 154v145l293 -14l-10 362l10 363l-293 -15v146l293 -11l-10 328h143l-10 -328l293 11v-146l-293 15l10 -363l-10 -362l293 14v-145l-293 10l10 -328h-143l10 328z" />
<glyph unicode="&#x2022;" d="M309 620.5q0 131.5 90 216.5t215 85t215.5 -85t90.5 -216.5t-90.5 -216.5t-215.5 -85t-215 85t-90 216.5z" />
<glyph unicode="&#x2026;" d="M66 129q0 68 40.5 111t102.5 43q59 0 100 -43t41 -111t-41 -111t-100 -43q-61 0 -102 43t-41 111zM471 129q0 68 41 111t102.5 43t102.5 -43t41 -111t-41 -111t-102.5 -43t-102.5 43t-41 111zM879 129q0 68 41 111t100 43q61 0 102 -43t41 -111t-41 -111t-102 -43 q-59 0 -100 43t-41 111z" />
<glyph unicode="&#x202f;" horiz-adv-x="390" />
<glyph unicode="&#x2030;" d="M98 246q0 123 65.5 193.5t174 70.5t174.5 -70.5t66 -193.5q0 -125 -66 -198t-174.5 -73t-174 73t-65.5 198zM98 1067q0 123 65.5 193.5t174 70.5t174.5 -70.5t66 -193.5q0 -125 -66 -197.5t-174.5 -72.5t-174 72.5t-65.5 197.5zM209 246q0 -92 36 -138.5t93 -46.5 t92 46.5t35 138.5q0 176 -127 176q-57 0 -93 -44t-36 -132zM209 1067q0 -92 36 -138t93 -46t92 46t35 138q0 88 -35 133t-92 45t-93 -45t-36 -133zM215 633l913 411l50 -118l-934 -357zM653 246q0 123 65.5 193.5t174 70.5t174.5 -70.5t66 -193.5q0 -125 -66 -198 t-174.5 -73t-174 73t-65.5 198zM764 246q0 -92 36 -138.5t93 -46.5t92 46.5t35 138.5q0 176 -127 176q-57 0 -93 -44t-36 -132z" />
<glyph unicode="&#x2032;" d="M524 889l47 524h166l-32 -205l-70 -319h-111z" />
<glyph unicode="&#x2033;" d="M344 889l47 524h166l-33 -205l-69 -319h-111zM707 889l45 524h166l-31 -205l-72 -319h-108z" />
<glyph unicode="&#x2039;" d="M403 434v164l314 328l80 -72l-260 -338l260 -340l-80 -70z" />
<glyph unicode="&#x203a;" d="M432 176l260 340l-260 338l80 72l313 -328v-164l-313 -328z" />
<glyph unicode="&#x2044;" d="M57 158l375 385l68 -62l-342 -415zM729 862l342 416l100 -92l-374 -385z" />
<glyph unicode="&#x205f;" horiz-adv-x="487" />
<glyph unicode="&#x2070;" d="M330 1219q0 156 78.5 243.5t205.5 87.5t206 -88t79 -243q0 -158 -79 -250t-206 -92t-205.5 92t-78.5 250zM455 1219q0 -117 45 -178.5t114.5 -61.5t114.5 61.5t45 178.5q0 115 -45 173t-114.5 58t-114.5 -58.5t-45 -172.5z" />
<glyph unicode="&#x2071;" d="M358 1087v105h420v-660h-131v555h-289zM612 1413q0 41 28 67.5t71 26.5t70.5 -26.5t27.5 -67.5q0 -43 -27.5 -67.5t-70.5 -24.5t-71 24.5t-28 67.5z" />
<glyph unicode="&#x2074;" d="M352 1051v63l303 412h146v-387h102v-88h-102v-150h-117v150h-332zM483 1139h201v114l8 168h-6l-92 -133z" />
<glyph unicode="&#x2075;" d="M352 987l66 80q84 -88 188 -88q59 0 97 31.5t38 85.5q0 57 -36.5 87.5t-100 30.5t-131.5 -47l-63 41l34 318h387v-111h-284l-21 -143q49 25 115 24q102 0 165.5 -54t63.5 -148q0 -96 -71.5 -156.5t-182.5 -60.5q-147 -1 -264 110z" />
<glyph unicode="&#x2076;" d="M358 1188q0 172 86 267t230 95q100 1 190 -65l-53 -84q-63 49 -133 49q-88 0 -139.5 -60.5t-59.5 -175.5q82 70 187 70q102 0 155 -53t53 -141.5t-66.5 -150.5t-168.5 -62q-123 0 -202 85t-79 226zM481 1128q10 -76 53.5 -112.5t102.5 -36.5q55 0 87 29.5t32 81.5 q0 109 -121 108q-78 0 -154 -70z" />
<glyph unicode="&#x2077;" d="M375 1417v109h497v-74q-123 -135 -168 -255t-53 -296h-133q8 156 54 271.5t149 244.5h-346z" />
<glyph unicode="&#x2078;" d="M358 1057q0 102 134 166v8q-55 33 -83 64.5t-28 82.5q0 74 68.5 123t164.5 49q102 0 169 -48t67 -124q0 -88 -109 -147v-8q129 -55 129 -166q0 -76 -73.5 -128t-182.5 -52q-113 0 -184.5 53t-71.5 127zM477 1065q0 -41 40 -68.5t97 -27.5q53 0 95.5 26.5t42.5 65.5 q0 23 -11.5 40t-23.5 28.5t-42 23.5t-45.5 16.5t-56.5 16.5q-96 -45 -96 -121zM502 1376q-1 -67 153 -112q74 45 74 108q0 39 -30.5 62.5t-84.5 23.5q-51 0 -81.5 -23.5t-30.5 -58.5z" />
<glyph unicode="&#x2079;" d="M354 1337q0 90 66.5 151.5t169.5 61.5q123 0 201.5 -85t78.5 -226q0 -172 -86 -267t-229 -95q-102 -1 -190 67l53 82q61 -47 133 -47q180 0 197 233q-82 -70 -184.5 -69.5t-156 53.5t-53.5 141zM473 1337q0 -106 121 -106q82 0 151 67q-10 74 -53 113t-100 39 q-55 0 -87 -31t-32 -82z" />
<glyph unicode="&#x207d;" d="M483 1227q0 268 215 483l95 -68q-174 -174 -174.5 -415.5t174.5 -415.5l-95 -66q-215 212 -215 482z" />
<glyph unicode="&#x207e;" d="M436 811q174 174 174 415.5t-174 415.5l94 68q215 -215 215 -483q0 -270 -215 -482z" />
<glyph unicode="&#x207f;" d="M358 532v660h109l10 -98h6q115 115 236 114q223 0 223 -260v-416h-131v400q0 86 -31.5 126t-105.5 40q-49 0 -89 -23.5t-96 -77.5v-465h-131z" />
<glyph unicode="&#x2080;" d="M330 -31q0 156 78.5 244t205.5 88t206 -88t79 -244q0 -158 -79 -250t-206 -92t-205.5 92.5t-78.5 249.5zM455 -31q0 -117 45 -178t114.5 -61t114.5 61.5t45 177.5q0 115 -45 173.5t-114.5 58.5t-114.5 -58.5t-45 -173.5z" />
<glyph unicode="&#x2081;" d="M426 123v86q106 16 195 67h102v-624h-129v471h-168z" />
<glyph unicode="&#x2082;" d="M354 176q106 125 244 125q111 0 173.5 -55.5t62.5 -155.5q0 -51 -39 -111.5t-78 -98.5t-131 -120h278v-108h-487v74q180 137 255 210.5t75 137.5q0 55 -33 88t-92 33q-80 0 -146 -86z" />
<glyph unicode="&#x2083;" d="M352 -262l66 80q74 -88 186 -88q127 0 127 96q0 104 -196 104v78q166 0 165 105q0 88 -112 88q-80 0 -150 -70l-61 78q86 92 235 92q96 0 156.5 -46t60.5 -126q0 -113 -114 -154q145 -35 145 -157q0 -88 -69.5 -139.5t-178.5 -51.5q-154 0 -260 111z" />
<glyph unicode="&#x2084;" d="M352 -135l303 411h146v-387h102v-88h-102v-149h-117v149h-332v64zM483 -111h201v115l8 168h-6l-92 -133z" />
<glyph unicode="&#x2085;" d="M352 -262l66 80q84 -88 188 -88q59 0 97 31.5t38 84.5q0 57 -36.5 88t-100 31t-131.5 -47l-63 41l34 317h387v-110h-284l-21 -143q49 25 115 24q102 0 165.5 -54t63.5 -149q0 -96 -71.5 -156.5t-182.5 -60.5q-147 0 -264 111z" />
<glyph unicode="&#x2086;" d="M358 -61q0 172 86 267t230 95q100 1 190 -65l-53 -84q-63 49 -133 49q-88 0 -139.5 -60.5t-59.5 -175.5q82 70 187 70q102 0 155 -53.5t53 -141.5t-66.5 -150.5t-168.5 -62.5q-123 0 -202 85t-79 227zM481 -121q10 -76 53.5 -112.5t102.5 -36.5q55 0 87 29.5t32 80.5 q0 109 -121 109q-78 0 -154 -70z" />
<glyph unicode="&#x2087;" d="M375 168v108h497v-73q-123 -135 -168 -255t-53 -296h-133q8 156 54 271.5t149 244.5h-346z" />
<glyph unicode="&#x2088;" d="M358 -193q0 102 134 166v9q-55 33 -83 64.5t-28 82.5q0 74 68.5 123t164.5 49q102 0 169 -48t67 -124q0 -88 -109 -147v-9q129 -55 129 -166q0 -76 -73.5 -128t-182.5 -52q-113 0 -184.5 53t-71.5 127zM477 -184q0 -41 40 -69t97 -28q53 0 95.5 27t42.5 66q0 23 -11.5 40 t-23.5 28t-42 23.5t-45.5 16.5t-56.5 17q-96 -45 -96 -121zM502 127q-1 -68 153 -113q74 45 74 109q0 39 -30.5 62.5t-84.5 23.5q-51 0 -81.5 -23.5t-30.5 -58.5z" />
<glyph unicode="&#x2089;" d="M354 88q0 90 66.5 151.5t169.5 61.5q123 0 201.5 -85t78.5 -226q0 -172 -86 -267.5t-229 -95.5q-102 0 -190 68l53 82q61 -47 133 -47q180 0 197 233q-82 -70 -184.5 -69.5t-156 53.5t-53.5 141zM473 88q0 -106 121 -106q82 0 151 67q-10 74 -53 113t-100 39 q-55 0 -87 -31t-32 -82z" />
<glyph unicode="&#x208d;" d="M483 -23q0 268 215 484l95 -68q-174 -174 -174.5 -415.5t174.5 -415.5l-95 -66q-215 211 -215 481z" />
<glyph unicode="&#x208e;" d="M436 393l94 68q215 -216 215 -484q0 -270 -215 -481l-94 66q174 174 174 415.5t-174 415.5z" />
<glyph unicode="&#x2094;" d="M315 836q0 33 9 65h469q-6 96 -59.5 150.5t-147.5 54.5q-90 0 -183 -53l-45 84q109 72 242 71q145 0 233.5 -92t88.5 -254q0 -156 -89.5 -251t-222.5 -95q-137 0 -216 86.5t-79 233.5zM432 815q0 -96 46 -146.5t130 -50.5q80 0 129 51.5t58 145.5h-363z" />
<glyph unicode="&#x20a1;" d="M197 651q0 279 120.5 456t331.5 214l25 211h78l-25 -201h31q41 0 88 -10l24 211h78l-28 -234q100 -41 180 -127l-101 -96q-51 51 -96 78l-123 -1040q127 16 238 143l100 -90q-152 -174 -354 -189l-25 -202h-77l24 202q-53 2 -117 21l-26 -223h-78l31 254 q-141 74 -220 234.5t-79 387.5zM371 657q0 -319 145 -458l115 979q-125 -43 -192.5 -179.5t-67.5 -341.5zM588 145q47 -27 114 -32l127 1073q-45 10 -81 10q-25 0 -37 -2z" />
<glyph unicode="&#x20a4;" d="M160 0v102q125 55 189.5 152.5t64.5 216.5v10h-254v90l178 11h61q-4 14 -41 120h-198v93l164 8q-29 86 -29 151q0 172 116.5 274.5t313.5 102.5q221 0 360 -153l-98 -97q-109 109 -254 109q-131 0 -203.5 -65.5t-72.5 -174.5q0 -68 26 -147h422v-101h-389q29 -92 35 -120 h354v-101h-342v-12q0 -190 -153 -315v-9h677v-145h-927z" />
<glyph unicode="&#x20a6;" d="M96 492v77l152 11v122h-152v76l152 10v519h172l209 -519h219v519h133v-519h147v-86h-147v-122h147v-88h-147v-492h-172l-199 492h-229v-492h-133v492h-152zM348 1153l25 -365h121l-138 365h-8zM379 702l2 -45v-77h194l-49 120v2h-147zM664 702l38 -94l11 -28h139l-4 69 v53h-184zM745 492l127 -340h9l-23 340h-113z" />
<glyph unicode="&#x20a7;" d="M88 854v104l154 11v338h303q422 0 459 -338h131v-115h-131q-18 -174 -143.5 -263t-315.5 -89h-142v-502h-161v854h-154zM403 618h121q287 0 318 236h-439v-236zM403 969h439q-29 221 -318 221h-121v-221z" />
<glyph unicode="&#x20ab;" d="M223 612q0 162 106.5 264.5t250.5 102.5q127 0 241 -94l-8 170v69h-317v101h317v137h145v-137h160v-90l-160 -11v-878h-118l-13 88h-8q-113 -109 -254 -109q-158 0 -250 101.5t-92 285.5zM248 0v100h774v-100h-774zM373 614q0 -127 58 -197.5t165 -70.5q115 0 217 109 v317q-104 84 -209 84q-96 0 -163.5 -69.5t-67.5 -172.5z" />
<glyph unicode="&#x20ac;" d="M119 481v88l121 9q-2 25 -2 73q0 45 2 66h-121v90l131 10q39 242 183.5 378t361.5 136q201 0 346 -160l-101 -96q-117 121 -252 121q-150 0 -242.5 -100.5t-121.5 -278.5h602v-100h-612q-2 -18 -2 -60q0 -53 2 -77h530v-99h-518q29 -176 120 -273t230 -97q156 0 283 145 l100 -90q-164 -190 -393 -191q-201 0 -339 134.5t-177 371.5h-131z" />
<glyph unicode="&#x20b1;" d="M88 772v74l154 10v121h-154v76l154 8v246h303q358 0 438 -246h152v-84h-134q4 -41 5 -68q0 -37 -2 -53h131v-84h-148q-41 -133 -157.5 -201.5t-284.5 -68.5h-142v-502h-161v772h-154zM403 618h121q229 0 297 154h-418v-154zM403 856h439q4 33 4 53q0 27 -4 68h-439v-121z M403 1061h412q-66 129 -291 129h-121v-129z" />
<glyph unicode="&#x20b2;" d="M172 651q0 287 125 465t340 209v207h123v-203q182 -14 311 -162l-100 -94q-117 123 -252 123q-176 0 -274.5 -144.5t-98.5 -394.5q0 -254 95.5 -398t265.5 -144q137 0 217 75v347h-238v141h391v-553q-137 -127 -317 -145v-205h-123v205q-209 23 -337 201.5t-128 469.5z " />
<glyph unicode="&#x20b5;" d="M197 651q0 289 129 468t350 208v199h108v-197q184 -12 316 -158l-101 -96q-102 104 -215 119v-1079q125 16 234 141l100 -90q-143 -166 -334 -186v-205h-108v202q-217 20 -348 199.5t-131 474.5zM371 657q0 -229 80 -372t225 -170v1075q-145 -29 -225 -169t-80 -364z" />
<glyph unicode="&#x20b9;" d="M221 516v137h162q356 0 377 242h-539v90l156 10h377q-45 172 -371 172h-162v140h852v-101h-321q139 -63 172 -211h149v-100h-145q-8 -150 -101.5 -242t-248.5 -123l426 -530h-193l-408 516h-182z" />
<glyph unicode="&#x20ba;" d="M115 436v109l213 98v148l-213 -99v107l213 100v408h172v-324l372 176v-108l-372 -177v-147l372 176v-106l-372 -179v-483q170 6 311 96.5t141 239.5q0 49 -12 88l141 37q16 -63 17 -117q0 -250 -215 -380t-555 -124v560z" />
<glyph unicode="&#x2113;" d="M240 358q57 35 174 123v549q0 227 82 336t217 109q119 0 192.5 -84t73.5 -234q0 -367 -399 -706v-70q0 -135 51 -198.5t133 -63.5q92 0 186 90l68 -105q-137 -129 -279 -129q-133 0 -225 91.5t-100 257.5q-8 -6 -107 -72zM580 629q256 256 256 528q0 188 -119 189 q-59 0 -98 -73t-39 -214v-430z" />
<glyph unicode="&#x2117;" d="M61 661.5q0 307.5 157 491.5t396.5 184t396 -184t156.5 -491.5t-156.5 -496t-396 -188.5t-396.5 188.5t-157 496zM156 661.5q0 -268.5 126 -433.5t332.5 -165t332.5 165t126 433.5t-126 430t-332.5 161.5t-332.5 -161.5t-126 -430zM395 281v743h234q123 0 200.5 -60.5 t77.5 -179.5q0 -129 -78.5 -198.5t-199.5 -69.5h-101v-235h-133zM528 618h80q166 0 166 162q0 139 -166 140h-80v-302z" />
<glyph unicode="&#x2120;" d="M31 823l67 76q84 -78 166 -78q100 0 101 80q0 27 -10.5 43.5t-24 24.5t-51.5 26l-95 49q-121 63 -121 175q0 80 58.5 130t154.5 50q109 0 195 -78l-61 -80q-78 61 -138 62q-45 0 -70.5 -23t-25.5 -55q0 -49 84 -88l94 -47q125 -57 125 -179q0 -76 -61.5 -131t-161.5 -55 q-127 0 -225 98zM598 750v634h145l93 -233l55 -164h8l53 164l90 233h146v-634h-113v280l15 215h-9l-145 -383h-86l-148 383h-8l15 -215v-280h-111z" />
<glyph unicode="&#x2122;" d="M-10 1274v110h516v-110h-197v-524h-123v524h-196zM598 750v634h145l93 -233l55 -164h8l53 164l90 233h146v-634h-113v280l15 215h-9l-145 -383h-86l-148 383h-8l15 -215v-280h-111z" />
<glyph unicode="&#x2126;" d="M0 0v139h272v8q-244 240 -243 574q0 299 159.5 477t426 178t426 -178t159.5 -477q0 -334 -244 -574v-8h273v-139h-488v115q283 213 283 600q0 231 -110.5 371.5t-299 140.5t-299 -140.5t-110.5 -371.5q0 -387 282 -600v-115h-487z" />
<glyph unicode="&#x212e;" d="M53 663.5q0 284.5 165 486.5t396.5 202t396.5 -202t165 -486v-17h-848q-8 0 -9 -8v-459q1 -16 17 -41q111 -123 282 -123q106 0 204 61.5t169 168.5h78q-86 -127 -202.5 -199t-252.5 -72q-231 0 -396 202t-165 486.5zM319 696q1 -12 9 -12h573q12 0 12 12v459 q0 25 -20 45q-111 111 -275 111q-170 0 -282 -119q-16 -25 -17 -45v-451z" />
<glyph unicode="&#x2153;" d="M57 158l375 385l68 -62l-342 -415zM152 1153v86q115 18 192 68h105v-625h-130v471h-167zM629 86l65 80q74 -88 187 -88q127 0 127 96q0 104 -197 105v77q166 0 166 105q0 88 -113 88q-82 0 -151 -70l-60 78q86 92 236 92q96 0 156.5 -46t60.5 -126q0 -113 -115 -153 q145 -35 146 -158q0 -88 -70 -139.5t-178 -51.5q-154 0 -260 111zM729 862l342 416l100 -92l-374 -385z" />
<glyph unicode="&#x2154;" d="M57 158l375 385l68 -62l-342 -415zM80 1206q106 125 242 125q111 0 174 -55t63 -156q0 -53 -40 -113.5t-78 -97.5t-130 -118h279v-109h-490v72q184 141 257 213.5t73 136.5q0 55 -32.5 87t-92.5 32q-82 0 -145 -86zM629 86l65 80q74 -88 187 -88q127 0 127 96 q0 104 -197 105v77q166 0 166 105q0 88 -113 88q-82 0 -151 -70l-60 78q86 92 236 92q96 0 156.5 -46t60.5 -126q0 -113 -115 -153q145 -35 146 -158q0 -88 -70 -139.5t-178 -51.5q-154 0 -260 111zM729 862l342 416l100 -92l-374 -385z" />
<glyph unicode="&#x215b;" d="M57 158l375 385l68 -62l-342 -415zM152 1153v86q115 18 192 68h105v-625h-130v471h-167zM633 156q0 102 135 166v8q-55 33 -83 64.5t-28 82.5q0 74 69 123t165 49q102 0 168.5 -48t66.5 -124q0 -86 -108 -147v-8q129 -55 129 -166q0 -76 -74 -128.5t-182 -52.5 q-113 0 -185.5 53.5t-72.5 127.5zM729 862l342 416l100 -92l-374 -385zM754 164q0 -41 40 -68.5t97 -27.5q53 0 95 26.5t42 65.5q0 23 -11 40t-23.5 28.5t-42 23.5t-45 16t-56.5 17q-96 -43 -96 -121zM778 475q0 -68 154 -113q74 45 74 109q0 39 -31 62.5t-86 23.5 q-49 0 -80 -22.5t-31 -59.5z" />
<glyph unicode="&#x215c;" d="M57 158l375 385l68 -62l-342 -415zM78 768l65 80q76 -90 187 -90q57 0 92 24.5t35 71.5q0 106 -197 107v77q166 0 166 103q0 88 -113 88q-82 0 -149 -68l-62 78q86 92 236 92q96 0 156.5 -47t60.5 -125q0 -113 -115 -153q145 -35 146 -158q0 -88 -70 -139.5t-178 -51.5 q-154 0 -260 111zM633 156q0 102 135 166v8q-55 33 -83 64.5t-28 82.5q0 74 69 123t165 49q102 0 168.5 -48t66.5 -124q0 -86 -108 -147v-8q129 -55 129 -166q0 -76 -74 -128.5t-182 -52.5q-113 0 -185.5 53.5t-72.5 127.5zM729 862l342 416l100 -92l-374 -385zM754 164 q0 -41 40 -68.5t97 -27.5q53 0 95 26.5t42 65.5q0 23 -11 40t-23.5 28.5t-42 23.5t-45 16t-56.5 17q-96 -43 -96 -121zM778 475q0 -68 154 -113q74 45 74 109q0 39 -31 62.5t-86 23.5q-49 0 -80 -22.5t-31 -59.5z" />
<glyph unicode="&#x215d;" d="M57 158l375 385l68 -62l-342 -415zM78 768l65 80q86 -90 189 -90q59 0 97 31.5t38 87t-37 87t-100 31.5q-66 0 -131 -49l-64 43l35 318h387v-113h-285l-20 -143q47 27 115 26q104 0 166.5 -54t62.5 -150.5t-71.5 -156t-182.5 -59.5q-147 0 -264 111zM633 156 q0 102 135 166v8q-55 33 -83 64.5t-28 82.5q0 74 69 123t165 49q102 0 168.5 -48t66.5 -124q0 -86 -108 -147v-8q129 -55 129 -166q0 -76 -74 -128.5t-182 -52.5q-113 0 -185.5 53.5t-72.5 127.5zM729 862l342 416l100 -92l-374 -385zM754 164q0 -41 40 -68.5t97 -27.5 q53 0 95 26.5t42 65.5q0 23 -11 40t-23.5 28.5t-42 23.5t-45 16t-56.5 17q-96 -43 -96 -121zM778 475q0 -68 154 -113q74 45 74 109q0 39 -31 62.5t-86 23.5q-49 0 -80 -22.5t-31 -59.5z" />
<glyph unicode="&#x215e;" d="M57 158l375 385l68 -62l-342 -415zM98 1198v109h498v-74q-123 -137 -167 -257t-52 -294h-135q10 156 57 271.5t147 244.5h-348zM633 156q0 102 135 166v8q-55 33 -83 64.5t-28 82.5q0 74 69 123t165 49q102 0 168.5 -48t66.5 -124q0 -86 -108 -147v-8q129 -55 129 -166 q0 -76 -74 -128.5t-182 -52.5q-113 0 -185.5 53.5t-72.5 127.5zM729 862l342 416l100 -92l-374 -385zM754 164q0 -41 40 -68.5t97 -27.5q53 0 95 26.5t42 65.5q0 23 -11 40t-23.5 28.5t-42 23.5t-45 16t-56.5 17q-96 -43 -96 -121zM778 475q0 -68 154 -113q74 45 74 109 q0 39 -31 62.5t-86 23.5q-49 0 -80 -22.5t-31 -59.5z" />
<glyph unicode="&#x2190;" d="M35 512v8l557 543l88 -94l-412 -383h897v-140h-897l412 -383l-88 -94z" />
<glyph unicode="&#x2191;" d="M68 522l542 557h8l543 -557l-94 -86l-383 412v-899h-139v899l-383 -412z" />
<glyph unicode="&#x2192;" d="M59 446v140h899l-411 383l86 94l559 -543v-8l-559 -543l-86 94l411 383h-899z" />
<glyph unicode="&#x2193;" d="M68 508l94 86l383 -412v897h139v-897l383 412l94 -86l-543 -559h-8z" />
<glyph unicode="&#x2202;" d="M156 369q0 207 119.5 334.5t324.5 127.5q178 0 305 -147q2 23 2 68q0 485 -286 485q-126 0 -230 -104l-78 106q137 137 324 137q203 0 318.5 -159.5t115.5 -468.5q0 -346 -149.5 -559.5t-393.5 -213.5q-154 0 -263 109t-109 285zM315 379q0 -119 67 -191.5t163 -72.5 q133 0 224 111.5t124 314.5q-123 156 -279 155q-145 0 -222 -88t-77 -229z" />
<glyph unicode="&#x2206;" d="M68 0v102l448 1250h197l448 -1250v-102h-1093zM262 145h705l-215 621l-131 410h-9l-135 -410z" />
<glyph unicode="&#x220f;" d="M106 -246v1553h1016v-1553h-174v1403h-672v-1403h-170z" />
<glyph unicode="&#x2211;" d="M143 -137l488 667l-465 668v109h901v-146h-690v-8l434 -621l-455 -624v-8h768v-146h-981v109z" />
<glyph unicode="&#x2212;" d="M174 571v127h881v-127h-881z" />
<glyph unicode="&#x2215;" d="M57 158l375 385l68 -62l-342 -415zM729 862l342 416l100 -92l-374 -385z" />
<glyph unicode="&#x2219;" d="M442 710.5q0 75.5 47.5 125t117 49.5t117.5 -49.5t48 -125t-48 -123.5t-117.5 -48t-117 48t-47.5 123.5z" />
<glyph unicode="&#x221a;" d="M127 709l274 120l238 -708q23 -76 35 -131h8q2 6 10 56t15 75l364 1558h123l-446 -1874h-127l-308 877l-145 -66z" />
<glyph unicode="&#x221e;" d="M-8 664q0 156 85 249t214 93q174 0 287 -207h8q141 240 336 239q137 0 226 -98t89 -252q0 -170 -89 -275.5t-228 -105.5q-111 0 -192 57.5t-161 186.5h-8q-123 -203 -293 -203q-113 0 -193.5 92t-80.5 224zM125 670q0 -82 48 -137.5t118 -55.5q131 0 213 180 q-96 188 -217 189q-74 0 -118 -47t-44 -129zM641 696q66 -125 129.5 -176t142.5 -51q88 0 139.5 61.5t51.5 151.5q0 100 -55.5 163.5t-149.5 63.5q-141 0 -258 -213z" />
<glyph unicode="&#x222b;" d="M381 -309l18 127q25 -8 72 -8q82 0 109.5 77.5t27.5 249.5q0 150 -43 505t-43 507q0 223 60.5 345t224.5 122q63 0 96 -12l-20 -127q-37 8 -72 8q-80 0 -106.5 -79t-26.5 -253q0 -147 42 -501.5t42 -506.5q0 -147 -20.5 -243.5t-86 -161t-178.5 -64.5q-63 0 -96 15z" />
<glyph unicode="&#x2248;" d="M156 307q94 258 278 258q70 0 135.5 -43t124 -87t105.5 -44q53 0 93 38t73 140l108 -49q-96 -256 -278 -256q-70 0 -135.5 44t-124 87t-105.5 43q-53 0 -93 -38t-73 -138zM156 748q96 258 278 258q70 0 135.5 -44t124 -87.5t105.5 -43.5q53 0 93 38t73 139l108 -50 q-96 -254 -278 -253q-70 0 -135.5 44t-124 87t-105.5 43q-51 0 -92 -39.5t-74 -139.5z" />
<glyph unicode="&#x2260;" d="M174 352v127h285l186 312h-471v127h545l155 260h125l-155 -260h211v-127h-285l-186 -312h471v-127h-545l-156 -260h-125l156 260h-211z" />
<glyph unicode="&#x2264;" d="M174 0v127h881v-127h-881zM174 586v151l881 314v-146l-430 -149l-277 -90v-9l277 -90l430 -149v-146z" />
<glyph unicode="&#x2265;" d="M174 0v127h881v-127h-881zM174 272v146l430 149l277 90v9l-277 90l-430 149v146l881 -314v-151z" />
<glyph unicode="&#x25a0;" d="M412 332v416h405v-416h-405z" />
<glyph unicode="&#x25b2;" d="M78 78v4l534 1012h9l530 -1012v-4h-1073z" />
<glyph unicode="&#x25b3;" d="M78 78v4l534 1012h9l530 -1012v-4h-1073zM289 197h653l-326 641z" />
<glyph unicode="&#x25b6;" d="M147 39v1075h5l1009 -532v-9l-1009 -534h-5z" />
<glyph unicode="&#x25b7;" d="M147 39v1075h5l1009 -532v-9l-1009 -534h-5zM268 250l633 328l-633 325v-653z" />
<glyph unicode="&#x25bc;" d="M78 1071v4h1073v-4l-530 -1010h-9z" />
<glyph unicode="&#x25bd;" d="M78 1071v4h1073v-4l-530 -1012h-9zM289 956l327 -643l326 643h-653z" />
<glyph unicode="&#x25c0;" d="M68 573v9l1009 532h4v-1075h-4z" />
<glyph unicode="&#x25c1;" d="M68 573v9l1009 532h4v-1075h-4zM328 578l633 -328v653z" />
<glyph unicode="&#x25c6;" d="M326 539l290 286l287 -286l-287 -287z" />
<glyph unicode="&#x25c9;" d="M244 539q0 170 107.5 273t263 103t263 -103t107.5 -273t-107.5 -273.5t-263 -103.5t-263 103.5t-107.5 273.5zM352 539q0 -125 77 -201t185.5 -76t185.5 76t77 201q0 127 -77 202.5t-185.5 75.5t-185.5 -75.5t-77 -202.5zM498 539q0 53 33.5 88t83 35t83 -35t33.5 -88 q0 -55 -33.5 -90t-83 -35t-83 34.5t-33.5 90.5z" />
<glyph unicode="&#x25ca;" d="M201 676l336 696h155l336 -696l-336 -696h-155zM350 676l131 -283l129 -272h8l130 272l131 283l-131 280l-130 275h-8l-129 -275z" />
<glyph unicode="&#x2610;" d="M-51 -20v1290l125 104h1206v-1270l-106 -124h-1225zM35 68h1091v1155h-1091v-1155z" />
<glyph unicode="&#x2611;" d="M-51 -20v1290l125 104h1040q104 137 221 254l111 -102q-102 -98 -166 -172v-1250l-106 -124h-1225zM35 68h1091v1089q-299 -420 -438 -924l-176 -20q-111 305 -287 567l115 78q160 -252 242 -506h8q133 451 416 871h-971v-1155z" />
<glyph unicode="&#x266a;" d="M158 106q0 96 92 168t231 72q84 0 125 -24v1099h101q16 -41 41.5 -65.5t103.5 -81.5q133 -94 182 -186.5t49 -215.5q0 -141 -65 -268l-72 27q27 86 27 188q0 100 -67.5 185.5t-186.5 121.5v-833q0 -162 -102.5 -252t-251.5 -90q-86 0 -146.5 40.5t-60.5 114.5z" />
<glyph unicode="&#x2713;" d="M-12 563l114 78q172 -258 271 -543h8q109 362 313.5 713.5t444.5 589.5l110 -103q-252 -236 -457.5 -576.5t-318.5 -741.5l-176 -21q-121 332 -309 604z" />
<glyph unicode="&#x2752;" d="M340 250v459l121 100h428v-440l-101 -119h-448zM418 324h323v338h-323v-338z" />
<glyph unicode="&#xe000;" horiz-adv-x="995" d="M0 995h995v-995h-995v995z" />
<glyph unicode="&#xfb01;" d="M106 858v127l136 10v158q0 156 72.5 243t217.5 87q86 0 166 -33l-34 -129q-57 25 -113 25q-141 0 -141 -193v-158h211v-137h-211v-858h-168v858h-136zM793 1331.5q0 57.5 39.5 94t99 36.5t98.5 -36.5t39 -94t-39 -94.5t-98.5 -37t-99 37t-39.5 94.5zM848 0v995h168v-995 h-168z" />
<glyph unicode="&#xfb02;" d="M117 858v127l135 10v158q0 156 72.5 243t218.5 87q86 0 166 -33l-37 -129q-55 25 -113 25q-139 0 -139 -193v-158h211v-137h-211v-858h-168v858h-135zM821 201v1257h168v-1270q0 -74 47 -73q19 0 37 4l23 -127q-39 -16 -97 -17q-178 0 -178 226z" />
<glyph d="M109 672q0 322 164.5 509t431.5 187q215 0 370 -164l-96 -108q-115 123 -274 123q-190 0 -304 -146.5t-114 -396.5q0 -256 108.5 -403.5t304.5 -147.5q150 0 234 80v350h-268v141h426v-565q-156 -156 -402 -156q-258 0 -419.5 186.5t-161.5 510.5zM383 1456 q8 98 54 159.5t118 61.5q59 0 135 -53t109 -53q66 0 82 106h94q-10 -96 -56 -158.5t-118 -62.5q-57 0 -132 53.5t-110 53.5q-66 0 -84 -107h-92z" />
<glyph d="M147 -182q0 127 164 221v8q-102 55 -102 164q0 106 119 186v9q-123 92 -123 258q0 158 113.5 257t277.5 99q84 0 147 -25h412v-129h-266q92 -96 92 -209q0 -156 -109.5 -249t-275.5 -93q-84 0 -168 37q-78 -49 -78 -114q0 -115 207 -115h223q195 0 287 -54.5t92 -179.5 q0 -145 -153.5 -246.5t-399.5 -101.5q-219 0 -339 73t-120 204zM293 -166q0 -80 85 -128t240 -48q166 0 270.5 61.5t104.5 143.5q0 68 -54 94.5t-173 26.5h-195q-94 0 -151 16q-127 -70 -127 -166zM340 1186q10 102 55 162.5t123 60.5q55 0 125 -55.5t98 -55.5q63 0 82 111 h97q-10 -100 -55.5 -161.5t-125.5 -61.5q-53 0 -121.5 56t-99.5 56q-63 0 -82 -112h-96zM367 664q0 -104 66.5 -170t162.5 -66q98 0 163.5 65.5t65.5 170.5q0 102 -66.5 167.5t-162.5 65.5t-162.5 -65.5t-66.5 -167.5z" />
<glyph d="M184 858v137h631v-995q-133 -96 -133 -215q0 -45 27.5 -69.5t68.5 -24.5q39 0 82 26l43 -84q-70 -55 -160 -55q-82 0 -134 45t-52 129q0 115 129 248h-39v858h-463z" />
<glyph d="M123 496q0 236 134 380t321 144q164 0 305 -135h6l14 110h135v-995h-139l-14 131h-6q-147 -156 -326 -156q-195 0 -312.5 137.5t-117.5 383.5zM297 498q0 -178 78 -279.5t215 -101.5q147 0 280 149v496q-125 117 -262 117q-131 0 -221 -106.5t-90 -274.5z" />
<glyph d="M123 496q0 236 134 380t321 144q164 0 305 -135h6l14 110h135v-995h-139l-14 131h-6q-147 -156 -326 -156q-195 0 -312.5 137.5t-117.5 383.5zM297 498q0 -178 78 -279.5t215 -101.5q147 0 280 149v496q-125 117 -262 117q-131 0 -221 -106.5t-90 -274.5zM395 1477h183 l184 -303h-129z" />
<glyph d="M123 496q0 236 134 380t321 144q164 0 305 -135h6l14 110h135v-995h-139l-14 131h-6q-147 -156 -326 -156q-195 0 -312.5 137.5t-117.5 383.5zM297 498q0 -178 78 -279.5t215 -101.5q147 0 280 149v496q-125 117 -262 117q-131 0 -221 -106.5t-90 -274.5zM496 1174 l184 303h184l-239 -303h-129z" />
<glyph d="M123 496q0 236 134 380t321 144q164 0 305 -135h6l14 110h135v-995h-139l-14 131h-6q-147 -156 -326 -156q-195 0 -312.5 137.5t-117.5 383.5zM297 498q0 -178 78 -279.5t215 -101.5q147 0 280 149v496q-125 117 -262 117q-131 0 -221 -106.5t-90 -274.5zM358 1174 l199 303h143l199 -303h-129l-137 202h-8l-138 -202h-129z" />
<glyph d="M123 496q0 236 134 380t321 144q164 0 305 -135h6l14 110h135v-995h-139l-14 131h-6q-147 -156 -326 -156q-195 0 -312.5 137.5t-117.5 383.5zM297 498q0 -178 78 -279.5t215 -101.5q147 0 280 149v496q-125 117 -262 117q-131 0 -221 -106.5t-90 -274.5zM340 1186 q10 102 55 162.5t123 60.5q55 0 125 -55.5t98 -55.5q63 0 82 111h97q-12 -100 -57.5 -161.5t-123.5 -61.5q-55 0 -122.5 56t-98.5 56q-63 0 -84 -112h-94z" />
<glyph d="M123 496q0 236 134 380t321 144q164 0 305 -135h6l14 110h135v-995h-139l-14 131h-6q-147 -156 -326 -156q-195 0 -312.5 137.5t-117.5 383.5zM297 498q0 -178 78 -279.5t215 -101.5q147 0 280 149v496q-125 117 -262 117q-131 0 -221 -106.5t-90 -274.5zM322 1317 q0 49 30.5 81t79.5 32t80 -32t31 -81t-31 -81t-80 -32t-79.5 32t-30.5 81zM717 1317q0 47 30.5 80t77.5 33q49 0 80 -32t31 -81t-31 -81t-80 -32q-47 0 -77.5 33t-30.5 80z" />
<glyph d="M123 496q0 236 134 380t321 144q164 0 305 -135h6l14 110h135v-995h-139l-14 131h-6q-147 -156 -326 -156q-195 0 -312.5 137.5t-117.5 383.5zM297 498q0 -178 78 -279.5t215 -101.5q147 0 280 149v496q-125 117 -262 117q-131 0 -221 -106.5t-90 -274.5zM379 1231v117 h502v-117h-502z" />
<glyph d="M123 496q0 236 134 380t321 144q164 0 305 -135h6l14 110h135v-995h-139l-14 131h-6q-147 -156 -326 -156q-195 0 -312.5 137.5t-117.5 383.5zM297 498q0 -178 78 -279.5t215 -101.5q147 0 280 149v496q-125 117 -262 117q-131 0 -221 -106.5t-90 -274.5zM362 1452h105 q10 -74 51 -122t110.5 -48t110.5 48t52 122h104q-6 -111 -72.5 -192.5t-193.5 -81.5q-125 0 -191.5 81.5t-75.5 192.5z" />
<glyph d="M123 496q0 236 134 380t321 144q164 0 305 -135h6l14 110h135v-995h-139l-14 131h-6q-147 -156 -326 -156q-195 0 -312.5 137.5t-117.5 383.5zM297 498q0 -178 78 -279.5t215 -101.5q147 0 280 149v496q-125 117 -262 117q-131 0 -221 -106.5t-90 -274.5zM438 1300 q0 84 53.5 136.5t137.5 52.5t138 -52.5t54 -136.5q0 -86 -54 -138t-138 -52t-137.5 52t-53.5 138zM530 1300q0 -51 28 -82.5t71 -31.5t70.5 31.5t27.5 82.5q0 49 -27.5 81t-70.5 32t-71 -31.5t-28 -81.5z" />
<glyph d="M123 496q0 236 134 380t321 144q164 0 305 -135h6l14 110h135v-995h-139l-14 131h-6q-147 -156 -326 -156q-195 0 -312.5 137.5t-117.5 383.5zM297 498q0 -178 78 -279.5t215 -101.5q147 0 280 149v496q-125 117 -262 117q-131 0 -221 -106.5t-90 -274.5zM358 1477h129 l138 -203h8l137 203h129l-199 -303h-143z" />
<glyph d="M123 496q0 236 134 380t321 144q164 0 305 -135h6l14 110h135v-995h-139l-14 131h-6q-147 -156 -326 -156q-195 0 -312.5 137.5t-117.5 383.5zM297 498q0 -178 78 -279.5t215 -101.5q147 0 280 149v496q-125 117 -262 117q-131 0 -221 -106.5t-90 -274.5zM498 -334 q0 59 38.5 95t96.5 36q59 0 97 -35.5t38 -95.5q0 -57 -38 -93t-97 -36q-57 0 -96 36t-39 93z" />
<glyph d="M123 496q0 236 134 380t321 144q164 0 305 -135h6l14 110h135v-995h-139l-14 131h-6q-147 -156 -326 -156q-195 0 -312.5 137.5t-117.5 383.5zM297 498q0 -178 78 -279.5t215 -101.5q147 0 280 149v496q-125 117 -262 117q-131 0 -221 -106.5t-90 -274.5zM498 1391l18 98 q283 -10 283 -166q-1 -151 -228 -190l-18 77q115 33 115 95q0 80 -170 86z" />
<glyph d="M123 496q0 236 134 380t321 144q164 0 305 -135h6l14 110h135v-995h-139l-14 131h-6q-147 -156 -326 -156q-195 0 -312.5 137.5t-117.5 383.5zM297 498q0 -178 78 -279.5t215 -101.5q147 0 280 149v496q-125 117 -262 117q-131 0 -221 -106.5t-90 -274.5zM391 1174 l168 243h139l170 -243h-114l-121 149h-8l-119 -149h-115zM811 1311l150 233h143l-189 -233h-104z" />
<glyph d="M123 496q0 236 134 380t321 144q164 0 305 -135h6l14 110h135v-995h-139l-14 131h-6q-147 -156 -326 -156q-195 0 -312.5 137.5t-117.5 383.5zM297 498q0 -178 78 -279.5t215 -101.5q147 0 280 149v496q-125 117 -262 117q-131 0 -221 -106.5t-90 -274.5zM391 1174 l168 243h139l170 -243h-114l-121 149h-8l-119 -149h-115zM748 1544h143l149 -233h-104z" />
<glyph d="M123 496q0 236 134 380t321 144q164 0 305 -135h6l14 110h135v-995h-139l-14 131h-6q-147 -156 -326 -156q-195 0 -312.5 137.5t-117.5 383.5zM297 498q0 -178 78 -279.5t215 -101.5q147 0 280 149v496q-125 117 -262 117q-131 0 -221 -106.5t-90 -274.5zM391 1174 l168 243h139l170 -243h-114l-121 149h-8l-119 -149h-115zM793 1522l16 84q248 -10 248 -150q0 -76 -51.5 -113t-139.5 -57l-18 72q88 25 88 80q0 76 -143 84z" />
<glyph d="M123 496q0 236 134 380t321 144q164 0 305 -135h6l14 110h135v-995h-139l-14 131h-6q-147 -156 -326 -156q-195 0 -312.5 137.5t-117.5 383.5zM297 498q0 -178 78 -279.5t215 -101.5q147 0 280 149v496q-125 117 -262 117q-131 0 -221 -106.5t-90 -274.5zM362 1456 q8 84 49.5 135t110.5 51q55 0 117.5 -44t91.5 -44q66 0 80 88h86q-8 -84 -50 -135t-112 -51q-55 0 -117.5 44t-91.5 44q-66 0 -80 -88h-84zM375 1169l178 213h154l178 -213h-121l-131 134h-8l-131 -134h-119z" />
<glyph d="M123 496q0 236 134 380t321 144q164 0 305 -135h6l14 110h135v-995h-139l-14 131h-6q-147 -156 -326 -156q-195 0 -312.5 137.5t-117.5 383.5zM297 498q0 -178 78 -279.5t215 -101.5q147 0 280 149v496q-125 117 -262 117q-131 0 -221 -106.5t-90 -274.5zM358 1174 l199 303h143l199 -303h-129l-137 202h-8l-138 -202h-129zM496 -334q0 59 37.5 95t97.5 36q57 0 96 -35.5t39 -95.5q0 -57 -39 -93t-96 -36q-59 0 -97 36t-38 93z" />
<glyph d="M123 496q0 236 134 380t321 144q164 0 305 -135h6l14 110h135v-995h-139l-14 131h-6q-147 -156 -326 -156q-195 0 -312.5 137.5t-117.5 383.5zM297 498q0 -178 78 -279.5t215 -101.5q147 0 280 149v496q-125 117 -262 117q-131 0 -221 -106.5t-90 -274.5zM371 1438h90 q10 -70 52 -117t115.5 -47t116.5 47t54 117h88q-6 -104 -71.5 -182t-186.5 -78t-186.5 77.5t-71.5 182.5zM553 1386l139 230h139l-180 -230h-98z" />
<glyph d="M123 496q0 236 134 380t321 144q164 0 305 -135h6l14 110h135v-995h-139l-14 131h-6q-147 -156 -326 -156q-195 0 -312.5 137.5t-117.5 383.5zM297 498q0 -178 78 -279.5t215 -101.5q147 0 280 149v496q-125 117 -262 117q-131 0 -221 -106.5t-90 -274.5zM371 1438h90 q10 -70 52 -117t115.5 -47t116.5 47t54 117h88q-6 -104 -71.5 -182t-186.5 -78t-186.5 77.5t-71.5 182.5zM426 1616h141l140 -230h-101z" />
<glyph d="M123 496q0 236 134 380t321 144q164 0 305 -135h6l14 110h135v-995h-139l-14 131h-6q-147 -156 -326 -156q-195 0 -312.5 137.5t-117.5 383.5zM297 498q0 -178 78 -279.5t215 -101.5q147 0 280 149v496q-125 117 -262 117q-131 0 -221 -106.5t-90 -274.5zM371 1438h90 q10 -70 52 -117t115.5 -47t116.5 47t54 117h88q-6 -104 -71.5 -182t-186.5 -78t-186.5 77.5t-71.5 182.5zM502 1634l14 84q250 -6 250 -149q0 -74 -51.5 -112t-139.5 -58l-18 71q86 25 86 80q0 78 -141 84z" />
<glyph d="M123 496q0 236 134 380t321 144q164 0 305 -135h6l14 110h135v-995h-139l-14 131h-6q-147 -156 -326 -156q-195 0 -312.5 137.5t-117.5 383.5zM297 498q0 -178 78 -279.5t215 -101.5q147 0 280 149v496q-125 117 -262 117q-131 0 -221 -106.5t-90 -274.5zM362 1456 q8 84 49.5 135t110.5 51q55 0 117.5 -44t91.5 -44q66 0 80 88h86q-8 -84 -50 -135t-112 -51q-55 0 -117.5 44t-91.5 44q-66 0 -80 -88h-84zM373 1397h92q10 -55 51 -91t112.5 -36t112.5 35.5t52 91.5h92q-6 -92 -69.5 -155.5t-186.5 -63.5t-185.5 63.5t-70.5 155.5z" />
<glyph d="M123 496q0 236 134 380t321 144q164 0 305 -135h6l14 110h135v-995h-139l-14 131h-6q-147 -156 -326 -156q-195 0 -312.5 137.5t-117.5 383.5zM297 498q0 -178 78 -279.5t215 -101.5q147 0 280 149v496q-125 117 -262 117q-131 0 -221 -106.5t-90 -274.5zM362 1452h105 q10 -74 51 -122t110.5 -48t110.5 48t52 122h104q-6 -111 -72.5 -192.5t-193.5 -81.5q-125 0 -191.5 81.5t-75.5 192.5zM496 -334q0 59 37.5 95t97.5 36q57 0 96 -35.5t39 -95.5q0 -57 -39 -93t-96 -36q-59 0 -97 36t-38 93z" />
<glyph d="M123 496q0 236 134 380t321 144q164 0 305 -135h6l14 110h135v-995q-178 -88 -178 -215q0 -45 27.5 -69.5t68.5 -24.5q43 0 82 26l43 -84q-70 -55 -159 -55q-82 0 -134.5 45t-52.5 129q0 137 166 256l-16 123h-6q-147 -156 -326 -156q-195 0 -312.5 137.5t-117.5 383.5z M297 498q0 -178 78 -279.5t215 -101.5q147 0 280 149v496q-125 117 -262 117q-131 0 -221 -106.5t-90 -274.5z" />
<glyph d="M123 512q0 227 133 367.5t322 140.5q164 0 305 -135h6l14 110h135v-1034q0 -188 -122.5 -296.5t-342.5 -108.5q-213 0 -378 106l61 121q143 -92 317 -92q141 0 219 70.5t82 193.5l3 201q-61 -63 -148.5 -104.5t-175.5 -41.5q-195 0 -312.5 135.5t-117.5 366.5zM295 514 q0 -168 79 -266t216 -98q143 0 280 149v463q-125 117 -264 117q-129 0 -220 -103.5t-91 -261.5z" />
<glyph d="M123 512q0 227 133 367.5t322 140.5q164 0 305 -135h6l14 110h135v-1034q0 -188 -122.5 -296.5t-342.5 -108.5q-213 0 -378 106l61 121q143 -92 317 -92q141 0 219 70.5t82 193.5l3 201q-61 -63 -148.5 -104.5t-175.5 -41.5q-195 0 -312.5 135.5t-117.5 366.5zM295 514 q0 -168 79 -266t216 -98q143 0 280 149v463q-125 117 -264 117q-129 0 -220 -103.5t-91 -261.5zM358 1174l199 303h145l199 -303h-131l-137 202h-8l-136 -202h-131z" />
<glyph d="M123 512q0 227 133 367.5t322 140.5q164 0 305 -135h6l14 110h135v-1034q0 -188 -122.5 -296.5t-342.5 -108.5q-213 0 -378 106l61 121q143 -92 317 -92q141 0 219 70.5t82 193.5l3 201q-61 -63 -148.5 -104.5t-175.5 -41.5q-195 0 -312.5 135.5t-117.5 366.5zM295 514 q0 -168 79 -266t216 -98q143 0 280 149v463q-125 117 -264 117q-129 0 -220 -103.5t-91 -261.5zM362 1452h107q8 -72 49 -121t111 -49q72 0 112.5 49t49.5 121h104q-6 -111 -72.5 -192.5t-193.5 -81.5q-125 0 -191.5 81.5t-75.5 192.5z" />
<glyph d="M123 512q0 227 133 367.5t322 140.5q164 0 305 -135h6l14 110h135v-1034q0 -188 -122.5 -296.5t-342.5 -108.5q-213 0 -378 106l61 121q143 -92 317 -92q141 0 219 70.5t82 193.5l3 201q-61 -63 -148.5 -104.5t-175.5 -41.5q-195 0 -312.5 135.5t-117.5 366.5zM295 514 q0 -168 79 -266t216 -98q143 0 280 149v463q-125 117 -264 117q-129 0 -220 -103.5t-91 -261.5zM496 1329q0 59 37.5 95t95.5 36q59 0 97 -35.5t38 -95.5q0 -57 -38 -93t-97 -36q-57 0 -95 36t-38 93z" />
<glyph d="M123 512q0 227 133 367.5t322 140.5q164 0 305 -135h6l14 110h135v-1034q0 -188 -122.5 -296.5t-342.5 -108.5q-213 0 -378 106l61 121q143 -92 317 -92q141 0 219 70.5t82 193.5l3 201q-61 -63 -148.5 -104.5t-175.5 -41.5q-195 0 -312.5 135.5t-117.5 366.5zM295 514 q0 -168 79 -266t216 -98q143 0 280 149v463q-125 117 -264 117q-129 0 -220 -103.5t-91 -261.5zM487 1266q0 84 84 130t213 58l17 -84q-182 -25 -183 -92q0 -66 105 -92l-37 -78q-102 16 -150.5 53t-48.5 105z" />
<glyph d="M123 512q0 227 133 367.5t322 140.5q164 0 305 -135h6l14 110h135v-1034q0 -188 -122.5 -296.5t-342.5 -108.5q-213 0 -378 106l61 121q143 -92 317 -92q141 0 219 70.5t82 193.5l3 201q-61 -63 -148.5 -104.5t-175.5 -41.5q-195 0 -312.5 135.5t-117.5 366.5zM295 514 q0 -168 79 -266t216 -98q143 0 280 149v463q-125 117 -264 117q-129 0 -220 -103.5t-91 -261.5zM358 1477h131l136 -203h8l137 203h131l-199 -303h-145z" />
<glyph d="M123 512q0 227 133 367.5t322 140.5q164 0 305 -135h6l14 110h135v-1034q0 -188 -122.5 -296.5t-342.5 -108.5q-213 0 -378 106l61 121q143 -92 317 -92q141 0 219 70.5t82 193.5l3 201q-61 -63 -148.5 -104.5t-175.5 -41.5q-195 0 -312.5 135.5t-117.5 366.5zM295 514 q0 -168 79 -266t216 -98q143 0 280 149v463q-125 117 -264 117q-129 0 -220 -103.5t-91 -261.5zM379 1231v117h502v-117h-502z" />
<glyph d="M123 512q0 227 133 367.5t322 140.5q164 0 305 -135h6l14 110h135v-1034q0 -188 -122.5 -296.5t-342.5 -108.5q-213 0 -378 106l61 121q143 -92 317 -92q141 0 219 70.5t82 193.5l3 201q-61 -63 -148.5 -104.5t-175.5 -41.5q-195 0 -312.5 135.5t-117.5 366.5zM295 514 q0 -168 79 -266t216 -98q143 0 280 149v463q-125 117 -264 117q-129 0 -220 -103.5t-91 -261.5zM340 1186q10 102 55 162.5t123 60.5q55 0 125 -55.5t98 -55.5q63 0 82 111h97q-10 -100 -55.5 -161.5t-125.5 -61.5q-53 0 -121.5 56t-99.5 56q-63 0 -82 -112h-96z" />
<glyph d="M145 594q0 291 124 448.5t345.5 157.5t345 -157.5t123.5 -448.5q0 -295 -124.5 -457t-344 -162t-344.5 162t-125 457zM303 594q0 -240 84 -361.5t227.5 -121.5t227.5 121.5t84 361.5q0 233 -84 351t-227.5 118t-227.5 -118t-84 -351zM487 608.5q0 61.5 37 98t90.5 36.5 t90 -36.5t36.5 -98t-36.5 -99.5t-90 -38t-90.5 38t-37 99.5z" />
<glyph d="M201 0v139h370v832h-278v108q193 29 321 97h125v-1037h342v-139h-880z" />
<glyph d="M141 1001q195 199 430 199q197 0 311.5 -107.5t114.5 -287.5q0 -147 -142 -307t-427 -365q160 12 244 12h397v-145h-919v100q346 231 516 400.5t170 296.5q0 123 -73 194.5t-212 71.5q-164 0 -313 -158z" />
<glyph d="M117 8l86 111q162 -154 375 -154q137 0 225 67.5t88 178.5q0 262 -475 262v131q221 0 324.5 67.5t103.5 180.5q0 94 -73 152.5t-193 58.5q-174 0 -322 -133l-90 106q188 164 418 164q188 0 310 -90t122 -246q0 -223 -279 -315v-8q141 -31 232.5 -118t91.5 -218 q0 -174 -136.5 -277.5t-336.5 -103.5q-287 0 -471 184z" />
<glyph d="M80 193v112l653 871h180v-846h203v-137h-203v-345h-159v345h-674zM264 330h490v440q2 104 10 231h-10q-31 -49 -131 -198z" />
<glyph d="M115 4l84 109q168 -147 368 -148q141 0 236.5 84t95.5 221.5t-87 214t-234 76.5q-123 0 -267 -80l-90 58l43 637h740v-146h-590l-35 -395q117 53 242 53q199 0 323.5 -103.5t124.5 -310t-142.5 -328.5t-340.5 -122q-274 0 -471 180z" />
<glyph d="M160 604q0 369 156.5 548t390.5 179q214 0 364 -139l-94 -105q-109 102 -260 103q-172 0 -281.5 -133t-116.5 -426q174 168 369 168q186 0 297 -103.5t111 -300.5q0 -182 -128 -301t-309 -119q-223 0 -361 163t-138 466zM324 498q20 -190 105 -289.5t230 -99.5 q119 0 198 79.5t79 206.5q0 133 -71.5 205t-207.5 72q-180 0 -333 -174z" />
<glyph d="M143 1030v146h947v-105q-250 -289 -342.5 -551t-108.5 -672h-176q16 377 113.5 640.5t320.5 541.5h-754z" />
<glyph d="M139 334q0 217 281 348v8q-199 123 -199 305q0 150 114 243t290 93q188 0 296.5 -96t108.5 -252q0 -172 -199 -311v-8q125 -63 190.5 -137t65.5 -203q0 -152 -125.5 -250.5t-343 -98.5t-348.5 100.5t-131 258.5zM293 350q0 -111 90 -180.5t240 -69.5q143 0 223 62.5 t80 167.5q0 61 -26 105t-78 76t-110.5 55.5t-143.5 51.5q-33 11 -52 17q-223 -123 -223 -285zM375 995q0 -106 87 -166.5t259 -115.5q164 119 164 262q0 100 -70 165.5t-194 65.5q-109 0 -177.5 -58t-68.5 -153z" />
<glyph d="M137 774q0 186 128 306t306 120q223 0 362.5 -163t139.5 -466q0 -379 -156.5 -563t-390.5 -184q-214 0 -364 139l94 105q106 -102 260 -103q170 0 279.5 133t117.5 428q-174 -168 -370 -168q-186 0 -296 107.5t-110 308.5zM297 774q0 -139 71.5 -214t206.5 -75 q178 0 334 177q-14 199 -101 302t-235 103q-119 0 -197.5 -81t-78.5 -212z" />
<glyph d="M100 662q0 338 171 522t438 184q201 0 305 -118t104 -302v-594h-102l-15 119h-8q-47 -61 -120.5 -102t-149.5 -41q-113 0 -188.5 73.5t-75.5 194.5q0 152 135 234.5t405 115.5v21q0 125 -75.5 205.5t-223.5 80.5q-199 0 -335 -157.5t-136 -442.5q0 -268 133.5 -423.5 t339.5 -155.5q164 0 289 92l58 -92q-168 -113 -351 -113q-256 0 -427 184.5t-171 514.5zM594 600q0 -72 44 -111.5t120 -39.5q115 0 229 131v258q-211 -31 -302 -86.5t-91 -151.5z" />
<glyph d="M520 981q0 43 26.5 70.5t67.5 27.5t68 -27.5t27 -70.5t-27 -69.5t-68 -26.5t-67.5 26.5t-26.5 69.5z" />
<glyph d="M500 739q131 51 131 162q-4 -2 -15 -2q-39 0 -66.5 22.5t-27.5 63.5t29 67.5t67 26.5q111 0 111 -149q0 -90 -53.5 -160.5t-143.5 -105.5z" />
<glyph d="M520 -268q0 43 26.5 70.5t67.5 27.5t68 -27.5t27 -70.5t-27 -70t-68 -27t-67.5 27t-26.5 70z" />
<glyph d="M500 -510q131 51 131 162q-4 -2 -15 -2q-39 0 -66.5 22.5t-27.5 63.5t29 67.5t67 26.5q111 0 111 -149q0 -90 -53.5 -161t-143.5 -106z" />
<glyph d="M330 317q0 156 78.5 244t205.5 88t206 -88t79 -244q0 -158 -79 -250t-206 -92t-205.5 92.5t-78.5 249.5zM455 317q0 -117 45 -178t114.5 -61t114.5 61.5t45 177.5q0 115 -45 173.5t-114.5 58.5t-114.5 -58.5t-45 -173.5z" />
<glyph d="M426 471v86q106 16 195 68h102v-625h-129v471h-168z" />
<glyph d="M354 524q106 125 242 125q111 0 174.5 -55t63.5 -156q0 -39 -15.5 -76.5t-62.5 -88t-70.5 -73t-99.5 -91.5h278v-109h-489v74q180 137 255 210.5t75 137.5q0 55 -33 88t-90 33q-82 0 -148 -86z" />
<glyph d="M352 86l66 80q74 -88 186 -88q127 0 127 96q0 104 -196 105v77q166 0 165 105q0 88 -112 88q-80 0 -150 -70l-61 78q86 92 235 92q96 0 156.5 -46t60.5 -126q0 -113 -114 -153q145 -35 145 -158q0 -88 -69.5 -139.5t-178.5 -51.5q-154 0 -260 111z" />
<glyph d="M352 150v63l303 412h146v-387h102v-88h-102v-150h-117v150h-332zM483 238h201v114l8 168h-6l-92 -133z" />
<glyph d="M352 86l66 80q84 -88 188 -88q59 0 97 31.5t38 85.5q0 57 -36.5 87.5t-100 30.5t-131.5 -47l-63 41l34 318h387v-111h-284l-21 -143q49 25 115 24q102 0 165.5 -54t63.5 -148q0 -96 -71.5 -157t-182.5 -61q-147 0 -264 111z" />
<glyph d="M360 287q0 172 86 267t230 95q100 1 190 -65l-53 -84q-63 49 -131 49q-88 0 -141.5 -61.5t-59.5 -176.5q82 72 187 72q102 0 156.5 -53.5t54.5 -141.5t-68 -150.5t-170 -62.5q-123 0 -202 85t-79 227zM483 225q12 -74 55.5 -110.5t100.5 -36.5q55 0 87 29.5t32 80.5 q0 109 -121 109q-80 0 -154 -72z" />
<glyph d="M375 516v109h497v-74q-123 -135 -168 -255t-53 -296h-133q8 156 54 271.5t149 244.5h-346z" />
<glyph d="M358 156q0 102 134 166v8q-55 33 -83 64.5t-28 82.5q0 74 68.5 123t164.5 49q102 0 169 -48t67 -124q0 -88 -109 -147v-8q129 -55 129 -166q0 -76 -73.5 -128.5t-182.5 -52.5q-113 0 -184.5 53.5t-71.5 127.5zM477 164q0 -41 40 -68.5t97 -27.5q53 0 95.5 26.5t42.5 65.5 q0 23 -11.5 40t-23.5 28.5t-42 23.5t-45.5 16t-56.5 17q-96 -45 -96 -121zM502 475q-1 -68 153 -113q74 45 74 109q0 39 -30.5 62.5t-84.5 23.5q-51 0 -81.5 -23.5t-30.5 -58.5z" />
<glyph d="M354 436q0 90 66.5 151.5t169.5 61.5q123 0 201.5 -85t78.5 -226q0 -172 -86 -267.5t-229 -95.5q-102 0 -190 68l53 82q61 -47 133 -47q180 0 197 233q-82 -70 -184.5 -69.5t-156 53.5t-53.5 141zM473 436q0 -106 121 -106q82 0 151 67q-10 74 -53 113t-100 39 q-55 0 -87 -31t-32 -82z" />
<glyph d="M483 326q0 268 215 483l95 -68q-174 -174 -174.5 -415.5t174.5 -415.5l-95 -66q-215 212 -215 482z" />
<glyph d="M436 -90q174 174 174 415.5t-174 415.5l94 68q215 -215 215 -483q0 -270 -215 -482z" />
<glyph d="M520 80q0 43 26.5 70.5t67.5 27.5t68 -27.5t27 -70.5t-27 -69.5t-68 -26.5t-67.5 26.5t-26.5 69.5z" />
<glyph d="M500 -162q131 51 131 162q-4 -2 -15 -2q-39 0 -66.5 22.5t-27.5 63.5t29 67.5t67 26.5q111 0 111 -149q0 -90 -53.5 -161t-143.5 -106z" />
<glyph d="M330 997q0 156 78.5 245t205.5 89t206 -89t79 -245q0 -158 -79 -249t-206 -91t-205.5 91.5t-78.5 248.5zM455 997q0 -115 45 -177t114.5 -62t114.5 62.5t45 176.5q0 117 -44 174.5t-115.5 57.5t-115.5 -57.5t-44 -174.5z" />
<glyph d="M426 1153v86q113 18 195 68h102v-625h-129v471h-168z" />
<glyph d="M354 1206q106 125 244 125q111 0 173.5 -55t62.5 -156q0 -53 -39 -112.5t-79 -98.5t-130 -118h278v-109h-487v72q184 141 257 213.5t73 136.5q0 55 -33 87t-92 32q-82 0 -146 -86z" />
<glyph d="M352 768l66 80q76 -90 186 -90q127 0 127 96q0 106 -196 107v77q166 0 165 103q0 88 -112 88q-82 0 -150 -68l-61 78q86 92 235 92q96 0 156.5 -47t60.5 -125q0 -113 -114 -153q145 -35 145 -158q0 -88 -69.5 -139.5t-178.5 -51.5q-154 0 -260 111z" />
<glyph d="M352 831v64l303 412h146v-389h102v-87h-102v-149h-117v149h-332zM483 918h201v114l8 168h-6l-92 -131z" />
<glyph d="M352 768l66 80q86 -90 188 -90q59 0 97 31.5t38 87t-36.5 87t-100.5 31.5q-66 0 -131 -49l-63 43l34 318h387v-113h-284l-21 -143q47 27 115 26q104 0 166.5 -54t62.5 -150.5t-71.5 -156t-182.5 -59.5q-147 0 -264 111z" />
<glyph d="M358 969q0 172 86 267t230 95q102 1 190 -67l-53 -82q-66 47 -133 47q-88 0 -139.5 -60.5t-59.5 -175.5q82 72 187 72q102 0 155 -53.5t53 -141.5q0 -90 -66.5 -151.5t-168.5 -61.5q-123 0 -202 85t-79 227zM481 907q10 -74 54.5 -111.5t101.5 -37.5q55 0 87 30.5 t32 81.5q0 106 -121 107q-82 0 -154 -70z" />
<glyph d="M375 1198v109h497v-74q-123 -137 -168 -257t-53 -294h-133q8 156 54 271.5t149 244.5h-346z" />
<glyph d="M358 838q0 100 134 166v8q-55 33 -83 64.5t-28 82.5q0 74 68.5 123t164.5 49q100 0 168 -49t68 -123q0 -88 -109 -147v-8q129 -59 129 -166q0 -76 -73.5 -128.5t-182.5 -52.5q-113 0 -184.5 53.5t-71.5 127.5zM477 846q0 -41 40 -69.5t97 -28.5q53 0 95.5 26.5t42.5 67.5 q0 35 -29 60.5t-58.5 35.5t-91.5 29q-96 -45 -96 -121zM502 1155q-1 -66 153 -111q74 43 74 107q0 39 -30.5 62.5t-84.5 23.5q-51 0 -81.5 -23.5t-30.5 -58.5z" />
<glyph d="M354 1118q0 88 66.5 150.5t169.5 62.5q123 0 201.5 -85t78.5 -226q0 -172 -86 -267.5t-229 -95.5q-104 0 -190 66l53 82q66 -47 133 -47q86 0 137 59.5t60 173.5q-84 -68 -185 -67q-102 0 -155.5 52t-53.5 142zM473 1118q0 -109 121 -108q80 0 154 67q-12 76 -55.5 114 t-100.5 38q-55 0 -87 -31t-32 -80z" />
<glyph d="M483 870q0 272 215 484l95 -68q-174 -174 -175 -416q0 -240 175 -413l-95 -68q-215 211 -215 481z" />
<glyph d="M436 457q174 174 174 413q0 242 -174 416l94 68q215 -212 215 -484q0 -270 -215 -481z" />
<glyph d="M520 627q0 43 26.5 70.5t67.5 27.5t68 -27.5t27 -70.5t-27 -71t-68 -28t-67.5 28t-26.5 71z" />
<glyph d="M500 383q131 51 131 164q-4 -2 -15 -2q-39 0 -66.5 22.5t-27.5 63.5t29 67.5t67 26.5q111 0 111 -152q0 -90 -53.5 -160.5t-143.5 -103.5z" />
<glyph d="M281 862q0 156 88 251t211 95q104 0 196 -80h4l11 64h106v-660h-109l-10 76h-4q-96 -92 -209 -92q-131 0 -207.5 92t-76.5 254zM416 862q0 -113 48 -175t132 -62q90 0 170 82v329q-74 63 -164 64q-80 0 -133 -66t-53 -172z" />
<glyph d="M281 862q0 156 88 251t211 95q104 0 196 -80h4l11 64h106v-932h-131v229l6 113q-100 -86 -207 -86q-131 0 -207.5 92t-76.5 254zM416 862q0 -113 47 -175t133 -62q88 0 170 82v329q-78 63 -162 64q-82 0 -135 -66t-53 -172z" />
<glyph d="M328 862q0 156 96 251t225 95q135 0 211 -85t76 -226q0 -41 -6 -66h-473q8 -98 70.5 -155.5t158.5 -57.5q92 0 176 52l47 -84q-117 -70 -241 -70q-145 0 -242.5 93t-97.5 253zM455 915h366q0 90 -44 140.5t-126 50.5q-74 0 -129 -51.5t-67 -139.5zM477 1513h141l123 -206 h-100z" />
<glyph d="M328 862q0 156 96 251t225 95q135 0 211 -85t76 -226q0 -41 -6 -66h-473q8 -98 70.5 -155.5t158.5 -57.5q92 0 176 52l47 -84q-117 -70 -241 -70q-145 0 -242.5 93t-97.5 253zM455 915h366q0 90 -44 140.5t-126 50.5q-74 0 -129 -51.5t-67 -139.5zM553 1307l125 206h139 l-166 -206h-98z" />
<glyph d="M281 862q0 156 88 251t211 95q104 0 196 -80h4l11 64h106v-660h-109l-10 76h-4q-96 -92 -209 -92q-131 0 -207.5 92t-76.5 254zM416 862q0 -113 48 -175t132 -62q90 0 170 82v329q-74 63 -164 64q-80 0 -133 -66t-53 -172z" />
<glyph d="M281 872q0 147 89 241.5t210 94.5q104 0 194 -78h2l12 62h109v-684q0 -123 -84 -191.5t-233 -68.5q-139 0 -252 71l47 91q94 -59 205 -60q182 0 186 160l2 115q-92 -84 -203 -84q-129 0 -206.5 89t-77.5 242zM414 874q0 -104 49 -165.5t133 -61.5q88 0 170 86v303 q-74 63 -164 64q-80 0 -134 -62.5t-54 -163.5z" />
<glyph d="M57 158l375 385l68 -62l-342 -415zM729 862l342 416l100 -92l-374 -385z" />
<glyph d="M346 1675h193l180 -229h-141z" />
<glyph d="M510 1446l180 229h193l-232 -229h-141z" />
<glyph d="M336 1446l196 229h164l197 -229h-137l-138 139h-8l-137 -139h-137z" />
<glyph d="M317 1456q10 98 56.5 159.5t118.5 61.5q57 0 132.5 -53t110.5 -53q66 0 82 106h94q-10 -96 -56 -158.5t-118 -62.5q-57 0 -133 53.5t-110 53.5q-66 0 -82 -107h-95z" />
<glyph d="M360 1493v117h508v-117h-508z" />
<glyph d="M362 1675h103q10 -55 48 -92t101.5 -37t101.5 37t48 92h102q-12 -96 -74.5 -160.5t-177 -64.5t-177 64.5t-75.5 160.5z" />
<glyph d="M498 1573q0 47 33.5 77.5t83 30.5t83 -30.5t33.5 -77.5q0 -49 -33.5 -80t-83 -31t-83 31t-33.5 80z" />
<glyph d="M338 1565q0 45 27.5 72.5t72.5 27.5q43 0 72 -27.5t29 -72.5q0 -43 -29 -72t-72 -29q-45 0 -72.5 29t-27.5 72zM690 1565q0 45 29 72.5t72 27.5q45 0 72.5 -27.5t27.5 -72.5q0 -43 -27.5 -72t-72.5 -29q-43 0 -72 29t-29 72z" />
<glyph d="M483 1688l19 98q283 -10 282 -166q0 -151 -227 -190l-18 77q115 33 114 95q0 80 -170 86z" />
<glyph d="M424 1612q0 80 53 130t137 50q82 0 136.5 -50t54.5 -130q0 -82 -54.5 -131t-136.5 -49q-84 0 -137 49t-53 131zM516 1612q0 -49 27.5 -78t70.5 -29q41 0 69 29t28 78q0 47 -29 75.5t-68 28.5q-43 0 -70.5 -28.5t-27.5 -75.5z" />
<glyph d="M391 1446l135 229h158l-170 -229h-123zM715 1446l135 229h158l-172 -229h-121z" />
<glyph d="M336 1675h137l137 -139h8l138 139h137l-197 -229h-164z" />
<glyph d="M221 1675h158l135 -229h-121zM545 1675h157l136 -229h-123z" />
<glyph d="M430 -352q182 25 182 98q0 67 -131 100l82 160h111l-51 -108q121 -41 120 -146q0 -84 -84 -130t-213 -58z" />
<glyph d="M479 -256q1 149 148 262h123q-139 -104 -140 -225q0 -45 29 -69.5t70 -24.5q43 0 82 28l47 -92q-72 -57 -164 -57q-84 0 -139.5 47t-55.5 131z" />
<glyph d="M344 1296q0 39 26.5 67t67.5 28q39 0 65.5 -27t26.5 -68q0 -39 -26.5 -65.5t-65.5 -26.5t-66.5 26.5t-27.5 65.5zM360 1536v96h506v-96h-506zM698 1296q0 41 27 68t66 27q41 0 67.5 -28t26.5 -67t-28 -65.5t-66.5 -26.5t-65.5 26.5t-27 65.5z" />
<glyph d="M344 1559q0 39 26.5 65.5t67.5 26.5t66.5 -27t25.5 -65q0 -41 -25.5 -68t-66.5 -27t-67.5 27t-26.5 68zM360 1763v95h508v-95h-508zM698 1559q0 39 26 65.5t66.5 26.5t67.5 -27t27 -65q0 -41 -27 -68t-67.5 -27t-66.5 27t-26 68z" />
<glyph d="M344 1296q0 39 26.5 67t67.5 28q39 0 65.5 -27t26.5 -68q0 -39 -26.5 -65.5t-65.5 -26.5t-66.5 26.5t-27.5 65.5zM506 1475l168 211h162l-211 -211h-119zM698 1296q0 41 27 68t66 27q41 0 67.5 -28t26.5 -67t-28 -65.5t-66.5 -26.5t-65.5 26.5t-27 65.5z" />
<glyph d="M344 1559q0 39 26.5 65.5t67.5 26.5t66.5 -27t25.5 -65q0 -41 -25.5 -68t-66.5 -27t-67.5 27t-26.5 68zM510 1718l182 228h187l-230 -228h-139zM698 1559q0 39 26 65.5t66.5 26.5t67.5 -27t27 -65q0 -41 -27 -68t-67.5 -27t-66.5 27t-26 68z" />
<glyph d="M344 1296q0 39 26.5 67t67.5 28q39 0 65.5 -27t26.5 -68q0 -39 -26.5 -65.5t-65.5 -26.5t-66.5 26.5t-27.5 65.5zM356 1686h125l129 -132h8l130 132h124l-186 -211h-143zM698 1296q0 41 27 68t66 27q41 0 67.5 -28t26.5 -67t-28 -65.5t-66.5 -26.5t-65.5 26.5t-27 65.5z " />
<glyph d="M336 1946h137l137 -140h8l138 140h137l-197 -228h-164zM344 1559q0 39 26.5 65.5t67.5 26.5t66.5 -27t25.5 -65q0 -41 -25.5 -68t-66.5 -27t-67.5 27t-26.5 68zM698 1559q0 39 26 65.5t66.5 26.5t67.5 -27t27 -65q0 -41 -27 -68t-67.5 -27t-66.5 27t-26 68z" />
<glyph d="M344 1296q0 39 26.5 67t67.5 28q39 0 65.5 -27t26.5 -68q0 -39 -26.5 -65.5t-65.5 -26.5t-66.5 26.5t-27.5 65.5zM393 1686h162l168 -211h-119zM698 1296q0 41 27 68t66 27q41 0 67.5 -28t26.5 -67t-28 -65.5t-66.5 -26.5t-65.5 26.5t-27 65.5z" />
<glyph d="M344 1559q0 39 26.5 65.5t67.5 26.5t66.5 -27t25.5 -65q0 -41 -25.5 -68t-66.5 -27t-67.5 27t-26.5 68zM350 1946h187l182 -228h-139zM698 1559q0 39 26 65.5t66.5 26.5t67.5 -27t27 -65q0 -41 -27 -68t-67.5 -27t-66.5 27t-26 68z" />
<glyph d="M377 1174l168 243h139l168 -243h-115l-119 149h-8l-118 -149h-115zM797 1311l149 233h144l-189 -233h-104z" />
<glyph d="M352 1446l189 217h147l189 -217h-129l-130 127h-8l-129 -127h-129zM801 1577l145 227h148l-187 -227h-106z" />
<glyph d="M377 1174l168 243h139l168 -243h-115l-119 149h-8l-118 -149h-115zM733 1544h141l152 -233h-104z" />
<glyph d="M352 1446l189 217h147l189 -217h-129l-130 127h-8l-129 -127h-129zM698 1804h148l145 -227h-106z" />
<glyph d="M377 1174l168 243h139l168 -243h-115l-119 149h-8l-118 -149h-115zM778 1522l15 84q250 -10 249 -150q0 -76 -51 -113t-139 -57l-18 72q86 25 86 80q0 76 -142 84z" />
<glyph d="M352 1446l189 217h147l189 -217h-129l-130 127h-8l-129 -127h-129zM774 1769l19 86q246 -10 245 -149q0 -131 -188 -162l-23 72q92 23 93 74q0 39 -34 57t-112 22z" />
<glyph d="M346 1456q8 84 50 135t112 51q55 0 117.5 -44t91.5 -44q66 0 80 88h86q-8 -84 -50 -135t-112 -51q-55 0 -117.5 44t-91.5 44q-66 0 -80 -88h-86zM360 1169l177 213h155l176 -213h-118l-132 134h-8l-131 -134h-119z" />
<glyph d="M344 1737q8 82 50 133t110 51q57 0 121.5 -43t93.5 -43q68 0 80 86h86q-8 -84 -49 -134t-111 -50q-57 0 -121.5 43t-93.5 43q-68 0 -80 -86h-86zM352 1446l189 217h147l189 -217h-129l-130 127h-8l-129 -127h-129z" />
<glyph d="M356 1438h88q10 -70 53.5 -117t117 -47t116.5 47t53 117h88q-6 -104 -71.5 -182t-186 -78t-186.5 77.5t-72 182.5zM539 1386l139 230h139l-180 -230h-98z" />
<glyph d="M365 1669h92q31 -131 157.5 -131t157.5 131h92q-12 -92 -75.5 -155.5t-174 -63.5t-174 63.5t-75.5 155.5zM535 1642l151 216h148l-199 -216h-100z" />
<glyph d="M356 1438h88q10 -70 53.5 -117t117 -47t116.5 47t53 117h88q-6 -104 -71.5 -182t-186 -78t-186.5 77.5t-72 182.5zM412 1616h139l139 -230h-98z" />
<glyph d="M365 1669h92q31 -131 157.5 -131t157.5 131h92q-12 -92 -75.5 -155.5t-174 -63.5t-174 63.5t-75.5 155.5zM395 1858h148l151 -216h-100z" />
<glyph d="M356 1438h88q10 -70 53.5 -117t117 -47t116.5 47t53 117h88q-6 -104 -71.5 -182t-186 -78t-186.5 77.5t-72 182.5zM487 1634l15 84q250 -6 250 -149q0 -74 -52.5 -112t-140.5 -58l-16 71q86 25 86 80q0 78 -142 84z" />
<glyph d="M365 1669h92q31 -131 157.5 -131t157.5 131h92q-12 -92 -75.5 -155.5t-174 -63.5t-174 63.5t-75.5 155.5zM494 1864l16 86q248 -10 248 -150q-1 -129 -191 -162l-20 72q90 23 90 74q0 39 -34 57.5t-109 22.5z" />
<glyph d="M346 1456q8 84 50 135t112 51q55 0 117.5 -44t91.5 -44q66 0 80 88h86q-8 -84 -50 -135t-112 -51q-55 0 -117.5 44t-91.5 44q-66 0 -80 -88h-86zM358 1397h93q10 -55 51 -91t112.5 -36t112.5 35.5t51 91.5h92q-6 -92 -69.5 -155.5t-186 -63.5t-186 63.5t-70.5 155.5z" />
<glyph d="M342 1733q6 84 49 137t113 53q51 0 116.5 -46t94.5 -46q66 0 82 92h86q-8 -84 -51.5 -137t-110.5 -53q-51 0 -116.5 46t-94.5 46q-31 0 -53.5 -24.5t-28.5 -67.5h-86zM365 1669h92q31 -131 157.5 -131t157.5 131h92q-12 -92 -75.5 -155.5t-174 -63.5t-174 63.5 t-75.5 155.5z" />
<glyph d="M537 1556h120l-2 -116l-28 -318h-82z" />
<glyph d="M473 1266q0 84 84 130t211 58l16 -84q-180 -25 -180 -92.5t105 -91.5l-37 -78q-104 16 -151.5 53t-47.5 105z" />
<glyph />
<glyph />
</font>
</defs>
</svg>
