<?xml version="1.0" standalone="no"?>
<!DOCTYPE svg PUBLIC "-//W3C//DTD SVG 1.1//EN" "http://www.w3.org/Graphics/SVG/1.1/DTD/svg11.dtd" >
<svg xmlns="http://www.w3.org/2000/svg">
<metadata>
This is a custom SVG webfont generated by Font Squirrel.
Copyright   : Copyright 2010 2012 Adobe Systems Incorporated All Rights Reserved
Designer    : Paul D Hunt
Foundry     : Adobe Systems Incorporated
Foundry URL : httpwwwadobecomtype
</metadata>
<defs>
<font id="SourceCodeProBlack" horiz-adv-x="1228" >
<font-face units-per-em="2048" ascent="1536" descent="-512" />
<missing-glyph horiz-adv-x="500" />
<glyph unicode=" " />
<glyph unicode="!" d="M389 202.5q0 98.5 63.5 161t162 62.5t162 -62.5t63.5 -161t-63.5 -163t-162 -64.5t-162 64.5t-63.5 163zM438 1372h353l-13 -303l-49 -528h-229l-49 528z" />
<glyph unicode="&#x22;" d="M131 1401h393l-12 -324l-78 -495h-213l-78 495zM705 1401h393l-13 -324l-77 -495h-213l-78 495z" />
<glyph unicode="#" d="M131 369v221h172l25 196h-156v222h184l41 323h197l-37 -323h188l41 323h197l-37 -323h160v-222h-188l-25 -196h172v-221h-197l-45 -369h-200l45 369h-189l-45 -369h-201l46 369h-148zM504 590h188l25 196h-189z" />
<glyph unicode="$" d="M115 238l151 237q209 -123 365 -123q115 0 114 62q0 33 -43 59.5t-106.5 46t-139 52t-139 71.5t-106.5 109.5t-43 160.5q0 133 90 223.5t248 118.5v269h229v-264q191 -32 330 -175l-172 -200q-147 98 -279 98q-111 0 -110 -65q0 -31 59.5 -57.5t144.5 -55.5t170 -69 t144 -116.5t59 -181.5q0 -131 -89 -227t-257 -127v-309h-229v299q-238 31 -391 164z" />
<glyph unicode="%" d="M27 225l385 344l118 -110l-327 -406zM47 981q0 156 88 249t223.5 93t223.5 -93t88 -249t-89 -253t-222.5 -97t-222.5 97t-89 253zM285 981q0 -166 73.5 -166t73.5 166q0 158 -73.5 158t-73.5 -158zM559 325.5q0 155.5 88 249t223.5 93.5t223.5 -93.5t88 -249t-89 -253 t-222.5 -97.5t-222.5 97.5t-89 253zM702 872l328 406l176 -172l-385 -344zM797 326q0 -166 73.5 -166t73.5 166q0 158 -73.5 157.5t-73.5 -157.5z" />
<glyph unicode="&#x26;" d="M33 360q0 211 200 359q-86 156 -86 276q0 150 94.5 255.5t250.5 105.5q160 0 252 -85t92 -231q0 -113 -61.5 -193.5t-176.5 -170.5q82 -94 201 -187q65 123 94 277h319q-61 -246 -174 -436q94 -57 170 -72l-82 -283q-147 35 -284 121q-160 -121 -371 -121t-324.5 112 t-113.5 273zM365 381q0 -61 40.5 -100t110.5 -39q41 0 88 26q-113 96 -211 215q-28 -47 -28 -102zM436 995q0 -55 29 -123q104 80 104 168q0 86 -69 86q-27 0 -45.5 -35t-18.5 -96z" />
<glyph unicode="'" d="M418 1401h393l-12 -324l-78 -495h-213l-78 495z" />
<glyph unicode="(" d="M348 569q0 545 424 938l195 -151q-174 -180 -251 -364.5t-77 -422t77 -422t251 -364.5l-195 -152q-424 393 -424 938z" />
<glyph unicode=")" d="M262 -217q174 180 251 364.5t77 422t-77 422t-251 364.5l195 151q424 -393 424 -938t-424 -938z" />
<glyph unicode="*" d="M156 1038l53 168l287 -55l28 307h181l28 -307l287 55l53 -168l-266 -112l162 -281l-150 -102l-205 245l-204 -245l-150 102l162 281z" />
<glyph unicode="+" d="M131 512v246h356v368h254v-368h357v-246h-357v-369h-254v369h-356z" />
<glyph unicode="," d="M362 -246q135 43 203 114t66 157h-17q-100 0 -172.5 62.5t-72.5 168.5q0 102 73.5 166.5t182.5 64.5q137 0 208.5 -100t71.5 -285q0 -203 -116 -344t-343 -204z" />
<glyph unicode="-" d="M246 475v258h737v-258h-737z" />
<glyph unicode="." d="M348 242q0 111 75 188.5t191.5 77.5t191.5 -78t75 -188q0 -113 -75 -190t-191.5 -77t-191.5 77t-75 190z" />
<glyph unicode="/" d="M131 -328l676 1782h291l-676 -1782h-291z" />
<glyph unicode="0" d="M102 655.5q0 325.5 138.5 496.5t374 171t373.5 -171t138 -496.5t-139 -503t-372.5 -177.5t-373 177.5t-139.5 503zM414 655q0 -410 200.5 -409.5t200.5 409.5q0 223 -54 310.5t-146.5 87.5t-146.5 -87t-54 -311zM451 655.5q0 73.5 46 118.5t117.5 45t117.5 -45t46 -118.5 t-46 -118.5t-117.5 -45t-117.5 45t-46 118.5z" />
<glyph unicode="1" d="M154 0v283h323v671h-264v217q211 39 358 127h258v-1015h279v-283h-954z" />
<glyph unicode="2" d="M90 1114q109 111 218.5 160t258.5 49q211 0 342 -116.5t131 -309.5q0 -254 -430 -618q143 16 234 16h262v-295h-1000v201q313 256 457 405.5t144 270.5q0 86 -50.5 129t-138.5 43q-102 0 -242 -123z" />
<glyph unicode="3" d="M74 160l159 221q143 -123 295 -123q98 0 157.5 32t59.5 91q0 80 -77.5 118t-282.5 38v245q319 0 320 148q0 119 -164 119q-121 0 -258 -107l-177 213q211 168 451 168q227 0 363.5 -96.5t136.5 -270.5q0 -186 -238 -280v-8q127 -35 203 -115t76 -197q0 -176 -156 -278.5 t-377 -102.5q-327 1 -491 185z" />
<glyph unicode="4" d="M68 291v246l501 761h435v-741h149v-266h-149v-291h-328v291h-608zM399 557h277v148q0 43 12 307h-8q-25 -45 -77 -126t-68 -108z" />
<glyph unicode="5" d="M86 160l156 221q147 -123 282 -123q221 0 221 168q0 80 -57 124t-147 44q-57 0 -96 -12.5t-105 -49.5l-152 99l33 667h819v-294h-516l-16 -189q66 20 143 21q190 0 318.5 -103.5t128.5 -298.5q0 -209 -152.5 -334t-367.5 -125q-302 1 -492 185z" />
<glyph unicode="6" d="M111 627q0 334 165.5 515t399.5 181q262 0 434 -164l-184 -209q-98 90 -217 90q-115 0 -191 -84t-86 -270q63 61 145 97t148 36q176 0 288.5 -101.5t112.5 -299.5q0 -201 -139 -322t-340 -121q-102 0 -194.5 37t-171 111t-124.5 204t-46 300zM442 463q43 -225 197 -225 q72 0 120 43t48 137q0 156 -160 155q-111 0 -205 -110z" />
<glyph unicode="7" d="M121 1004v294h989v-217q-121 -131 -193.5 -241.5t-112.5 -244.5t-56.5 -258t-26.5 -337h-352q20 319 98 540.5t268 463.5h-614z" />
<glyph unicode="8" d="M119 332q0 193 231 307v8q-186 133 -186 307q0 170 127 269.5t332 99.5q197 0 315.5 -97.5t118.5 -262.5q0 -162 -183 -273v-8q240 -121 240 -342q0 -162 -133 -263.5t-371 -101.5q-225 0 -358 97.5t-133 259.5zM422 373q0 -74 56.5 -115t139.5 -41q168 0 168 135 q0 43 -36.5 78t-76.5 53.5t-142 57.5q-15 6 -21 8q-88 -74 -88 -176zM471 954q0 -59 55 -99t170 -81q74 80 74 164q0 68 -41 105.5t-115 37.5q-63 0 -103 -31.5t-40 -95.5z" />
<glyph unicode="9" d="M98 881q0 201 139.5 321.5t340.5 120.5q102 0 194 -37t171 -110.5t125 -203.5t46 -300q0 -334 -166 -515.5t-399 -181.5q-262 0 -434 164l184 209q98 -90 217 -90q115 0 190.5 84t86.5 270q-63 -61 -145.5 -97t-147.5 -36q-176 0 -289 101.5t-113 300.5zM418 881 q0 -156 160 -156q111 0 204 111q-43 225 -196 225q-72 0 -120 -43t-48 -137z" />
<glyph unicode=":" d="M348 242q0 111 75 188.5t191.5 77.5t191.5 -78t75 -188q0 -113 -75 -190t-191.5 -77t-191.5 77t-75 190zM348 877q0 111 75 188.5t191.5 77.5t191.5 -78t75 -188q0 -113 -75 -190t-191.5 -77t-191.5 77t-75 190z" />
<glyph unicode=";" d="M348 877q0 111 75 188.5t191.5 77.5t191.5 -78t75 -188q0 -113 -75 -190t-191.5 -77t-191.5 77t-75 190zM362 -246q135 43 203 114t66 157h-17q-100 0 -172.5 62.5t-72.5 168.5q0 102 73.5 166.5t182.5 64.5q137 0 208.5 -100t71.5 -285q0 -203 -116 -344t-343 -204z" />
<glyph unicode="&#x3c;" d="M233 520v238l803 512v-316l-516 -311v-8l516 -311v-316z" />
<glyph unicode="=" d="M131 266v246h967v-246h-967zM131 758v246h967v-246h-967z" />
<glyph unicode="&#x3e;" d="M193 8v316l516 311v8l-516 311v316l802 -512v-238z" />
<glyph unicode="?" d="M193 1204q168 193 405 193q190 0 312 -85t122 -255q0 -74 -32.5 -133.5t-79 -100.5t-91.5 -79.5t-73.5 -90t-22.5 -112.5h-307q-12 74 11.5 137t65.5 106t86 80t75.5 75t31.5 73q0 51 -35.5 76.5t-87.5 25.5q-84 0 -188 -86zM360 202.5q0 98.5 63.5 161t162 62.5 t162 -62.5t63.5 -161t-63.5 -163t-162 -64.5t-162 64.5t-63.5 163z" />
<glyph unicode="@" d="M49 520q0 403 175 605t446 202q229 0 344.5 -140.5t115.5 -367.5v-614h-184l-24 98h-9q-82 -123 -235 -123q-111 0 -185.5 87t-74.5 208q0 160 128 241t372 111v33q0 109 -68 183.5t-188 74.5q-150 0 -262.5 -148.5t-112.5 -457.5q0 -297 124 -451.5t296 -154.5 q137 0 264 74l98 -173q-201 -111 -377 -110q-127 0 -240.5 50t-204.5 147.5t-144.5 259t-53.5 366.5zM672 483q0 -78 86 -77q57 0 123 53v159q-119 -18 -164 -48t-45 -87z" />
<glyph unicode="A" d="M0 0l401 1331h426l402 -1331h-373l-65 283h-365l-66 -283h-360zM489 555h238l-20 92q-84 373 -97 422h-8q-49 -227 -92 -422z" />
<glyph unicode="B" d="M156 0v1331h438q233 0 366.5 -74.5t133.5 -257.5q0 -94 -57.5 -176t-168.5 -110v-8q283 -55 283 -312q0 -197 -143.5 -295t-372.5 -98h-479zM508 270h102q197 0 197 152q0 74 -46 106.5t-151 32.5h-102v-291zM508 807h78q164 0 164 139q0 61 -39 88t-125 27h-78v-254z " />
<glyph unicode="C" d="M104 655.5q0 325.5 185.5 513t466.5 187.5q225 0 405 -172l-192 -217q-98 86 -213 86q-127 0 -209 -104.5t-82 -280.5q0 -184 84 -286.5t223 -102.5q113 0 213 106l193 -213q-170 -197 -426 -197q-276 0 -462 177.5t-186 503z" />
<glyph unicode="D" d="M119 0v1331h375q301 0 475 -160.5t174 -498.5t-171 -505t-458 -167h-395zM471 283h4q143 0 225 86t82 303q0 215 -80.5 296t-226.5 81h-4v-766z" />
<glyph unicode="E" d="M176 0v1331h901v-295h-549v-209h467v-295h-467v-237h570v-295h-922z" />
<glyph unicode="F" d="M201 0v1331h903v-295h-551v-254h471v-295h-471v-487h-352z" />
<glyph unicode="G" d="M82 655.5q0 327.5 178 514t449 186.5q229 0 397 -172l-193 -217q-90 86 -204 86q-113 0 -189 -104.5t-76 -280.5q0 -389 283 -389q59 0 90 24v184h-166v287h479v-635q-76 -68 -190.5 -116t-232.5 -48q-270 0 -447.5 176.5t-177.5 504z" />
<glyph unicode="H" d="M119 0v1331h352v-495h287v495h352v-1331h-352v528h-287v-528h-352z" />
<glyph unicode="I" d="M135 0v295h303v741h-303v295h959v-295h-303v-741h303v-295h-959z" />
<glyph unicode="J" d="M104 195l199 219q119 -135 242 -135q92 0 135 46t43 167v544h-506v295h858v-868q0 -219 -124 -353.5t-394 -134.5q-287 1 -453 220z" />
<glyph unicode="K" d="M117 0v1331h354v-495h8l328 495h387l-391 -540l424 -791h-387l-242 512l-127 -180v-332h-354z" />
<glyph unicode="L" d="M197 0v1331h352v-1036h567v-295h-919z" />
<glyph unicode="M" d="M119 0v1331h346l113 -434l36 -172h7l36 172l107 434h346v-1331h-283v313q0 248 45 676h-6l-110 -395l-70 -240h-151l-70 240l-105 395h-8q45 -428 45 -676v-313h-278z" />
<glyph unicode="N" d="M123 0v1331h356l223 -594l109 -299h8q-2 20 -18.5 143.5t-23.5 207t-7 157.5v385h336v-1331h-356l-224 596l-108 297h-8q4 -37 18 -150.5t22.5 -198.5t8.5 -159v-385h-336z" />
<glyph unicode="O" d="M70 671.5q0 323.5 148.5 504t396 180.5t396 -181.5t148.5 -502.5q0 -324 -149.5 -510.5t-395 -186.5t-395 186.5t-149.5 510zM430 672q0 -182 49 -287.5t135 -105.5t135.5 105t49.5 288q0 180 -49.5 280.5t-135.5 100.5t-135 -100.5t-49 -280.5z" />
<glyph unicode="P" d="M129 0v1331h516q113 0 205 -22.5t168 -71.5t118 -138t42 -210q0 -156 -77 -264.5t-193.5 -155.5t-262.5 -47h-164v-422h-352zM481 700h148q205 0 205 189q0 164 -205 164h-148v-353z" />
<glyph unicode="Q" d="M63 672q0 324 147.5 504t395.5 180t395.5 -181.5t147.5 -502.5q0 -250 -90 -420t-250 -238q58 -112 224 -112h3h4q52 0 107 28l61 -258q-78 -49 -213 -49q-199 0 -342 101.5t-211 275.5q-176 55 -277.5 230.5t-101.5 441.5zM424 672q0 -182 48 -287.5t134 -105.5t134 105 t48 288q0 180 -48 280.5t-134 100.5t-134 -100.5t-48 -280.5z" />
<glyph unicode="R" d="M119 0v1331h495q532 0 533 -430q0 -268 -215 -385l289 -516h-394l-229 446h-127v-446h-352zM471 725h119q213 0 213 176q0 84 -52.5 118t-160.5 34h-119v-328z" />
<glyph unicode="S" d="M90 166l201 242q170 -129 323 -129q164 0 164 94q0 59 -172 121q-4 1 -7 2.5t-6 2.5t-7 3l-166 69q-125 47 -203 140.5t-78 230.5q0 174 142.5 294t365.5 120q264 0 455 -178l-176 -222q-145 96 -279 97q-151 0 -151 -89q0 -40 36.5 -62.5t133.5 -58.5q26 -10 39 -14 l153 -63q281 -102 281 -365q0 -178 -142.5 -302t-390.5 -124q-295 1 -516 191z" />
<glyph unicode="T" d="M55 1036v295h1119v-295h-383v-1036h-353v1036h-383z" />
<glyph unicode="U" d="M119 516v815h352v-856q0 -196 146 -196h1q152 0 152 196v856h340v-815q0 -541 -492 -541q-254 0 -376.5 141.5t-122.5 399.5z" />
<glyph unicode="V" d="M8 1331h373l139 -581q18 -72 49 -212.5t49 -209.5h9q20 78 52 219t46 203l135 581h361l-394 -1331h-426z" />
<glyph unicode="W" d="M4 1331h361l16 -659v-344h8q10 66 35 189.5t31 154.5l73 323h205l68 -323q8 -47 31.5 -163t33.5 -181h8v344l17 659h336l-154 -1331h-364l-60 365q-29 170 -31 260h-6q-10 -141 -30 -260l-56 -365h-356z" />
<glyph unicode="X" d="M8 0l385 684l-362 647h393l106 -217q2 -6 101 -221h8q37 102 88 221l94 217h377l-362 -663l385 -668h-394l-122 238q-43 80 -103 221h-8q-39 -102 -94 -221l-115 -238h-377z" />
<glyph unicode="Y" d="M16 1331h377l111 -291q18 -53 55 -153.5t53 -149.5h9q20 59 59 159.5t53 143.5l111 291h368l-421 -891v-440h-353v440z" />
<glyph unicode="Z" d="M109 0v213l577 823h-522v295h956v-213l-577 -823h583v-295h-1017z" />
<glyph unicode="[" d="M391 -311v1761h621v-184h-355v-1393h355v-184h-621z" />
<glyph unicode="\" d="M131 1454h291l676 -1782h-291z" />
<glyph unicode="]" d="M219 -127h352v1393h-352v184h621v-1761h-621v184z" />
<glyph unicode="^" d="M156 553l319 819h279l319 -819h-287l-77 225l-91 279h-8l-90 -279l-78 -225h-286z" />
<glyph unicode="_" d="M123 -98h983v-258h-983v258z" />
<glyph unicode="`" d="M258 1532h356l181 -356h-254z" />
<glyph unicode="a" d="M111 291q0 174 151.5 264t495.5 109q-18 106 -197 106q-111 0 -295 -86l-123 229q244 135 488 136q227 0 353 -118t126 -362v-569h-287l-24 106h-8q-178 -131 -349 -131q-154 0 -242.5 91.5t-88.5 224.5zM446 319q0 -73 108 -73h3q96 0 201 78v131q-312 -11 -312 -136z " />
<glyph unicode="b" d="M131 0v1425h352v-331l-8 -148q115 102 260 103q186 0 297 -141.5t111 -377.5q0 -254 -129 -404.5t-307 -150.5q-145 0 -265 136h-8l-28 -111h-275zM483 311q57 -49 140 -49q159 0 159 259q0 241 -151 241q-80 0 -148 -74v-377z" />
<glyph unicode="c" d="M127 512q0 246 175 391.5t425 145.5q246 0 387 -136l-160 -217q-102 70 -206 70q-117 0 -189 -68.5t-72 -185.5q0 -115 70 -184.5t178 -69.5q115 0 254 86l139 -221q-180 -147 -428 -148q-250 0 -411.5 144.5t-161.5 392.5z" />
<glyph unicode="d" d="M86 512q0 242 129 389.5t299 147.5q137 0 244 -103l-13 148v331h353v-1425h-287l-25 94h-8q-123 -119 -264 -119q-197 0 -312.5 144.5t-115.5 392.5zM446 516q0 -254 160 -254q90 0 139 74v377q-55 49 -135 49q-72 0 -118 -59.5t-46 -186.5z" />
<glyph unicode="e" d="M102 512q0 242 160 389.5t377 147.5q233 0 360 -140.5t127 -355.5q0 -53 -14 -139h-649q45 -172 262 -172q111 0 246 61l114 -209q-188 -119 -409 -119q-250 0 -412 144.5t-162 392.5zM459 627h348q0 155 -158 155h-2h-2q-155 0 -186 -155z" />
<glyph unicode="f" d="M152 750v262l262 12v4q0 184 118.5 303t356.5 119q137 0 315 -53l-65 -258q-102 37 -205 37q-86 0 -127 -34t-41 -114v-4h324v-274h-324v-750h-352v750h-262z" />
<glyph unicode="g" d="M90 -168q0 123 156 197v8q-102 66 -103 176q0 109 123 193v8q-61 39 -100 107.5t-39 154.5q0 180 130 276.5t323 96.5q96 0 174 -25h413v-254h-184q29 -49 29 -106q0 -172 -119 -256t-313 -84q-59 0 -129 14q-33 -25 -33 -59q0 -33 37 -47.5t123 -14.5h174 q426 0 426 -266q0 -168 -171 -270.5t-456 -102.5q-207 0 -334 61.5t-127 192.5zM375 -111q0 -94 231 -94q104 0 171 25.5t67 68.5q0 37 -38 49.5t-122 12.5h-102q-102 0 -156 12q-51 -37 -51 -74zM457 676q0 -70 34.5 -107t88 -37t89.5 37t36 107q0 68 -36 103.5t-89.5 35.5 t-88 -36t-34.5 -103z" />
<glyph unicode="h" d="M131 0v1425h352v-331l-18 -181q139 135 330 136q164 0 243.5 -111t79.5 -307v-631h-352v586q0 88 -26.5 126t-92.5 38q-80 0 -164 -78v-672h-352z" />
<glyph unicode="i" d="M152 750v274h741v-1024h-352v750h-389zM479 1356q0 92 63.5 150.5t162 58.5t162 -58.5t63.5 -150.5t-63.5 -148.5t-162 -56.5t-162 56.5t-63.5 148.5z" />
<glyph unicode="j" d="M76 -315l100 249q104 -45 199 -45q92 0 129 43t37 150v668h-389v274h741v-930q0 -100 -23.5 -181t-77 -150.5t-153.5 -108.5t-240 -39q-170 0 -323 70zM479 1356q0 92 63.5 150.5t162 58.5t162 -58.5t63.5 -150.5t-63.5 -148.5t-162 -56.5t-162 56.5t-63.5 148.5z" />
<glyph unicode="k" d="M131 0v1425h352v-757h9l311 356h381l-379 -426l403 -598h-381l-223 365l-121 -119v-246h-352z" />
<glyph unicode="l" d="M111 1151v274h630v-1015q0 -82 45 -117t108.5 -35t147.5 29l76 -258q-180 -53 -317 -54q-199 0 -305.5 121t-106.5 326v729h-278z" />
<glyph unicode="m" d="M53 0v1024h264l25 -125h8q66 150 217 150q63 0 109.5 -43t62.5 -121q23 70 80.5 117t138.5 47q106 0 168 -91.5t62 -244.5v-713h-332v688q0 61 -35 62q-41 0 -67 -78v-672h-267v688q0 61 -41 62q-35 0 -61 -78v-672h-332z" />
<glyph unicode="n" d="M131 0v1024h287l24 -123h9q156 147 342 148q166 0 245.5 -110t79.5 -308v-631h-352v586q0 88 -26.5 126t-92.5 38q-80 0 -164 -78v-672h-352z" />
<glyph unicode="o" d="M86 512q0 244 156.5 390.5t371.5 146.5t372 -146.5t157 -390.5t-157 -390.5t-372 -146.5t-371.5 146.5t-156.5 390.5zM446 512q0 -254 168 -254t168 254t-168 254t-168 -254z" />
<glyph unicode="p" d="M131 -360v1384h287l24 -94h9q133 119 286 119q186 0 296 -141.5t110 -379.5q0 -252 -129 -402.5t-307 -150.5q-130 1 -236 103l12 -156v-282h-352zM483 311q57 -49 140 -49q159 0 159 259q0 241 -151 241q-80 0 -148 -74v-377z" />
<glyph unicode="q" d="M86 512q0 242 129 389.5t299 147.5q160 0 272 -127h9l28 102h275v-1384h-353v292l15 146q-109 -102 -246 -103q-197 0 -312.5 144.5t-115.5 392.5zM446 516q0 -254 160 -254q90 0 139 74v377q-55 49 -135 49q-72 0 -118 -59.5t-46 -186.5z" />
<glyph unicode="r" d="M213 0v1024h289l26 -217h9q141 242 399 242q98 0 194 -41l-69 -295q-93 28 -173 28h-5q-215 0 -318 -233v-508h-352z" />
<glyph unicode="s" d="M94 131l156 217q197 -115 352 -115q166 0 166 62q0 8 -4 16t-13.5 15.5t-18.5 13.5t-25.5 13t-29.5 12.5t-37 12.5t-38 11t-42 12.5t-44 12.5q-358 104 -358 303q0 152 134 242t357 90t453 -144l-156 -209q-166 94 -289 95q-149 0 -149 -57q0 -34 50 -54.5t151 -45.5 q6 -1 10 -2t10 -3t11 -3t12 -3q104 -29 175.5 -60t131 -96.5t59.5 -151.5q0 -150 -138 -245t-386 -95q-127 0 -261.5 44t-238.5 112z" />
<glyph unicode="t" d="M86 750v262l262 12l45 266h291v-266h403v-274h-403v-310q0 -104 48 -147t151 -43q92 0 190 33l60 -254q-195 -53 -342 -54q-459 0 -459 459v316h-246z" />
<glyph unicode="u" d="M115 393v631h352v-586q0 -88 24.5 -126t92.5 -38q47 0 80.5 18.5t72.5 72.5v659h353v-1024h-287l-25 135h-8q-139 -160 -332 -160q-324 0 -323 418z" />
<glyph unicode="v" d="M49 1024h352l134 -446q8 -29 83 -320h9q76 291 84 320l133 446h336l-357 -1024h-405z" />
<glyph unicode="w" d="M2 1024h344l41 -430q6 -51 13.5 -154.5t13.5 -156.5h6q18 195 43 311l43 266h233l49 -266q12 -70 46 -311h8q6 53 12 156.5t12 154.5l41 430h320l-135 -1024h-408l-33 274q-25 188 -35 301h-8q-18 -203 -28 -301l-31 -274h-399z" />
<glyph unicode="x" d="M55 0l342 532l-321 492h377l84 -143q16 -31 52 -91.5t48 -84.5h8q10 29 37 88t37 88l67 143h367l-324 -532l342 -492h-376l-95 143q-18 29 -56 88.5t-54 87.5h-8q-10 -23 -40 -83t-44 -93l-76 -143h-367z" />
<glyph unicode="y" d="M49 1024h348l144 -393q43 -121 92 -312h8q18 82 88 312l123 393h332l-385 -1008q-84 -215 -193.5 -308t-304.5 -93q-86 0 -164 20l62 267q40 -12 73 -13q145 0 191 103l16 45z" />
<glyph unicode="z" d="M143 0v188l473 562h-413v274h899v-188l-475 -562h489v-274h-973z" />
<glyph unicode="{" d="M205 467v205q147 2 210.5 44t63.5 103.5t-10 159.5t-10 172q0 166 89 232.5t294 66.5h170v-184h-76q-117 0 -154 -23.5t-37 -103.5q0 -51 4.5 -154.5t4.5 -165.5q0 -121 -49.5 -174t-163.5 -72v-8q115 -18 164 -71.5t49 -174.5q0 -61 -4.5 -164.5t-4.5 -154.5 q0 -80 37 -103.5t154 -23.5h76v-184h-170q-205 0 -294 66.5t-89 232.5q0 74 10 172t10 159.5t-63.5 103.5t-210.5 44z" />
<glyph unicode="|" d="M502 -512v2048h225v-2048h-225z" />
<glyph unicode="}" d="M219 -127h76q117 0 152.5 23.5t35.5 103.5q0 51 -3 154.5t-3 164.5q0 121 49 174.5t164 71.5v8q-115 18 -164 71.5t-49 174.5q0 61 3 164.5t3 155.5q0 80 -35.5 103.5t-152.5 23.5h-76v184h170q205 0 294 -66.5t89 -232.5q0 -74 -11 -172t-11 -159.5t64.5 -103.5 t211.5 -44v-205q-147 -2 -211.5 -44t-64.5 -103.5t11 -160t11 -171.5q0 -166 -89 -232.5t-294 -66.5h-170v184z" />
<glyph unicode="~" d="M86 520q133 311 356 311q74 0 137.5 -36.5t114.5 -73.5t97 -37q84 0 143 164l209 -98q-133 -311 -357 -312q-74 0 -137 37t-114.5 74t-96.5 37q-84 0 -143 -164z" />
<glyph unicode="&#xa0;" />
<glyph unicode="&#xa1;" d="M389 821.5q0 98.5 63.5 163t162 64.5t162 -64.5t63.5 -163t-63.5 -161t-162 -62.5t-162 62.5t-63.5 161zM438 -348l13 303l49 528h229l49 -528l13 -303h-353z" />
<glyph unicode="&#xa2;" d="M184 627q0 213 124 350t327 174v192h188v-182q152 -14 250 -112l-160 -218q-47 37 -90 48v-502q60 12 123 61l139 -221q-111 -96 -262 -121v-186h-188v186q-209 29 -330 168t-121 363zM524 627q0 -156 111 -219v438q-111 -59 -111 -219z" />
<glyph unicode="&#xa3;" d="M129 0v217q104 39 170 116t66 179q0 23 -3 33h-223v200l158 13q-29 76 -29 127q0 199 135.5 318.5t348.5 119.5q236 0 389 -172l-189 -188q-76 78 -166 77q-184 0 -184 -176q0 -47 16 -106h328v-213h-278q2 -12 2 -37q-1 -109 -95 -205v-8h566v-295h-1012z" />
<glyph unicode="&#xa4;" d="M55 289l164 164q-68 96 -67 223q0 125 65 219l-162 164l174 174l185 -184q98 41 200.5 41t200.5 -41l184 184l175 -174l-164 -164q68 -94 67 -219q0 -123 -69 -223l166 -164l-175 -174l-186 186q-92 -39 -198.5 -39t-198.5 39l-187 -186zM463 676q0 -78 43 -125 t108.5 -47t108.5 47t43 125t-43 125t-108.5 47t-108.5 -47t-43 -125z" />
<glyph unicode="&#xa5;" d="M47 1298h361l100 -241q14 -35 50 -126t56 -140h9q16 43 52 132t54 134l100 241h353l-316 -577h260v-164h-335v-102h335v-164h-335v-291h-353v291h-336v164h336v102h-336v164h260z" />
<glyph unicode="&#xa6;" d="M502 410h225v-922h-225v922zM502 655v881h225v-881h-225z" />
<glyph unicode="&#xa7;" d="M131 655q0 72 42 142.5t116 117.5q-55 72 -56 170q0 152 103.5 242t281.5 90q212 0 390 -139l-160 -217q-113 98 -209 98q-90 0 -90 -61q0 -31 56.5 -61.5t137 -65.5t161.5 -80t137.5 -126t56.5 -183q0 -170 -166 -277q43 -66 43 -153q0 -152 -107.5 -246t-310.5 -94 q-121 0 -233.5 47t-180.5 137l201 176q96 -102 213 -102q102 0 102 65q0 35 -54 65.5t-132 63.5t-155.5 77t-132 125t-54.5 189zM426 680q0 -39 33 -72t69.5 -52t111.5 -52t112 -51q51 39 51 100q0 31 -17.5 57.5t-54.5 49t-70.5 38t-92 40t-91.5 40.5q-51 -39 -51 -98z" />
<glyph unicode="&#xa8;" d="M201 1335q0 78 50 129.5t130 51.5t130 -51.5t50 -129.5t-50 -129t-130 -51t-130 51t-50 129zM668 1335q0 78 50 129.5t130 51.5t130 -51.5t50 -129.5t-50 -129t-130 -51t-130 51t-50 129z" />
<glyph unicode="&#xa9;" d="M29 668q0 307 171 491t414.5 184t414.5 -184t171 -491q0 -309 -171 -496.5t-414.5 -187.5t-414.5 187.5t-171 496.5zM176 668q0 -246 121 -395.5t317.5 -149.5t317.5 149.5t121 395.5q0 244 -121 390t-317.5 146t-317.5 -146t-121 -390zM279 664q0 176 106.5 286.5 t253.5 110.5q131 0 238 -103l-129 -143q-41 45 -84 45q-66 0 -102 -56t-36 -140q0 -92 34 -146.5t91 -54.5q45 0 107 41l110 -160q-109 -82 -225 -82q-162 0 -263 110t-101 292z" />
<glyph unicode="&#xaa;" d="M305 725q0 106 92 166.5t295 81.5q-8 63 -102 63q-72 0 -178 -57l-86 158q154 90 313 90q139 0 218 -78t79 -242v-375h-199l-16 64h-6q-94 -80 -195 -80q-94 0 -154.5 62.5t-60.5 146.5zM539 745q0 -45 61 -45q53 0 92 43v86q-153 -23 -153 -84z" />
<glyph unicode="&#xab;" d="M53 340v352l365 312l147 -132l-262 -356l262 -356l-147 -131zM627 340v352l364 312l148 -132l-262 -356l262 -356l-148 -131z" />
<glyph unicode="&#xac;" d="M131 512v246h967v-615h-254v369h-713z" />
<glyph unicode="&#xad;" d="M246 475v258h737v-258h-737z" />
<glyph unicode="&#xae;" d="M199 1048.5q0 180.5 119.5 299t293.5 118.5t294 -118.5t120 -299t-120 -299t-294 -118.5t-293.5 118.5t-119.5 299zM322 1048.5q0 -139.5 79.5 -223.5t210.5 -84t211 84t80 223.5t-80 223.5t-211 84t-210.5 -84t-79.5 -223.5zM440 852v397h193q76 0 122 -34.5t46 -100.5 q0 -76 -70 -110l82 -152h-135l-57 115h-50v-115h-131zM571 1055h37q27 0 40.5 15t13.5 35.5t-14.5 34t-39.5 13.5h-37v-98z" />
<glyph unicode="&#xaf;" d="M319 1204v221h590v-221h-590z" />
<glyph unicode="&#xb0;" d="M305 1098q0 131 89 219t222.5 88t222.5 -88t89 -219t-89 -219t-222.5 -88t-222.5 88t-89 219zM485 1097.5q0 -63.5 36 -103.5t95.5 -40t95.5 40t36 103.5t-36 103.5t-95.5 40t-95.5 -40t-36 -103.5z" />
<glyph unicode="&#xb1;" d="M131 0v246h967v-246h-967zM131 594v246h356v286h254v-286h357v-246h-357v-246h-254v246h-356z" />
<glyph unicode="&#xb2;" d="M311 1434q135 135 285 135q127 0 202.5 -60.5t75.5 -165.5q0 -106 -135 -237h156v-205h-551v129q121 72 205 146.5t84 119.5q0 72 -78 72q-51 0 -100 -65z" />
<glyph unicode="&#xb3;" d="M332 952l92 156q90 -47 162 -47q29 0 49 12t20 33q0 59 -131 59v127q55 0 81 10.5t26 40.5q0 41 -66 41q-39 0 -129 -45l-96 148q115 82 285 82q104 0 178 -52.5t74 -132.5q0 -57 -24 -89.5t-85 -53.5q133 -39 133 -156q0 -88 -84 -148t-199 -60q-173 -1 -286 75z" />
<glyph unicode="&#xb4;" d="M434 1176l180 356h357l-283 -356h-254z" />
<glyph unicode="&#xb5;" d="M115 -410v1434h352v-586q0 -94 28.5 -129t94.5 -35q86 0 147 91v659h353v-1024h-287l-25 135h-8q-61 -139 -201 -139q-82 0 -123 29l21 -185v-250h-352z" />
<glyph unicode="&#xb6;" d="M78 868q0 246 136 354.5t355 108.5h84v-950h-86q-207 0 -348 130t-141 357zM758 -164v1495h352v-1495h-352z" />
<glyph unicode="&#xb7;" d="M348 729q0 111 75 188.5t191.5 77.5t191.5 -77.5t75 -188.5q0 -113 -75 -189.5t-191.5 -76.5t-191.5 76.5t-75 189.5z" />
<glyph unicode="&#xb8;" d="M389 -324q164 14 164 86q0 51 -115 82l82 164h201l-37 -90q119 -41 119 -156q0 -104 -109.5 -159.5t-279.5 -61.5z" />
<glyph unicode="&#xb9;" d="M391 1321v149q127 14 223 74h197v-643h-254v420h-166z" />
<glyph unicode="&#xba;" d="M264 870.5q0 161.5 103.5 259t247 97.5t247 -97.5t103.5 -259t-103.5 -258t-247 -96.5t-247 96.5t-103.5 258zM514 870.5q0 -161.5 100.5 -161.5t100.5 161.5t-100.5 161.5t-100.5 -161.5z" />
<glyph unicode="&#xbb;" d="M90 160l262 356l-262 356l148 132l364 -312v-352l-364 -311zM664 160l262 356l-262 356l147 132l365 -312v-352l-365 -311z" />
<glyph unicode="&#xbc;" d="M25 225l385 344l118 -110l-327 -406zM137 1075v150q127 14 223 73h197v-643h-254v420h-166zM575 115v121l224 407h323v-375h107v-153h-107v-115h-221v115h-326zM700 872l328 406l176 -172l-385 -344zM795 268h106v19l12 217h-6l-61 -125z" />
<glyph unicode="&#xbd;" d="M25 225l385 344l118 -110l-327 -406zM137 1075v150q127 14 223 73h197v-643h-254v420h-166zM565 532q135 135 285 136q127 0 202.5 -60.5t75.5 -165.5q0 -106 -135 -237h156v-205h-551v129q121 72 205 146.5t84 119.5q0 72 -78 72q-51 0 -100 -66zM700 872l328 406 l176 -172l-385 -344z" />
<glyph unicode="&#xbe;" d="M25 225l385 344l118 -110l-327 -406zM76 707l92 155q90 -47 162 -47q29 0 49 12.5t20 32.5q0 59 -131 60v127q55 0 81 10t26 41q0 41 -66 41q-39 0 -129 -45l-96 147q115 82 285 82q104 0 178 -52t74 -132q0 -57 -24 -90t-85 -54q133 -39 133 -155q0 -88 -84 -148.5 t-199 -60.5q-173 0 -286 76zM578 115v121l223 407h323v-375h107v-153h-107v-115h-221v115h-325zM700 872l328 406l176 -172l-385 -344zM797 268h106v19l12 217h-6l-61 -125z" />
<glyph unicode="&#xbf;" d="M197 -33q0 74 32.5 133.5t78.5 100.5t91 79.5t74 90t23 112.5h307q12 -74 -11.5 -137t-65.5 -106t-86 -80t-76 -75t-32 -73q0 -51 36 -76.5t87 -25.5q84 0 189 86l192 -176q-168 -193 -405 -193q-190 0 -312 85t-122 255zM418 821.5q0 98.5 63.5 163t161.5 64.5 t161.5 -64.5t63.5 -163t-63.5 -161t-161.5 -62.5t-161.5 62.5t-63.5 161z" />
<glyph unicode="&#xc0;" d="M0 0l401 1331h426l402 -1331h-373l-65 283h-365l-66 -283h-360zM258 1688h369l159 -254h-278zM489 555h238l-20 92q-84 373 -97 422h-8q-49 -227 -92 -422z" />
<glyph unicode="&#xc1;" d="M0 0l401 1331h426l402 -1331h-373l-65 283h-365l-66 -283h-360zM442 1434l160 254h369l-250 -254h-279zM489 555h238l-20 92q-84 373 -97 422h-8q-49 -227 -92 -422z" />
<glyph unicode="&#xc2;" d="M0 0l401 1331h426l402 -1331h-373l-65 283h-365l-66 -283h-360zM246 1434l196 254h344l197 -254h-266l-99 118h-8l-98 -118h-266zM489 555h238l-20 92q-84 373 -97 422h-8q-49 -227 -92 -422z" />
<glyph unicode="&#xc3;" d="M0 0l401 1331h426l402 -1331h-373l-65 283h-365l-66 -283h-360zM246 1434q18 150 83.5 224.5t153.5 74.5q61 0 142.5 -43t103.5 -43q58 0 78 86h176q-18 -150 -83.5 -224.5t-154.5 -74.5q-61 0 -142 43t-103 43q-57 0 -78 -86h-176zM489 555h238l-20 92q-84 373 -97 422 h-8q-49 -227 -92 -422z" />
<glyph unicode="&#xc4;" d="M0 0l401 1331h426l402 -1331h-373l-65 283h-365l-66 -283h-360zM242 1581q0 68 45 114t114.5 46t114.5 -46t45 -114t-45 -114t-114.5 -46t-114.5 46t-45 114zM489 555h238l-20 92q-84 373 -97 422h-8q-49 -227 -92 -422zM668 1581q0 68 45 114t114.5 46t114.5 -46 t45 -114t-45 -114t-114.5 -46t-114.5 46t-45 114z" />
<glyph unicode="&#xc5;" d="M0 0l401 1331h426l402 -1331h-373l-65 283h-365l-66 -283h-360zM369 1634.5q0 94.5 67.5 151.5t178 57t178 -57t67.5 -151.5t-67.5 -152t-178 -57.5t-178 57.5t-67.5 152zM489 555h238l-20 92q-84 373 -97 422h-8q-49 -227 -92 -422zM537 1634q0 -37 22.5 -59.5t55 -22.5 t55 22.5t22.5 59.5t-22.5 59.5t-55 22.5t-55 -22.5t-22.5 -59.5z" />
<glyph unicode="&#xc6;" d="M-8 0l389 1331h823v-295h-262v-205h219v-294h-219v-242h279v-295h-588v270h-209l-72 -270h-360zM496 543h137v526h-6q-16 -70 -46 -190.5t-40 -165.5z" />
<glyph unicode="&#xc7;" d="M104 655q0 326 185.5 513.5t466.5 187.5q225 0 405 -172l-192 -217q-98 86 -213 86q-127 0 -209 -104.5t-82 -280.5q0 -184 84 -286.5t223 -102.5q113 0 213 106l193 -213q-147 -172 -371 -195l-25 -59q119 -41 119 -156q0 -104 -109.5 -159.5t-279.5 -61.5l-25 135 q164 14 164 86q0 51 -114 82l71 144q-223 43 -363.5 215t-140.5 452z" />
<glyph unicode="&#xc8;" d="M176 0v1331h901v-295h-549v-209h467v-295h-467v-237h570v-295h-922zM295 1688h369l159 -254h-278z" />
<glyph unicode="&#xc9;" d="M176 0v1331h901v-295h-549v-209h467v-295h-467v-237h570v-295h-922zM479 1434l160 254h369l-250 -254h-279z" />
<glyph unicode="&#xca;" d="M176 0v1331h901v-295h-549v-209h467v-295h-467v-237h570v-295h-922zM283 1434l196 254h344l197 -254h-266l-99 118h-8l-98 -118h-266z" />
<glyph unicode="&#xcb;" d="M176 0v1331h901v-295h-549v-209h467v-295h-467v-237h570v-295h-922zM279 1581q0 68 45 114t114.5 46t114.5 -46t45 -114t-45 -114t-114.5 -46t-114.5 46t-45 114zM705 1581q0 68 45 114t114.5 46t114.5 -46t45 -114t-45 -114t-114.5 -46t-114.5 46t-45 114z" />
<glyph unicode="&#xcc;" d="M135 0v295h303v741h-303v295h959v-295h-303v-741h303v-295h-959zM258 1688h369l159 -254h-278z" />
<glyph unicode="&#xcd;" d="M135 0v295h303v741h-303v295h959v-295h-303v-741h303v-295h-959zM442 1434l160 254h369l-250 -254h-279z" />
<glyph unicode="&#xce;" d="M135 0v295h303v741h-303v295h959v-295h-303v-741h303v-295h-959zM246 1434l196 254h344l197 -254h-266l-99 118h-8l-98 -118h-266z" />
<glyph unicode="&#xcf;" d="M135 0v295h303v741h-303v295h959v-295h-303v-741h303v-295h-959zM242 1581q0 68 45 114t114.5 46t114.5 -46t45 -114t-45 -114t-114.5 -46t-114.5 46t-45 114zM668 1581q0 68 45 114t114.5 46t114.5 -46t45 -114t-45 -114t-114.5 -46t-114.5 46t-45 114z" />
<glyph unicode="&#xd0;" d="M-8 602v152l139 12v565h377q299 0 473 -160.5t174 -498.5t-172 -505t-455 -167h-397v602h-139zM483 283h4q141 0 224.5 86t83.5 303q0 215 -82 296t-226 81h-4v-283h193v-164h-193v-319z" />
<glyph unicode="&#xd1;" d="M123 0v1331h356l223 -594l109 -299h8q-2 20 -18.5 143.5t-23.5 207t-7 157.5v385h336v-1331h-356l-224 596l-108 297h-8q4 -37 18 -150.5t22.5 -198.5t8.5 -159v-385h-336zM258 1434q18 150 84 224.5t154 74.5q61 0 142 -43t103 -43q57 0 78 86h176 q-18 -150 -83.5 -224.5t-153.5 -74.5q-61 0 -142 43t-104 43q-57 0 -78 -86h-176z" />
<glyph unicode="&#xd2;" d="M70 671.5q0 323.5 148.5 504t396 180.5t396 -181.5t148.5 -502.5q0 -324 -149.5 -510.5t-395 -186.5t-395 186.5t-149.5 510zM258 1688h369l159 -254h-278zM430 672q0 -182 49 -287.5t135 -105.5t135.5 105t49.5 288q0 180 -49.5 280.5t-135.5 100.5t-135 -100.5 t-49 -280.5z" />
<glyph unicode="&#xd3;" d="M70 671.5q0 323.5 148.5 504t396 180.5t396 -181.5t148.5 -502.5q0 -324 -149.5 -510.5t-395 -186.5t-395 186.5t-149.5 510zM430 672q0 -182 49 -287.5t135 -105.5t135.5 105t49.5 288q0 180 -49.5 280.5t-135.5 100.5t-135 -100.5t-49 -280.5zM442 1434l160 254h369 l-250 -254h-279z" />
<glyph unicode="&#xd4;" d="M70 671.5q0 323.5 148.5 504t396 180.5t396 -181.5t148.5 -502.5q0 -324 -149.5 -510.5t-395 -186.5t-395 186.5t-149.5 510zM246 1434l196 254h344l197 -254h-266l-99 118h-8l-98 -118h-266zM430 672q0 -182 49 -287.5t135 -105.5t135.5 105t49.5 288q0 180 -49.5 280.5 t-135.5 100.5t-135 -100.5t-49 -280.5z" />
<glyph unicode="&#xd5;" d="M70 671.5q0 323.5 148.5 504t396 180.5t396 -181.5t148.5 -502.5q0 -324 -149.5 -510.5t-395 -186.5t-395 186.5t-149.5 510zM246 1434q18 150 83.5 224.5t153.5 74.5q61 0 142.5 -43t103.5 -43q57 0 78 86h176q-18 -150 -84 -224.5t-154 -74.5q-61 0 -142 43t-103 43 q-57 0 -78 -86h-176zM430 672q0 -182 49 -287.5t135 -105.5t135.5 105t49.5 288q0 180 -49.5 280.5t-135.5 100.5t-135 -100.5t-49 -280.5z" />
<glyph unicode="&#xd6;" d="M70 671.5q0 323.5 148.5 504t396 180.5t396 -181.5t148.5 -502.5q0 -324 -149.5 -510.5t-395 -186.5t-395 186.5t-149.5 510zM242 1581q0 68 45 114t114.5 46t114.5 -46t45 -114t-45 -114t-114.5 -46t-114.5 46t-45 114zM430 672q0 -182 49 -287.5t135 -105.5t135.5 105 t49.5 288q0 180 -49.5 280.5t-135.5 100.5t-135 -100.5t-49 -280.5zM668 1581q0 68 45 114t114.5 46t114.5 -46t45 -114t-45 -114t-114.5 -46t-114.5 46t-45 114z" />
<glyph unicode="&#xd7;" d="M158 350l282 283l-282 282l174 175l282 -283l283 283l174 -175l-283 -282l283 -283l-174 -174l-283 283l-282 -283z" />
<glyph unicode="&#xd8;" d="M49 25l131 190q-111 182 -110 457q0 324 148.5 504t395.5 180q168 0 297 -88l109 157l184 -118l-143 -207q98 -172 98 -428q0 -324 -149.5 -510.5t-395.5 -186.5q-158 0 -278 78l-103 -147zM430 672q0 -35 4 -92l289 417q-43 55 -109 56q-86 0 -135 -100.5t-49 -280.5z M520 322q41 -43 94 -43q86 0 135.5 105t49.5 288v49z" />
<glyph unicode="&#xd9;" d="M119 516v815h352v-856q0 -197 147 -196q152 0 152 196v856h340v-815q0 -541 -492 -541q-254 0 -376.5 141.5t-122.5 399.5zM258 1688h369l159 -254h-278z" />
<glyph unicode="&#xda;" d="M119 516v815h352v-856q0 -197 147 -196q152 0 152 196v856h340v-815q0 -541 -492 -541q-254 0 -376.5 141.5t-122.5 399.5zM442 1434l160 254h369l-250 -254h-279z" />
<glyph unicode="&#xdb;" d="M119 516v815h352v-856q0 -197 147 -196q152 0 152 196v856h340v-815q0 -541 -492 -541q-254 0 -376.5 141.5t-122.5 399.5zM246 1434l196 254h344l197 -254h-266l-99 118h-8l-98 -118h-266z" />
<glyph unicode="&#xdc;" d="M119 516v815h352v-856q0 -197 147 -196q152 0 152 196v856h340v-815q0 -541 -492 -541q-254 0 -376.5 141.5t-122.5 399.5zM242 1581q0 68 45 114t114.5 46t114.5 -46t45 -114t-45 -114t-114.5 -46t-114.5 46t-45 114zM668 1581q0 68 45 114t114.5 46t114.5 -46t45 -114 t-45 -114t-114.5 -46t-114.5 46t-45 114z" />
<glyph unicode="&#xdd;" d="M16 1331h377l111 -291q18 -53 55 -153.5t53 -149.5h9q20 59 59 159.5t53 143.5l111 291h368l-421 -891v-440h-353v440zM442 1434l160 254h369l-250 -254h-279z" />
<glyph unicode="&#xde;" d="M127 0v1331h352v-192h164q113 0 205 -22.5t168 -72t118 -138.5t42 -210q0 -156 -77 -264t-194 -155.5t-262 -47.5h-164v-229h-352zM479 508h148q205 0 204 188q0 164 -204 164h-148v-352z" />
<glyph unicode="&#xdf;" d="M102 0v995q0 201 123 328t363 127q199 0 303 -105.5t104 -254.5q0 -109 -51 -208.5t-51 -131.5q0 -29 28.5 -57.5t70.5 -58.5t84 -68t71 -100.5t29 -141.5q0 -152 -95.5 -250.5t-271.5 -98.5q-135 0 -281 70l115 238q82 -49 154 -50q23 0 39 16.5t16 45.5 q0 33 -28.5 63.5t-70.5 59t-84 63.5t-71 92.5t-29 131.5q0 78 50.5 183t50.5 181q0 45 -22.5 76t-59.5 31q-133 0 -133 -197v-979h-353z" />
<glyph unicode="&#xe0;" d="M111 291q0 174 151.5 264t495.5 109q-18 106 -197 106q-111 0 -295 -86l-123 229q244 135 488 136q227 0 353 -118t126 -362v-569h-287l-24 106h-8q-178 -131 -349 -131q-154 0 -242.5 91.5t-88.5 224.5zM270 1532h357l180 -356h-254zM446 319q0 -74 111 -73q96 0 201 78 v131q-312 -11 -312 -136z" />
<glyph unicode="&#xe1;" d="M111 291q0 174 151.5 264t495.5 109q-18 106 -197 106q-111 0 -295 -86l-123 229q244 135 488 136q227 0 353 -118t126 -362v-569h-287l-24 106h-8q-178 -131 -349 -131q-154 0 -242.5 91.5t-88.5 224.5zM446 319q0 -74 111 -73q96 0 201 78v131q-312 -11 -312 -136z M446 1176l181 356h356l-283 -356h-254z" />
<glyph unicode="&#xe2;" d="M111 291q0 174 151.5 264t495.5 109q-18 106 -197 106q-111 0 -295 -86l-123 229q244 135 488 136q227 0 353 -118t126 -362v-569h-287l-24 106h-8q-178 -131 -349 -131q-154 0 -242.5 91.5t-88.5 224.5zM270 1176l209 356h295l209 -356h-254l-98 192h-8l-99 -192h-254z M446 319q0 -74 111 -73q96 0 201 78v131q-312 -11 -312 -136z" />
<glyph unicode="&#xe3;" d="M111 291q0 174 151.5 264t495.5 109q-18 106 -197 106q-111 0 -295 -86l-123 229q244 135 488 136q227 0 353 -118t126 -362v-569h-287l-24 106h-8q-178 -131 -349 -131q-154 0 -242.5 91.5t-88.5 224.5zM254 1176q20 162 90 240.5t172 78.5q55 0 126 -53t91 -53 q33 0 54.5 23.5t35.5 82.5h176q-20 -162 -89.5 -240.5t-172.5 -78.5q-57 0 -126.5 53t-90.5 53q-33 0 -54.5 -23.5t-35.5 -82.5h-176zM446 319q0 -74 111 -73q96 0 201 78v131q-312 -11 -312 -136z" />
<glyph unicode="&#xe4;" d="M111 291q0 174 151.5 264t495.5 109q-18 106 -197 106q-111 0 -295 -86l-123 229q244 135 488 136q227 0 353 -118t126 -362v-569h-287l-24 106h-8q-178 -131 -349 -131q-154 0 -242.5 91.5t-88.5 224.5zM213 1335q0 78 50 129.5t130 51.5t130 -51.5t50 -129.5t-50 -129 t-130 -51t-130 51t-50 129zM446 319q0 -74 111 -73q96 0 201 78v131q-312 -11 -312 -136zM680 1335q0 78 50 129.5t130 51.5t130 -51.5t50 -129.5t-50 -129t-130 -51t-130 51t-50 129z" />
<glyph unicode="&#xe5;" d="M111 291q0 174 151.5 264t495.5 109q-18 106 -197 106q-111 0 -295 -86l-123 229q244 135 488 136q227 0 353 -118t126 -362v-569h-287l-24 106h-8q-178 -131 -349 -131q-154 0 -242.5 91.5t-88.5 224.5zM381 1343.5q0 98.5 67.5 158t178 59.5t178 -59.5t67.5 -158 t-67.5 -158t-178 -59.5t-178 59.5t-67.5 158zM446 319q0 -74 111 -73q96 0 201 78v131q-312 -11 -312 -136zM549 1343.5q0 -38.5 22.5 -64.5t55 -26t55.5 26t23 64.5t-23 64.5t-55.5 26t-55 -26t-22.5 -64.5z" />
<glyph unicode="&#xe6;" d="M33 291q0 156 105.5 240.5t336.5 134.5q-14 104 -94 104q-88 0 -201 -65l-123 229q190 115 344 115q156 0 234 -131q55 70 112.5 100.5t139.5 30.5q152 0 237.5 -144.5t85.5 -359.5q0 -82 -14 -139h-442q39 -156 164 -156q72 0 143 49l119 -225q-123 -98 -275 -99 q-197 0 -311 148q-147 -147 -275 -148q-137 0 -211.5 91.5t-74.5 224.5zM346 319q0 -74 72 -73q43 0 84 41q-18 47 -27 129l-4 39q-125 -36 -125 -136zM750 618h184q0 164 -80 164q-84 0 -104 -164z" />
<glyph unicode="&#xe7;" d="M127 512q0 246 175 391.5t425 145.5q246 0 387 -136l-160 -217q-102 70 -206 70q-117 0 -189 -68.5t-72 -185.5q0 -115 70 -184.5t178 -69.5q115 0 254 86l139 -221q-136 -112 -335 -141l-27 -64q119 -41 119 -156q0 -104 -109.5 -159.5t-279.5 -61.5l-25 135 q164 14 164 86q0 51 -115 82l70 140q-209 33 -336 171t-127 357z" />
<glyph unicode="&#xe8;" d="M102 512q0 242 160 389.5t377 147.5q233 0 360 -140.5t127 -355.5q0 -53 -14 -139h-649q45 -172 262 -172q111 0 246 61l114 -209q-188 -119 -409 -119q-250 0 -412 144.5t-162 392.5zM283 1532h356l180 -356h-254zM459 627h348q0 156 -160 155q-157 1 -188 -155z" />
<glyph unicode="&#xe9;" d="M102 512q0 242 160 389.5t377 147.5q233 0 360 -140.5t127 -355.5q0 -53 -14 -139h-649q45 -172 262 -172q111 0 246 61l114 -209q-188 -119 -409 -119q-250 0 -412 144.5t-162 392.5zM459 627h348q0 156 -160 155q-157 1 -188 -155zM459 1176l180 356h356l-282 -356 h-254z" />
<glyph unicode="&#xea;" d="M102 512q0 242 160 389.5t377 147.5q233 0 360 -140.5t127 -355.5q0 -53 -14 -139h-649q45 -172 262 -172q111 0 246 61l114 -209q-188 -119 -409 -119q-250 0 -412 144.5t-162 392.5zM283 1176l209 356h294l209 -356h-254l-98 192h-8l-98 -192h-254zM459 627h348 q0 156 -160 155q-157 1 -188 -155z" />
<glyph unicode="&#xeb;" d="M102 512q0 242 160 389.5t377 147.5q233 0 360 -140.5t127 -355.5q0 -53 -14 -139h-649q45 -172 262 -172q111 0 246 61l114 -209q-188 -119 -409 -119q-250 0 -412 144.5t-162 392.5zM223 1335q0 78 50.5 129.5t130 51.5t130 -51.5t50.5 -129.5t-50.5 -129t-130 -51 t-130 51t-50.5 129zM459 627h348q0 156 -160 155q-157 1 -188 -155zM690 1335q0 78 50.5 129.5t130 51.5t130 -51.5t50.5 -129.5t-50.5 -129t-130 -51t-130 51t-50.5 129z" />
<glyph unicode="&#xec;" d="M152 750v274h741v-1024h-352v750h-389zM348 1532h357l180 -356h-254z" />
<glyph unicode="&#xed;" d="M152 750v274h741v-1024h-352v750h-389zM524 1176l181 356h356l-283 -356h-254z" />
<glyph unicode="&#xee;" d="M152 750v274h741v-1024h-352v750h-389zM348 1176l209 356h295l209 -356h-254l-98 192h-9l-98 -192h-254z" />
<glyph unicode="&#xef;" d="M152 750v274h741v-1024h-352v750h-389zM291 1335q0 78 50 129.5t130 51.5t130 -51.5t50 -129.5t-50 -129t-130 -51t-130 51t-50 129zM758 1335q0 78 50 129.5t130 51.5t130 -51.5t50 -129.5t-50 -129t-130 -51t-130 51t-50 129z" />
<glyph unicode="&#xf0;" d="M86 471q0 213 133 340t313 127q147 0 230 -88q-53 143 -178 256l-305 -154l-91 152l234 117q-90 53 -170 90l151 213q172 -80 295 -164l281 141l90 -153l-219 -111q289 -274 289 -684q0 -256 -143.5 -417t-393.5 -161q-217 0 -366.5 137.5t-149.5 358.5zM406 471 q0 -102 59 -157.5t149 -55.5q88 0 142.5 68.5t54.5 205.5q0 41 -2 60q-82 88 -201 88q-203 0 -202 -209z" />
<glyph unicode="&#xf1;" d="M131 0v1024h287l24 -123h9q156 147 342 148q166 0 245.5 -110t79.5 -308v-631h-352v586q0 88 -26.5 126t-92.5 38q-80 0 -164 -78v-672h-352zM270 1176q20 162 90 240.5t172 78.5q55 0 126 -53t92 -53q33 0 54 23.5t36 82.5h176q-20 -162 -90 -240.5t-172 -78.5 q-57 0 -127 53t-90 53q-33 0 -54.5 -23.5t-36.5 -82.5h-176z" />
<glyph unicode="&#xf2;" d="M86 512q0 244 156.5 390.5t371.5 146.5t372 -146.5t157 -390.5t-157 -390.5t-372 -146.5t-371.5 146.5t-156.5 390.5zM258 1532h356l181 -356h-254zM446 512q0 -254 168 -254t168 254t-168 254t-168 -254z" />
<glyph unicode="&#xf3;" d="M86 512q0 244 156.5 390.5t371.5 146.5t372 -146.5t157 -390.5t-157 -390.5t-372 -146.5t-371.5 146.5t-156.5 390.5zM434 1176l180 356h357l-283 -356h-254zM446 512q0 -254 168 -254t168 254t-168 254t-168 -254z" />
<glyph unicode="&#xf4;" d="M86 512q0 244 156.5 390.5t371.5 146.5t372 -146.5t157 -390.5t-157 -390.5t-372 -146.5t-371.5 146.5t-156.5 390.5zM258 1176l209 356h295l209 -356h-254l-99 192h-8l-98 -192h-254zM446 512q0 -254 168 -254t168 254t-168 254t-168 -254z" />
<glyph unicode="&#xf5;" d="M86 512q0 244 156.5 390.5t371.5 146.5t372 -146.5t157 -390.5t-157 -390.5t-372 -146.5t-371.5 146.5t-156.5 390.5zM242 1176q20 162 89.5 240.5t172.5 78.5q55 0 125.5 -53t91.5 -53q33 0 54.5 23.5t35.5 82.5h176q-20 -162 -90 -240.5t-172 -78.5q-57 0 -127 53 t-90 53q-33 0 -54.5 -23.5t-35.5 -82.5h-176zM446 512q0 -254 168 -254t168 254t-168 254t-168 -254z" />
<glyph unicode="&#xf6;" d="M86 512q0 244 156.5 390.5t371.5 146.5t372 -146.5t157 -390.5t-157 -390.5t-372 -146.5t-371.5 146.5t-156.5 390.5zM201 1335q0 78 50 129.5t130 51.5t130 -51.5t50 -129.5t-50 -129t-130 -51t-130 51t-50 129zM446 512q0 -254 168 -254t168 254t-168 254t-168 -254z M668 1335q0 78 50 129.5t130 51.5t130 -51.5t50 -129.5t-50 -129t-130 -51t-130 51t-50 129z" />
<glyph unicode="&#xf7;" d="M131 512v246h967v-246h-967zM426 266q0 76 54.5 126t134 50t134 -50t54.5 -126t-54.5 -126t-134 -50t-134 50t-54.5 126zM426 1003.5q0 75.5 54.5 126t134 50.5t134 -50.5t54.5 -126t-54.5 -126t-134 -50.5t-134 50.5t-54.5 126z" />
<glyph unicode="&#xf8;" d="M86 512q0 244 156.5 390.5t371.5 146.5q152 0 277 -74l88 106l127 -98l-92 -111q129 -145 129 -360q0 -244 -157 -390.5t-372 -146.5q-150 0 -278 76l-86 -104l-127 98l90 109q-127 147 -127 358zM446 512q1 -29 5 -70l254 308q-39 29 -91 28q-168 0 -168 -266zM522 276 q37 -31 92 -30q168 0 168 266q0 29 -4 74z" />
<glyph unicode="&#xf9;" d="M115 393v631h352v-586q0 -88 24.5 -126t92.5 -38q47 0 80.5 18.5t72.5 72.5v659h353v-1024h-287l-25 135h-8q-139 -160 -332 -160q-324 0 -323 418zM250 1532h356l180 -356h-254z" />
<glyph unicode="&#xfa;" d="M115 393v631h352v-586q0 -88 24.5 -126t92.5 -38q47 0 80.5 18.5t72.5 72.5v659h353v-1024h-287l-25 135h-8q-139 -160 -332 -160q-324 0 -323 418zM426 1176l180 356h357l-283 -356h-254z" />
<glyph unicode="&#xfb;" d="M115 393v631h352v-586q0 -88 24.5 -126t92.5 -38q47 0 80.5 18.5t72.5 72.5v659h353v-1024h-287l-25 135h-8q-139 -160 -332 -160q-324 0 -323 418zM250 1176l209 356h295l209 -356h-254l-99 192h-8l-98 -192h-254z" />
<glyph unicode="&#xfc;" d="M115 393v631h352v-586q0 -88 24.5 -126t92.5 -38q47 0 80.5 18.5t72.5 72.5v659h353v-1024h-287l-25 135h-8q-139 -160 -332 -160q-324 0 -323 418zM193 1335q0 78 50 129.5t130 51.5t130 -51.5t50 -129.5t-50 -129t-130 -51t-130 51t-50 129zM659 1335q0 78 50.5 129.5 t130.5 51.5t130 -51.5t50 -129.5t-50 -129t-130 -51t-130.5 51t-50.5 129z" />
<glyph unicode="&#xfd;" d="M49 1024h348l144 -393q43 -121 92 -312h8q18 82 88 312l123 393h332l-385 -1008q-84 -215 -193.5 -308t-304.5 -93q-86 0 -164 20l62 267q40 -12 73 -13q145 0 191 103l16 45zM451 1176l180 356h356l-282 -356h-254z" />
<glyph unicode="&#xfe;" d="M131 -360v1785h352v-333l-8 -146q115 102 262 103q184 0 295 -142.5t111 -378.5q0 -252 -130 -402.5t-304 -150.5q-123 0 -234 103l8 -156v-282h-352zM483 311q55 -49 140 -49q70 0 114.5 62.5t44.5 199.5q0 125 -36.5 181.5t-114.5 56.5q-80 0 -148 -74v-377z" />
<glyph unicode="&#xff;" d="M49 1024h348l144 -393q43 -121 92 -312h8q18 82 88 312l123 393h332l-385 -1008q-84 -215 -193.5 -308t-304.5 -93q-86 0 -164 20l62 267q40 -12 73 -13q145 0 191 103l16 45zM217 1335q0 78 50 129.5t130 51.5t130.5 -51.5t50.5 -129.5t-50.5 -129t-130.5 -51t-130 51 t-50 129zM684 1335q0 78 50 129.5t130 51.5t130 -51.5t50 -129.5t-50 -129t-130 -51t-130 51t-50 129z" />
<glyph unicode="&#x100;" d="M0 0l401 1331h426l402 -1331h-373l-65 283h-365l-66 -283h-360zM311 1466v222h607v-222h-607zM489 555h238l-20 92q-84 373 -97 422h-8q-49 -227 -92 -422z" />
<glyph unicode="&#x101;" d="M111 291q0 174 151.5 264t495.5 109q-18 106 -197 106q-111 0 -295 -86l-123 229q244 135 488 136q227 0 353 -118t126 -362v-569h-287l-24 106h-8q-178 -131 -349 -131q-154 0 -242.5 91.5t-88.5 224.5zM332 1204v221h590v-221h-590zM446 319q0 -74 111 -73q96 0 201 78 v131q-312 -11 -312 -136z" />
<glyph unicode="&#x102;" d="M0 0l401 1331h426l402 -1331h-373l-65 283h-365l-66 -283h-360zM324 1688h188q20 -82 102.5 -82t102.5 82h188q-27 -254 -291 -254t-290 254zM489 555h238l-20 92q-84 373 -97 422h-8q-49 -227 -92 -422z" />
<glyph unicode="&#x103;" d="M111 291q0 174 151.5 264t495.5 109q-18 106 -197 106q-111 0 -295 -86l-123 229q244 135 488 136q227 0 353 -118t126 -362v-569h-287l-24 106h-8q-178 -131 -349 -131q-154 0 -242.5 91.5t-88.5 224.5zM311 1511h193q18 -147 122.5 -147t123.5 147h192 q-4 -145 -85 -240t-230.5 -95t-230.5 95t-85 240zM446 319q0 -74 111 -73q96 0 201 78v131q-312 -11 -312 -136z" />
<glyph unicode="&#x104;" d="M0 0l401 1331h426l402 -1331q-84 0 -138.5 -53t-54.5 -119q0 -33 20.5 -51.5t53.5 -18.5q41 0 78 29l78 -176q-43 -35 -109.5 -56.5t-124.5 -21.5q-109 0 -179.5 54.5t-70.5 146.5q0 90 55.5 161.5t116.5 104.5h-98l-65 283h-365l-66 -283h-360zM489 555h238l-20 92 q-14 59 -47 205.5t-50 216.5h-8q-70 -332 -92 -422z" />
<glyph unicode="&#x105;" d="M111 291q0 174 151.5 264t495.5 109q-18 106 -197 106q-111 0 -295 -86l-123 229q244 135 488 136q227 0 353 -118t126 -362v-569q-180 -43 -180 -160q0 -35 23.5 -52t58.5 -17q37 0 69 24l70 -155q-94 -74 -225 -74q-100 0 -165 50t-65 142q0 141 131 234l-28 114h-8 q-178 -131 -349 -131q-154 0 -242.5 91.5t-88.5 224.5zM446 319q0 -74 111 -73q96 0 201 78v131q-312 -11 -312 -136z" />
<glyph unicode="&#x106;" d="M104 655.5q0 325.5 185.5 513t466.5 187.5q225 0 405 -172l-192 -217q-98 86 -213 86q-127 0 -209 -104.5t-82 -280.5q0 -184 84 -286.5t223 -102.5q113 0 213 106l193 -213q-170 -197 -426 -197q-276 0 -462 177.5t-186 503zM557 1434l160 254h368l-249 -254h-279z" />
<glyph unicode="&#x107;" d="M127 512q0 246 175 391.5t425 145.5q246 0 387 -136l-160 -217q-102 70 -206 70q-117 0 -189 -68.5t-72 -185.5q0 -115 70 -184.5t178 -69.5q115 0 254 86l139 -221q-180 -147 -428 -148q-250 0 -411.5 144.5t-161.5 392.5zM516 1176l180 356h357l-283 -356h-254z" />
<glyph unicode="&#x108;" d="M104 655.5q0 325.5 185.5 513t466.5 187.5q225 0 405 -172l-192 -217q-98 86 -213 86q-127 0 -209 -104.5t-82 -280.5q0 -184 84 -286.5t223 -102.5q113 0 213 106l193 -213q-170 -197 -426 -197q-276 0 -462 177.5t-186 503zM360 1434l197 254h344l197 -254h-267 l-98 118h-8l-98 -118h-267z" />
<glyph unicode="&#x109;" d="M127 512q0 246 175 391.5t425 145.5q246 0 387 -136l-160 -217q-102 70 -206 70q-117 0 -189 -68.5t-72 -185.5q0 -115 70 -184.5t178 -69.5q115 0 254 86l139 -221q-180 -147 -428 -148q-250 0 -411.5 144.5t-161.5 392.5zM340 1176l209 356h295l209 -356h-254l-99 192 h-8l-98 -192h-254z" />
<glyph unicode="&#x10a;" d="M104 655.5q0 325.5 185.5 513t466.5 187.5q225 0 405 -172l-192 -217q-98 86 -213 86q-127 0 -209 -104.5t-82 -280.5q0 -184 84 -286.5t223 -102.5q113 0 213 106l193 -213q-170 -197 -426 -197q-276 0 -462 177.5t-186 503zM532 1601.5q0 77.5 55.5 127t141.5 49.5 t141.5 -49.5t55.5 -127t-55.5 -127t-141.5 -49.5t-141.5 49.5t-55.5 127z" />
<glyph unicode="&#x10b;" d="M127 512q0 246 175 391.5t425 145.5q246 0 387 -136l-160 -217q-102 70 -206 70q-117 0 -189 -68.5t-72 -185.5q0 -115 70 -184.5t178 -69.5q115 0 254 86l139 -221q-180 -147 -428 -148q-250 0 -411.5 144.5t-161.5 392.5zM471 1356q0 92 63.5 150.5t162 58.5t162 -58.5 t63.5 -150.5t-63.5 -148.5t-162 -56.5t-162 56.5t-63.5 148.5z" />
<glyph unicode="&#x10c;" d="M104 655.5q0 325.5 185.5 513t466.5 187.5q225 0 405 -172l-192 -217q-98 86 -213 86q-127 0 -209 -104.5t-82 -280.5q0 -184 84 -286.5t223 -102.5q113 0 213 106l193 -213q-170 -197 -426 -197q-276 0 -462 177.5t-186 503zM360 1688h267l98 -119h8l98 119h267 l-197 -254h-344z" />
<glyph unicode="&#x10d;" d="M127 512q0 246 175 391.5t425 145.5q246 0 387 -136l-160 -217q-102 70 -206 70q-117 0 -189 -68.5t-72 -185.5q0 -115 70 -184.5t178 -69.5q115 0 254 86l139 -221q-180 -147 -428 -148q-250 0 -411.5 144.5t-161.5 392.5zM340 1532h254l98 -193h8l99 193h254l-209 -356 h-295z" />
<glyph unicode="&#x10e;" d="M119 0v1331h375q301 0 475 -160.5t174 -498.5t-171 -505t-458 -167h-395zM238 1688h266l98 -119h8l99 119h266l-197 -254h-344zM471 283h4q143 0 225 86t82 303q0 215 -80.5 296t-226.5 81h-4v-766z" />
<glyph unicode="&#x10f;" d="M31 512q0 242 129 389.5t299 147.5q137 0 243 -103l-12 148v331h352v-1425h-286l-25 94h-8q-123 -119 -264 -119q-197 0 -312.5 144.5t-115.5 392.5zM391 516q0 -254 160 -254q90 0 139 74v377q-55 49 -135 49q-72 0 -118 -59.5t-46 -186.5zM1102 1585h221l-4 -151 l-57 -312h-148z" />
<glyph unicode="&#x110;" d="M-8 602v152l139 12v565h377q299 0 473 -160.5t174 -498.5t-172 -505t-455 -167h-397v602h-139zM483 283h4q141 0 224.5 86t83.5 303q0 215 -82 296t-226 81h-4v-283h193v-164h-193v-319z" />
<glyph unicode="&#x111;" d="M86 492q0 231 129 373.5t299 142.5q137 0 244 -103l-13 148v73h-303v164h303v135h353v-135h131v-151l-131 -11v-1128h-287l-25 94h-8q-123 -119 -264 -119q-197 0 -312.5 139.5t-115.5 377.5zM446 496q0 -233 160 -234q90 0 139 74v336q-57 49 -129 49q-76 0 -123 -54.5 t-47 -170.5z" />
<glyph unicode="&#x112;" d="M176 0v1331h901v-295h-549v-209h467v-295h-467v-237h570v-295h-922zM348 1466v222h606v-222h-606z" />
<glyph unicode="&#x113;" d="M102 512q0 242 160 389.5t377 147.5q233 0 360 -140.5t127 -355.5q0 -53 -14 -139h-649q45 -172 262 -172q111 0 246 61l114 -209q-188 -119 -409 -119q-250 0 -412 144.5t-162 392.5zM344 1204v221h590v-221h-590zM459 627h348q0 156 -160 155q-157 1 -188 -155z" />
<glyph unicode="&#x114;" d="M176 0v1331h901v-295h-549v-209h467v-295h-467v-237h570v-295h-922zM360 1688h189q20 -82 102 -82t103 82h188q-27 -254 -291 -254t-291 254z" />
<glyph unicode="&#x115;" d="M102 512q0 242 160 389.5t377 147.5q233 0 360 -140.5t127 -355.5q0 -53 -14 -139h-649q45 -172 262 -172q111 0 246 61l114 -209q-188 -119 -409 -119q-250 0 -412 144.5t-162 392.5zM324 1511h192q18 -147 122.5 -147t123.5 147h192q-4 -145 -85 -240t-230.5 -95 t-230 95t-84.5 240zM459 627h348q0 156 -160 155q-157 1 -188 -155z" />
<glyph unicode="&#x116;" d="M176 0v1331h901v-295h-549v-209h467v-295h-467v-237h570v-295h-922zM455 1601.5q0 77.5 55 127t141 49.5t141.5 -49.5t55.5 -127t-55.5 -127t-141.5 -49.5t-141 49.5t-55 127z" />
<glyph unicode="&#x117;" d="M102 512q0 242 160 389.5t377 147.5q233 0 360 -140.5t127 -355.5q0 -53 -14 -139h-649q45 -172 262 -172q111 0 246 61l114 -209q-188 -119 -409 -119q-250 0 -412 144.5t-162 392.5zM414 1356q0 92 63.5 150.5t161.5 58.5t161.5 -58.5t63.5 -150.5t-63.5 -148.5 t-161.5 -56.5t-161.5 56.5t-63.5 148.5zM459 627h348q0 156 -160 155q-157 1 -188 -155z" />
<glyph unicode="&#x118;" d="M176 0v1331h901v-295h-549v-209h467v-295h-467v-237h570v-295h-13q-70 0 -121 -53t-51 -119q0 -35 24 -52.5t58 -17.5q27 0 70 29l78 -176q-43 -35 -109.5 -56.5t-124.5 -21.5q-109 0 -179.5 54.5t-70.5 146.5q0 88 50.5 157.5t113.5 108.5h-647z" />
<glyph unicode="&#x119;" d="M102 512q0 242 160 389.5t377 147.5q233 0 360 -140.5t127 -355.5q0 -53 -14 -139h-649q45 -172 262 -172q111 0 246 61l114 -209q-131 -90 -174 -141t-43 -113q0 -70 84 -69q31 0 68 24l70 -155q-94 -74 -226 -74q-98 0 -161.5 50t-63.5 142q0 123 111 222 q-39 -4 -74 -5q-250 0 -412 144.5t-162 392.5zM459 627h348q0 156 -160 155q-157 1 -188 -155z" />
<glyph unicode="&#x11a;" d="M176 0v1331h901v-295h-549v-209h467v-295h-467v-237h570v-295h-922zM283 1688h266l98 -119h8l99 119h266l-197 -254h-344z" />
<glyph unicode="&#x11b;" d="M102 512q0 242 160 389.5t377 147.5q233 0 360 -140.5t127 -355.5q0 -53 -14 -139h-649q45 -172 262 -172q111 0 246 61l114 -209q-188 -119 -409 -119q-250 0 -412 144.5t-162 392.5zM283 1532h254l98 -193h8l98 193h254l-209 -356h-294zM459 627h348q0 156 -160 155 q-157 1 -188 -155z" />
<glyph unicode="&#x11c;" d="M82 655.5q0 327.5 178 514t449 186.5q229 0 397 -172l-193 -217q-90 86 -204 86q-113 0 -189 -104.5t-76 -280.5q0 -389 283 -389q59 0 90 24v184h-166v287h479v-635q-76 -68 -190.5 -116t-232.5 -48q-270 0 -447.5 176.5t-177.5 504zM307 1434l197 254h344l196 -254 h-266l-98 118h-8l-99 -118h-266z" />
<glyph unicode="&#x11d;" d="M90 -168q0 123 156 197v8q-102 66 -103 176q0 109 123 193v8q-61 39 -100 107.5t-39 154.5q0 180 130 276.5t323 96.5q96 0 174 -25h413v-254h-184q29 -49 29 -106q0 -172 -119 -256t-313 -84q-59 0 -129 14q-33 -25 -33 -59q0 -33 37 -47.5t123 -14.5h174 q426 0 426 -266q0 -168 -171 -270.5t-456 -102.5q-207 0 -334 61.5t-127 192.5zM264 1176l209 356h295l209 -356h-254l-98 192h-9l-98 -192h-254zM375 -111q0 -94 231 -94q104 0 171 25.5t67 68.5q0 37 -38 49.5t-122 12.5h-102q-102 0 -156 12q-51 -37 -51 -74zM457 676 q0 -70 34.5 -107t88 -37t89.5 37t36 107q0 68 -36 103.5t-89.5 35.5t-88 -36t-34.5 -103z" />
<glyph unicode="&#x11e;" d="M82 655.5q0 327.5 178 514t449 186.5q229 0 397 -172l-193 -217q-90 86 -204 86q-113 0 -189 -104.5t-76 -280.5q0 -389 283 -389q59 0 90 24v184h-166v287h479v-635q-76 -68 -190.5 -116t-232.5 -48q-270 0 -447.5 176.5t-177.5 504zM385 1688h188q20 -82 102.5 -82 t102.5 82h189q-27 -254 -291 -254t-291 254z" />
<glyph unicode="&#x11f;" d="M90 -168q0 123 156 197v8q-102 66 -103 176q0 109 123 193v8q-61 39 -100 107.5t-39 154.5q0 180 130 276.5t323 96.5q96 0 174 -25h413v-254h-184q29 -49 29 -106q0 -172 -119 -256t-313 -84q-59 0 -129 14q-33 -25 -33 -59q0 -33 37 -47.5t123 -14.5h174 q426 0 426 -266q0 -168 -171 -270.5t-456 -102.5q-207 0 -334 61.5t-127 192.5zM305 1511h193q18 -147 122.5 -147t122.5 147h193q-4 -145 -85 -240t-230.5 -95t-230.5 95t-85 240zM375 -111q0 -94 231 -94q104 0 171 25.5t67 68.5q0 37 -38 49.5t-122 12.5h-102 q-102 0 -156 12q-51 -37 -51 -74zM457 676q0 -70 34.5 -107t88 -37t89.5 37t36 107q0 68 -36 103.5t-89.5 35.5t-88 -36t-34.5 -103z" />
<glyph unicode="&#x120;" d="M82 655.5q0 327.5 178 514t449 186.5q229 0 397 -172l-193 -217q-90 86 -204 86q-113 0 -189 -104.5t-76 -280.5q0 -389 283 -389q59 0 90 24v184h-166v287h479v-635q-76 -68 -190.5 -116t-232.5 -48q-270 0 -447.5 176.5t-177.5 504zM479 1601.5q0 77.5 55.5 127 t141.5 49.5t141 -49.5t55 -127t-55 -127t-141 -49.5t-141.5 49.5t-55.5 127z" />
<glyph unicode="&#x121;" d="M90 -168q0 123 156 197v8q-102 66 -103 176q0 109 123 193v8q-61 39 -100 107.5t-39 154.5q0 180 130 276.5t323 96.5q96 0 174 -25h413v-254h-184q29 -49 29 -106q0 -172 -119 -256t-313 -84q-59 0 -129 14q-33 -25 -33 -59q0 -33 37 -47.5t123 -14.5h174 q426 0 426 -266q0 -168 -171 -270.5t-456 -102.5q-207 0 -334 61.5t-127 192.5zM375 -111q0 -94 231 -94q104 0 171 25.5t67 68.5q0 37 -38 49.5t-122 12.5h-102q-102 0 -156 12q-51 -37 -51 -74zM395 1356q0 92 63.5 150.5t162 58.5t162 -58.5t63.5 -150.5t-63.5 -148.5 t-162 -56.5t-162 56.5t-63.5 148.5zM457 676q0 -70 34.5 -107t88 -37t89.5 37t36 107q0 68 -36 103.5t-89.5 35.5t-88 -36t-34.5 -103z" />
<glyph unicode="&#x122;" d="M82 655.5q0 327.5 178 514t449 186.5q229 0 397 -172l-193 -217q-90 86 -204 86q-113 0 -189 -104.5t-76 -280.5q0 -389 283 -389q59 0 90 24v184h-166v287h479v-635q-76 -68 -190.5 -116t-232.5 -48q-270 0 -447.5 176.5t-177.5 504zM459 -344q164 14 164 70 q0 47 -82 69l65 123q147 -12 206.5 -53t59.5 -123q0 -104 -109.5 -159.5t-279.5 -61.5z" />
<glyph unicode="&#x123;" d="M90 -168q0 123 156 197v8q-102 66 -103 176q0 109 123 193v8q-61 39 -100 107.5t-39 154.5q0 180 130 276.5t323 96.5q96 0 174 -25h413v-254h-184q29 -49 29 -106q0 -172 -119 -256t-313 -84q-59 0 -129 14q-33 -25 -33 -59q0 -33 37 -47.5t123 -14.5h174 q426 0 426 -266q0 -168 -171 -270.5t-456 -102.5q-207 0 -334 61.5t-127 192.5zM375 -111q0 -94 231 -94q104 0 171 25.5t67 68.5q0 37 -38 49.5t-122 12.5h-102q-102 0 -156 12q-51 -37 -51 -74zM432 1294q0 104 109.5 159.5t279.5 62.5l25 -136q-164 -14 -164 -69 q0 -47 82 -70l-66 -123q-147 12 -206.5 53t-59.5 123zM457 676q0 -70 34.5 -107t88 -37t89.5 37t36 107q0 68 -36 103.5t-89.5 35.5t-88 -36t-34.5 -103z" />
<glyph unicode="&#x124;" d="M119 0v1331h352v-495h287v495h352v-1331h-352v528h-287v-528h-352zM244 1434l196 254h344l197 -254h-266l-99 118h-8l-98 -118h-266z" />
<glyph unicode="&#x125;" d="M-59 1536l196 254h344l197 -254h-266l-99 119h-8l-98 -119h-266zM131 0v1425h352v-331l-18 -181q139 135 330 136q164 0 243.5 -111t79.5 -307v-631h-352v586q0 88 -26.5 126t-92.5 38q-80 0 -164 -78v-672h-352z" />
<glyph unicode="&#x126;" d="M0 991v152l119 10v178h352v-176h287v176h352v-176h119v-164h-119v-991h-352v528h-287v-528h-352v991h-119zM471 836h287v155h-287v-155z" />
<glyph unicode="&#x127;" d="M0 1126v152l131 10v137h352v-135h348v-164h-348v-73l-18 -181q139 135 330 136q164 0 243.5 -111t79.5 -307v-590h-352v545q0 88 -26.5 126t-92.5 38q-80 0 -164 -78v-631h-352v1126h-131z" />
<glyph unicode="&#x128;" d="M135 0v295h303v741h-303v295h959v-295h-303v-741h303v-295h-959zM246 1434q18 150 83.5 224.5t153.5 74.5q61 0 142.5 -43t103.5 -43q57 0 78 86h176q-18 -150 -84 -224.5t-154 -74.5q-61 0 -142 43t-103 43q-57 0 -78 -86h-176z" />
<glyph unicode="&#x129;" d="M152 750v274h741v-1024h-352v750h-389zM332 1176q20 162 90 240.5t172 78.5q55 0 126 -53t91 -53q33 0 54.5 23.5t35.5 82.5h176q-20 -162 -89.5 -240.5t-172.5 -78.5q-57 0 -127 53t-90 53q-33 0 -54.5 -23.5t-35.5 -82.5h-176z" />
<glyph unicode="&#x12a;" d="M135 0v295h303v741h-303v295h959v-295h-303v-741h303v-295h-959zM311 1466v222h607v-222h-607z" />
<glyph unicode="&#x12b;" d="M152 750v274h741v-1024h-352v750h-389zM410 1204v221h589v-221h-589z" />
<glyph unicode="&#x12c;" d="M135 0v295h303v741h-303v295h959v-295h-303v-741h303v-295h-959zM324 1688h188q20 -82 102 -82t103 82h188q-26 -254 -290.5 -254t-290.5 254z" />
<glyph unicode="&#x12d;" d="M152 750v274h741v-1024h-352v750h-389zM389 1511h193q18 -147 122.5 -147t122.5 147h193q-4 -145 -85 -240t-230.5 -95t-230.5 95t-85 240z" />
<glyph unicode="&#x12e;" d="M135 0v295h303v741h-303v295h959v-295h-303v-741h303v-295h-303q-160 -49 -160 -172q0 -35 23.5 -52.5t56 -17.5t71.5 29l78 -176q-43 -35 -109.5 -56.5t-123.5 -21.5q-109 0 -179.5 54.5t-70.5 146.5q0 90 50 159.5t108 106.5h-400z" />
<glyph unicode="&#x12f;" d="M152 750v274h741v-1024q-152 -41 -152 -160q0 -33 23.5 -51t60.5 -18q23 0 68 24l70 -155q-94 -74 -226 -74q-100 0 -164.5 50t-64.5 142q0 145 135 242h-102v750h-389zM479 1356q0 92 63.5 150.5t162 58.5t162 -58.5t63.5 -150.5t-63.5 -148.5t-162 -56.5t-162 56.5 t-63.5 148.5z" />
<glyph unicode="&#x130;" d="M135 0v295h303v741h-303v295h959v-295h-303v-741h303v-295h-959zM418 1601.5q0 77.5 55 127t141 49.5t141.5 -49.5t55.5 -127t-55.5 -127t-141.5 -49.5t-141 49.5t-55 127z" />
<glyph unicode="&#x131;" d="M152 750v274h741v-1024h-352v750h-389z" />
<glyph unicode="&#x134;" d="M104 195l199 219q119 -135 242 -135q92 0 135 46t43 167v544h-506v295h858v-868q0 -219 -124 -353.5t-394 -134.5q-287 1 -453 220zM291 1434l196 254h344l197 -254h-266l-98 118h-9l-98 -118h-266z" />
<glyph unicode="&#x135;" d="M76 -315l100 249q104 -45 199 -45q92 0 129 43t37 150v668h-389v274h741v-930q0 -100 -23.5 -181t-77 -150.5t-153.5 -108.5t-240 -39q-170 0 -323 70zM348 1176l209 356h295l209 -356h-254l-98 192h-9l-98 -192h-254z" />
<glyph unicode="&#x136;" d="M117 0v1331h354v-495h8l328 495h387l-391 -540l424 -791h-387l-242 512l-127 -180v-332h-354zM426 -344q164 14 164 70q0 47 -82 69l65 123q147 -12 207 -53t60 -123q0 -104 -109.5 -159.5t-279.5 -61.5z" />
<glyph unicode="&#x137;" d="M131 0v1425h352v-757h9l311 356h381l-379 -426l403 -598h-381l-223 365l-121 -119v-246h-352zM430 -344q164 14 164 70q0 47 -82 69l66 123q147 -12 206.5 -53t59.5 -123q0 -104 -109.5 -159.5t-279.5 -61.5z" />
<glyph unicode="&#x138;" d="M131 0v1024h352v-356h9l311 356h381l-379 -426l403 -598h-381l-223 365l-121 -119v-246h-352z" />
<glyph unicode="&#x139;" d="M197 0v1331h352v-1036h567v-295h-919zM231 1434l160 254h369l-250 -254h-279z" />
<glyph unicode="&#x13a;" d="M111 1151v274h630v-1015q0 -82 45 -117t108.5 -35t147.5 29l76 -258q-180 -53 -317 -54q-199 0 -305.5 121t-106.5 326v729h-278zM360 1548l160 254h369l-250 -254h-279z" />
<glyph unicode="&#x13b;" d="M197 0v1331h352v-1036h567v-295h-919zM442 -344q164 14 164 70q0 47 -82 69l66 123q147 -12 206.5 -53t59.5 -123q0 -104 -109.5 -159.5t-279.5 -61.5z" />
<glyph unicode="&#x13c;" d="M111 1151v274h630v-1015q0 -82 45 -117t108.5 -35t147.5 29l76 -258q-180 -53 -317 -54q-199 0 -305.5 121t-106.5 326v729h-278zM508 -344q164 14 164 70q0 47 -82 69l65 123q147 -12 207 -53t60 -123q0 -104 -110 -159.5t-280 -61.5z" />
<glyph unicode="&#x13d;" d="M197 0v1331h352v-1036h567v-295h-919zM776 1503h221l-4 -151l-57 -312h-148z" />
<glyph unicode="&#x13e;" d="M111 1151v274h630v-1015q0 -82 45 -117t108.5 -35t147.5 29l76 -258q-180 -53 -317 -54q-199 0 -305.5 121t-106.5 326v729h-278zM846 1585h221l-4 -151l-57 -312h-148z" />
<glyph unicode="&#x13f;" d="M197 0v1331h352v-1036h567v-295h-919zM721 729q0 92 63.5 150.5t161.5 58.5t161.5 -58.5t63.5 -150.5t-63.5 -148.5t-161.5 -56.5t-161.5 56.5t-63.5 148.5z" />
<glyph unicode="&#x140;" d="M0 1151v274h631v-1015q0 -82 45 -117t108.5 -35t147.5 29l76 -258q-180 -53 -318 -54q-199 0 -305 121t-106 326v729h-279zM766 725q0 92 63.5 150.5t162 58.5t162 -58.5t63.5 -150.5t-63.5 -148.5t-162 -56.5t-162 56.5t-63.5 148.5z" />
<glyph unicode="&#x141;" d="M51 299v270l146 84v678h352v-506l407 228v-271l-407 -227v-260h567v-295h-919v383z" />
<glyph unicode="&#x142;" d="M111 1151v274h630v-452l293 157v-278l-293 -158v-284q0 -82 45 -117t108.5 -35t147.5 29l76 -258q-180 -53 -317 -54q-199 0 -305.5 121t-106.5 326v100l-223 -125v279l223 125v350h-278z" />
<glyph unicode="&#x143;" d="M123 0v1331h356l223 -594l109 -299h8q-2 20 -18.5 143.5t-23.5 207t-7 157.5v385h336v-1331h-356l-224 596l-108 297h-8q4 -37 18 -150.5t22.5 -198.5t8.5 -159v-385h-336zM455 1434l159 254h369l-250 -254h-278z" />
<glyph unicode="&#x144;" d="M131 0v1024h287l24 -123h9q156 147 342 148q166 0 245.5 -110t79.5 -308v-631h-352v586q0 88 -26.5 126t-92.5 38q-80 0 -164 -78v-672h-352zM463 1176l180 356h356l-282 -356h-254z" />
<glyph unicode="&#x145;" d="M123 0v1331h356l223 -594l109 -299h8q-2 20 -18.5 143.5t-23.5 207t-7 157.5v385h336v-1331h-356l-224 596l-108 297h-8q4 -37 18 -150.5t22.5 -198.5t8.5 -159v-385h-336zM389 -344q164 14 164 70q0 47 -82 69l66 123q147 -12 206.5 -53t59.5 -123q0 -104 -109.5 -159.5 t-279.5 -61.5z" />
<glyph unicode="&#x146;" d="M131 0v1024h287l24 -123h9q156 147 342 148q166 0 245.5 -110t79.5 -308v-631h-352v586q0 88 -26.5 126t-92.5 38q-80 0 -164 -78v-672h-352zM397 -344q164 14 164 70q0 47 -82 69l66 123q147 -12 206.5 -53t59.5 -123q0 -104 -109.5 -159.5t-279.5 -61.5z" />
<glyph unicode="&#x147;" d="M123 0v1331h356l223 -594l109 -299h8q-2 20 -18.5 143.5t-23.5 207t-7 157.5v385h336v-1331h-356l-224 596l-108 297h-8q4 -37 18 -150.5t22.5 -198.5t8.5 -159v-385h-336zM258 1688h266l99 -119h8l98 119h266l-196 -254h-344z" />
<glyph unicode="&#x148;" d="M131 0v1024h287l24 -123h9q156 147 342 148q166 0 245.5 -110t79.5 -308v-631h-352v586q0 88 -26.5 126t-92.5 38q-80 0 -164 -78v-672h-352zM287 1532h254l98 -193h8l98 193h254l-208 -356h-295z" />
<glyph unicode="&#x149;" d="M-117 1200q0 102 59.5 163.5t153.5 61.5q127 0 194.5 -94t67.5 -264q0 -352 -383 -520l-88 182q223 92 236 272q-25 -4 -37 -4q-90 0 -146.5 55.5t-56.5 147.5zM459 0v1024h286l25 -123h8q139 147 293 148q145 0 215 -110t70 -308v-631h-352v586q0 88 -17.5 126t-60.5 38 q-33 0 -55.5 -17.5t-59.5 -60.5v-672h-352z" />
<glyph unicode="&#x14c;" d="M70 671.5q0 323.5 148.5 504t396 180.5t396 -181.5t148.5 -502.5q0 -324 -149.5 -510.5t-395 -186.5t-395 186.5t-149.5 510zM311 1466v222h607v-222h-607zM430 672q0 -182 49 -287.5t135 -105.5t135.5 105t49.5 288q0 180 -49.5 280.5t-135.5 100.5t-135 -100.5 t-49 -280.5z" />
<glyph unicode="&#x14d;" d="M86 512q0 244 156.5 390.5t371.5 146.5t372 -146.5t157 -390.5t-157 -390.5t-372 -146.5t-371.5 146.5t-156.5 390.5zM319 1204v221h590v-221h-590zM446 512q0 -254 168 -254t168 254t-168 254t-168 -254z" />
<glyph unicode="&#x14e;" d="M70 671.5q0 323.5 148.5 504t396 180.5t396 -181.5t148.5 -502.5q0 -324 -149.5 -510.5t-395 -186.5t-395 186.5t-149.5 510zM324 1688h188q20 -82 102 -82t103 82h188q-26 -254 -290.5 -254t-290.5 254zM430 672q0 -182 49 -287.5t135 -105.5t135.5 105t49.5 288 q0 180 -49.5 280.5t-135.5 100.5t-135 -100.5t-49 -280.5z" />
<glyph unicode="&#x14f;" d="M86 512q0 244 156.5 390.5t371.5 146.5t372 -146.5t157 -390.5t-157 -390.5t-372 -146.5t-371.5 146.5t-156.5 390.5zM299 1511h193q18 -147 122.5 -147t122.5 147h193q-4 -145 -85 -240t-230.5 -95t-230.5 95t-85 240zM446 512q0 -254 168 -254t168 254t-168 254 t-168 -254z" />
<glyph unicode="&#x150;" d="M70 671.5q0 323.5 148.5 504t396 180.5t396 -181.5t148.5 -502.5q0 -324 -149.5 -510.5t-395 -186.5t-395 186.5t-149.5 510zM311 1434l127 254h295l-188 -254h-234zM430 672q0 -182 49 -287.5t135 -105.5t135.5 105t49.5 288q0 180 -49.5 280.5t-135.5 100.5 t-135 -100.5t-49 -280.5zM696 1434l127 254h295l-188 -254h-234z" />
<glyph unicode="&#x151;" d="M86 512q0 244 156.5 390.5t371.5 146.5t372 -146.5t157 -390.5t-157 -390.5t-372 -146.5t-371.5 146.5t-156.5 390.5zM336 1176l139 315h275l-201 -315h-213zM446 512q0 -254 168 -254t168 254t-168 254t-168 -254zM705 1176l139 315h274l-200 -315h-213z" />
<glyph unicode="&#x152;" d="M29 672q0 336 157.5 497.5t415.5 161.5h598v-295h-299v-209h225v-295h-225v-237h320v-295h-639q-248 0 -400.5 168t-152.5 504zM389 672q0 -219 45 -304t127 -85h29v766h-29q-82 0 -127 -79t-45 -298z" />
<glyph unicode="&#x153;" d="M25 512q0 246 112.5 391.5t276.5 145.5q156 0 235 -152q86 152 234 152q152 0 238.5 -144.5t86.5 -359.5q0 -72 -12 -139h-442q39 -156 164 -156q72 0 143 49l119 -225q-123 -98 -277 -99q-158 0 -250 131q-90 -131 -247 -131q-162 0 -271.5 144.5t-109.5 392.5zM340 512 q0 -254 94 -254q80 0 80 254t-80 254q-94 0 -94 -254zM750 618h184q0 164 -78 164q-90 0 -106 -164z" />
<glyph unicode="&#x154;" d="M119 0v1331h495q532 0 533 -430q0 -268 -215 -385l289 -516h-394l-229 446h-127v-446h-352zM446 1434l160 254h369l-250 -254h-279zM471 725h119q213 0 213 176q0 84 -52.5 118t-160.5 34h-119v-328z" />
<glyph unicode="&#x155;" d="M213 0v1024h289l26 -217h9q141 242 399 242q98 0 194 -41l-69 -295q-96 29 -178 28q-215 0 -318 -233v-508h-352zM512 1176l180 356h357l-283 -356h-254z" />
<glyph unicode="&#x156;" d="M119 0v1331h495q532 0 533 -430q0 -268 -215 -385l289 -516h-394l-229 446h-127v-446h-352zM430 -344q164 14 164 70q0 46 -82 69l66 123q147 -12 206.5 -53t59.5 -123q0 -104 -109.5 -159.5t-279.5 -61.5zM471 725h119q213 0 213 176q0 84 -52.5 118t-160.5 34h-119 v-328z" />
<glyph unicode="&#x157;" d="M193 -344q164 14 163 70q0 47 -82 69l66 123q147 -12 206.5 -53t59.5 -123q0 -104 -109.5 -159.5t-279.5 -61.5zM213 0v1024h289l26 -217h9q141 242 399 242q98 0 194 -41l-69 -295q-96 29 -178 28q-215 0 -318 -233v-508h-352z" />
<glyph unicode="&#x158;" d="M119 0v1331h495q532 0 533 -430q0 -268 -215 -385l289 -516h-394l-229 446h-127v-446h-352zM250 1688h266l98 -119h9l98 119h266l-196 -254h-345zM471 725h119q213 0 213 176q0 84 -52.5 118t-160.5 34h-119v-328z" />
<glyph unicode="&#x159;" d="M213 0v1024h289l26 -217h9q141 242 399 242q98 0 194 -41l-69 -295q-96 29 -178 28q-215 0 -318 -233v-508h-352zM336 1532h254l98 -193h8l99 193h254l-209 -356h-295z" />
<glyph unicode="&#x15a;" d="M90 166l201 242q170 -129 323 -129q164 0 164 94q0 59 -172 121q-4 1 -7 2.5t-6 2.5t-7 3l-166 69q-125 47 -203 140.5t-78 230.5q0 174 142.5 294t365.5 120q264 0 455 -178l-176 -222q-145 96 -279 97q-152 0 -151 -90q0 -39 36.5 -61.5t133.5 -58.5q26 -10 39 -14 l153 -63q281 -102 281 -365q0 -178 -142.5 -302t-390.5 -124q-295 1 -516 191zM455 1434l159 254h369l-250 -254h-278z" />
<glyph unicode="&#x15b;" d="M94 131l156 217q197 -115 352 -115q166 0 166 62q0 8 -4 16t-13.5 15.5t-18.5 13.5t-25.5 13t-29.5 12.5t-37 12.5t-38 11t-42 12.5t-44 12.5q-358 104 -358 303q0 152 134 242t357 90t453 -144l-156 -209q-166 94 -289 95q-150 0 -149 -58q0 -33 50 -53.5t151 -45.5 q6 -1 10 -2t10 -3t11 -3t12 -3q104 -29 175.5 -60t131 -96.5t59.5 -151.5q0 -150 -138 -245t-386 -95q-127 0 -261.5 44t-238.5 112zM467 1176l180 356h357l-283 -356h-254z" />
<glyph unicode="&#x15c;" d="M90 166l201 242q170 -129 323 -129q164 0 164 94q0 59 -172 121q-4 1 -7 2.5t-6 2.5t-7 3l-166 69q-125 47 -203 140.5t-78 230.5q0 174 142.5 294t365.5 120q264 0 455 -178l-176 -222q-145 96 -279 97q-152 0 -151 -90q0 -39 36.5 -61.5t133.5 -58.5q26 -10 39 -14 l153 -63q281 -102 281 -365q0 -178 -142.5 -302t-390.5 -124q-295 1 -516 191zM258 1434l197 254h344l196 -254h-266l-98 118h-8l-99 -118h-266z" />
<glyph unicode="&#x15d;" d="M94 131l156 217q197 -115 352 -115q166 0 166 62q0 8 -4 16t-13.5 15.5t-18.5 13.5t-25.5 13t-29.5 12.5t-37 12.5t-38 11t-42 12.5t-44 12.5q-358 104 -358 303q0 152 134 242t357 90t453 -144l-156 -209q-166 94 -289 95q-150 0 -149 -58q0 -33 50 -53.5t151 -45.5 q6 -1 10 -2t10 -3t11 -3t12 -3q104 -29 175.5 -60t131 -96.5t59.5 -151.5q0 -150 -138 -245t-386 -95q-127 0 -261.5 44t-238.5 112zM291 1176l209 356h295l209 -356h-254l-99 192h-8l-98 -192h-254z" />
<glyph unicode="&#x15e;" d="M90 166l201 242q170 -129 323 -129q164 0 164 94q0 59 -172 121q-4 1 -7 2.5t-6 2.5t-7 3l-166 69q-125 47 -203 140.5t-78 230.5q0 174 142.5 294t365.5 120q264 0 455 -178l-176 -222q-145 96 -279 97q-152 0 -151 -90q0 -39 36.5 -61.5t133.5 -58.5q27 -10 39 -14 l153 -63q281 -102 281 -365q0 -158 -114 -275.5t-314 -143.5l-27 -64q119 -41 119 -156q0 -104 -109.5 -159.5t-279.5 -61.5l-25 135q164 14 164 86q0 51 -115 82l70 138q-240 31 -418 184z" />
<glyph unicode="&#x15f;" d="M94 131l156 217q197 -115 352 -115q166 0 166 62q0 8 -4 16t-13.5 15.5t-18.5 13.5t-25.5 13t-29.5 12.5t-37 12.5t-38 11t-42 12.5t-44 12.5q-358 104 -358 303q0 152 134 242t357.5 89.5t452.5 -143.5l-156 -209q-166 94 -289 95q-150 0 -149 -58q0 -33 50 -53.5 t151 -45.5q6 -1 10 -2t10 -3t11 -3t12 -3q104 -29 175.5 -60t131 -96.5t59.5 -151.5q0 -127 -100 -217t-287 -114l-26 -66q119 -41 118 -156q0 -104 -109.5 -159.5t-279.5 -61.5l-24 135q164 14 163 86q0 51 -114 82l67 136q-236 23 -432 151z" />
<glyph unicode="&#x160;" d="M90 166l201 242q170 -129 323 -129q164 0 164 94q0 59 -172 121q-4 1 -7 2.5t-6 2.5t-7 3l-166 69q-125 47 -203 140.5t-78 230.5q0 174 142.5 294t365.5 120q264 0 455 -178l-176 -222q-145 96 -279 97q-152 0 -151 -90q0 -39 36.5 -61.5t133.5 -58.5q26 -10 39 -14 l153 -63q281 -102 281 -365q0 -178 -142.5 -302t-390.5 -124q-295 1 -516 191zM258 1688h266l99 -119h8l98 119h266l-196 -254h-344z" />
<glyph unicode="&#x161;" d="M94 131l156 217q197 -115 352 -115q166 0 166 62q0 8 -4 16t-13.5 15.5t-18.5 13.5t-25.5 13t-29.5 12.5t-37 12.5t-38 11t-42 12.5t-44 12.5q-358 104 -358 303q0 152 134 242t357 90t453 -144l-156 -209q-166 94 -289 95q-150 0 -149 -58q0 -33 50 -53.5t151 -45.5 q6 -1 10 -2t10 -3t11 -3t12 -3q104 -29 175.5 -60t131 -96.5t59.5 -151.5q0 -150 -138 -245t-386 -95q-127 0 -261.5 44t-238.5 112zM291 1532h254l98 -193h8l99 193h254l-209 -356h-295z" />
<glyph unicode="&#x162;" d="M55 1036v295h1119v-295h-383v-1036h-74l-33 -82q119 -41 119 -156q0 -104 -109.5 -159.5t-279.5 -61.5l-25 135q164 14 164 86q0 51 -115 82l78 156h-78v1036h-383z" />
<glyph unicode="&#x163;" d="M86 750v262l262 12l45 266h291v-266h403v-274h-403v-310q0 -104 48 -147t151 -43q92 0 190 33l60 -254q-166 -46 -277 -52l-25 -59q119 -41 119 -156q0 -104 -109.5 -159.5t-279.5 -61.5l-24 135q164 14 163 86q0 51 -114 82l71 144q-326 59 -325 446v316h-246z" />
<glyph unicode="&#x164;" d="M55 1036v295h1119v-295h-383v-1036h-353v1036h-383zM246 1688h266l98 -119h8l99 119h266l-197 -254h-344z" />
<glyph unicode="&#x165;" d="M86 750v262l262 12l45 266h291v-266h403v-274h-403v-310q0 -104 48 -147t151 -43q92 0 190 33l60 -254q-195 -53 -342 -54q-459 0 -459 459v316h-246zM782 1585h222l-5 -151l-57 -312h-147z" />
<glyph unicode="&#x168;" d="M119 516v815h352v-856q0 -197 147 -196q152 0 152 196v856h340v-815q0 -541 -492 -541q-254 0 -376.5 141.5t-122.5 399.5zM246 1434q18 150 83.5 224.5t153.5 74.5q61 0 142.5 -43t103.5 -43q57 0 78 86h176q-18 -150 -84 -224.5t-154 -74.5q-61 0 -142 43t-103 43 q-57 0 -78 -86h-176z" />
<glyph unicode="&#x169;" d="M115 393v631h352v-586q0 -88 24.5 -126t92.5 -38q47 0 80.5 18.5t72.5 72.5v659h353v-1024h-287l-25 135h-8q-139 -160 -332 -160q-324 0 -323 418zM233 1176q20 162 90 240.5t173 78.5q55 0 125.5 -53t91.5 -53q33 0 54 23.5t36 82.5h176q-20 -162 -90 -240.5 t-172 -78.5q-57 0 -127 53t-90 53q-33 0 -54.5 -23.5t-35.5 -82.5h-177z" />
<glyph unicode="&#x16a;" d="M119 516v815h352v-856q0 -197 147 -196q152 0 152 196v856h340v-815q0 -541 -492 -541q-254 0 -376.5 141.5t-122.5 399.5zM311 1466v222h607v-222h-607z" />
<glyph unicode="&#x16b;" d="M115 393v631h352v-586q0 -88 24.5 -126t92.5 -38q47 0 80.5 18.5t72.5 72.5v659h353v-1024h-287l-25 135h-8q-139 -160 -332 -160q-324 0 -323 418zM311 1204v221h590v-221h-590z" />
<glyph unicode="&#x16c;" d="M119 516v815h352v-856q0 -197 147 -196q152 0 152 196v856h340v-815q0 -541 -492 -541q-254 0 -376.5 141.5t-122.5 399.5zM324 1688h188q20 -82 102 -82t103 82h188q-26 -254 -290.5 -254t-290.5 254z" />
<glyph unicode="&#x16d;" d="M115 393v631h352v-586q0 -88 24.5 -126t92.5 -38q47 0 80.5 18.5t72.5 72.5v659h353v-1024h-287l-25 135h-8q-139 -160 -332 -160q-324 0 -323 418zM291 1511h192q18 -147 123 -147t123 147h193q-4 -145 -85 -240t-230.5 -95t-230.5 95t-85 240z" />
<glyph unicode="&#x16e;" d="M119 516v815h352v-856q0 -197 147 -196q152 0 152 196v856h340v-815q0 -541 -492 -541q-254 0 -376.5 141.5t-122.5 399.5zM369 1634.5q0 94.5 67.5 151.5t178 57t178 -57t67.5 -151.5t-67.5 -152t-178 -57.5t-178 57.5t-67.5 152zM537 1634q0 -37 22.5 -59.5t55 -22.5 t55 22.5t22.5 59.5t-22.5 59.5t-55 22.5t-55 -22.5t-22.5 -59.5z" />
<glyph unicode="&#x16f;" d="M115 393v631h352v-586q0 -88 24.5 -126t92.5 -38q47 0 80.5 18.5t72.5 72.5v659h353v-1024h-287l-25 135h-8q-139 -160 -332 -160q-324 0 -323 418zM360 1343.5q0 98.5 68 158t178.5 59.5t178 -59.5t67.5 -158t-67.5 -158t-178 -59.5t-178.5 59.5t-68 158zM528 1343.5 q0 -38.5 22.5 -64.5t55.5 -26t55.5 26t22.5 64.5t-22.5 64.5t-55.5 26t-55.5 -26t-22.5 -64.5z" />
<glyph unicode="&#x170;" d="M119 516v815h352v-856q0 -197 147 -196q152 0 152 196v856h340v-815q0 -541 -492 -541q-254 0 -376.5 141.5t-122.5 399.5zM311 1434l127 254h295l-188 -254h-234zM696 1434l127 254h295l-188 -254h-234z" />
<glyph unicode="&#x171;" d="M115 393v631h352v-586q0 -88 24.5 -126t92.5 -38q47 0 80.5 18.5t72.5 72.5v659h353v-1024h-287l-25 135h-8q-139 -160 -332 -160q-324 0 -323 418zM328 1176l139 315h274l-200 -315h-213zM696 1176l140 315h274l-201 -315h-213z" />
<glyph unicode="&#x172;" d="M119 516v815h352v-856q0 -197 147 -196q152 0 152 196v856h340v-815q0 -373 -254 -496q-113 -55 -150.5 -100t-37.5 -92q0 -35 23.5 -52.5t58.5 -17.5q27 0 69 29l78 -176q-43 -35 -109.5 -56.5t-123.5 -21.5q-109 0 -179.5 54.5t-70.5 146.5q0 125 131 246 q-211 18 -318.5 157t-107.5 379z" />
<glyph unicode="&#x173;" d="M115 393v631h352v-586q0 -88 24.5 -126t92.5 -38q47 0 80.5 18.5t72.5 72.5v659h353v-1024q-180 -43 -181 -160q0 -33 24.5 -51t57.5 -18q37 0 70 24l69 -155q-94 -74 -225 -74q-100 0 -164.5 50t-64.5 142q0 141 131 234l-29 143h-8q-139 -160 -332 -160 q-324 0 -323 418z" />
<glyph unicode="&#x174;" d="M4 1331h361l16 -659v-344h8q10 66 35 189.5t31 154.5l73 323h205l68 -323q8 -47 31.5 -163t33.5 -181h8v344l17 659h336l-154 -1331h-364l-60 365q-29 170 -31 260h-6q-10 -141 -30 -260l-56 -365h-356zM246 1434l196 254h344l197 -254h-266l-99 118h-8l-98 -118h-266z " />
<glyph unicode="&#x175;" d="M2 1024h344l41 -430q6 -51 13.5 -154.5t13.5 -156.5h6q18 195 43 311l43 266h233l49 -266q12 -70 46 -311h8q6 53 12 156.5t12 154.5l41 430h320l-135 -1024h-408l-33 274q-25 188 -35 301h-8q-18 -203 -28 -301l-31 -274h-399zM260 1176l209 356h295l209 -356h-254 l-98 192h-9l-98 -192h-254z" />
<glyph unicode="&#x176;" d="M16 1331h377l111 -291q18 -53 55 -153.5t53 -149.5h9q20 59 59 159.5t53 143.5l111 291h368l-421 -891v-440h-353v440zM246 1434l196 254h344l197 -254h-266l-99 118h-8l-98 -118h-266z" />
<glyph unicode="&#x177;" d="M49 1024h348l144 -393q43 -121 92 -312h8q18 82 88 312l123 393h332l-385 -1008q-84 -215 -193.5 -308t-304.5 -93q-86 0 -164 20l62 267q40 -12 73 -13q145 0 191 103l16 45zM274 1176l209 356h295l209 -356h-254l-98 192h-8l-99 -192h-254z" />
<glyph unicode="&#x178;" d="M16 1331h377l111 -291q18 -53 55 -153.5t53 -149.5h9q20 59 59 159.5t53 143.5l111 291h368l-421 -891v-440h-353v440zM242 1581q0 68 45 114t114.5 46t114.5 -46t45 -114t-45 -114t-114.5 -46t-114.5 46t-45 114zM668 1581q0 68 45 114t114.5 46t114.5 -46t45 -114 t-45 -114t-114.5 -46t-114.5 46t-45 114z" />
<glyph unicode="&#x179;" d="M109 0v213l577 823h-522v295h956v-213l-577 -823h583v-295h-1017zM471 1434l160 254h368l-249 -254h-279z" />
<glyph unicode="&#x17a;" d="M143 0v188l473 562h-413v274h899v-188l-475 -562h489v-274h-973zM483 1176l181 356h356l-283 -356h-254z" />
<glyph unicode="&#x17b;" d="M109 0v213l577 823h-522v295h956v-213l-577 -823h583v-295h-1017zM446 1601.5q0 77.5 55.5 127t141.5 49.5t141.5 -49.5t55.5 -127t-55.5 -127t-141.5 -49.5t-141.5 49.5t-55.5 127z" />
<glyph unicode="&#x17c;" d="M143 0v188l473 562h-413v274h899v-188l-475 -562h489v-274h-973zM438 1356q0 92 63.5 150.5t162 58.5t162 -58.5t63.5 -150.5t-63.5 -148.5t-162 -56.5t-162 56.5t-63.5 148.5z" />
<glyph unicode="&#x17d;" d="M109 0v213l577 823h-522v295h956v-213l-577 -823h583v-295h-1017zM274 1688h267l98 -119h8l98 119h267l-197 -254h-344z" />
<glyph unicode="&#x17e;" d="M143 0v188l473 562h-413v274h899v-188l-475 -562h489v-274h-973zM307 1532h254l98 -193h9l98 193h254l-209 -356h-295z" />
<glyph unicode="&#x180;" d="M0 1126v152l131 10v137h352v-135h348v-164h-348v-73l-8 -148q115 102 260 103q186 0 297 -136.5t111 -361.5q0 -246 -129 -390.5t-307 -144.5q-145 0 -265 136h-8l-28 -111h-275v1126h-131zM483 311q57 -49 140 -49q160 0 159 242q0 217 -151 217q-80 0 -148 -74v-336z " />
<glyph unicode="&#x18f;" d="M115 659q0 37 8 119h680q-27 279 -205 279q-99 0 -197 -90l-151 241q162 147 393 148q229 0 370.5 -183.5t141.5 -504.5q0 -324 -143.5 -508.5t-376.5 -184.5q-236 0 -378 180.5t-142 503.5zM475 524q18 -250 160 -250q59 0 103.5 64.5t60.5 185.5h-324z" />
<glyph unicode="&#x192;" d="M92 -166l43 260q43 -12 107 -16q76 4 107.5 53t56.5 225l26 242h-162v242l156 12h37l8 78q39 236 140.5 331t324.5 95q121 0 203 -37l-64 -262q-72 20 -108 20q-127 0 -156 -119l-12 -106h213v-254h-244l-43 -348q-12 -100 -36.5 -173t-71 -139.5t-126 -100.5t-192.5 -34 q-152 4 -207 31z" />
<glyph unicode="&#x1a0;" d="M70 671.5q0 323.5 148.5 504t395.5 180.5q143 0 254 -62q53 12 80 38t27 81q0 47 -33 98l238 103q66 -74 65 -176q0 -205 -233 -264q147 -182 147 -502q0 -324 -149.5 -510.5t-395 -186.5t-395 186.5t-149.5 510zM430 672q0 -182 49 -287.5t135 -105.5t135.5 105 t49.5 288q0 180 -49.5 280.5t-135.5 100.5t-135 -100.5t-49 -280.5z" />
<glyph unicode="&#x1a1;" d="M86 512q0 244 156.5 390.5t371.5 146.5q119 0 217 -45q57 12 88 38.5t31 83.5q1 48 -32 99l237 102q66 -74 66 -176q0 -201 -224 -260q145 -152 146 -379q0 -244 -157 -390.5t-372 -146.5t-371.5 146.5t-156.5 390.5zM446 512q0 -254 168 -254t168 254t-168 254 t-168 -254z" />
<glyph unicode="&#x1af;" d="M119 516v815h352v-856q0 -197 147 -196q152 0 152 196v856h172q164 0 164 123q0 47 -33 98l238 103q66 -74 65 -176q0 -221 -266 -273v-690q0 -541 -492 -541q-254 0 -376.5 141.5t-122.5 399.5z" />
<glyph unicode="&#x1b0;" d="M115 393v631h352v-586q0 -88 24.5 -126t92.5 -38q47 0 80.5 18.5t72.5 72.5v659h123q164 0 164 123q0 47 -33 98l238 103q66 -74 65 -177q0 -190 -204 -253v-918h-287l-25 135h-8q-139 -160 -332 -160q-324 0 -323 418z" />
<glyph unicode="&#x1cd;" d="M0 0l401 1331h426l402 -1331h-373l-65 283h-365l-66 -283h-360zM246 1688h266l98 -119h8l99 119h266l-197 -254h-344zM489 555h238l-20 92q-84 373 -97 422h-8q-49 -227 -92 -422z" />
<glyph unicode="&#x1ce;" d="M111 291q0 174 151.5 264t495.5 109q-18 106 -197 106q-111 0 -295 -86l-123 229q244 135 488 136q227 0 353 -118t126 -362v-569h-287l-24 106h-8q-178 -131 -349 -131q-154 0 -242.5 91.5t-88.5 224.5zM270 1532h254l99 -193h8l98 193h254l-209 -356h-295zM446 319 q0 -74 111 -73q96 0 201 78v131q-312 -11 -312 -136z" />
<glyph unicode="&#x1cf;" d="M135 0v295h303v741h-303v295h959v-295h-303v-741h303v-295h-959zM246 1688h266l98 -119h8l99 119h266l-197 -254h-344z" />
<glyph unicode="&#x1d0;" d="M152 750v274h741v-1024h-352v750h-389zM348 1532h254l98 -193h9l98 193h254l-209 -356h-295z" />
<glyph unicode="&#x1d1;" d="M70 671.5q0 323.5 148.5 504t396 180.5t396 -181.5t148.5 -502.5q0 -324 -149.5 -510.5t-395 -186.5t-395 186.5t-149.5 510zM246 1688h266l98 -119h8l99 119h266l-197 -254h-344zM430 672q0 -182 49 -287.5t135 -105.5t135.5 105t49.5 288q0 180 -49.5 280.5 t-135.5 100.5t-135 -100.5t-49 -280.5z" />
<glyph unicode="&#x1d2;" d="M86 512q0 244 156.5 390.5t371.5 146.5t372 -146.5t157 -390.5t-157 -390.5t-372 -146.5t-371.5 146.5t-156.5 390.5zM258 1532h254l98 -193h8l99 193h254l-209 -356h-295zM446 512q0 -254 168 -254t168 254t-168 254t-168 -254z" />
<glyph unicode="&#x1d3;" d="M119 516v815h352v-856q0 -197 147 -196q152 0 152 196v856h340v-815q0 -541 -492 -541q-254 0 -376.5 141.5t-122.5 399.5zM246 1688h266l98 -119h8l99 119h266l-197 -254h-344z" />
<glyph unicode="&#x1d4;" d="M115 393v631h352v-586q0 -88 24.5 -126t92.5 -38q47 0 80.5 18.5t72.5 72.5v659h353v-1024h-287l-25 135h-8q-139 -160 -332 -160q-324 0 -323 418zM250 1532h254l98 -193h8l99 193h254l-209 -356h-295z" />
<glyph unicode="&#x1d5;" d="M119 516v815h352v-856q0 -197 147 -196q152 0 152 196v856h340v-815q0 -541 -492 -541q-254 0 -376.5 141.5t-122.5 399.5zM262 1560.5q0 59.5 39 99.5t100.5 40t100.5 -40t39 -99.5t-39 -99.5t-100.5 -40t-100.5 40t-39 99.5zM311 1794v160h607v-160h-607zM688 1560.5 q0 59.5 39 99.5t100.5 40t100.5 -40t39 -99.5t-39 -99.5t-100.5 -40t-100.5 40t-39 99.5z" />
<glyph unicode="&#x1d6;" d="M115 393v631h352v-586q0 -88 24.5 -126t92.5 -38q47 0 80.5 18.5t72.5 72.5v659h353v-1024h-287l-25 135h-8q-139 -160 -332 -160q-324 0 -323 418zM254 1294.5q0 59.5 39 99.5t100.5 40t100 -40t38.5 -99.5t-38.5 -99.5t-100 -40t-100.5 40t-39 99.5zM311 1552v160h590 v-160h-590zM680 1294.5q0 59.5 39 99.5t100.5 40t100 -40t38.5 -99.5t-38.5 -99.5t-100 -40t-100.5 40t-39 99.5z" />
<glyph unicode="&#x1d7;" d="M119 516v815h352v-856q0 -197 147 -196q152 0 152 196v856h340v-815q0 -541 -492 -541q-254 0 -376.5 141.5t-122.5 399.5zM262 1560.5q0 59.5 39 99.5t100.5 40t100.5 -40t39 -99.5t-39 -99.5t-100.5 -40t-100.5 40t-39 99.5zM442 1761l160 254h365l-246 -254h-279z M688 1560.5q0 59.5 39 99.5t100.5 40t100.5 -40t39 -99.5t-39 -99.5t-100.5 -40t-100.5 40t-39 99.5z" />
<glyph unicode="&#x1d8;" d="M115 393v631h352v-586q0 -88 24.5 -126t92.5 -38q47 0 80.5 18.5t72.5 72.5v659h353v-1024h-287l-25 135h-8q-139 -160 -332 -160q-324 0 -323 418zM254 1294.5q0 59.5 39 99.5t100.5 40t100 -40t38.5 -99.5t-38.5 -99.5t-100 -40t-100.5 40t-39 99.5zM455 1524l172 233 h295l-246 -233h-221zM680 1294.5q0 59.5 39 99.5t100.5 40t100 -40t38.5 -99.5t-38.5 -99.5t-100 -40t-100.5 40t-39 99.5z" />
<glyph unicode="&#x1d9;" d="M119 516v815h352v-856q0 -197 147 -196q152 0 152 196v856h340v-815q0 -541 -492 -541q-254 0 -376.5 141.5t-122.5 399.5zM246 2015h266l98 -119h8l99 119h266l-197 -254h-344zM262 1560.5q0 59.5 39 99.5t100.5 40t100.5 -40t39 -99.5t-39 -99.5t-100.5 -40t-100.5 40 t-39 99.5zM688 1560.5q0 59.5 39 99.5t100.5 40t100.5 -40t39 -99.5t-39 -99.5t-100.5 -40t-100.5 40t-39 99.5z" />
<glyph unicode="&#x1da;" d="M115 393v631h352v-586q0 -88 24.5 -126t92.5 -38q47 0 80.5 18.5t72.5 72.5v659h353v-1024h-287l-25 135h-8q-139 -160 -332 -160q-324 0 -323 418zM254 1294.5q0 59.5 39 99.5t100.5 40t100 -40t38.5 -99.5t-38.5 -99.5t-100 -40t-100.5 40t-39 99.5zM287 1757h233 l82 -115h8l82 115h234l-172 -233h-295zM680 1294.5q0 59.5 39 99.5t100.5 40t100 -40t38.5 -99.5t-38.5 -99.5t-100 -40t-100.5 40t-39 99.5z" />
<glyph unicode="&#x1db;" d="M119 516v815h352v-856q0 -197 147 -196q152 0 152 196v856h340v-815q0 -541 -492 -541q-254 0 -376.5 141.5t-122.5 399.5zM262 1560.5q0 59.5 39 99.5t100.5 40t100.5 -40t39 -99.5t-39 -99.5t-100.5 -40t-100.5 40t-39 99.5zM262 2015h365l159 -254h-278zM688 1560.5 q0 59.5 39 99.5t100.5 40t100.5 -40t39 -99.5t-39 -99.5t-100.5 -40t-100.5 40t-39 99.5z" />
<glyph unicode="&#x1dc;" d="M115 393v631h352v-586q0 -88 24.5 -126t92.5 -38q47 0 80.5 18.5t72.5 72.5v659h353v-1024h-287l-25 135h-8q-139 -160 -332 -160q-324 0 -323 418zM254 1294.5q0 59.5 39 99.5t100.5 40t100 -40t38.5 -99.5t-38.5 -99.5t-100 -40t-100.5 40t-39 99.5zM291 1757h295 l172 -233h-221zM680 1294.5q0 59.5 39 99.5t100.5 40t100 -40t38.5 -99.5t-38.5 -99.5t-100 -40t-100.5 40t-39 99.5z" />
<glyph unicode="&#x1e6;" d="M82 655.5q0 327.5 178 514t449 186.5q229 0 397 -172l-193 -217q-90 86 -204 86q-113 0 -189 -104.5t-76 -280.5q0 -389 283 -389q59 0 90 24v184h-166v287h479v-635q-76 -68 -190.5 -116t-232.5 -48q-270 0 -447.5 176.5t-177.5 504zM307 1688h266l99 -119h8l98 119h266 l-196 -254h-344z" />
<glyph unicode="&#x1e7;" d="M90 -168q0 123 156 197v8q-102 66 -103 176q0 109 123 193v8q-61 39 -100 107.5t-39 154.5q0 180 130 276.5t323 96.5q96 0 174 -25h413v-254h-184q29 -49 29 -106q0 -172 -119 -256t-313 -84q-59 0 -129 14q-33 -25 -33 -59q0 -33 37 -47.5t123 -14.5h174 q426 0 426 -266q0 -168 -171 -270.5t-456 -102.5q-207 0 -334 61.5t-127 192.5zM264 1532h254l98 -193h9l98 193h254l-209 -356h-295zM375 -111q0 -94 231 -94q104 0 171 25.5t67 68.5q0 37 -38 49.5t-122 12.5h-102q-102 0 -156 12q-51 -37 -51 -74zM457 676 q0 -70 34.5 -107t88 -37t89.5 37t36 107q0 68 -36 103.5t-89.5 35.5t-88 -36t-34.5 -103z" />
<glyph unicode="&#x1ea;" d="M70 672q0 324 148.5 504t396 180t396 -181.5t148.5 -502.5q0 -506 -356 -664q-135 -59 -135 -180q0 -35 23.5 -52.5t58.5 -17.5q26 0 69 29l78 -176q-43 -35 -109.5 -56.5t-123.5 -21.5q-109 0 -179.5 54.5t-70.5 146.5q0 133 131 246q-233 33 -354 223t-121 469z M430 672q0 -182 49 -287.5t135 -105.5t135.5 105t49.5 288q0 180 -49.5 280.5t-135.5 100.5t-135 -100.5t-49 -280.5z" />
<glyph unicode="&#x1eb;" d="M86 512q0 244 156.5 390.5t371.5 146.5t372 -146.5t157 -390.5q0 -350 -357 -508q-131 -61 -131 -164q0 -35 23.5 -52t58.5 -17q33 0 70 24l70 -155q-94 -74 -226 -74q-100 0 -164.5 50t-64.5 142q0 125 113 224q-190 27 -319.5 169t-129.5 361zM446 512q0 -254 168 -254 t168 254t-168 254t-168 -254z" />
<glyph unicode="&#x218;" d="M90 166l201 242q170 -129 323 -129q164 0 164 94q0 59 -172 121q-4 1 -7 2.5t-6 2.5t-7 3l-166 69q-125 47 -203 140.5t-78 230.5q0 174 142.5 294t365.5 120q264 0 455 -178l-176 -222q-145 96 -279 97q-152 0 -151 -90q0 -39 36.5 -61.5t133.5 -58.5q26 -10 39 -14 l153 -63q281 -102 281 -365q0 -178 -142.5 -302t-390.5 -124q-295 1 -516 191zM410 -344q164 14 163 70q0 47 -81 69l65 123q147 -12 206.5 -53t59.5 -123q0 -104 -109.5 -159.5t-279.5 -61.5z" />
<glyph unicode="&#x219;" d="M94 131l156 217q197 -115 352 -115q166 0 166 62q0 8 -4 16t-13.5 15.5t-18.5 13.5t-25.5 13t-29.5 12.5t-37 12.5t-38 11t-42 12.5t-44 12.5q-358 104 -358 303q0 152 134 242t357 90t453 -144l-156 -209q-166 94 -289 95q-150 0 -149 -58q0 -33 50 -53.5t151 -45.5 q6 -1 10 -2t10 -3t11 -3t12 -3q104 -29 175.5 -60t131 -96.5t59.5 -151.5q0 -150 -138 -245t-386 -95q-127 0 -261.5 44t-238.5 112zM401 -344q164 14 164 70q0 47 -82 69l66 123q147 -12 206.5 -53t59.5 -123q0 -104 -109.5 -159.5t-279.5 -61.5z" />
<glyph unicode="&#x21a;" d="M55 1036v295h1119v-295h-383v-1036h-353v1036h-383zM389 -344q164 14 164 70q0 47 -82 69l66 123q147 -12 206.5 -53t59.5 -123q0 -104 -109.5 -159.5t-279.5 -61.5z" />
<glyph unicode="&#x21b;" d="M86 750v262l262 12l45 266h291v-266h403v-274h-403v-310q0 -104 48 -147t151 -43q92 0 190 33l60 -254q-195 -53 -342 -54q-459 0 -459 459v316h-246zM520 -344q164 14 164 70q0 47 -82 69l66 123q147 -12 206.5 -53t59.5 -123q0 -104 -109.5 -159.5t-279.5 -61.5z" />
<glyph unicode="&#x237;" d="M76 -315l100 249q104 -45 199 -45q92 0 129 43t37 150v668h-389v274h741v-930q0 -100 -23.5 -181t-77 -150.5t-153.5 -108.5t-240 -39q-170 0 -323 70z" />
<glyph unicode="&#x243;" d="M4 356v152l152 12v811h438q496 0 496 -319q0 -86 -55.5 -158.5t-166.5 -99.5v-9q283 -57 283 -331q0 -207 -143.5 -310.5t-372.5 -103.5h-479v356h-152zM508 250h102q205 0 205 192q0 94 -50 137.5t-155 43.5h-102v-103h188v-164h-188v-106zM508 827h78q168 0 168 140 q0 61 -41 87.5t-127 26.5h-78v-254z" />
<glyph unicode="&#x251;" d="M86 512q0 242 128 389.5t306 147.5q156 0 266 -127h9l28 102h275v-1024h-287l-25 94h-8q-53 -53 -125.5 -86t-140.5 -33q-193 0 -309.5 145.5t-116.5 391.5zM446 516q0 -254 160 -254q90 0 139 74v377q-55 49 -135 49q-72 0 -118 -59.5t-46 -186.5z" />
<glyph unicode="&#x259;" d="M102 471q0 53 15 139h649q-41 172 -229 172q-119 0 -254 -65l-115 217q180 115 410 115q248 0 398 -144.5t150 -392.5q0 -240 -157.5 -388.5t-374.5 -148.5q-238 0 -365 139.5t-127 356.5zM422 397q0 -70 40 -112.5t124 -42.5q158 0 184 155h-348z" />
<glyph unicode="&#x261;" d="M86 532q0 227 128 372t306 145q158 0 266 -127h9l28 102h275v-963q0 -215 -140.5 -330.5t-412.5 -115.5q-229 0 -398 106l115 238q133 -70 283 -70q96 0 149.5 37t63.5 94l8 103q-100 -90 -254 -90q-188 0 -307 141t-119 358zM442 537q0 -106 45 -164t119 -58 q88 0 139 78v320q-55 49 -139 49q-66 0 -115 -58.5t-49 -166.5z" />
<glyph unicode="&#x2b0;" d="M305 532v941h244v-218l-12 -116q92 88 213 88q217 0 217 -279v-416h-244v386q0 57 -16.5 80.5t-59.5 23.5q-41 0 -98 -47v-443h-244z" />
<glyph unicode="&#x2b2;" d="M266 328l70 170q61 -29 119 -29q59 0 82.5 27.5t23.5 95.5v430h-244v188h488v-610q0 -319 -334 -319q-102 0 -205 47zM524 1429.5q0 61.5 44 101.5t112 40t112 -40t44 -101.5t-44 -100.5t-112 -39t-112 39t-44 100.5z" />
<glyph unicode="&#x2b3;" d="M416 532v678h200l19 -143h6q86 160 244 160q66 0 129 -29l-47 -201q-61 18 -119 19q-127 0 -189 -152v-332h-243z" />
<glyph unicode="&#x2b7;" d="M172 1210h238l24 -278q4 -35 8 -103.5t9 -103.5h4q10 129 28 207l25 164h162l28 -164q14 -74 29 -207h6q4 35 8 103.5t9 103.5l22 278h221l-86 -678h-282l-19 170q-16 119 -22 199h-4q-14 -166 -19 -199l-16 -170h-279z" />
<glyph unicode="&#x2b8;" d="M256 1210h244l78 -252q10 -31 49 -192h4q2 12 17.5 83t25.5 109l63 252h234l-228 -661q-57 -145 -125.5 -206.5t-193.5 -61.5q-51 0 -105 14l41 180q2 0 18.5 -4t24.5 -4q80 0 105 63l6 29z" />
<glyph unicode="&#x2bb;" d="M356 905q0 352 383 520l88 -182q-223 -92 -235 -272q25 4 37 4q90 0 146 -55.5t56 -147.5q0 -102 -59 -163.5t-154 -61.5q-127 0 -194.5 94t-67.5 264z" />
<glyph unicode="&#x2bc;" d="M397 1200q0 102 59.5 163.5t153.5 61.5q127 0 194.5 -94t67.5 -264q0 -352 -383 -520l-88 182q223 92 236 272q-25 -4 -37 -4q-90 0 -146.5 55.5t-56.5 147.5z" />
<glyph unicode="&#x2be;" d="M469 1044v127q96 0 134 34t38 97.5t-38 97.5t-134 34v127q170 6 255 -65t85 -193.5t-85 -193.5t-255 -65z" />
<glyph unicode="&#x2bf;" d="M420 1302.5q0 122.5 85 193.5t255 65v-127q-96 0 -134 -34t-38 -97.5t38 -97.5t134 -34v-127q-170 -6 -255 65t-85 193.5z" />
<glyph unicode="&#x2c6;" d="M258 1176l209 356h295l209 -356h-254l-99 192h-8l-98 -192h-254z" />
<glyph unicode="&#x2c7;" d="M258 1532h254l98 -193h8l99 193h254l-209 -356h-295z" />
<glyph unicode="&#x2c8;" d="M438 1536h353l-70 -778h-213z" />
<glyph unicode="&#x2c9;" d="M319 1204v221h590v-221h-590z" />
<glyph unicode="&#x2ca;" d="M434 1176l180 356h357l-283 -356h-254z" />
<glyph unicode="&#x2cb;" d="M258 1532h356l181 -356h-254z" />
<glyph unicode="&#x2cc;" d="M438 -553l70 778h213l70 -778h-353z" />
<glyph unicode="&#x2d8;" d="M299 1511h193q18 -147 122.5 -147t122.5 147h193q-4 -145 -85 -240t-230.5 -95t-230.5 95t-85 240z" />
<glyph unicode="&#x2d9;" d="M389 1356q0 92 63.5 150.5t162 58.5t162 -58.5t63.5 -150.5t-63.5 -148.5t-162 -56.5t-162 56.5t-63.5 148.5z" />
<glyph unicode="&#x2da;" d="M369 1343.5q0 98.5 67.5 158t178 59.5t178 -59.5t67.5 -158t-67.5 -158t-178 -59.5t-178 59.5t-67.5 158zM537 1343.5q0 -38.5 22.5 -64.5t55 -26t55 26t22.5 64.5t-22.5 64.5t-55 26t-55 -26t-22.5 -64.5z" />
<glyph unicode="&#x2db;" d="M422 -242q0 82 46 146.5t97 99.5h189q-98 -82 -99 -164q0 -35 23.5 -52t58.5 -17q37 0 70 24l70 -155q-94 -74 -226 -74q-100 0 -164.5 50t-64.5 142z" />
<glyph unicode="&#x2dc;" d="M242 1176q20 162 89.5 240.5t172.5 78.5q55 0 125.5 -53t91.5 -53q33 0 54.5 23.5t35.5 82.5h176q-20 -162 -90 -240.5t-172 -78.5q-57 0 -127 53t-90 53q-33 0 -54.5 -23.5t-35.5 -82.5h-176z" />
<glyph unicode="&#x2dd;" d="M336 1176l139 315h275l-201 -315h-213zM705 1176l139 315h274l-200 -315h-213z" />
<glyph unicode="&#x2e1;" d="M362 1284v189h373v-666q0 -98 103 -98q29 0 84 20l39 -186q-106 -27 -189 -27q-143 0 -211.5 80t-68.5 219v469h-130z" />
<glyph unicode="&#x2e2;" d="M285 614l108 148q117 -70 219 -70q94 0 95 37q0 6 -2.5 10t-8.5 9.5t-11 9.5t-15.5 8t-18.5 7t-22.5 7t-23.5 7.5t-25.5 8.5t-26.5 7q-225 72 -225 203q0 100 87 160.5t232.5 60.5t292.5 -92l-109 -142q-94 55 -180 56q-80 0 -80 -33q0 -29 121 -62q4 -1 6 -2.5t6.5 -2.5 t7.5 -2t7 -1q229 -66 229 -203q0 -100 -89 -163.5t-251 -63.5q-180 0 -323 98z" />
<glyph unicode="&#x2e3;" d="M225 532l230 353l-215 325h260l55 -92q10 -20 32.5 -59t33.5 -58h6q12 37 49 117l41 92h256l-219 -354l229 -324h-260l-61 91q-12 20 -38 59t-36 57h-4l-56 -116l-49 -91h-254z" />
<glyph unicode="&#x300;" d="M258 1532h356l181 -356h-254z" />
<glyph unicode="&#x301;" d="M434 1176l180 356h357l-283 -356h-254z" />
<glyph unicode="&#x302;" d="M258 1176l209 356h295l209 -356h-254l-99 192h-8l-98 -192h-254z" />
<glyph unicode="&#x303;" d="M242 1176q20 162 89.5 240.5t172.5 78.5q55 0 125.5 -53t91.5 -53q33 0 54.5 23.5t35.5 82.5h176q-20 -162 -90 -240.5t-172 -78.5q-57 0 -127 53t-90 53q-33 0 -54.5 -23.5t-35.5 -82.5h-176z" />
<glyph unicode="&#x304;" d="M319 1204v221h590v-221h-590z" />
<glyph unicode="&#x306;" d="M299 1511h193q18 -147 122.5 -147t122.5 147h193q-4 -145 -85 -240t-230.5 -95t-230.5 95t-85 240z" />
<glyph unicode="&#x307;" d="M389 1356q0 92 63.5 150.5t162 58.5t162 -58.5t63.5 -150.5t-63.5 -148.5t-162 -56.5t-162 56.5t-63.5 148.5z" />
<glyph unicode="&#x308;" d="M201 1335q0 78 50 129.5t130 51.5t130 -51.5t50 -129.5t-50 -129t-130 -51t-130 51t-50 129zM668 1335q0 78 50 129.5t130 51.5t130 -51.5t50 -129.5t-50 -129t-130 -51t-130 51t-50 129z" />
<glyph unicode="&#x309;" d="M434 1389l41 172q369 -10 369 -197q0 -104 -86 -159.5t-221 -61.5l-25 135q82 10 82 49q0 51 -160 62z" />
<glyph unicode="&#x30a;" d="M369 1343.5q0 98.5 67.5 158t178 59.5t178 -59.5t67.5 -158t-67.5 -158t-178 -59.5t-178 59.5t-67.5 158zM537 1343.5q0 -38.5 22.5 -64.5t55 -26t55 26t22.5 64.5t-22.5 64.5t-55 26t-55 -26t-22.5 -64.5z" />
<glyph unicode="&#x30b;" d="M336 1176l139 315h275l-201 -315h-213zM705 1176l139 315h274l-200 -315h-213z" />
<glyph unicode="&#x30c;" d="M258 1532h254l98 -193h8l99 193h254l-209 -356h-295z" />
<glyph unicode="&#x30f;" d="M111 1491h274l139 -315h-213zM479 1491h275l139 -315h-213z" />
<glyph unicode="&#x312;" d="M463 1294q0 197 217 275l49 -103q-119 -39 -133 -112q6 2 16 2q49 0 83 -32t34 -83q0 -57 -33.5 -92t-85.5 -35q-147 0 -147 180z" />
<glyph unicode="&#x313;" d="M492 1208q119 39 133 113q-6 -2 -17 -2q-49 0 -82.5 31.5t-33.5 83.5q0 57 33.5 92t84.5 35q147 0 148 -181q0 -196 -217 -274z" />
<glyph unicode="&#x31b;" d="M594 1004q61 12 92 37.5t31 84.5q0 47 -33 99l238 102q66 -74 65 -176q0 -135 -103.5 -206t-265.5 -77z" />
<glyph unicode="&#x323;" d="M389 -336q0 92 63.5 150.5t162 58.5t162 -58.5t63.5 -150.5t-63.5 -148.5t-162 -56.5t-162 56.5t-63.5 148.5z" />
<glyph unicode="&#x324;" d="M242 -294.5q0 67.5 45 113.5t114.5 46t114.5 -46t45 -113.5t-45 -114t-114.5 -46.5t-114.5 46.5t-45 114zM668 -294.5q0 67.5 45 113.5t114.5 46t114.5 -46t45 -113.5t-45 -114t-114.5 -46.5t-114.5 46.5t-45 114z" />
<glyph unicode="&#x326;" d="M389 -344q164 14 164 70q0 47 -82 69l66 123q147 -12 206.5 -53t59.5 -123q0 -104 -109.5 -159.5t-279.5 -61.5z" />
<glyph unicode="&#x327;" d="M389 -324q164 14 164 86q0 51 -115 82l82 164h201l-37 -90q119 -41 119 -156q0 -104 -109.5 -159.5t-279.5 -61.5z" />
<glyph unicode="&#x328;" d="M422 -242q0 82 46 146.5t97 99.5h189q-98 -82 -99 -164q0 -35 23.5 -52t58.5 -17q37 0 70 24l70 -155q-94 -74 -226 -74q-100 0 -164.5 50t-64.5 142z" />
<glyph unicode="&#x32e;" d="M319 -139h193q14 -106 102 -106.5t103 106.5h192q-4 -127 -78.5 -211t-216 -84t-216 84t-79.5 211z" />
<glyph unicode="&#x331;" d="M319 -180h590v-221h-590v221z" />
<glyph unicode="&#x3c0;" d="M8 750v262l156 12h1036v-274h-131v-402q0 -47 17.5 -68.5t39.5 -21.5q20 0 37 4l41 -258q-66 -29 -172 -29q-315 0 -315 385v390h-182l-3 -750h-348v750h-176z" />
<glyph unicode="&#x1d43;" d="M305 725q0 106 92 166.5t295 81.5q-8 63 -102 63q-72 0 -178 -57l-86 158q154 90 313 90q139 0 218 -78t79 -242v-375h-199l-16 64h-6q-94 -80 -195 -80q-94 0 -154.5 62.5t-60.5 146.5zM539 745q0 -45 61 -45q53 0 92 43v86q-153 -23 -153 -84z" />
<glyph unicode="&#x1d47;" d="M301 532v941h244v-218l-4 -96q74 68 170 68q125 0 198.5 -94.5t73.5 -249.5q0 -168 -86 -267.5t-205 -99.5q-96 0 -176 90h-4l-20 -74h-191zM545 741q35 -29 88 -28q100 0 100 166q0 152 -94 151q-51 0 -94 -45v-244z" />
<glyph unicode="&#x1d48;" d="M256 870q0 160 86 258.5t201 98.5q88 0 159 -68l-8 96v218h244v-941h-199l-16 62h-6q-82 -78 -174 -78q-131 0 -209 95t-78 259zM506 874q0 -162 100 -161q57 0 88 45v241q-37 31 -92 31q-96 0 -96 -156z" />
<glyph unicode="&#x1d49;" d="M293 870q0 158 104.5 257.5t243.5 99.5q154 0 235.5 -93.5t81.5 -236.5q0 -53 -10 -94h-420q31 -104 172 -105q72 0 152 39l80 -141q-121 -80 -266 -80q-164 0 -268.5 95t-104.5 259zM526 948h226q0 96 -105 96q-103 0 -121 -96z" />
<glyph unicode="&#x1d4d;" d="M260 422q0 80 105 129v6q-70 43 -70 117q0 72 84 127v4q-94 57 -94 174q0 121 88 184.5t217 63.5q63 0 119 -17h276v-174h-119q16 -29 17 -65q0 -115 -80 -170.5t-213 -55.5q-29 0 -84 11q-20 -14 -21 -37q0 -39 105 -39h115q289 0 288 -176q0 -113 -115.5 -180.5 t-308.5 -67.5q-137 0 -223 40t-86 126zM457 463q0 -59 151 -60q68 0 111 15.5t43 42.5q0 37 -105 37h-65q-55 0 -105 8q-30 -20 -30 -43zM512 979q0 -90 78 -90q35 0 57.5 22.5t22.5 67.5q0 43 -22.5 65.5t-57.5 22.5t-56.5 -22.5t-21.5 -65.5z" />
<glyph unicode="&#x1d4f;" d="M305 532v941h244v-490h6l197 227h264l-254 -282l268 -396h-264l-143 236l-74 -74v-162h-244z" />
<glyph unicode="&#x1d50;" d="M223 532v678h183l18 -82h4q47 98 145 99q92 0 115 -109q14 45 53 77t95 32q72 0 112.5 -60.5t40.5 -162.5v-472h-231v455q0 35 -19 35q-23 0 -39 -49v-441h-188v455q0 35 -23 35q-18 0 -36 -49v-441h-230z" />
<glyph unicode="&#x1d52;" d="M264 870.5q0 161.5 103.5 259t247 97.5t247 -97.5t103.5 -259t-103.5 -258t-247 -96.5t-247 96.5t-103.5 258zM514 870.5q0 -161.5 100.5 -161.5t100.5 161.5t-100.5 161.5t-100.5 -161.5z" />
<glyph unicode="&#x1d56;" d="M301 297v913h199l16 -61h6q88 78 191 78q123 0 196.5 -94.5t73.5 -249.5q0 -168 -86 -267.5t-205 -99.5q-83 0 -155 68l8 -103v-184h-244zM545 741q35 -29 88 -28q100 0 100 166q0 152 -94 151q-51 0 -94 -45v-244z" />
<glyph unicode="&#x1d57;" d="M297 1022v180l147 8l31 174h203v-174h252v-188h-252v-197q0 -68 31.5 -94t97.5 -26q57 0 113 20l41 -174q-117 -35 -218 -35q-311 0 -311 305v201h-135z" />
<glyph unicode="&#x1d58;" d="M285 793v417h243v-387q0 -55 16.5 -78.5t57.5 -23.5q57 0 96 55v434h246v-678h-199l-18 89h-4q-94 -104 -221 -105q-217 0 -217 277z" />
<glyph unicode="&#x1d5b;" d="M219 1210h244l86 -288q12 -39 30.5 -112t26.5 -101h4q8 29 26.5 101.5t31.5 111.5l86 288h231l-237 -678h-281z" />
<glyph unicode="&#x1d9c;" d="M340 870q0 162 115.5 259.5t277.5 97.5q133 0 215 -76l-110 -150q-41 31 -90 31q-74 0 -116 -43t-42 -119q0 -74 42 -117.5t107 -43.5q49 0 123 43l96 -152q-104 -84 -247 -84q-162 0 -266.5 95t-104.5 259z" />
<glyph unicode="&#x1da0;" d="M362 1022v180l148 8v7q0 121 80 196.5t241 75.5q88 0 213 -37l-45 -176q-74 25 -137 24q-109 0 -108 -83v-7h213v-188h-213v-490h-244v490h-148z" />
<glyph unicode="&#x1dbb;" d="M313 532v130l308 360h-269v188h604v-129l-307 -360h318v-189h-654z" />
<glyph unicode="&#x1e0c;" d="M119 0v1331h375q301 0 475 -160.5t174 -498.5t-171 -505t-458 -167h-395zM369 -336q0 92 63.5 150.5t161.5 58.5t161.5 -58.5t63.5 -150.5t-63.5 -148.5t-161.5 -56.5t-161.5 56.5t-63.5 148.5zM471 283h4q143 0 225 86t82 303q0 215 -80.5 296t-226.5 81h-4v-766z" />
<glyph unicode="&#x1e0d;" d="M86 512q0 242 129 389.5t299 147.5q137 0 244 -103l-13 148v331h353v-1425h-287l-25 94h-8q-123 -119 -264 -119q-197 0 -312.5 144.5t-115.5 392.5zM410 -336q0 92 63.5 150.5t161.5 58.5t161.5 -58.5t63.5 -150.5t-63.5 -148.5t-161.5 -56.5t-161.5 56.5t-63.5 148.5z M446 516q0 -254 160 -254q90 0 139 74v377q-55 49 -135 49q-72 0 -118 -59.5t-46 -186.5z" />
<glyph unicode="&#x1e0e;" d="M119 0v1331h375q301 0 475 -160.5t174 -498.5t-171 -505t-458 -167h-395zM299 -180h590v-221h-590v221zM471 283h4q143 0 225 86t82 303q0 215 -80.5 296t-226.5 81h-4v-766z" />
<glyph unicode="&#x1e0f;" d="M86 512q0 242 129 389.5t299 147.5q137 0 244 -103l-13 148v331h353v-1425h-287l-25 94h-8q-123 -119 -264 -119q-197 0 -312.5 144.5t-115.5 392.5zM340 -180h590v-221h-590v221zM446 516q0 -254 160 -254q90 0 139 74v377q-55 49 -135 49q-72 0 -118 -59.5t-46 -186.5z " />
<glyph unicode="&#x1e20;" d="M82 655.5q0 327.5 178 514t449 186.5q229 0 397 -172l-193 -217q-90 86 -204 86q-113 0 -189 -104.5t-76 -280.5q0 -389 283 -389q59 0 90 24v184h-166v287h479v-635q-76 -68 -190.5 -116t-232.5 -48q-270 0 -447.5 176.5t-177.5 504zM373 1466v222h606v-222h-606z" />
<glyph unicode="&#x1e21;" d="M90 -168q0 123 156 197v8q-102 66 -103 176q0 109 123 193v8q-61 39 -100 107.5t-39 154.5q0 180 130 276.5t323 96.5q96 0 174 -25h413v-254h-184q29 -49 29 -106q0 -172 -119 -256t-313 -84q-59 0 -129 14q-33 -25 -33 -59q0 -33 37 -47.5t123 -14.5h174 q426 0 426 -266q0 -168 -171 -270.5t-456 -102.5q-207 0 -334 61.5t-127 192.5zM326 1204v221h589v-221h-589zM375 -111q0 -94 231 -94q104 0 171 25.5t67 68.5q0 37 -38 49.5t-122 12.5h-102q-102 0 -156 12q-51 -37 -51 -74zM457 676q0 -70 34.5 -107t88 -37t89.5 37 t36 107q0 68 -36 103.5t-89.5 35.5t-88 -36t-34.5 -103z" />
<glyph unicode="&#x1e24;" d="M119 0v1331h352v-495h287v495h352v-1331h-352v528h-287v-528h-352zM387 -336q0 92 63.5 150.5t162 58.5t162 -58.5t63.5 -150.5t-63.5 -148.5t-162 -56.5t-162 56.5t-63.5 148.5z" />
<glyph unicode="&#x1e25;" d="M131 0v1425h352v-331l-18 -181q139 135 330 136q164 0 243.5 -111t79.5 -307v-631h-352v586q0 88 -26.5 126t-92.5 38q-80 0 -164 -78v-672h-352zM399 -336q0 92 63.5 150.5t162 58.5t162 -58.5t63.5 -150.5t-63.5 -148.5t-162 -56.5t-162 56.5t-63.5 148.5z" />
<glyph unicode="&#x1e2a;" d="M119 0v1331h352v-495h287v495h352v-1331h-352v528h-287v-528h-352zM317 -139h193q14 -106 102 -106.5t103 106.5h192q-4 -127 -78.5 -211t-216 -84t-216 84t-79.5 211z" />
<glyph unicode="&#x1e2b;" d="M131 0v1425h352v-331l-18 -181q139 135 330 136q164 0 243.5 -111t79.5 -307v-631h-352v586q0 88 -26.5 126t-92.5 38q-80 0 -164 -78v-672h-352zM330 -139h192q14 -106 102.5 -106.5t102.5 106.5h193q-4 -127 -79 -211t-216.5 -84t-216 84t-78.5 211z" />
<glyph unicode="&#x1e36;" d="M197 0v1331h352v-1036h567v-295h-919zM442 -336q0 92 63.5 150.5t162 58.5t162 -58.5t63.5 -150.5t-63.5 -148.5t-162 -56.5t-162 56.5t-63.5 148.5z" />
<glyph unicode="&#x1e37;" d="M111 1151v274h630v-1015q0 -82 45 -117t108.5 -35t147.5 29l76 -258q-180 -53 -317 -54q-199 0 -305.5 121t-106.5 326v729h-278zM508 -336q0 92 63.5 150.5t161.5 58.5t161.5 -58.5t63.5 -150.5t-63.5 -148.5t-161.5 -56.5t-161.5 56.5t-63.5 148.5z" />
<glyph unicode="&#x1e38;" d="M100 1466v222h607v-222h-607zM197 0v1331h352v-1036h567v-295h-919zM442 -336q0 92 63.5 150.5t162 58.5t162 -58.5t63.5 -150.5t-63.5 -148.5t-162 -56.5t-162 56.5t-63.5 148.5z" />
<glyph unicode="&#x1e39;" d="M111 1151v274h630v-1015q0 -82 45 -117t108.5 -35t147.5 29l76 -258q-180 -53 -317 -54q-199 0 -305.5 121t-106.5 326v729h-278zM250 1630v221h590v-221h-590zM508 -336q0 92 63.5 150.5t161.5 58.5t161.5 -58.5t63.5 -150.5t-63.5 -148.5t-161.5 -56.5t-161.5 56.5 t-63.5 148.5z" />
<glyph unicode="&#x1e3a;" d="M197 0v1331h352v-1036h567v-295h-919zM373 -180h590v-221h-590v221z" />
<glyph unicode="&#x1e3b;" d="M111 1151v274h630v-1015q0 -82 45 -117t108.5 -35t147.5 29l76 -258q-180 -53 -317 -54q-199 0 -305.5 121t-106.5 326v729h-278zM438 -180h590v-221h-590v221z" />
<glyph unicode="&#x1e42;" d="M119 0v1331h346l113 -434l36 -172h7l36 172l107 434h346v-1331h-283v313q0 248 45 676h-6l-110 -395l-70 -240h-151l-70 240l-105 395h-8q45 -428 45 -676v-313h-278zM389 -336q0 92 63.5 150.5t162 58.5t162 -58.5t63.5 -150.5t-63.5 -148.5t-162 -56.5t-162 56.5 t-63.5 148.5z" />
<glyph unicode="&#x1e43;" d="M53 0v1024h264l25 -125h8q66 150 217 150q63 0 109.5 -43t62.5 -121q23 70 80.5 117t138.5 47q106 0 168 -91.5t62 -244.5v-713h-332v688q0 61 -35 62q-41 0 -67 -78v-672h-267v688q0 61 -41 62q-35 0 -61 -78v-672h-332zM393 -336q0 92 63.5 150.5t162 58.5t162 -58.5 t63.5 -150.5t-63.5 -148.5t-162 -56.5t-162 56.5t-63.5 148.5z" />
<glyph unicode="&#x1e44;" d="M123 0v1331h356l223 -594l109 -299h8q-2 20 -18.5 143.5t-23.5 207t-7 157.5v385h336v-1331h-356l-224 596l-108 297h-8q4 -37 18 -150.5t22.5 -198.5t8.5 -159v-385h-336zM430 1601.5q0 77.5 55.5 127t141.5 49.5t141 -49.5t55 -127t-55 -127t-141 -49.5t-141.5 49.5 t-55.5 127z" />
<glyph unicode="&#x1e45;" d="M131 0v1024h287l24 -123h9q156 147 342 148q166 0 245.5 -110t79.5 -308v-631h-352v586q0 88 -26.5 126t-92.5 38q-80 0 -164 -78v-672h-352zM418 1356q0 92 63.5 150.5t161.5 58.5t161.5 -58.5t63.5 -150.5t-63.5 -148.5t-161.5 -56.5t-161.5 56.5t-63.5 148.5z" />
<glyph unicode="&#x1e46;" d="M123 0v1331h356l223 -594l109 -299h8q-2 20 -18.5 143.5t-23.5 207t-7 157.5v385h336v-1331h-356l-224 596l-108 297h-8q4 -37 18 -150.5t22.5 -198.5t8.5 -159v-385h-336zM389 -336q0 92 63.5 150.5t162 58.5t162 -58.5t63.5 -150.5t-63.5 -148.5t-162 -56.5t-162 56.5 t-63.5 148.5z" />
<glyph unicode="&#x1e47;" d="M131 0v1024h287l24 -123h9q156 147 342 148q166 0 245.5 -110t79.5 -308v-631h-352v586q0 88 -26.5 126t-92.5 38q-80 0 -164 -78v-672h-352zM397 -336q0 92 63.5 150.5t162 58.5t162 -58.5t63.5 -150.5t-63.5 -148.5t-162 -56.5t-162 56.5t-63.5 148.5z" />
<glyph unicode="&#x1e48;" d="M123 0v1331h356l223 -594l109 -299h8q-2 20 -18.5 143.5t-23.5 207t-7 157.5v385h336v-1331h-356l-224 596l-108 297h-8q4 -37 18 -150.5t22.5 -198.5t8.5 -159v-385h-336zM319 -180h590v-221h-590v221z" />
<glyph unicode="&#x1e49;" d="M131 0v1024h287l24 -123h9q156 147 342 148q166 0 245.5 -110t79.5 -308v-631h-352v586q0 88 -26.5 126t-92.5 38q-80 0 -164 -78v-672h-352zM328 -180h590v-221h-590v221z" />
<glyph unicode="&#x1e5a;" d="M119 0v1331h495q532 0 533 -430q0 -268 -215 -385l289 -516h-394l-229 446h-127v-446h-352zM430 -336q0 92 63.5 150.5t162 58.5t162 -58.5t63.5 -150.5t-63.5 -148.5t-162 -56.5t-162 56.5t-63.5 148.5zM471 725h119q213 0 213 176q0 84 -52.5 118t-160.5 34h-119v-328z " />
<glyph unicode="&#x1e5b;" d="M193 -336q0 92 63 150.5t161.5 58.5t162 -58.5t63.5 -150.5t-63.5 -148.5t-162 -56.5t-161.5 56.5t-63 148.5zM213 0v1024h289l26 -217h9q141 242 399 242q98 0 194 -41l-69 -295q-96 29 -178 28q-215 0 -318 -233v-508h-352z" />
<glyph unicode="&#x1e5c;" d="M119 0v1331h495q532 0 533 -430q0 -268 -215 -385l289 -516h-394l-229 446h-127v-446h-352zM315 1466v222h607v-222h-607zM430 -336q0 92 63.5 150.5t162 58.5t162 -58.5t63.5 -150.5t-63.5 -148.5t-162 -56.5t-162 56.5t-63.5 148.5zM471 725h119q213 0 213 176 q0 84 -52.5 118t-160.5 34h-119v-328z" />
<glyph unicode="&#x1e5d;" d="M193 -336q0 92 63 150.5t161.5 58.5t162 -58.5t63.5 -150.5t-63.5 -148.5t-162 -56.5t-161.5 56.5t-63 148.5zM213 0v1024h289l26 -217h9q141 242 399 242q98 0 194 -41l-69 -295q-96 29 -178 28q-215 0 -318 -233v-508h-352zM397 1204v221h590v-221h-590z" />
<glyph unicode="&#x1e5e;" d="M119 0v1331h495q532 0 533 -430q0 -268 -215 -385l289 -516h-394l-229 446h-127v-446h-352zM360 -180h590v-221h-590v221zM471 725h119q213 0 213 176q0 84 -52.5 118t-160.5 34h-119v-328z" />
<glyph unicode="&#x1e5f;" d="M123 -180h590v-221h-590v221zM213 0v1024h289l26 -217h9q141 242 399 242q98 0 194 -41l-69 -295q-96 29 -178 28q-215 0 -318 -233v-508h-352z" />
<glyph unicode="&#x1e60;" d="M90 166l201 242q170 -129 323 -129q164 0 164 94q0 59 -172 121q-4 1 -7 2.5t-6 2.5t-7 3l-166 69q-125 47 -203 140.5t-78 230.5q0 174 142.5 294t365.5 120q264 0 455 -178l-176 -222q-145 96 -279 97q-152 0 -151 -90q0 -39 36.5 -61.5t133.5 -58.5q26 -10 39 -14 l153 -63q281 -102 281 -365q0 -178 -142.5 -302t-390.5 -124q-295 1 -516 191zM430 1601.5q0 77.5 55.5 127t141.5 49.5t141 -49.5t55 -127t-55 -127t-141 -49.5t-141.5 49.5t-55.5 127z" />
<glyph unicode="&#x1e61;" d="M94 131l156 217q197 -115 352 -115q166 0 166 62q0 8 -4 16t-13.5 15.5t-18.5 13.5t-25.5 13t-29.5 12.5t-37 12.5t-38 11t-42 12.5t-44 12.5q-358 104 -358 303q0 152 134 242t357 90t453 -144l-156 -209q-166 94 -289 95q-150 0 -149 -58q0 -33 50 -53.5t151 -45.5 q6 -1 10 -2t10 -3t11 -3t12 -3q104 -29 175.5 -60t131 -96.5t59.5 -151.5q0 -150 -138 -245t-386 -95q-127 0 -261.5 44t-238.5 112zM422 1356q0 92 63.5 150.5t161.5 58.5t161.5 -58.5t63.5 -150.5t-63.5 -148.5t-161.5 -56.5t-161.5 56.5t-63.5 148.5z" />
<glyph unicode="&#x1e62;" d="M90 166l201 242q170 -129 323 -129q164 0 164 94q0 59 -172 121q-4 1 -7 2.5t-6 2.5t-7 3l-166 69q-125 47 -203 140.5t-78 230.5q0 174 142.5 294t365.5 120q264 0 455 -178l-176 -222q-145 96 -279 97q-152 0 -151 -90q0 -39 36.5 -61.5t133.5 -58.5q26 -10 39 -14 l153 -63q281 -102 281 -365q0 -178 -142.5 -302t-390.5 -124q-295 1 -516 191zM410 -336q0 92 63.5 150.5t161.5 58.5t161.5 -58.5t63.5 -150.5t-63.5 -148.5t-161.5 -56.5t-161.5 56.5t-63.5 148.5z" />
<glyph unicode="&#x1e63;" d="M94 131l156 217q197 -115 352 -115q166 0 166 62q0 8 -4 16t-13.5 15.5t-18.5 13.5t-25.5 13t-29.5 12.5t-37 12.5t-38 11t-42 12.5t-44 12.5q-358 104 -358 303q0 152 134 242t357 90t453 -144l-156 -209q-166 94 -289 95q-150 0 -149 -58q0 -33 50 -53.5t151 -45.5 q6 -1 10 -2t10 -3t11 -3t12 -3q104 -29 175.5 -60t131 -96.5t59.5 -151.5q0 -150 -138 -245t-386 -95q-127 0 -261.5 44t-238.5 112zM401 -336q0 92 63.5 150.5t162 58.5t162 -58.5t63.5 -150.5t-63.5 -148.5t-162 -56.5t-162 56.5t-63.5 148.5z" />
<glyph unicode="&#x1e6c;" d="M55 1036v295h1119v-295h-383v-1036h-353v1036h-383zM389 -336q0 92 63.5 150.5t162 58.5t162 -58.5t63.5 -150.5t-63.5 -148.5t-162 -56.5t-162 56.5t-63.5 148.5z" />
<glyph unicode="&#x1e6d;" d="M86 750v262l262 12l45 266h291v-266h403v-274h-403v-310q0 -104 48 -147t151 -43q92 0 190 33l60 -254q-195 -53 -342 -54q-459 0 -459 459v316h-246zM520 -336q0 92 63.5 150.5t162 58.5t162 -58.5t63.5 -150.5t-63.5 -148.5t-162 -56.5t-162 56.5t-63.5 148.5z" />
<glyph unicode="&#x1e6e;" d="M55 1036v295h1119v-295h-383v-1036h-353v1036h-383zM319 -180h590v-221h-590v221z" />
<glyph unicode="&#x1e6f;" d="M86 750v262l262 12l45 266h291v-266h403v-274h-403v-310q0 -104 48 -147t151 -43q92 0 190 33l60 -254q-195 -53 -342 -54q-459 0 -459 459v316h-246zM451 -180h589v-221h-589v221z" />
<glyph unicode="&#x1e80;" d="M4 1331h361l16 -659v-344h8q10 66 35 189.5t31 154.5l73 323h205l68 -323q8 -47 31.5 -163t33.5 -181h8v344l17 659h336l-154 -1331h-364l-60 365q-29 170 -31 260h-6q-10 -141 -30 -260l-56 -365h-356zM258 1688h369l159 -254h-278z" />
<glyph unicode="&#x1e81;" d="M2 1024h344l41 -430q6 -51 13.5 -154.5t13.5 -156.5h6q18 195 43 311l43 266h233l49 -266q12 -70 46 -311h8q6 53 12 156.5t12 154.5l41 430h320l-135 -1024h-408l-33 274q-25 188 -35 301h-8q-18 -203 -28 -301l-31 -274h-399zM260 1532h356l181 -356h-254z" />
<glyph unicode="&#x1e82;" d="M4 1331h361l16 -659v-344h8q10 66 35 189.5t31 154.5l73 323h205l68 -323q8 -47 31.5 -163t33.5 -181h8v344l17 659h336l-154 -1331h-364l-60 365q-29 170 -31 260h-6q-10 -141 -30 -260l-56 -365h-356zM442 1434l160 254h369l-250 -254h-279z" />
<glyph unicode="&#x1e83;" d="M2 1024h344l41 -430q6 -51 13.5 -154.5t13.5 -156.5h6q18 195 43 311l43 266h233l49 -266q12 -70 46 -311h8q6 53 12 156.5t12 154.5l41 430h320l-135 -1024h-408l-33 274q-25 188 -35 301h-8q-18 -203 -28 -301l-31 -274h-399zM436 1176l180 356h357l-283 -356h-254z " />
<glyph unicode="&#x1e84;" d="M4 1331h361l16 -659v-344h8q10 66 35 189.5t31 154.5l73 323h205l68 -323q8 -47 31.5 -163t33.5 -181h8v344l17 659h336l-154 -1331h-364l-60 365q-29 170 -31 260h-6q-10 -141 -30 -260l-56 -365h-356zM242 1581q0 68 45 114t114.5 46t114.5 -46t45 -114t-45 -114 t-114.5 -46t-114.5 46t-45 114zM668 1581q0 68 45 114t114.5 46t114.5 -46t45 -114t-45 -114t-114.5 -46t-114.5 46t-45 114z" />
<glyph unicode="&#x1e85;" d="M2 1024h344l41 -430q6 -51 13.5 -154.5t13.5 -156.5h6q18 195 43 311l43 266h233l49 -266q12 -70 46 -311h8q6 53 12 156.5t12 154.5l41 430h320l-135 -1024h-408l-33 274q-25 188 -35 301h-8q-18 -203 -28 -301l-31 -274h-399zM203 1335q0 78 50 129.5t130 51.5 t130 -51.5t50 -129.5t-50 -129t-130 -51t-130 51t-50 129zM670 1335q0 78 50 129.5t130 51.5t130 -51.5t50 -129.5t-50 -129t-130 -51t-130 51t-50 129z" />
<glyph unicode="&#x1e8e;" d="M16 1331h377l111 -291q18 -53 55 -153.5t53 -149.5h9q20 59 59 159.5t53 143.5l111 291h368l-421 -891v-440h-353v440zM418 1601.5q0 77.5 55 127t141 49.5t141.5 -49.5t55.5 -127t-55.5 -127t-141.5 -49.5t-141 49.5t-55 127z" />
<glyph unicode="&#x1e8f;" d="M49 1024h348l144 -393q43 -121 92 -312h8q18 82 88 312l123 393h332l-385 -1008q-84 -215 -193.5 -308t-304.5 -93q-86 0 -164 20l62 267q40 -12 73 -13q145 0 191 103l16 45zM406 1356q0 92 63 150.5t161.5 58.5t162 -58.5t63.5 -150.5t-63.5 -148.5t-162 -56.5 t-161.5 56.5t-63 148.5z" />
<glyph unicode="&#x1e92;" d="M109 0v213l577 823h-522v295h956v-213l-577 -823h583v-295h-1017zM410 -336q0 92 63.5 150.5t161.5 58.5t161.5 -58.5t63.5 -150.5t-63.5 -148.5t-161.5 -56.5t-161.5 56.5t-63.5 148.5z" />
<glyph unicode="&#x1e93;" d="M143 0v188l473 562h-413v274h899v-188l-475 -562h489v-274h-973zM426 -336q0 92 63.5 150.5t162 58.5t162 -58.5t63.5 -150.5t-63.5 -148.5t-162 -56.5t-162 56.5t-63.5 148.5z" />
<glyph unicode="&#x1e97;" d="M86 750v262l262 12l45 266h291v-266h403v-274h-403v-310q0 -104 48 -147t151 -43q92 0 190 33l60 -254q-195 -53 -342 -54q-459 0 -459 459v316h-246zM131 1626q0 78 50 129t130 51t130.5 -51t50.5 -129t-50.5 -129t-130.5 -51t-130 51t-50 129zM598 1626q0 78 50 129 t130 51t130 -51t50 -129t-50 -129t-130 -51t-130 51t-50 129z" />
<glyph unicode="&#x1e9e;" d="M121 0v913q0 199 119.5 321t375.5 122q182 0 305 -108.5t152 -289.5l-112 -225q100 -87 137 -144q61 -98 61 -220q0 -176 -88 -285t-262 -109q-197 0 -307 123l180 213q51 -53 78 -53q8 0 15 13.5t12.5 41t5.5 60.5q0 47 -45.5 91t-116.5 71l-23 202l119 234 q-14 43 -45 72.5t-74 29.5q-70 0 -98.5 -50t-28.5 -155v-868h-360z" />
<glyph unicode="&#x1ea0;" d="M0 0l401 1331h426l402 -1331h-373l-65 283h-365l-66 -283h-360zM389 -336q0 92 63.5 150.5t162 58.5t162 -58.5t63.5 -150.5t-63.5 -148.5t-162 -56.5t-162 56.5t-63.5 148.5zM489 555h238l-20 92q-84 373 -97 422h-8q-49 -227 -92 -422z" />
<glyph unicode="&#x1ea1;" d="M111 291q0 174 151.5 264t495.5 109q-18 106 -197 106q-111 0 -295 -86l-123 229q244 135 488 136q227 0 353 -118t126 -362v-569h-287l-24 106h-8q-178 -131 -349 -131q-154 0 -242.5 91.5t-88.5 224.5zM414 -336q0 92 63.5 150.5t161.5 58.5t161.5 -58.5t63.5 -150.5 t-63.5 -148.5t-161.5 -56.5t-161.5 56.5t-63.5 148.5zM446 319q0 -74 111 -73q96 0 201 78v131q-312 -11 -312 -136z" />
<glyph unicode="&#x1ea2;" d="M0 0l401 1331h426l402 -1331h-373l-65 283h-365l-66 -283h-360zM434 1655l41 172q369 -10 369 -197q0 -104 -86 -159.5t-221 -61.5l-25 135q82 10 82 49q0 51 -160 62zM489 555h238l-20 92q-84 373 -97 422h-8q-49 -227 -92 -422z" />
<glyph unicode="&#x1ea3;" d="M111 291q0 174 151.5 264t495.5 109q-18 106 -197 106q-111 0 -295 -86l-123 229q244 135 488 136q227 0 353 -118t126 -362v-569h-287l-24 106h-8q-178 -131 -349 -131q-154 0 -242.5 91.5t-88.5 224.5zM446 319q0 -74 111 -73q96 0 201 78v131q-312 -11 -312 -136z M446 1389l41 172q369 -10 369 -197q0 -104 -86 -159.5t-221 -61.5l-25 135q82 10 82 49q0 51 -160 62z" />
<glyph unicode="&#x1ea4;" d="M0 0l401 1331h426l402 -1331h-373l-65 283h-365l-66 -283h-360zM266 1434l197 241h303l197 -241h-246l-99 106h-8l-98 -106h-246zM489 555h238l-20 92q-84 373 -97 422h-8q-49 -227 -92 -422zM862 1577l139 254h267l-209 -254h-197z" />
<glyph unicode="&#x1ea5;" d="M111 291q0 174 151.5 264t495.5 109q-18 106 -197 106q-111 0 -295 -86l-123 229q244 135 488 136q227 0 353 -118t126 -362v-569h-287l-24 106h-8q-178 -131 -349 -131q-154 0 -242.5 91.5t-88.5 224.5zM324 1176l163 270h279l164 -270h-213l-86 127h-8l-86 -127h-213z M446 319q0 -74 111 -73q96 0 201 78v131q-312 -11 -312 -136zM860 1327l135 246h254l-196 -246h-193z" />
<glyph unicode="&#x1ea6;" d="M0 0l401 1331h426l402 -1331h-373l-65 283h-365l-66 -283h-360zM266 1434l197 241h303l197 -241h-246l-99 106h-8l-98 -106h-246zM489 555h238l-20 92q-84 373 -97 422h-8q-49 -227 -92 -422zM739 1831h267l139 -254h-197z" />
<glyph unicode="&#x1ea7;" d="M111 291q0 174 151.5 264t495.5 109q-18 106 -197 106q-111 0 -295 -86l-123 229q244 135 488 136q227 0 353 -118t126 -362v-569h-287l-24 106h-8q-178 -131 -349 -131q-154 0 -242.5 91.5t-88.5 224.5zM324 1176l163 270h279l164 -270h-213l-86 127h-8l-86 -127h-213z M446 319q0 -74 111 -73q96 0 201 78v131q-312 -11 -312 -136zM786 1573h254l136 -246h-193z" />
<glyph unicode="&#x1ea8;" d="M0 0l401 1331h426l402 -1331h-373l-65 283h-365l-66 -283h-360zM266 1434l197 241h303l197 -241h-246l-99 106h-8l-98 -106h-246zM489 555h238l-20 92q-84 373 -97 422h-8q-49 -227 -92 -422zM815 1749l33 139q319 -10 319 -172q0 -170 -254 -184l-24 106q57 10 57 50 q0 51 -131 61z" />
<glyph unicode="&#x1ea9;" d="M111 291q0 174 151.5 264t495.5 109q-18 106 -197 106q-111 0 -295 -86l-123 229q244 135 488 136q227 0 353 -118t126 -362v-569h-287l-24 106h-8q-178 -131 -349 -131q-154 0 -242.5 91.5t-88.5 224.5zM324 1176l163 270h279l164 -270h-213l-86 127h-8l-86 -127h-213z M446 319q0 -74 111 -73q96 0 201 78v131q-312 -11 -312 -136zM827 1511l33 144q178 -6 251 -49t73 -119q0 -98 -67.5 -142.5t-190.5 -58.5l-21 115q53 10 53 49q0 51 -131 61z" />
<glyph unicode="&#x1eaa;" d="M0 0l401 1331h426l402 -1331h-373l-65 283h-365l-66 -283h-360zM266 1434l197 241h303l197 -241h-246l-99 106h-8l-98 -106h-246zM295 1749q14 127 68.5 188.5t128.5 61.5q61 0 132.5 -37t92.5 -37q53 0 69 74h148q-14 -127 -68.5 -188.5t-128.5 -61.5q-61 0 -133 37 t-92 37q-53 0 -70 -74h-147zM489 555h238l-20 92q-84 373 -97 422h-8q-49 -227 -92 -422z" />
<glyph unicode="&#x1eab;" d="M111 291q0 174 151.5 264t495.5 109q-18 106 -197 106q-111 0 -295 -86l-123 229q244 135 488 136q227 0 353 -118t126 -362v-569h-287l-24 106h-8q-178 -131 -349 -131q-154 0 -242.5 91.5t-88.5 224.5zM307 1176l160 233h319l160 -233h-225l-90 114h-8l-91 -114h-225z M315 1483q14 127 68.5 188.5t128.5 61.5q61 0 124.5 -37t84.5 -37q53 0 70 74h147q-14 -127 -68.5 -188.5t-128.5 -61.5q-61 0 -124.5 36.5t-84.5 36.5q-53 1 -69 -73h-148zM446 319q0 -74 111 -73q96 0 201 78v131q-312 -11 -312 -136z" />
<glyph unicode="&#x1eac;" d="M0 0l401 1331h426l402 -1331h-373l-65 283h-365l-66 -283h-360zM246 1434l196 254h344l197 -254h-266l-99 118h-8l-98 -118h-266zM389 -336q0 92 63.5 150.5t162 58.5t162 -58.5t63.5 -150.5t-63.5 -148.5t-162 -56.5t-162 56.5t-63.5 148.5zM489 555h238l-20 92 q-84 373 -97 422h-8q-49 -227 -92 -422z" />
<glyph unicode="&#x1ead;" d="M111 291q0 174 151.5 264t495.5 109q-18 106 -197 106q-111 0 -295 -86l-123 229q244 135 488 136q227 0 353 -118t126 -362v-569h-287l-24 106h-8q-178 -131 -349 -131q-154 0 -242.5 91.5t-88.5 224.5zM270 1176l209 356h295l209 -356h-254l-98 192h-8l-99 -192h-254z M414 -336q0 92 63.5 150.5t161.5 58.5t161.5 -58.5t63.5 -150.5t-63.5 -148.5t-161.5 -56.5t-161.5 56.5t-63.5 148.5zM446 319q0 -74 111 -73q96 0 201 78v131q-312 -11 -312 -136z" />
<glyph unicode="&#x1eae;" d="M0 0l401 1331h426l402 -1331h-373l-65 283h-365l-66 -283h-360zM324 1688h155q27 -102 135.5 -102t135.5 102h155q-27 -254 -291 -254t-290 254zM489 555h238l-20 92q-84 373 -97 422h-8q-49 -227 -92 -422zM518 1659l123 254h258l-209 -254h-172z" />
<glyph unicode="&#x1eaf;" d="M111 291q0 174 151.5 264t495.5 109q-18 106 -197 106q-111 0 -295 -86l-123 229q244 135 488 136q227 0 353 -118t126 -362v-569h-287l-24 106h-8q-178 -131 -349 -131q-154 0 -242.5 91.5t-88.5 224.5zM332 1470h151q20 -127 143.5 -127t143.5 127h152 q-4 -127 -79 -210.5t-216.5 -83.5t-216 83.5t-78.5 210.5zM446 319q0 -74 111 -73q96 0 201 78v131q-312 -11 -312 -136zM524 1430l111 245h246l-185 -245h-172z" />
<glyph unicode="&#x1eb0;" d="M0 0l401 1331h426l402 -1331h-373l-65 283h-365l-66 -283h-360zM324 1688h155q27 -102 135.5 -102t135.5 102h155q-27 -254 -291 -254t-290 254zM330 1913h258l123 -254h-172zM489 555h238l-20 92q-84 373 -97 422h-8q-49 -227 -92 -422z" />
<glyph unicode="&#x1eb1;" d="M111 291q0 174 151.5 264t495.5 109q-18 106 -197 106q-111 0 -295 -86l-123 229q244 135 488 136q227 0 353 -118t126 -362v-569h-287l-24 106h-8q-178 -131 -349 -131q-154 0 -242.5 91.5t-88.5 224.5zM332 1470h151q20 -127 143.5 -127t143.5 127h152 q-4 -127 -79 -210.5t-216.5 -83.5t-216 83.5t-78.5 210.5zM373 1675h245l111 -245h-172zM446 319q0 -74 111 -73q96 0 201 78v131q-312 -11 -312 -136z" />
<glyph unicode="&#x1eb2;" d="M0 0l401 1331h426l402 -1331h-373l-65 283h-365l-66 -283h-360zM324 1688h155q27 -102 135.5 -102t135.5 102h155q-27 -254 -291 -254t-290 254zM442 1872l33 139q319 -10 320 -172q0 -170 -254 -184l-25 106q57 10 57 49q0 51 -131 62zM489 555h238l-20 92 q-84 373 -97 422h-8q-49 -227 -92 -422z" />
<glyph unicode="&#x1eb3;" d="M111 291q0 174 151.5 264t495.5 109q-18 106 -197 106q-111 0 -295 -86l-123 229q244 135 488 136q227 0 353 -118t126 -362v-569h-287l-24 106h-8q-178 -131 -349 -131q-154 0 -242.5 91.5t-88.5 224.5zM332 1470h151q20 -127 143.5 -127t143.5 127h152 q-4 -127 -79 -210.5t-216.5 -83.5t-216 83.5t-78.5 210.5zM446 319q0 -74 111 -73q96 0 201 78v131q-312 -11 -312 -136zM451 1665l32 143q178 -6 251 -49t73 -119q0 -98 -67.5 -142t-190.5 -58l-21 114q53 10 54 50q0 51 -131 61z" />
<glyph unicode="&#x1eb4;" d="M0 0l401 1331h426l402 -1331h-373l-65 283h-365l-66 -283h-360zM287 1749q14 127 70.5 188.5t129.5 61.5q49 0 122 -37t96 -37q57 0 73 74h152q-14 -127 -70.5 -188.5t-130.5 -61.5q-51 0 -122.5 37t-94.5 37q-57 0 -74 -74h-151zM324 1688h155q27 -102 135.5 -102.5 t135.5 102.5h155q-27 -254 -290.5 -254t-290.5 254zM489 555h238l-20 92q-84 373 -97 422h-8q-49 -227 -92 -422z" />
<glyph unicode="&#x1eb5;" d="M111 291q0 174 151.5 264t495.5 109q-18 106 -197 106q-111 0 -295 -86l-123 229q244 135 488 136q227 0 353 -118t126 -362v-569h-287l-24 106h-8q-178 -131 -349 -131q-154 0 -242.5 91.5t-88.5 224.5zM315 1483q14 127 68.5 188.5t128.5 61.5q61 0 124.5 -37t84.5 -37 q53 0 70 74h147q-14 -127 -68.5 -188.5t-128.5 -61.5q-61 0 -124.5 36.5t-84.5 36.5q-53 0 -69 -73h-148zM332 1430h160q25 -94 135 -94.5t135 94.5h160q-4 -111 -79 -182.5t-216.5 -71.5t-216 71.5t-78.5 182.5zM446 319q0 -74 111 -73q96 0 201 78v131q-312 -11 -312 -136 z" />
<glyph unicode="&#x1eb6;" d="M0 0l401 1331h426l402 -1331h-373l-65 283h-365l-66 -283h-360zM324 1688h188q20 -82 102.5 -82t102.5 82h188q-27 -254 -291 -254t-290 254zM389 -336q0 92 63.5 150.5t162 58.5t162 -58.5t63.5 -150.5t-63.5 -148.5t-162 -56.5t-162 56.5t-63.5 148.5zM489 555h238 l-20 92q-84 373 -97 422h-8q-49 -227 -92 -422z" />
<glyph unicode="&#x1eb7;" d="M111 291q0 174 151.5 264t495.5 109q-18 106 -197 106q-111 0 -295 -86l-123 229q244 135 488 136q227 0 353 -118t126 -362v-569h-287l-24 106h-8q-178 -131 -349 -131q-154 0 -242.5 91.5t-88.5 224.5zM311 1511h193q18 -147 122.5 -147t123.5 147h192 q-4 -145 -85 -240t-230.5 -95t-230.5 95t-85 240zM414 -336q0 92 63.5 150.5t161.5 58.5t161.5 -58.5t63.5 -150.5t-63.5 -148.5t-161.5 -56.5t-161.5 56.5t-63.5 148.5zM446 319q0 -74 111 -73q96 0 201 78v131q-312 -11 -312 -136z" />
<glyph unicode="&#x1eb8;" d="M176 0v1331h901v-295h-549v-209h467v-295h-467v-237h570v-295h-922zM422 -336q0 92 63.5 150.5t161.5 58.5t161.5 -58.5t63.5 -150.5t-63.5 -148.5t-161.5 -56.5t-161.5 56.5t-63.5 148.5z" />
<glyph unicode="&#x1eb9;" d="M102 512q0 242 160 389.5t377 147.5q233 0 360 -140.5t127 -355.5q0 -53 -14 -139h-649q45 -172 262 -172q111 0 246 61l114 -209q-188 -119 -409 -119q-250 0 -412 144.5t-162 392.5zM414 -336q0 92 63.5 150.5t161.5 58.5t161.5 -58.5t63.5 -150.5t-63.5 -148.5 t-161.5 -56.5t-161.5 56.5t-63.5 148.5zM459 627h348q0 156 -160 155q-157 1 -188 -155z" />
<glyph unicode="&#x1eba;" d="M176 0v1331h901v-295h-549v-209h467v-295h-467v-237h570v-295h-922zM471 1655l41 172q369 -10 369 -197q0 -104 -86.5 -159.5t-221.5 -61.5l-24 135q82 10 82 49q0 51 -160 62z" />
<glyph unicode="&#x1ebb;" d="M102 512q0 242 160 389.5t377 147.5q233 0 360 -140.5t127 -355.5q0 -53 -14 -139h-649q45 -172 262 -172q111 0 246 61l114 -209q-188 -119 -409 -119q-250 0 -412 144.5t-162 392.5zM459 627h348q0 156 -160 155q-157 1 -188 -155zM459 1389l41 172q369 -10 368 -197 q0 -104 -86 -159.5t-221 -61.5l-24 135q82 10 81 49q0 51 -159 62z" />
<glyph unicode="&#x1ebc;" d="M176 0v1331h901v-295h-549v-209h467v-295h-467v-237h570v-295h-922zM283 1434q18 150 83.5 224.5t153.5 74.5q61 0 142 -43t104 -43q57 0 78 86h176q-18 -150 -84 -224.5t-154 -74.5q-61 0 -142 43t-103 43q-57 0 -78 -86h-176z" />
<glyph unicode="&#x1ebd;" d="M102 512q0 242 160 389.5t377 147.5q233 0 360 -140.5t127 -355.5q0 -53 -14 -139h-649q45 -172 262 -172q111 0 246 61l114 -209q-188 -119 -409 -119q-250 0 -412 144.5t-162 392.5zM266 1176q20 162 90 240.5t172 78.5q55 0 126 -53t91 -53q33 0 54.5 23.5t36.5 82.5 h176q-20 -162 -90 -240.5t-172 -78.5q-57 0 -127 53t-91 53q-33 0 -54 -23.5t-36 -82.5h-176zM459 627h348q0 156 -160 155q-157 1 -188 -155z" />
<glyph unicode="&#x1ebe;" d="M176 0v1331h901v-295h-549v-209h467v-295h-467v-237h570v-295h-922zM303 1434l197 241h303l196 -241h-245l-99 106h-8l-98 -106h-246zM899 1577l139 254h267l-209 -254h-197z" />
<glyph unicode="&#x1ebf;" d="M102 512q0 242 160 389.5t377 147.5q233 0 360 -140.5t127 -355.5q0 -53 -14 -139h-649q45 -172 262 -172q111 0 246 61l114 -209q-188 -119 -409 -119q-250 0 -412 144.5t-162 392.5zM336 1176l164 270h278l164 -270h-213l-86 127h-8l-86 -127h-213zM459 627h348 q0 156 -160 155q-157 1 -188 -155zM872 1327l136 246h254l-197 -246h-193z" />
<glyph unicode="&#x1ec0;" d="M176 0v1331h901v-295h-549v-209h467v-295h-467v-237h570v-295h-922zM303 1434l197 241h303l196 -241h-245l-99 106h-8l-98 -106h-246zM776 1831h266l140 -254h-197z" />
<glyph unicode="&#x1ec1;" d="M102 512q0 242 160 389.5t377 147.5q233 0 360 -140.5t127 -355.5q0 -53 -14 -139h-649q45 -172 262 -172q111 0 246 61l114 -209q-188 -119 -409 -119q-250 0 -412 144.5t-162 392.5zM336 1176l164 270h278l164 -270h-213l-86 127h-8l-86 -127h-213zM459 627h348 q0 156 -160 155q-157 1 -188 -155zM799 1573h254l135 -246h-193z" />
<glyph unicode="&#x1ec2;" d="M176 0v1331h901v-295h-549v-209h467v-295h-467v-237h570v-295h-922zM303 1434l197 241h303l196 -241h-245l-99 106h-8l-98 -106h-246zM852 1749l33 139q319 -10 319 -172q0 -170 -254 -184l-24 106q57 10 57 50q0 51 -131 61z" />
<glyph unicode="&#x1ec3;" d="M102 512q0 242 160 389.5t377 147.5q233 0 360 -140.5t127 -355.5q0 -53 -14 -139h-649q45 -172 262 -172q111 0 246 61l114 -209q-188 -119 -409 -119q-250 0 -412 144.5t-162 392.5zM336 1176l164 270h278l164 -270h-213l-86 127h-8l-86 -127h-213zM459 627h348 q0 156 -160 155q-157 1 -188 -155zM840 1511l32 144q178 -6 251 -49t73 -119q0 -98 -67.5 -142.5t-190.5 -58.5l-20 115q53 10 53 49q0 51 -131 61z" />
<glyph unicode="&#x1ec4;" d="M176 0v1331h901v-295h-549v-209h467v-295h-467v-237h570v-295h-922zM303 1434l197 241h303l196 -241h-245l-99 106h-8l-98 -106h-246zM332 1749q14 127 68.5 188.5t127.5 61.5q61 0 133 -37t93 -37q53 0 69 74h148q-14 -127 -68.5 -188.5t-128.5 -61.5q-61 0 -133 37 t-92 37q-54 0 -70 -74h-147z" />
<glyph unicode="&#x1ec5;" d="M102 512q0 242 160 389.5t377 147.5q233 0 360 -140.5t127 -355.5q0 -53 -14 -139h-649q45 -172 262 -172q111 0 246 61l114 -209q-188 -119 -409 -119q-250 0 -412 144.5t-162 392.5zM319 1176l160 233h320l159 -233h-225l-90 114h-8l-90 -114h-226zM328 1483 q14 127 68.5 188.5t127.5 61.5q61 0 125 -37t84 -37q53 0 70 74h147q-14 -127 -68.5 -188.5t-127.5 -61.5q-61 0 -125 36.5t-84 36.5q-54 1 -70 -73h-147zM459 627h348q0 156 -160 155q-157 1 -188 -155z" />
<glyph unicode="&#x1ec6;" d="M176 0v1331h901v-295h-549v-209h467v-295h-467v-237h570v-295h-922zM283 1434l196 254h344l197 -254h-266l-99 118h-8l-98 -118h-266zM422 -336q0 92 63.5 150.5t161.5 58.5t161.5 -58.5t63.5 -150.5t-63.5 -148.5t-161.5 -56.5t-161.5 56.5t-63.5 148.5z" />
<glyph unicode="&#x1ec7;" d="M102 512q0 242 160 389.5t377 147.5q233 0 360 -140.5t127 -355.5q0 -53 -14 -139h-649q45 -172 262 -172q111 0 246 61l114 -209q-188 -119 -409 -119q-250 0 -412 144.5t-162 392.5zM283 1176l209 356h294l209 -356h-254l-98 192h-8l-98 -192h-254zM414 -336 q0 92 63.5 150.5t161.5 58.5t161.5 -58.5t63.5 -150.5t-63.5 -148.5t-161.5 -56.5t-161.5 56.5t-63.5 148.5zM459 627h348q0 156 -160 155q-157 1 -188 -155z" />
<glyph unicode="&#x1ec8;" d="M135 0v295h303v741h-303v295h959v-295h-303v-741h303v-295h-959zM434 1655l41 172q369 -10 369 -197q0 -104 -86 -159.5t-221 -61.5l-25 135q82 10 82 49q0 51 -160 62z" />
<glyph unicode="&#x1ec9;" d="M152 750v274h741v-1024h-352v750h-389zM524 1389l41 172q369 -10 369 -197q0 -104 -86 -159.5t-221 -61.5l-25 135q82 10 82 49q0 51 -160 62z" />
<glyph unicode="&#x1eca;" d="M135 0v295h303v741h-303v295h959v-295h-303v-741h303v-295h-959zM389 -336q0 92 63.5 150.5t162 58.5t162 -58.5t63.5 -150.5t-63.5 -148.5t-162 -56.5t-162 56.5t-63.5 148.5z" />
<glyph unicode="&#x1ecb;" d="M152 750v274h741v-1024h-352v750h-389zM479 -336q0 92 63.5 150.5t162 58.5t162 -58.5t63.5 -150.5t-63.5 -148.5t-162 -56.5t-162 56.5t-63.5 148.5zM479 1356q0 92 63.5 150.5t162 58.5t162 -58.5t63.5 -150.5t-63.5 -148.5t-162 -56.5t-162 56.5t-63.5 148.5z" />
<glyph unicode="&#x1ecc;" d="M70 671.5q0 323.5 148.5 504t396 180.5t396 -181.5t148.5 -502.5q0 -324 -149.5 -510.5t-395 -186.5t-395 186.5t-149.5 510zM389 -336q0 92 63.5 150.5t162 58.5t162 -58.5t63.5 -150.5t-63.5 -148.5t-162 -56.5t-162 56.5t-63.5 148.5zM430 672q0 -182 49 -287.5 t135 -105.5t135.5 105t49.5 288q0 180 -49.5 280.5t-135.5 100.5t-135 -100.5t-49 -280.5z" />
<glyph unicode="&#x1ecd;" d="M86 512q0 244 156.5 390.5t371.5 146.5t372 -146.5t157 -390.5t-157 -390.5t-372 -146.5t-371.5 146.5t-156.5 390.5zM389 -336q0 92 63.5 150.5t162 58.5t162 -58.5t63.5 -150.5t-63.5 -148.5t-162 -56.5t-162 56.5t-63.5 148.5zM446 512q0 -254 168 -254t168 254 t-168 254t-168 -254z" />
<glyph unicode="&#x1ece;" d="M70 671.5q0 323.5 148.5 504t396 180.5t396 -181.5t148.5 -502.5q0 -324 -149.5 -510.5t-395 -186.5t-395 186.5t-149.5 510zM430 672q0 -182 49 -287.5t135 -105.5t135.5 105t49.5 288q0 180 -49.5 280.5t-135.5 100.5t-135 -100.5t-49 -280.5zM434 1655l41 172 q369 -10 369 -197q0 -104 -86 -159.5t-221 -61.5l-25 135q82 10 82 49q0 51 -160 62z" />
<glyph unicode="&#x1ecf;" d="M86 512q0 244 156.5 390.5t371.5 146.5t372 -146.5t157 -390.5t-157 -390.5t-372 -146.5t-371.5 146.5t-156.5 390.5zM434 1389l41 172q369 -10 369 -197q0 -104 -86 -159.5t-221 -61.5l-25 135q82 10 82 49q0 51 -160 62zM446 512q0 -254 168 -254t168 254t-168 254 t-168 -254z" />
<glyph unicode="&#x1ed0;" d="M70 671.5q0 323.5 148.5 504t396 180.5t396 -181.5t148.5 -502.5q0 -324 -149.5 -510.5t-395 -186.5t-395 186.5t-149.5 510zM266 1434l197 241h303l197 -241h-246l-99 106h-8l-98 -106h-246zM430 672q0 -182 49 -287.5t135 -105.5t135.5 105t49.5 288q0 180 -49.5 280.5 t-135.5 100.5t-135 -100.5t-49 -280.5zM862 1577l139 254h267l-209 -254h-197z" />
<glyph unicode="&#x1ed1;" d="M86 512q0 244 156.5 390.5t371.5 146.5t372 -146.5t157 -390.5t-157 -390.5t-372 -146.5t-371.5 146.5t-156.5 390.5zM311 1176l164 270h279l164 -270h-213l-87 127h-8l-86 -127h-213zM446 512q0 -254 168 -254t168 254t-168 254t-168 -254zM848 1327l135 246h254 l-197 -246h-192z" />
<glyph unicode="&#x1ed2;" d="M70 671.5q0 323.5 148.5 504t396 180.5t396 -181.5t148.5 -502.5q0 -324 -149.5 -510.5t-395 -186.5t-395 186.5t-149.5 510zM266 1434l197 241h303l197 -241h-246l-99 106h-8l-98 -106h-246zM430 672q0 -182 49 -287.5t135 -105.5t135.5 105t49.5 288q0 180 -49.5 280.5 t-135.5 100.5t-135 -100.5t-49 -280.5zM739 1831h267l139 -254h-197z" />
<glyph unicode="&#x1ed3;" d="M86 512q0 244 156.5 390.5t371.5 146.5t372 -146.5t157 -390.5t-157 -390.5t-372 -146.5t-371.5 146.5t-156.5 390.5zM311 1176l164 270h279l164 -270h-213l-87 127h-8l-86 -127h-213zM446 512q0 -254 168 -254t168 254t-168 254t-168 -254zM774 1573h254l135 -246h-192z " />
<glyph unicode="&#x1ed4;" d="M70 671.5q0 323.5 148.5 504t396 180.5t396 -181.5t148.5 -502.5q0 -324 -149.5 -510.5t-395 -186.5t-395 186.5t-149.5 510zM266 1434l197 241h303l197 -241h-246l-99 106h-8l-98 -106h-246zM430 672q0 -182 49 -287.5t135 -105.5t135.5 105t49.5 288q0 180 -49.5 280.5 t-135.5 100.5t-135 -100.5t-49 -280.5zM815 1749l33 139q319 -10 319 -172q0 -170 -254 -184l-24 106q57 10 57 50q0 51 -131 61z" />
<glyph unicode="&#x1ed5;" d="M86 512q0 244 156.5 390.5t371.5 146.5t372 -146.5t157 -390.5t-157 -390.5t-372 -146.5t-371.5 146.5t-156.5 390.5zM311 1176l164 270h279l164 -270h-213l-87 127h-8l-86 -127h-213zM446 512q0 -254 168 -254t168 254t-168 254t-168 -254zM815 1511l33 144 q178 -6 250.5 -49t72.5 -119q0 -98 -67.5 -142.5t-190.5 -58.5l-20 115q53 10 53 49q0 51 -131 61z" />
<glyph unicode="&#x1ed6;" d="M70 671.5q0 323.5 148.5 504t396 180.5t396 -181.5t148.5 -502.5q0 -324 -149.5 -510.5t-395 -186.5t-395 186.5t-149.5 510zM266 1434l197 241h303l197 -241h-246l-99 106h-8l-98 -106h-246zM295 1749q14 127 68.5 188.5t128.5 61.5q61 0 132.5 -37t92.5 -37q53 0 69 74 h148q-14 -127 -68.5 -188.5t-128.5 -61.5q-61 0 -133 37t-92 37q-54 0 -70 -74h-147zM430 672q0 -182 49 -287.5t135 -105.5t135.5 105t49.5 288q0 180 -49.5 280.5t-135.5 100.5t-135 -100.5t-49 -280.5z" />
<glyph unicode="&#x1ed7;" d="M86 512q0 244 156.5 390.5t371.5 146.5t372 -146.5t157 -390.5t-157 -390.5t-372 -146.5t-371.5 146.5t-156.5 390.5zM295 1176l160 233h319l160 -233h-225l-91 114h-8l-90 -114h-225zM303 1483q14 127 68.5 188.5t128.5 61.5q61 0 124.5 -37t84.5 -37q53 0 69 74h148 q-14 -127 -68.5 -188.5t-128.5 -61.5q-61 0 -124.5 36.5t-84.5 36.5q-53 1 -69 -73h-148zM446 512q0 -254 168 -254t168 254t-168 254t-168 -254z" />
<glyph unicode="&#x1ed8;" d="M70 671.5q0 323.5 148.5 504t396 180.5t396 -181.5t148.5 -502.5q0 -324 -149.5 -510.5t-395 -186.5t-395 186.5t-149.5 510zM246 1434l196 254h344l197 -254h-266l-99 118h-8l-98 -118h-266zM389 -336q0 92 63.5 150.5t162 58.5t162 -58.5t63.5 -150.5t-63.5 -148.5 t-162 -56.5t-162 56.5t-63.5 148.5zM430 672q0 -182 49 -287.5t135 -105.5t135.5 105t49.5 288q0 180 -49.5 280.5t-135.5 100.5t-135 -100.5t-49 -280.5z" />
<glyph unicode="&#x1ed9;" d="M86 512q0 244 156.5 390.5t371.5 146.5t372 -146.5t157 -390.5t-157 -390.5t-372 -146.5t-371.5 146.5t-156.5 390.5zM258 1176l209 356h295l209 -356h-254l-99 192h-8l-98 -192h-254zM389 -336q0 92 63.5 150.5t162 58.5t162 -58.5t63.5 -150.5t-63.5 -148.5t-162 -56.5 t-162 56.5t-63.5 148.5zM446 512q0 -254 168 -254t168 254t-168 254t-168 -254z" />
<glyph unicode="&#x1eda;" d="M70 671.5q0 323.5 148.5 504t395.5 180.5q143 0 254 -62q53 12 80 38t27 81q0 47 -33 98l238 103q66 -74 65 -176q0 -205 -233 -264q147 -182 147 -502q0 -324 -149.5 -510.5t-395 -186.5t-395 186.5t-149.5 510zM430 672q0 -182 49 -287.5t135 -105.5t135.5 105 t49.5 288q0 180 -49.5 280.5t-135.5 100.5t-135 -100.5t-49 -280.5zM442 1434l160 254h369l-250 -254h-279z" />
<glyph unicode="&#x1edb;" d="M86 512q0 244 156.5 390.5t371.5 146.5q119 0 217 -45q57 12 88 38.5t31 83.5q1 48 -32 99l237 102q66 -74 66 -176q0 -201 -224 -260q145 -152 146 -379q0 -244 -157 -390.5t-372 -146.5t-371.5 146.5t-156.5 390.5zM434 1176l180 356h357l-283 -356h-254zM446 512 q0 -254 168 -254t168 254t-168 254t-168 -254z" />
<glyph unicode="&#x1edc;" d="M70 671.5q0 323.5 148.5 504t395.5 180.5q143 0 254 -62q53 12 80 38t27 81q0 47 -33 98l238 103q66 -74 65 -176q0 -205 -233 -264q147 -182 147 -502q0 -324 -149.5 -510.5t-395 -186.5t-395 186.5t-149.5 510zM258 1688h369l159 -254h-278zM430 672q0 -182 49 -287.5 t135 -105.5t135.5 105t49.5 288q0 180 -49.5 280.5t-135.5 100.5t-135 -100.5t-49 -280.5z" />
<glyph unicode="&#x1edd;" d="M86 512q0 244 156.5 390.5t371.5 146.5q119 0 217 -45q57 12 88 38.5t31 83.5q1 48 -32 99l237 102q66 -74 66 -176q0 -201 -224 -260q145 -152 146 -379q0 -244 -157 -390.5t-372 -146.5t-371.5 146.5t-156.5 390.5zM258 1532h356l181 -356h-254zM446 512 q0 -254 168 -254t168 254t-168 254t-168 -254z" />
<glyph unicode="&#x1ede;" d="M70 671.5q0 323.5 148.5 504t395.5 180.5q143 0 254 -62q53 12 80 38t27 81q0 47 -33 98l238 103q66 -74 65 -176q0 -205 -233 -264q147 -182 147 -502q0 -324 -149.5 -510.5t-395 -186.5t-395 186.5t-149.5 510zM430 672q0 -182 49 -287.5t135 -105.5t135.5 105 t49.5 288q0 180 -49.5 280.5t-135.5 100.5t-135 -100.5t-49 -280.5zM434 1655l41 172q369 -10 369 -197q0 -104 -86 -159.5t-221 -61.5l-25 135q82 10 82 49q0 51 -160 62z" />
<glyph unicode="&#x1edf;" d="M86 512q0 244 156.5 390.5t371.5 146.5q119 0 217 -45q57 12 88 38.5t31 83.5q1 48 -32 99l237 102q66 -74 66 -176q0 -201 -224 -260q145 -152 146 -379q0 -244 -157 -390.5t-372 -146.5t-371.5 146.5t-156.5 390.5zM434 1389l41 172q369 -10 369 -197 q0 -104 -86 -159.5t-221 -61.5l-25 135q82 10 82 49q0 51 -160 62zM446 512q0 -254 168 -254t168 254t-168 254t-168 -254z" />
<glyph unicode="&#x1ee0;" d="M70 671.5q0 323.5 148.5 504t395.5 180.5q143 0 254 -62q53 12 80 38t27 81q0 47 -33 98l238 103q66 -74 65 -176q0 -205 -233 -264q147 -182 147 -502q0 -324 -149.5 -510.5t-395 -186.5t-395 186.5t-149.5 510zM246 1434q18 150 83.5 224.5t153.5 74.5q61 0 142.5 -43 t103.5 -43q58 0 78 86h176q-18 -150 -83.5 -224.5t-154.5 -74.5q-61 0 -142 43t-103 43q-57 0 -78 -86h-176zM430 672q0 -182 49 -287.5t135 -105.5t135.5 105t49.5 288q0 180 -49.5 280.5t-135.5 100.5t-135 -100.5t-49 -280.5z" />
<glyph unicode="&#x1ee1;" d="M86 512q0 244 156.5 390.5t371.5 146.5q119 0 217 -45q57 12 88 38.5t31 83.5q1 48 -32 99l237 102q66 -74 66 -176q0 -201 -224 -260q145 -152 146 -379q0 -244 -157 -390.5t-372 -146.5t-371.5 146.5t-156.5 390.5zM242 1176q20 162 89.5 240.5t172.5 78.5 q55 0 125.5 -53t91.5 -53q33 0 54.5 23.5t35.5 82.5h176q-20 -162 -90 -240.5t-172 -78.5q-57 0 -127 53t-90 53q-33 0 -54.5 -23.5t-35.5 -82.5h-176zM446 512q0 -254 168 -254t168 254t-168 254t-168 -254z" />
<glyph unicode="&#x1ee2;" d="M70 671.5q0 323.5 148.5 504t395.5 180.5q143 0 254 -62q53 12 80 38t27 81q0 47 -33 98l238 103q66 -74 65 -176q0 -205 -233 -264q147 -182 147 -502q0 -324 -149.5 -510.5t-395 -186.5t-395 186.5t-149.5 510zM389 -336q0 92 63.5 150.5t162 58.5t162 -58.5 t63.5 -150.5t-63.5 -148.5t-162 -56.5t-162 56.5t-63.5 148.5zM430 672q0 -182 49 -287.5t135 -105.5t135.5 105t49.5 288q0 180 -49.5 280.5t-135.5 100.5t-135 -100.5t-49 -280.5z" />
<glyph unicode="&#x1ee3;" d="M86 512q0 244 156.5 390.5t371.5 146.5q119 0 217 -45q57 12 88 38.5t31 83.5q1 48 -32 99l237 102q66 -74 66 -176q0 -201 -224 -260q145 -152 146 -379q0 -244 -157 -390.5t-372 -146.5t-371.5 146.5t-156.5 390.5zM389 -336q0 92 63.5 150.5t162 58.5t162 -58.5 t63.5 -150.5t-63.5 -148.5t-162 -56.5t-162 56.5t-63.5 148.5zM446 512q0 -254 168 -254t168 254t-168 254t-168 -254z" />
<glyph unicode="&#x1ee4;" d="M119 516v815h352v-856q0 -197 147 -196q152 0 152 196v856h340v-815q0 -541 -492 -541q-254 0 -376.5 141.5t-122.5 399.5zM389 -336q0 92 63.5 150.5t162 58.5t162 -58.5t63.5 -150.5t-63.5 -148.5t-162 -56.5t-162 56.5t-63.5 148.5z" />
<glyph unicode="&#x1ee5;" d="M115 393v631h352v-586q0 -88 24.5 -126t92.5 -38q47 0 80.5 18.5t72.5 72.5v659h353v-1024h-287l-25 135h-8q-139 -160 -332 -160q-324 0 -323 418zM426 -336q0 92 63.5 150.5t162 58.5t162 -58.5t63.5 -150.5t-63.5 -148.5t-162 -56.5t-162 56.5t-63.5 148.5z" />
<glyph unicode="&#x1ee6;" d="M119 516v815h352v-856q0 -197 147 -196q152 0 152 196v856h340v-815q0 -541 -492 -541q-254 0 -376.5 141.5t-122.5 399.5zM434 1655l41 172q369 -10 369 -197q0 -104 -86 -159.5t-221 -61.5l-25 135q82 10 82 49q0 51 -160 62z" />
<glyph unicode="&#x1ee7;" d="M115 393v631h352v-586q0 -88 24.5 -126t92.5 -38q47 0 80.5 18.5t72.5 72.5v659h353v-1024h-287l-25 135h-8q-139 -160 -332 -160q-324 0 -323 418zM426 1389l41 172q369 -10 369 -197q0 -104 -86.5 -159.5t-221.5 -61.5l-24 135q82 10 82 49q0 51 -160 62z" />
<glyph unicode="&#x1ee8;" d="M119 516v815h352v-856q0 -197 147 -196q152 0 152 196v856h172q164 0 164 123q0 47 -33 98l238 103q66 -74 65 -176q0 -221 -266 -273v-690q0 -541 -492 -541q-254 0 -376.5 141.5t-122.5 399.5zM442 1434l160 254h369l-250 -254h-279z" />
<glyph unicode="&#x1ee9;" d="M115 393v631h352v-586q0 -88 24.5 -126t92.5 -38q47 0 80.5 18.5t72.5 72.5v659h123q164 0 164 123q0 47 -33 98l238 103q66 -74 65 -177q0 -190 -204 -253v-918h-287l-25 135h-8q-139 -160 -332 -160q-324 0 -323 418zM426 1176l180 356h357l-283 -356h-254z" />
<glyph unicode="&#x1eea;" d="M119 516v815h352v-856q0 -197 147 -196q152 0 152 196v856h172q164 0 164 123q0 47 -33 98l238 103q66 -74 65 -176q0 -221 -266 -273v-690q0 -541 -492 -541q-254 0 -376.5 141.5t-122.5 399.5zM258 1688h369l159 -254h-278z" />
<glyph unicode="&#x1eeb;" d="M115 393v631h352v-586q0 -88 24.5 -126t92.5 -38q47 0 80.5 18.5t72.5 72.5v659h123q164 0 164 123q0 47 -33 98l238 103q66 -74 65 -177q0 -190 -204 -253v-918h-287l-25 135h-8q-139 -160 -332 -160q-324 0 -323 418zM250 1532h356l180 -356h-254z" />
<glyph unicode="&#x1eec;" d="M119 516v815h352v-856q0 -197 147 -196q152 0 152 196v856h172q164 0 164 123q0 47 -33 98l238 103q66 -74 65 -176q0 -221 -266 -273v-690q0 -541 -492 -541q-254 0 -376.5 141.5t-122.5 399.5zM434 1655l41 172q369 -10 369 -197q0 -104 -86 -159.5t-221 -61.5l-25 135 q82 10 82 49q0 51 -160 62z" />
<glyph unicode="&#x1eed;" d="M115 393v631h352v-586q0 -88 24.5 -126t92.5 -38q47 0 80.5 18.5t72.5 72.5v659h123q164 0 164 123q0 47 -33 98l238 103q66 -74 65 -177q0 -190 -204 -253v-918h-287l-25 135h-8q-139 -160 -332 -160q-324 0 -323 418zM426 1389l41 172q369 -10 369 -197 q0 -104 -86.5 -159.5t-221.5 -61.5l-24 135q82 10 82 49q0 51 -160 62z" />
<glyph unicode="&#x1eee;" d="M119 516v815h352v-856q0 -197 147 -196q152 0 152 196v856h172q164 0 164 123q0 47 -33 98l238 103q66 -74 65 -176q0 -221 -266 -273v-690q0 -541 -492 -541q-254 0 -376.5 141.5t-122.5 399.5zM246 1434q18 150 83.5 224.5t153.5 74.5q61 0 142.5 -43t103.5 -43 q58 0 78 86h176q-18 -150 -83.5 -224.5t-154.5 -74.5q-61 0 -142 43t-103 43q-57 0 -78 -86h-176z" />
<glyph unicode="&#x1eef;" d="M115 393v631h352v-586q0 -88 24.5 -126t92.5 -38q47 0 80.5 18.5t72.5 72.5v659h123q164 0 164 123q0 47 -33 98l238 103q66 -74 65 -177q0 -190 -204 -253v-918h-287l-25 135h-8q-139 -160 -332 -160q-324 0 -323 418zM233 1176q20 162 90 240.5t173 78.5 q55 0 125.5 -53t91.5 -53q33 0 54.5 23.5t35.5 82.5h176q-20 -162 -90 -240.5t-172 -78.5q-57 0 -127 53t-90 53q-33 0 -54.5 -23.5t-35.5 -82.5h-177z" />
<glyph unicode="&#x1ef0;" d="M119 516v815h352v-856q0 -197 147 -196q152 0 152 196v856h172q164 0 164 123q0 47 -33 98l238 103q66 -74 65 -176q0 -221 -266 -273v-690q0 -541 -492 -541q-254 0 -376.5 141.5t-122.5 399.5zM389 -336q0 92 63.5 150.5t162 58.5t162 -58.5t63.5 -150.5t-63.5 -148.5 t-162 -56.5t-162 56.5t-63.5 148.5z" />
<glyph unicode="&#x1ef1;" d="M115 393v631h352v-586q0 -88 24.5 -126t92.5 -38q47 0 80.5 18.5t72.5 72.5v659h123q164 0 164 123q0 47 -33 98l238 103q66 -74 65 -177q0 -190 -204 -253v-918h-287l-25 135h-8q-139 -160 -332 -160q-324 0 -323 418zM401 -336q0 92 63.5 150.5t162 58.5t162 -58.5 t63.5 -150.5t-63.5 -148.5t-162 -56.5t-162 56.5t-63.5 148.5z" />
<glyph unicode="&#x1ef2;" d="M16 1331h377l111 -291q18 -53 55 -153.5t53 -149.5h9q20 59 59 159.5t53 143.5l111 291h368l-421 -891v-440h-353v440zM258 1688h369l159 -254h-278z" />
<glyph unicode="&#x1ef3;" d="M49 1024h348l144 -393q43 -121 92 -312h8q18 82 88 312l123 393h332l-385 -1008q-84 -215 -193.5 -308t-304.5 -93q-86 0 -164 20l62 267q40 -12 73 -13q145 0 191 103l16 45zM274 1532h357l180 -356h-254z" />
<glyph unicode="&#x1ef4;" d="M16 1331h377l111 -291q18 -53 55 -153.5t53 -149.5h9q20 59 59 159.5t53 143.5l111 291h368l-421 -891v-440h-353v440zM389 -336q0 92 63.5 150.5t162 58.5t162 -58.5t63.5 -150.5t-63.5 -148.5t-162 -56.5t-162 56.5t-63.5 148.5z" />
<glyph unicode="&#x1ef5;" d="M49 1024h348l144 -393q43 -121 92 -312h8q18 82 88 312l123 393h332l-385 -1008q-84 -215 -193.5 -308t-304.5 -93q-86 0 -164 20l62 267q40 -12 73 -13q145 0 191 103l16 45zM793 -315.5q0 92.5 63.5 151t161.5 58.5t161.5 -58.5t63.5 -151t-63.5 -148.5t-161.5 -56 t-161.5 56t-63.5 148.5z" />
<glyph unicode="&#x1ef6;" d="M16 1331h377l111 -291q18 -53 55 -153.5t53 -149.5h9q20 59 59 159.5t53 143.5l111 291h368l-421 -891v-440h-353v440zM434 1655l41 172q369 -10 369 -197q0 -104 -86 -159.5t-221 -61.5l-25 135q82 10 82 49q0 51 -160 62z" />
<glyph unicode="&#x1ef7;" d="M49 1024h348l144 -393q43 -121 92 -312h8q18 82 88 312l123 393h332l-385 -1008q-84 -215 -193.5 -308t-304.5 -93q-86 0 -164 20l62 267q40 -12 73 -13q145 0 191 103l16 45zM444 1389l41 172q369 -10 369 -197q0 -104 -86 -159.5t-221 -61.5l-25 135q82 10 82 49 q0 51 -160 62z" />
<glyph unicode="&#x1ef8;" d="M16 1331h377l111 -291q18 -53 55 -153.5t53 -149.5h9q20 59 59 159.5t53 143.5l111 291h368l-421 -891v-440h-353v440zM246 1434q18 150 83.5 224.5t153.5 74.5q61 0 142.5 -43t103.5 -43q57 0 78 86h176q-18 -150 -84 -224.5t-154 -74.5q-61 0 -142 43t-103 43 q-57 0 -78 -86h-176z" />
<glyph unicode="&#x1ef9;" d="M49 1024h348l144 -393q43 -121 92 -312h8q18 82 88 312l123 393h332l-385 -1008q-84 -215 -193.5 -308t-304.5 -93q-86 0 -164 20l62 267q40 -12 73 -13q145 0 191 103l16 45zM258 1176q20 162 90 240.5t172 78.5q55 0 126 -53t91 -53q33 0 54.5 23.5t35.5 82.5h177 q-20 -162 -90 -240.5t-173 -78.5q-57 0 -126.5 53t-90.5 53q-33 0 -54 -23.5t-36 -82.5h-176z" />
<glyph unicode="&#x2000;" horiz-adv-x="1007" />
<glyph unicode="&#x2001;" horiz-adv-x="2015" />
<glyph unicode="&#x2002;" horiz-adv-x="1007" />
<glyph unicode="&#x2003;" horiz-adv-x="2015" />
<glyph unicode="&#x2004;" horiz-adv-x="671" />
<glyph unicode="&#x2005;" horiz-adv-x="503" />
<glyph unicode="&#x2006;" horiz-adv-x="335" />
<glyph unicode="&#x2007;" />
<glyph unicode="&#x2008;" horiz-adv-x="251" />
<glyph unicode="&#x2009;" horiz-adv-x="403" />
<glyph unicode="&#x200a;" horiz-adv-x="111" />
<glyph unicode="&#x2010;" d="M246 475v258h737v-258h-737z" />
<glyph unicode="&#x2011;" d="M246 475v258h737v-258h-737z" />
<glyph unicode="&#x2012;" d="M164 475v258h901v-258h-901z" />
<glyph unicode="&#x2013;" d="M164 475v258h901v-258h-901z" />
<glyph unicode="&#x2014;" d="M41 475v258h1147v-258h-1147z" />
<glyph unicode="&#x2015;" d="M41 475v258h1147v-258h-1147z" />
<glyph unicode="&#x2018;" d="M356 905q0 352 383 520l88 -182q-223 -92 -235 -272q25 4 37 4q90 0 146 -55.5t56 -147.5q0 -102 -59 -163.5t-154 -61.5q-127 0 -194.5 94t-67.5 264z" />
<glyph unicode="&#x2019;" d="M397 1200q0 102 59.5 163.5t153.5 61.5q127 0 194.5 -94t67.5 -264q0 -352 -383 -520l-88 182q223 92 236 272q-25 -4 -37 -4q-90 0 -146.5 55.5t-56.5 147.5z" />
<glyph unicode="&#x201a;" d="M397 176q0 102 59.5 163.5t153.5 61.5q127 0 194.5 -94t67.5 -264q0 -352 -383 -520l-88 182q223 92 236 272q-25 -4 -37 -4q-90 0 -146.5 55.5t-56.5 147.5z" />
<glyph unicode="&#x201c;" d="M70 905q0 352 383 520l88 -182q-223 -92 -236 -272q25 4 37 4q90 0 146.5 -55.5t56.5 -147.5q0 -102 -59.5 -163.5t-153.5 -61.5q-127 0 -194.5 94t-67.5 264zM643 905q0 352 383 520l88 -182q-223 -92 -235 -272q25 4 36 4q90 0 146.5 -55.5t56.5 -147.5 q0 -102 -59.5 -163.5t-153.5 -61.5q-127 0 -194.5 94t-67.5 264z" />
<glyph unicode="&#x201d;" d="M111 1200q0 102 59 163.5t154 61.5q127 0 194.5 -94t67.5 -264q0 -352 -383 -520l-88 182q223 92 235 272q-25 -4 -37 -4q-90 0 -146 55.5t-56 147.5zM684 1200q0 102 59.5 163.5t153.5 61.5q127 0 194.5 -94t67.5 -264q0 -352 -383 -520l-88 182q223 92 236 272 q-25 -4 -37 -4q-90 0 -146.5 55.5t-56.5 147.5z" />
<glyph unicode="&#x201e;" d="M111 176q0 102 59 163.5t154 61.5q127 0 194.5 -94t67.5 -264q0 -352 -383 -520l-88 182q223 92 235 272q-25 -4 -37 -4q-90 0 -146 55.5t-56 147.5zM684 176q0 102 59.5 163.5t153.5 61.5q127 0 194.5 -94t67.5 -264q0 -352 -383 -520l-88 182q223 92 236 272 q-25 -4 -37 -4q-90 0 -146.5 55.5t-56.5 147.5z" />
<glyph unicode="&#x2020;" d="M152 836v278l344 -20l-21 364h279l-21 -364l344 20v-278l-344 20l21 -1020h-279l21 1020z" />
<glyph unicode="&#x2021;" d="M152 180v279l344 -29l-21 217l21 217l-344 -28v278l344 -20l-21 364h279l-21 -364l344 20v-278l-344 28l21 -217l-21 -217l344 29v-279l-344 21l21 -365h-279l21 365z" />
<glyph unicode="&#x2022;" d="M266 618.5q0 145.5 99.5 242.5t249 97t249 -97t99.5 -242.5t-99.5 -242.5t-249 -97t-249 97t-99.5 242.5z" />
<glyph unicode="&#x2026;" d="M-27 188q0 90 56.5 151.5t148.5 61.5t148.5 -61t56.5 -152q0 -92 -56.5 -152.5t-148.5 -60.5t-148.5 60.5t-56.5 152.5zM410 188q0 90 56 151.5t148.5 61.5t148.5 -61t56 -152q0 -92 -56 -152.5t-148.5 -60.5t-148.5 60.5t-56 152.5zM846 188q0 90 56 151.5t148.5 61.5 t148.5 -61t56 -152q0 -92 -56 -152.5t-148.5 -60.5t-148.5 60.5t-56 152.5z" />
<glyph unicode="&#x202f;" horiz-adv-x="403" />
<glyph unicode="&#x2030;" d="M49 246q0 119 77 188.5t193.5 69.5t193.5 -69.5t77 -188.5t-78 -195t-192.5 -76t-192.5 76t-78 195zM49 1065q0 119 77 188.5t193.5 69.5t193.5 -69.5t77 -188.5t-78 -194.5t-192.5 -75.5t-192.5 75.5t-78 194.5zM180 651l930 402l86 -222l-971 -282zM246 246 q0 -127 73.5 -127t73.5 127q0 115 -73.5 114.5t-73.5 -114.5zM246 1065q0 -127 73.5 -127t73.5 127q0 115 -73.5 115t-73.5 -115zM643 246q0 119 77 188.5t193.5 69.5t193.5 -69.5t77 -188.5t-78 -195t-192.5 -76t-192.5 76t-78 195zM840 246q0 -127 73.5 -127t73.5 127 q0 115 -73.5 114.5t-73.5 -114.5z" />
<glyph unicode="&#x2032;" d="M449 664l43 737h352l-60 -332l-106 -405h-229z" />
<glyph unicode="&#x2033;" d="M182 664l43 737h353l-60 -332l-106 -405h-230zM715 664l43 737h352l-59 -332l-107 -405h-229z" />
<glyph unicode="&#x2039;" d="M340 340v352l365 312l147 -132l-262 -356l262 -356l-147 -131z" />
<glyph unicode="&#x203a;" d="M377 160l262 356l-262 356l147 132l365 -312v-352l-365 -311z" />
<glyph unicode="&#x2044;" d="M25 225l385 344l118 -110l-327 -406zM700 872l328 406l176 -172l-385 -344z" />
<glyph unicode="&#x205f;" horiz-adv-x="503" />
<glyph unicode="&#x2070;" d="M303 1226.5q0 155.5 88 249t223.5 93.5t223.5 -93.5t88 -249t-89 -252.5t-222.5 -97t-222.5 97t-89 252.5zM541 1227q0 -166 73.5 -166t73.5 166q0 158 -73.5 157.5t-73.5 -157.5z" />
<glyph unicode="&#x2071;" d="M342 1022v188h487v-678h-243v490h-244zM551 1430q0 61 43 101t110.5 40t111.5 -40t44 -101.5t-44 -100.5t-111.5 -39t-110.5 38t-43 102z" />
<glyph unicode="&#x2074;" d="M322 1016v121l223 407h323v-375h107v-153h-107v-115h-221v115h-325zM541 1169h106v19l12 217h-6l-61 -125z" />
<glyph unicode="&#x2075;" d="M332 952l92 156q90 -47 160 -47q72 0 71 53q0 57 -69 57q-45 0 -97 -26l-98 65l27 334h456v-205h-268l-4 -45q33 8 78 9q102 0 161.5 -52.5t59.5 -144.5q0 -94 -81 -161.5t-202 -67.5q-173 -1 -286 75z" />
<glyph unicode="&#x2076;" d="M319 1231q0 135 90.5 236.5t254.5 101.5q131 0 235 -90l-96 -140q-55 45 -119 45q-121 0 -135 -133q57 51 149.5 51.5t147.5 -48t55 -142.5q0 -98 -75.5 -166.5t-188.5 -68.5q-152 0 -235 98t-83 256zM551 1130q18 -69 73.5 -69t55.5 49q0 47 -59 47q-37 0 -70 -27z" />
<glyph unicode="&#x2077;" d="M358 1339v205h557v-129q-106 -121 -143 -230.5t-45 -283.5h-264q8 123 47 216t129 222h-281z" />
<glyph unicode="&#x2078;" d="M332 1065q0 41 20.5 72.5t42 47t60.5 36.5v8q-43 29 -57.5 40t-32 40.5t-17.5 68.5q0 86 77 138.5t189 52.5q115 0 191 -52.5t76 -138.5q0 -82 -109 -129v-8q63 -33 94 -69.5t31 -106.5q0 -78 -80 -133t-202.5 -55t-202.5 54t-80 134zM553 1085q0 -51 61 -51 q27 0 44.5 13.5t17.5 31.5q0 47 -86 70q-37 -23 -37 -64zM569 1370q0 -34 66 -59q25 18 24 49q0 20 -13 33.5t-34 13.5q-43 0 -43 -37z" />
<glyph unicode="&#x2079;" d="M328 1333q0 98 75.5 167t188.5 69q152 0 234.5 -98.5t82.5 -256.5q0 -135 -90 -236t-254 -101q-131 0 -235 90l96 139q55 -45 119 -45q121 0 135 133q-57 -51 -149.5 -51t-147.5 48t-55 142zM549 1335q0 -47 59 -47q37 0 70 27q-18 70 -73.5 69.5t-55.5 -49.5z" />
<glyph unicode="&#x207d;" d="M422 1245q0 158 55 284t166 253l188 -111q-168 -207 -167.5 -426t167.5 -426l-188 -110q-111 127 -166 252.5t-55 283.5z" />
<glyph unicode="&#x207e;" d="M397 819q168 207 168 426t-168 426l189 111q111 -127 166 -253t55 -284t-55.5 -283.5t-165.5 -252.5z" />
<glyph unicode="&#x207f;" d="M305 532v678h199l16 -80h6q104 96 224 97q217 0 217 -279v-416h-244v386q0 57 -16.5 80.5t-59.5 23.5q-41 0 -98 -47v-443h-244z" />
<glyph unicode="&#x2080;" d="M303 -22.5q0 155.5 88 248.5t223.5 93t223.5 -93t88 -248.5t-89 -253t-222.5 -97.5t-222.5 97.5t-89 253zM541 -23q0 -165 73.5 -165t73.5 165q0 158 -73.5 158t-73.5 -158z" />
<glyph unicode="&#x2081;" d="M391 72v149q127 14 223 74h197v-643h-254v420h-166z" />
<glyph unicode="&#x2082;" d="M311 184q135 135 285 135q127 0 202.5 -60t75.5 -165q0 -106 -135 -237h156v-205h-551v129q121 72 205 146.5t84 119.5q0 72 -78 72q-51 0 -100 -66z" />
<glyph unicode="&#x2083;" d="M332 -297l92 156q90 -47 162 -47q29 0 49 12t20 33q0 59 -131 59v127q55 0 81 10t26 41q0 41 -66 41q-39 0 -129 -45l-96 148q115 82 285 81q104 0 178 -52t74 -132q0 -57 -24 -90t-85 -53q133 -39 133 -156q0 -88 -84 -148.5t-199 -60.5q-173 0 -286 76z" />
<glyph unicode="&#x2084;" d="M322 -113l223 408h323v-375h107v-153h-107v-115h-221v115h-325v120zM541 -80h106v19l12 217h-6l-61 -125z" />
<glyph unicode="&#x2085;" d="M332 -297l92 156q90 -47 160 -47q72 0 71 53q0 57 -69 57q-45 0 -97 -26l-98 65l27 334h456v-205h-268l-4 -45q33 8 78 8q102 0 161.5 -52t59.5 -144q0 -94 -81 -162t-202 -68q-173 0 -286 76z" />
<glyph unicode="&#x2086;" d="M319 -18q0 135 90.5 236t254.5 101q131 0 235 -90l-96 -139q-55 45 -119 45q-121 0 -135 -133q57 51 149.5 51t147.5 -48t55 -142q0 -98 -75.5 -167t-188.5 -69q-152 0 -235 98.5t-83 256.5zM551 -119q18 -69 73.5 -69t55.5 49q0 47 -59 47q-37 0 -70 -27z" />
<glyph unicode="&#x2087;" d="M358 90v205h557v-129q-106 -121 -143 -230.5t-45 -283.5h-264q8 123 47 216t129 222h-281z" />
<glyph unicode="&#x2088;" d="M332 -184q0 41 20.5 72.5t42 47t60.5 35.5v9q-43 29 -57.5 40t-32 40.5t-17.5 68.5q0 86 77 138t189 52q115 0 191 -52t76 -138q0 -82 -109 -129v-8q63 -33 94 -70t31 -106q0 -78 -80 -133.5t-202.5 -55.5t-202.5 54.5t-80 134.5zM553 -164q0 -51 61 -51q27 0 44.5 13.5 t17.5 31.5q0 47 -86 70q-37 -23 -37 -64zM569 121q0 -35 66 -60q25 18 24 50q0 20 -13 33.5t-34 13.5q-43 0 -43 -37z" />
<glyph unicode="&#x2089;" d="M328 84q0 98 75.5 166.5t188.5 68.5q152 0 234.5 -98t82.5 -256q0 -135 -90 -236.5t-254 -101.5q-131 0 -235 90l96 140q55 -45 119 -45q121 0 135 133q-57 -51 -149.5 -51t-147.5 48t-55 142zM549 86q0 -47 59 -47q37 0 70 27q-18 70 -73.5 69.5t-55.5 -49.5z" />
<glyph unicode="&#x208d;" d="M422 -4q0 158 55 284t166 252l188 -110q-168 -207 -167.5 -426t167.5 -426l-188 -111q-111 127 -166 253t-55 284z" />
<glyph unicode="&#x208e;" d="M397 422l189 110q111 -127 166 -252.5t55 -283.5t-55.5 -284t-165.5 -253l-189 111q168 207 168 426t-168 426z" />
<glyph unicode="&#x2094;" d="M297 844q0 53 10 94h414q-27 106 -150 106q-66 0 -151 -43l-80 148q117 78 260 78q162 0 259 -96.5t97 -260.5q0 -158 -102 -256t-242 -98q-156 0 -235.5 92.5t-79.5 235.5zM504 793q0 -94 102 -95q100 0 119 95h-221z" />
<glyph unicode="&#x20a1;" d="M147 639q0 285 136.5 461t371.5 213l25 211h111l-25 -201h12q20 0 58 -4l24 205h111l-27 -230q119 -43 207 -131l-193 -188q-16 12 -49 33l-90 -758q84 16 156 94l192 -180q-158 -170 -381 -187l-24 -202h-111l25 205q-49 4 -70 8l-24 -213h-111l29 245 q-164 68 -258.5 224.5t-94.5 394.5zM500 651q0 -154 45 -256l73 615q-119 -94 -118 -359zM641 279q29 -16 68 -27l94 797q-29 4 -49 4h-21z" />
<glyph unicode="&#x20a4;" d="M129 0v217q176 68 223 213h-213v160l156 12h55q-10 41 -31 90h-180v160l131 10q-2 8 -2 23q0 199 135.5 318.5t348.5 119.5q236 0 389 -172l-189 -188q-76 78 -166 77q-184 0 -184 -176h344v-172h-311q14 -41 24 -90h287v-172h-287q-21 -59 -84 -127v-8h566v-295h-1012z " />
<glyph unicode="&#x20a6;" d="M41 479v119l139 12v90h-139v119l139 12v467h320l159 -442l9 -25h131v467h250v-467h139v-131h-139v-90h139v-131h-139v-479h-320l-160 442l-12 37h-127v-479h-250v479h-139zM365 1047l24 -216h53l-69 216h-8zM406 700l10 -90h98l-29 90h-79zM711 700l28 -90h84l-10 90 h-102zM782 479l74 -227h8l-26 227h-56z" />
<glyph unicode="&#x20a7;" d="M27 750v200l133 11v337h401q197 0 330 -79.5t166 -255.5h127v-213h-127q-33 -164 -170 -249t-326 -85h-69v-416h-332v750h-133zM492 633h51q139 0 182 117h-233v-117zM492 963h233q-39 118 -182 118h-51v-118z" />
<glyph unicode="&#x20ab;" d="M172 631q0 166 109.5 267t250.5 101q119 0 209 -73l-8 123v16h-315v172h315v86h287v-86h145v-160l-145 -12v-803h-238l-20 70h-4q-94 -90 -234 -90q-162 0 -257 102t-95 287zM201 0v172h889v-172h-889zM467 629q0 -158 131 -158q76 0 135 61v193q-55 41 -127 41 q-55 0 -97 -36t-42 -101z" />
<glyph unicode="&#x20ac;" d="M82 426v160l106 8v45q0 33 2 49h-108v160l131 10q55 221 213 343t381 122q225 0 385 -160l-193 -188q-106 78 -204 78q-170 0 -228 -193h482v-172h-508v-37q0 -37 2 -53h424v-172h-394q66 -180 234 -180q117 0 209 98l192 -180q-176 -188 -422 -189q-215 0 -368.5 116 t-206.5 335h-129z" />
<glyph unicode="&#x20b1;" d="M29 684v119l131 10v84h-131v119l131 10v272h401q385 0 479 -270h144v-131h-119q2 -16 2 -49v-33h117v-131h-146q-49 -133 -179 -200.5t-298 -67.5h-69v-416h-332v684h-131zM492 633h51q90 0 141 51h-192v-51zM492 815h247q2 10 2 33q0 33 -2 49h-247v-82zM492 1028h196 q-51 53 -145 53h-51v-53z" />
<glyph unicode="&#x20b2;" d="M123 639q0 274 127 449.5t340 220.5v215h229v-209q166 -31 295 -160l-192 -188q-98 86 -205 86q-117 0 -179.5 -105.5t-62.5 -296.5q0 -193 67.5 -293t186.5 -100q45 0 70 8v213h-123v287h434v-639q-129 -111 -291 -141v-211h-229v211q-211 39 -339 206.5t-128 446.5z " />
<glyph unicode="&#x20b5;" d="M147 639q0 285 138.5 462t369.5 214v184h189v-182q180 -27 307 -154l-193 -188q-63 45 -114 63v-780q68 20 131 86l192 -180q-137 -150 -323 -180v-209h-189v207q-229 29 -368.5 197.5t-139.5 459.5zM500 651q-1 -299 155 -381v762q-156 -74 -155 -381z" />
<glyph unicode="&#x20b9;" d="M166 373v278h145q193 0 246 107h-391v160l170 12h225q-47 90 -250 90h-145v278h905v-172h-299q111 -76 139 -196h160v-172h-156q-39 -225 -249 -322l370 -436h-391l-309 373h-170z" />
<glyph unicode="&#x20ba;" d="M57 340v188l160 78v99l-160 -78v188l160 78v405h352v-233l310 152v-189l-310 -151v-99l310 152v-189l-310 -151v-287q117 14 195 82t78 156q0 23 -6 49l288 65q14 -55 15 -100q0 -289 -238.5 -440.5t-683.5 -139.5v443z" />
<glyph unicode="&#x2113;" d="M121 418q170 100 209 125v413q0 256 113.5 387.5t304.5 131.5q162 0 257 -97.5t95 -263.5q0 -190 -95.5 -332.5t-330.5 -308.5v-45q0 -82 41 -122t106 -40q84 0 193 90l127 -213q-197 -168 -377 -168q-150 0 -263.5 75t-154.5 212q-6 -4 -42 -24.5t-54 -32.5zM674 791 q147 141 147 325q0 104 -61 105q-86 -1 -86 -220v-210z" />
<glyph unicode="&#x2117;" d="M29 668q0 307 171 491t414.5 184t414.5 -184t171 -491q0 -309 -171 -496.5t-414.5 -187.5t-414.5 187.5t-171 496.5zM176 668q0 -246 121 -395.5t317.5 -149.5t317.5 149.5t121 395.5q0 244 -121 390t-317.5 146t-317.5 -146t-121 -390zM348 287v749h275q332 0 331 -278 q0 -150 -94 -226.5t-237 -76.5h-29v-168h-246zM594 631h16q57 0 82 28.5t25 90.5q0 102 -107 102h-16v-221z" />
<glyph unicode="&#x2120;" d="M-37 815l115 139q82 -74 143 -73q45 0 45 28q0 16 -12 25.5t-51 28.5l-84 41q-123 61 -123 192q0 88 67.5 150.5t182.5 62.5q121 0 233 -82l-102 -143q-90 57 -135 57t-45 -33q0 -16 11 -23t54 -26l82 -37q66 -29 96.5 -71.5t30.5 -116.5q0 -88 -73.5 -154.5 t-192.5 -66.5q-121 0 -242 102zM549 737v647h237l62 -176l37 -139h8l37 139l61 176h238v-647h-197v164l25 246h-8l-95 -275h-131l-94 275h-8l24 -246v-164h-196z" />
<glyph unicode="&#x2122;" d="M-33 1180v204h520v-204h-147v-443h-225v443h-148zM549 737v647h237l62 -176l37 -139h8l37 139l61 176h238v-647h-197v164l25 246h-8l-95 -275h-131l-94 275h-8l24 -246v-164h-196z" />
<glyph unicode="&#x2126;" d="M-61 0v283h217v8q-72 76 -128.5 195.5t-56.5 254.5q0 297 176.5 466t467 169t466.5 -169t176 -466q0 -135 -56 -254.5t-128 -195.5v-8h217v-283h-598v229q205 176 205 488q0 162 -77 259t-206 97t-205.5 -97t-76.5 -259q0 -311 205 -488v-229h-598z" />
<glyph unicode="&#x212e;" d="M53 663.5q0 284.5 165 486.5t396.5 202t396.5 -202t165 -486v-17h-848q-8 0 -9 -8v-459q1 -16 17 -41q111 -123 282 -123q106 0 204 61.5t169 168.5h78q-86 -127 -202.5 -199t-252.5 -72q-231 0 -396 202t-165 486.5zM319 696q1 -12 9 -12h573q12 0 12 12v459 q0 25 -20 45q-111 111 -275 111q-170 0 -282 -119q-16 -25 -17 -45v-451z" />
<glyph unicode="&#x2153;" d="M25 225l385 344l118 -110l-327 -406zM137 1075v150q127 14 223 73h197v-643h-254v420h-166zM590 51l92 156q90 -47 162 -47q29 0 49 12t20 33q0 59 -131 59v127q55 0 81 10.5t26 40.5q0 41 -66 41q-39 0 -129 -45l-96 148q115 82 285 82q104 0 178 -52.5t74 -132.5 q0 -57 -24 -90t-85 -53q133 -39 133 -156q0 -88 -84 -148.5t-198 -60.5q-174 0 -287 76zM700 872l328 406l176 -172l-385 -344z" />
<glyph unicode="&#x2154;" d="M25 225l385 344l118 -110l-327 -406zM53 1188q135 135 285 135q127 0 202.5 -60.5t75.5 -164.5q0 -106 -135 -238h156v-205h-551v129q121 72 205 147t84 120q0 72 -78 71q-51 0 -100 -65zM590 51l92 156q90 -47 162 -47q29 0 49 12t20 33q0 59 -131 59v127q55 0 81 10.5 t26 40.5q0 41 -66 41q-39 0 -129 -45l-96 148q115 82 285 82q104 0 178 -52.5t74 -132.5q0 -57 -24 -90t-85 -53q133 -39 133 -156q0 -88 -84 -148.5t-198 -60.5q-174 0 -287 76zM700 872l328 406l176 -172l-385 -344z" />
<glyph unicode="&#x215b;" d="M25 225l385 344l118 -110l-327 -406zM137 1075v150q127 14 223 73h197v-643h-254v420h-166zM590 164q0 41 20.5 72.5t42 47t60.5 35.5v9q-43 29 -57.5 40t-32 40.5t-17.5 68.5q0 86 77 138.5t189 52.5q115 0 191 -52.5t76 -138.5q0 -82 -109 -129v-8q63 -33 94 -70 t31 -106q0 -78 -80 -133.5t-202.5 -55.5t-202.5 54.5t-80 134.5zM700 872l328 406l176 -172l-385 -344zM811 184q0 -51 61 -51q27 0 44.5 13.5t17.5 31.5q0 47 -86 70q-37 -23 -37 -64zM827 469q0 -34 66 -59q25 18 25 49q0 20 -13.5 33.5t-34.5 13.5q-43 0 -43 -37z" />
<glyph unicode="&#x215c;" d="M25 225l385 344l118 -110l-327 -406zM78 707l92 155q90 -47 162 -47q29 0 49 12.5t20 32.5q0 59 -131 60v127q55 0 81 10t26 41q0 41 -66 41q-39 0 -129 -45l-96 147q115 82 285 82q104 0 178 -52t74 -132q0 -57 -24 -90t-85 -54q133 -39 133 -155q0 -88 -84 -148.5 t-198 -60.5q-174 0 -287 76zM590 164q0 41 20.5 72.5t42 47t60.5 35.5v9q-43 29 -57.5 40t-32 40.5t-17.5 68.5q0 86 77 138.5t189 52.5q115 0 191 -52.5t76 -138.5q0 -82 -109 -129v-8q63 -33 94 -70t31 -106q0 -78 -80 -133.5t-202.5 -55.5t-202.5 54.5t-80 134.5z M700 872l328 406l176 -172l-385 -344zM811 184q0 -51 61 -51q27 0 44.5 13.5t17.5 31.5q0 47 -86 70q-37 -23 -37 -64zM827 469q0 -34 66 -59q25 18 25 49q0 20 -13.5 33.5t-34.5 13.5q-43 0 -43 -37z" />
<glyph unicode="&#x215d;" d="M25 225l385 344l118 -110l-327 -406zM78 707l92 155q90 -47 160 -47q72 0 71 53q0 57 -69 58q-45 0 -96 -27l-99 66l27 333h457v-204h-269l-4 -45q33 8 78 8q102 0 161.5 -52.5t59.5 -144.5q0 -94 -81 -161.5t-201 -67.5q-174 0 -287 76zM590 164q0 41 20.5 72.5t42 47 t60.5 35.5v9q-43 29 -57.5 40t-32 40.5t-17.5 68.5q0 86 77 138.5t189 52.5q115 0 191 -52.5t76 -138.5q0 -82 -109 -129v-8q63 -33 94 -70t31 -106q0 -78 -80 -133.5t-202.5 -55.5t-202.5 54.5t-80 134.5zM700 872l328 406l176 -172l-385 -344zM811 184q0 -51 61 -51 q27 0 44.5 13.5t17.5 31.5q0 47 -86 70q-37 -23 -37 -64zM827 469q0 -34 66 -59q25 18 25 49q0 20 -13.5 33.5t-34.5 13.5q-43 0 -43 -37z" />
<glyph unicode="&#x215e;" d="M25 225l385 344l118 -110l-327 -406zM104 1094v204h558v-129q-106 -121 -143.5 -230.5t-45.5 -283.5h-264q8 123 47 216.5t129 222.5h-281zM590 164q0 41 20.5 72.5t42 47t60.5 35.5v9q-43 29 -57.5 40t-32 40.5t-17.5 68.5q0 86 77 138.5t189 52.5q115 0 191 -52.5 t76 -138.5q0 -82 -109 -129v-8q63 -33 94 -70t31 -106q0 -78 -80 -133.5t-202.5 -55.5t-202.5 54.5t-80 134.5zM700 872l328 406l176 -172l-385 -344zM811 184q0 -51 61 -51q27 0 44.5 13.5t17.5 31.5q0 47 -86 70q-37 -23 -37 -64zM827 469q0 -34 66 -59q25 18 25 49 q0 20 -13.5 33.5t-34.5 13.5q-43 0 -43 -37z" />
<glyph unicode="&#x2190;" d="M25 512v8l573 549l164 -188l-266 -226h667v-278h-667l266 -225l-164 -189z" />
<glyph unicode="&#x2191;" d="M61 512l549 573h8l549 -573l-188 -164l-225 266v-667h-279v667l-225 -266z" />
<glyph unicode="&#x2192;" d="M66 377v278h667l-266 226l164 188l573 -549v-8l-573 -549l-164 189l266 225h-667z" />
<glyph unicode="&#x2193;" d="M61 520l189 164l225 -266v667h279v-667l225 266l188 -164l-549 -573h-8z" />
<glyph unicode="&#x2202;" d="M109 383q0 211 124.5 346t313.5 135q143 0 244 -116v20q0 326 -201 326q-107 0 -203 -90l-149 217q188 156 391 155q244 0 368.5 -170t124.5 -448q0 -350 -168 -566.5t-432 -216.5q-176 0 -294.5 113t-118.5 295zM430 403q0 -72 38 -108.5t93 -36.5q152 0 203 231 q-59 109 -172 109q-70 0 -116 -47t-46 -148z" />
<glyph unicode="&#x2206;" d="M0 0v213l401 1139h426l402 -1139v-213h-1229zM397 295h434l-131 410l-82 323h-8l-82 -323z" />
<glyph unicode="&#x220f;" d="M29 -246v1544h1171v-1544h-352v1237h-467v-1237h-352z" />
<glyph unicode="&#x2211;" d="M113 -41l397 565l-377 570v204h971v-294h-545v-9l307 -471l-319 -467v-8h602v-295h-1036v205z" />
<glyph unicode="&#x2212;" d="M131 512v246h967v-246h-967z" />
<glyph unicode="&#x2215;" d="M25 225l385 344l118 -110l-327 -406zM700 872l328 406l176 -172l-385 -344z" />
<glyph unicode="&#x2219;" d="M348 729q0 111 75 188.5t191.5 77.5t191.5 -77.5t75 -188.5q0 -113 -75 -189.5t-191.5 -76.5t-191.5 76.5t-75 189.5z" />
<glyph unicode="&#x221a;" d="M45 774l389 156l189 -561q33 -123 45 -185h8q8 61 33 185l307 1310h229l-442 -1831h-238l-307 828l-156 -62z" />
<glyph unicode="&#x221e;" d="M-35 643q0 203 94.5 316.5t253.5 113.5q180 0 271 -160h8q70 104 147.5 148.5t182.5 44.5q141 0 241.5 -117t100.5 -289q0 -223 -102.5 -349t-260.5 -126q-117 0 -197.5 46t-160.5 171h-8q-97 -159 -269 -159q-125 0 -213 108.5t-88 251.5zM219 651q0 -45 27.5 -79.5 t70.5 -34.5q82 0 123 94q-47 119 -135 119q-86 0 -86 -99zM686 725q41 -88 85 -132t108 -44q59 0 95 42t36 101q0 76 -39 118t-105 42q-100 0 -180 -127z" />
<glyph unicode="&#x222b;" d="M270 -307l33 254q27 -8 74 -8q76 0 101.5 53t25.5 196q0 156 -37 445t-37 469q0 121 17.5 208t61.5 161.5t130 112.5t215 38q59 0 125 -16l-33 -254q-27 8 -74 8q-76 0 -101.5 -54.5t-25.5 -195.5q0 -156 37 -444.5t37 -468.5q0 -121 -17.5 -208t-61.5 -162t-130 -113 t-215 -38q-59 0 -125 17z" />
<glyph unicode="&#x2248;" d="M86 274q133 311 356 312q74 0 137.5 -37t114.5 -74t97 -37q84 0 143 164l209 -98q-133 -311 -357 -311q-74 0 -137 36.5t-114.5 73.5t-96.5 37q-84 0 -143 -164zM86 766q133 311 356 311q74 0 137.5 -36.5t114.5 -73.5t97 -37q84 0 143 164l209 -99q-133 -311 -357 -311 q-74 0 -137 37t-114.5 73.5t-96.5 36.5q-84 1 -143 -163z" />
<glyph unicode="&#x2260;" d="M131 266v246h307l135 246h-442v246h578l143 245h217l-143 -245h172v-246h-307l-136 -246h443v-246h-578l-143 -246h-217l143 246h-172z" />
<glyph unicode="&#x2264;" d="M131 0v246h967v-246h-967zM131 557v287l967 282v-286l-324 -74l-287 -61v-9l287 -61l324 -74v-287z" />
<glyph unicode="&#x2265;" d="M131 0v246h967v-246h-967zM131 274v287l324 74l286 61v9l-286 61l-324 74v286l967 -282v-287z" />
<glyph unicode="&#x25a0;" d="M356 274v525h516v-525h-516z" />
<glyph unicode="&#x25b2;" d="M37 29v4l573 1093h8l574 -1093v-4h-1155z" />
<glyph unicode="&#x25b3;" d="M37 29v4l573 1093h8l574 -1093v-4h-1155zM424 254h383l-193 385z" />
<glyph unicode="&#x25b6;" d="M106 0v1155h5l1093 -573v-9l-1093 -573h-5z" />
<glyph unicode="&#x25b7;" d="M106 0v1155h5l1093 -573v-9l-1093 -573h-5zM332 385l385 193l-385 190v-383z" />
<glyph unicode="&#x25bc;" d="M37 1122v4h1155v-4l-574 -1093h-8z" />
<glyph unicode="&#x25bd;" d="M37 1122v4h1155v-4l-574 -1093h-8zM424 901l190 -385l193 385h-383z" />
<glyph unicode="&#x25c0;" d="M25 573v9l1093 573h4v-1155h-4z" />
<glyph unicode="&#x25c1;" d="M25 573v9l1093 573h4v-1155h-4zM512 578l385 -193v383z" />
<glyph unicode="&#x25c6;" d="M258 537l356 356l357 -356l-357 -357z" />
<glyph unicode="&#x25c9;" d="M184 536.5q0 188.5 123 311.5t307.5 123t307 -123t122.5 -311.5t-122.5 -311.5t-307 -123t-307.5 123t-123 311.5zM365 536.5q0 -112.5 70.5 -187.5t179 -75t179 75t70.5 187.5t-70.5 187.5t-179 75t-179 -75t-70.5 -187.5zM471 536.5q0 63.5 41 106.5t102.5 43 t102.5 -43t41 -106.5t-41 -106.5t-102.5 -43t-102.5 43t-41 106.5z" />
<glyph unicode="&#x25ca;" d="M143 676l332 696h279l331 -696l-331 -696h-279zM430 676l78 -164l102 -238h8l103 238l78 164l-78 164l-103 237h-8l-102 -237z" />
<glyph unicode="&#x2610;" d="M-63 -20v1261l163 143h1192v-1241l-143 -163h-1212zM68 111h1032v1081h-1032v-1081z" />
<glyph unicode="&#x2611;" d="M-63 -20v1261l163 143h899q101 154 232 295l213 -184q-76 -72 -152 -164v-1188l-143 -163h-1212zM68 111h1032v950q-215 -352 -336 -799l-324 -37q-100 279 -286 553l221 144q94 -154 200 -439h9q113 383 297 709h-813v-1081z" />
<glyph unicode="&#x266a;" d="M90 123q0 117 105.5 200t250.5 83q86 0 119 -25v1040h185q18 -33 43.5 -55.5t103.5 -75.5q145 -96 205.5 -193.5t60.5 -224.5q0 -168 -114 -315l-111 45q29 86 29 189q0 92 -57.5 171.5t-155.5 112.5v-702q0 -209 -113 -321.5t-313 -112.5q-96 0 -167 46t-71 138z" />
<glyph unicode="&#x2713;" d="M-41 573l221 144q127 -197 250 -500h8q111 371 278 683t361 513l213 -184q-457 -428 -680 -1233l-323 -37q-125 332 -328 614z" />
<glyph unicode="&#x2752;" d="M285 193v544l143 123h516v-524l-123 -143h-536zM395 303h377v385h-377v-385z" />
<glyph unicode="&#xe000;" horiz-adv-x="1025" d="M0 1025h1025v-1025h-1025v1025z" />
<glyph unicode="&#xfb01;" d="M-20 750v262l135 10v14q0 182 96 298t309 116q115 0 217 -37l-61 -258q-55 20 -103 21q-106 0 -106 -127v-25h172v-274h-172v-750h-352v750h-135zM766 1362q0 92 66.5 151.5t169 59.5t169 -59.5t66.5 -151.5t-66.5 -151.5t-169 -59.5t-169 59.5t-66.5 151.5zM827 0v1024 h353v-1024h-353z" />
<glyph unicode="&#xfb02;" d="M-12 750v262l135 10v14q0 182 96 298t309 116q115 0 217 -37l-61 -258q-55 20 -102 21q-106 0 -107 -127v-25h172v-274h-172v-750h-352v750h-135zM799 360v1065h352v-1077q0 -47 17.5 -68.5t39.5 -21.5q21 0 37 4l41 -258q-66 -29 -172 -29q-315 0 -315 385z" />
<glyph d="M82 655.5q0 327.5 178 514t449 186.5q229 0 397 -172l-193 -217q-90 86 -204 86q-113 0 -189 -104.5t-76 -280.5q0 -389 283 -389q59 0 90 24v184h-166v287h479v-635q-76 -68 -190.5 -116t-232.5 -48q-270 0 -447.5 176.5t-177.5 504zM307 1434q18 150 84 224.5t154 74.5 q61 0 142 -43t104 -43q57 0 77 86h176q-18 -150 -83.5 -224.5t-153.5 -74.5q-61 0 -142 43t-104 43q-57 0 -78 -86h-176z" />
<glyph d="M90 -168q0 123 156 197v8q-102 66 -103 176q0 109 123 193v8q-61 39 -100 107.5t-39 154.5q0 180 130 276.5t323 96.5q96 0 174 -25h413v-254h-184q29 -49 29 -106q0 -172 -119 -256t-313 -84q-59 0 -129 14q-33 -25 -33 -59q0 -33 37 -47.5t123 -14.5h174 q426 0 426 -266q0 -168 -171 -270.5t-456 -102.5q-207 0 -334 61.5t-127 192.5zM248 1176q20 162 90 240.5t172 78.5q55 0 126 -53t91 -53q33 0 54.5 23.5t35.5 82.5h176q-20 -162 -89.5 -240.5t-172.5 -78.5q-57 0 -126.5 53t-90.5 53q-33 0 -54.5 -23.5t-35.5 -82.5h-176z M375 -111q0 -94 231 -94q104 0 171 25.5t67 68.5q0 37 -38 49.5t-122 12.5h-102q-102 0 -156 12q-51 -37 -51 -74zM457 676q0 -70 34.5 -107t88 -37t89.5 37t36 107q0 68 -36 103.5t-89.5 35.5t-88 -36t-34.5 -103z" />
<glyph d="M152 750v274h741v-1024q-152 -41 -152 -160q0 -33 23.5 -51t60.5 -18q23 0 68 24l70 -155q-94 -74 -226 -74q-100 0 -164.5 50t-64.5 142q0 145 135 242h-102v750h-389z" />
<glyph d="M86 512q0 242 128 389.5t306 147.5q156 0 266 -127h9l28 102h275v-1024h-287l-25 94h-8q-53 -53 -125.5 -86t-140.5 -33q-193 0 -309.5 145.5t-116.5 391.5zM446 516q0 -254 160 -254q90 0 139 74v377q-55 49 -135 49q-72 0 -118 -59.5t-46 -186.5z" />
<glyph d="M86 512q0 242 128 389.5t306 147.5q156 0 266 -127h9l28 102h275v-1024h-287l-25 94h-8q-53 -53 -125.5 -86t-140.5 -33q-193 0 -309.5 145.5t-116.5 391.5zM291 1532h356l180 -356h-254zM446 516q0 -254 160 -254q90 0 139 74v377q-55 49 -135 49q-72 0 -118 -59.5 t-46 -186.5z" />
<glyph d="M86 512q0 242 128 389.5t306 147.5q156 0 266 -127h9l28 102h275v-1024h-287l-25 94h-8q-53 -53 -125.5 -86t-140.5 -33q-193 0 -309.5 145.5t-116.5 391.5zM446 516q0 -254 160 -254q90 0 139 74v377q-55 49 -135 49q-72 0 -118 -59.5t-46 -186.5zM467 1176l180 356h357 l-283 -356h-254z" />
<glyph d="M86 512q0 242 128 389.5t306 147.5q156 0 266 -127h9l28 102h275v-1024h-287l-25 94h-8q-53 -53 -125.5 -86t-140.5 -33q-193 0 -309.5 145.5t-116.5 391.5zM291 1176l209 356h295l209 -356h-254l-99 192h-8l-98 -192h-254zM446 516q0 -254 160 -254q90 0 139 74v377 q-55 49 -135 49q-72 0 -118 -59.5t-46 -186.5z" />
<glyph d="M86 512q0 242 128 389.5t306 147.5q156 0 266 -127h9l28 102h275v-1024h-287l-25 94h-8q-53 -53 -125.5 -86t-140.5 -33q-193 0 -309.5 145.5t-116.5 391.5zM274 1176q20 162 90 240.5t173 78.5q55 0 125.5 -53t91.5 -53q33 0 54 23.5t36 82.5h176q-20 -162 -90 -240.5 t-172 -78.5q-57 0 -127 53t-90 53q-33 0 -54.5 -23.5t-35.5 -82.5h-177zM446 516q0 -254 160 -254q90 0 139 74v377q-55 49 -135 49q-72 0 -118 -59.5t-46 -186.5z" />
<glyph d="M86 512q0 242 128 389.5t306 147.5q156 0 266 -127h9l28 102h275v-1024h-287l-25 94h-8q-53 -53 -125.5 -86t-140.5 -33q-193 0 -309.5 145.5t-116.5 391.5zM233 1335q0 78 50.5 129.5t130.5 51.5t130 -51.5t50 -129.5t-50 -129t-130 -51t-130.5 51t-50.5 129zM446 516 q0 -254 160 -254q90 0 139 74v377q-55 49 -135 49q-72 0 -118 -59.5t-46 -186.5zM700 1335q0 78 50.5 129.5t130.5 51.5t130 -51.5t50 -129.5t-50 -129t-130 -51t-130.5 51t-50.5 129z" />
<glyph d="M86 512q0 242 128 389.5t306 147.5q156 0 266 -127h9l28 102h275v-1024h-287l-25 94h-8q-53 -53 -125.5 -86t-140.5 -33q-193 0 -309.5 145.5t-116.5 391.5zM352 1204v221h590v-221h-590zM446 516q0 -254 160 -254q90 0 139 74v377q-55 49 -135 49q-72 0 -118 -59.5 t-46 -186.5z" />
<glyph d="M86 512q0 242 128 389.5t306 147.5q156 0 266 -127h9l28 102h275v-1024h-287l-25 94h-8q-53 -53 -125.5 -86t-140.5 -33q-193 0 -309.5 145.5t-116.5 391.5zM332 1511h192q18 -147 123 -147t123 147h193q-4 -145 -85 -240t-230.5 -95t-230.5 95t-85 240zM446 516 q0 -254 160 -254q90 0 139 74v377q-55 49 -135 49q-72 0 -118 -59.5t-46 -186.5z" />
<glyph d="M86 512q0 242 128 389.5t306 147.5q156 0 266 -127h9l28 102h275v-1024h-287l-25 94h-8q-53 -53 -125.5 -86t-140.5 -33q-193 0 -309.5 145.5t-116.5 391.5zM401 1343.5q0 98.5 68 158t178.5 59.5t178 -59.5t67.5 -158t-67.5 -158t-178 -59.5t-178.5 59.5t-68 158z M446 516q0 -254 160 -254q90 0 139 74v377q-55 49 -135 49q-72 0 -118 -59.5t-46 -186.5zM569 1343.5q0 -38.5 22.5 -64.5t55.5 -26t55.5 26t22.5 64.5t-22.5 64.5t-55.5 26t-55.5 -26t-22.5 -64.5z" />
<glyph d="M86 512q0 242 128 389.5t306 147.5q156 0 266 -127h9l28 102h275v-1024h-287l-25 94h-8q-53 -53 -125.5 -86t-140.5 -33q-193 0 -309.5 145.5t-116.5 391.5zM291 1532h254l98 -193h8l99 193h254l-209 -356h-295zM446 516q0 -254 160 -254q90 0 139 74v377q-55 49 -135 49 q-72 0 -118 -59.5t-46 -186.5z" />
<glyph d="M86 512q0 242 128 389.5t306 147.5q156 0 266 -127h9l28 102h275v-1024h-287l-25 94h-8q-53 -53 -125.5 -86t-140.5 -33q-193 0 -309.5 145.5t-116.5 391.5zM426 -336q0 92 63.5 150.5t162 58.5t162 -58.5t63.5 -150.5t-63.5 -148.5t-162 -56.5t-162 56.5t-63.5 148.5z M446 516q0 -254 160 -254q90 0 139 74v377q-55 49 -135 49q-72 0 -118 -59.5t-46 -186.5z" />
<glyph d="M86 512q0 242 128 389.5t306 147.5q156 0 266 -127h9l28 102h275v-1024h-287l-25 94h-8q-53 -53 -125.5 -86t-140.5 -33q-193 0 -309.5 145.5t-116.5 391.5zM446 516q0 -254 160 -254q90 0 139 74v377q-55 49 -135 49q-72 0 -118 -59.5t-46 -186.5zM467 1389l41 172 q369 -10 369 -197q0 -104 -86.5 -159.5t-221.5 -61.5l-24 135q82 10 82 49q0 51 -160 62z" />
<glyph d="M86 512q0 242 128 389.5t306 147.5q156 0 266 -127h9l28 102h275v-1024h-287l-25 94h-8q-53 -53 -125.5 -86t-140.5 -33q-193 0 -309.5 145.5t-116.5 391.5zM344 1176l164 270h278l164 -270h-213l-86 127h-8l-86 -127h-213zM446 516q0 -254 160 -254q90 0 139 74v377 q-55 49 -135 49q-72 0 -118 -59.5t-46 -186.5zM881 1327l135 246h254l-197 -246h-192z" />
<glyph d="M86 512q0 242 128 389.5t306 147.5q156 0 266 -127h9l28 102h275v-1024h-287l-25 94h-8q-53 -53 -125.5 -86t-140.5 -33q-193 0 -309.5 145.5t-116.5 391.5zM344 1176l164 270h278l164 -270h-213l-86 127h-8l-86 -127h-213zM446 516q0 -254 160 -254q90 0 139 74v377 q-55 49 -135 49q-72 0 -118 -59.5t-46 -186.5zM807 1573h254l135 -246h-192z" />
<glyph d="M86 512q0 242 128 389.5t306 147.5q156 0 266 -127h9l28 102h275v-1024h-287l-25 94h-8q-53 -53 -125.5 -86t-140.5 -33q-193 0 -309.5 145.5t-116.5 391.5zM344 1176l164 270h278l164 -270h-213l-86 127h-8l-86 -127h-213zM446 516q0 -254 160 -254q90 0 139 74v377 q-55 49 -135 49q-72 0 -118 -59.5t-46 -186.5zM848 1511l33 144q178 -6 250.5 -49t72.5 -119q0 -98 -67.5 -142.5t-190.5 -58.5l-20 115q53 10 53 49q0 51 -131 61z" />
<glyph d="M86 512q0 242 128 389.5t306 147.5q156 0 266 -127h9l28 102h275v-1024h-287l-25 94h-8q-53 -53 -125.5 -86t-140.5 -33q-193 0 -309.5 145.5t-116.5 391.5zM328 1176l159 233h320l160 -233h-226l-90 114h-8l-90 -114h-225zM336 1483q14 127 68.5 188.5t127.5 61.5 q61 0 125 -37t84 -37q53 0 70 74h147q-14 -127 -68 -188.5t-128 -61.5q-61 0 -125 36.5t-84 36.5q-54 1 -70 -73h-147zM446 516q0 -254 160 -254q90 0 139 74v377q-55 49 -135 49q-72 0 -118 -59.5t-46 -186.5z" />
<glyph d="M86 512q0 242 128 389.5t306 147.5q156 0 266 -127h9l28 102h275v-1024h-287l-25 94h-8q-53 -53 -125.5 -86t-140.5 -33q-193 0 -309.5 145.5t-116.5 391.5zM291 1176l209 356h295l209 -356h-254l-99 192h-8l-98 -192h-254zM426 -336q0 92 63.5 150.5t162 58.5t162 -58.5 t63.5 -150.5t-63.5 -148.5t-162 -56.5t-162 56.5t-63.5 148.5zM446 516q0 -254 160 -254q90 0 139 74v377q-55 49 -135 49q-72 0 -118 -59.5t-46 -186.5z" />
<glyph d="M86 512q0 242 128 389.5t306 147.5q156 0 266 -127h9l28 102h275v-1024h-287l-25 94h-8q-53 -53 -125.5 -86t-140.5 -33q-193 0 -309.5 145.5t-116.5 391.5zM352 1470h152q20 -127 143 -127t144 127h151q-4 -127 -79 -210.5t-216 -83.5t-216 83.5t-79 210.5zM446 516 q0 -254 160 -254q90 0 139 74v377q-55 49 -135 49q-72 0 -118 -59.5t-46 -186.5zM545 1430l110 245h246l-184 -245h-172z" />
<glyph d="M86 512q0 242 128 389.5t306 147.5q156 0 266 -127h9l28 102h275v-1024h-287l-25 94h-8q-53 -53 -125.5 -86t-140.5 -33q-193 0 -309.5 145.5t-116.5 391.5zM352 1470h152q20 -127 143 -127t144 127h151q-4 -127 -79 -210.5t-216 -83.5t-216 83.5t-79 210.5zM393 1675 h246l111 -245h-172zM446 516q0 -254 160 -254q90 0 139 74v377q-55 49 -135 49q-72 0 -118 -59.5t-46 -186.5z" />
<glyph d="M86 512q0 242 128 389.5t306 147.5q156 0 266 -127h9l28 102h275v-1024h-287l-25 94h-8q-53 -53 -125.5 -86t-140.5 -33q-193 0 -309.5 145.5t-116.5 391.5zM352 1470h152q20 -127 143 -127t144 127h151q-4 -127 -79 -210.5t-216 -83.5t-216 83.5t-79 210.5zM446 516 q0 -254 160 -254q90 0 139 74v377q-55 49 -135 49q-72 0 -118 -59.5t-46 -186.5zM471 1665l33 143q178 -6 250.5 -49t72.5 -119q0 -98 -67.5 -142t-190.5 -58l-20 114q53 10 53 50q0 51 -131 61z" />
<glyph d="M86 512q0 242 128 389.5t306 147.5q156 0 266 -127h9l28 102h275v-1024h-287l-25 94h-8q-53 -53 -125.5 -86t-140.5 -33q-193 0 -309.5 145.5t-116.5 391.5zM336 1483q14 127 68.5 188.5t127.5 61.5q61 0 125 -37t84 -37q53 0 70 74h147q-14 -127 -68 -188.5t-128 -61.5 q-61 0 -125 36.5t-84 36.5q-53 0 -70 -73h-147zM352 1430h160q25 -94 135.5 -94.5t134.5 94.5h160q-4 -111 -79 -182.5t-216 -71.5t-216 71.5t-79 182.5zM446 516q0 -254 160 -254q90 0 139 74v377q-55 49 -135 49q-72 0 -118 -59.5t-46 -186.5z" />
<glyph d="M86 512q0 242 128 389.5t306 147.5q156 0 266 -127h9l28 102h275v-1024h-287l-25 94h-8q-53 -53 -125.5 -86t-140.5 -33q-193 0 -309.5 145.5t-116.5 391.5zM332 1511h192q18 -147 123 -147t123 147h193q-4 -145 -85 -240t-230.5 -95t-230.5 95t-85 240zM426 -336 q0 92 63.5 150.5t162 58.5t162 -58.5t63.5 -150.5t-63.5 -148.5t-162 -56.5t-162 56.5t-63.5 148.5zM446 516q0 -254 160 -254q90 0 139 74v377q-55 49 -135 49q-72 0 -118 -59.5t-46 -186.5z" />
<glyph d="M86 512q0 242 128 389.5t306 147.5q156 0 266 -127h9l28 102h275v-1024q-180 -43 -180 -160q0 -33 23.5 -51t57.5 -18q37 0 70 24l70 -155q-94 -74 -226 -74q-100 0 -164.5 50t-64.5 142q0 141 131 234l-29 102h-8q-53 -53 -125.5 -86t-140.5 -33q-193 0 -309.5 145.5 t-116.5 391.5zM446 516q0 -254 160 -254q90 0 139 74v377q-55 49 -135 49q-72 0 -118 -59.5t-46 -186.5z" />
<glyph d="M86 532q0 227 128 372t306 145q158 0 266 -127h9l28 102h275v-963q0 -215 -140.5 -330.5t-412.5 -115.5q-229 0 -398 106l115 238q133 -70 283 -70q96 0 149.5 37t63.5 94l8 103q-100 -90 -254 -90q-188 0 -307 141t-119 358zM442 537q0 -106 45 -164t119 -58 q88 0 139 78v320q-55 49 -139 49q-66 0 -115 -58.5t-49 -166.5z" />
<glyph d="M86 532q0 227 128 372t306 145q158 0 266 -127h9l28 102h275v-963q0 -215 -140.5 -330.5t-412.5 -115.5q-229 0 -398 106l115 238q133 -70 283 -70q96 0 149.5 37t63.5 94l8 103q-100 -90 -254 -90q-188 0 -307 141t-119 358zM279 1176l208 356h295l209 -356h-254 l-98 192h-8l-99 -192h-253zM442 537q0 -106 45 -164t119 -58q88 0 139 78v320q-55 49 -139 49q-66 0 -115 -58.5t-49 -166.5z" />
<glyph d="M86 532q0 227 128 372t306 145q158 0 266 -127h9l28 102h275v-963q0 -215 -140.5 -330.5t-412.5 -115.5q-229 0 -398 106l115 238q133 -70 283 -70q96 0 149.5 37t63.5 94l8 103q-100 -90 -254 -90q-188 0 -307 141t-119 358zM319 1511h193q18 -147 122.5 -147t123.5 147 h192q-4 -145 -85 -240t-230.5 -95t-230 95t-85.5 240zM442 537q0 -106 45 -164t119 -58q88 0 139 78v320q-55 49 -139 49q-66 0 -115 -58.5t-49 -166.5z" />
<glyph d="M86 532q0 227 128 372t306 145q158 0 266 -127h9l28 102h275v-963q0 -215 -140.5 -330.5t-412.5 -115.5q-229 0 -398 106l115 238q133 -70 283 -70q96 0 149.5 37t63.5 94l8 103q-100 -90 -254 -90q-188 0 -307 141t-119 358zM410 1356q0 92 63.5 150.5t161.5 58.5 t161.5 -58.5t63.5 -150.5t-63.5 -148.5t-161.5 -56.5t-161.5 56.5t-63.5 148.5zM442 537q0 -106 45 -164t119 -58q88 0 139 78v320q-55 49 -139 49q-66 0 -115 -58.5t-49 -166.5z" />
<glyph d="M86 532q0 227 128 372t306 145q158 0 266 -127h9l28 102h275v-963q0 -215 -140.5 -330.5t-412.5 -115.5q-229 0 -398 106l115 238q133 -70 283 -70q96 0 149.5 37t63.5 94l8 103q-100 -90 -254 -90q-188 0 -307 141t-119 358zM442 537q0 -106 45 -164t119 -58 q88 0 139 78v320q-55 49 -139 49q-66 0 -115 -58.5t-49 -166.5zM446 1294q0 104 110 159.5t280 62.5l24 -136q-164 -14 -164 -69q0 -47 82 -70l-65 -123q-147 12 -207 53t-60 123z" />
<glyph d="M86 532q0 227 128 372t306 145q158 0 266 -127h9l28 102h275v-963q0 -215 -140.5 -330.5t-412.5 -115.5q-229 0 -398 106l115 238q133 -70 283 -70q96 0 149.5 37t63.5 94l8 103q-100 -90 -254 -90q-188 0 -307 141t-119 358zM279 1532h253l99 -193h8l98 193h254 l-209 -356h-295zM442 537q0 -106 45 -164t119 -58q88 0 139 78v320q-55 49 -139 49q-66 0 -115 -58.5t-49 -166.5z" />
<glyph d="M86 532q0 227 128 372t306 145q158 0 266 -127h9l28 102h275v-963q0 -215 -140.5 -330.5t-412.5 -115.5q-229 0 -398 106l115 238q133 -70 283 -70q96 0 149.5 37t63.5 94l8 103q-100 -90 -254 -90q-188 0 -307 141t-119 358zM340 1204v221h590v-221h-590zM442 537 q0 -106 45 -164t119 -58q88 0 139 78v320q-55 49 -139 49q-66 0 -115 -58.5t-49 -166.5z" />
<glyph d="M86 532q0 227 128 372t306 145q158 0 266 -127h9l28 102h275v-963q0 -215 -140.5 -330.5t-412.5 -115.5q-229 0 -398 106l115 238q133 -70 283 -70q96 0 149.5 37t63.5 94l8 103q-100 -90 -254 -90q-188 0 -307 141t-119 358zM262 1176q20 162 90 240.5t172 78.5 q55 0 126 -53t91 -53q33 0 54.5 23.5t35.5 82.5h177q-20 -162 -90 -240.5t-173 -78.5q-57 0 -126.5 53t-90.5 53q-33 0 -54 -23.5t-36 -82.5h-176zM442 537q0 -106 45 -164t119 -58q88 0 139 78v320q-55 49 -139 49q-66 0 -115 -58.5t-49 -166.5z" />
<glyph d="M102 602q0 295 138.5 452.5t374 157.5t373.5 -157.5t138 -452.5q0 -297 -139 -462t-372.5 -165t-373 165t-139.5 462zM414 602q0 -356 200.5 -356t200.5 356q0 340 -200.5 340t-200.5 -340zM451 602q0 72 46 118t117.5 46t117.5 -46t46 -118t-46 -118t-117.5 -46 t-117.5 46t-46 118z" />
<glyph d="M154 0v283h323v561h-264v217q211 39 358 127h258v-905h279v-283h-954z" />
<glyph d="M90 1004q109 111 218.5 159.5t258.5 48.5q211 0 342 -116.5t131 -309.5q0 -135 -98 -257.5t-270 -249.5q143 16 233 16h201v-295h-1000v201q600 373 601 565q0 86 -50.5 129t-138.5 43q-102 0 -242 -123z" />
<glyph d="M74 -4l159 221q143 -123 295 -123q98 0 157.5 37t59.5 107q0 86 -76.5 124.5t-283.5 38.5v246q319 0 320 164q0 59 -44.5 93t-119.5 34q-121 0 -258 -107l-177 213q211 168 451 168q227 0 363.5 -100t136.5 -274q0 -197 -238 -297v-9q279 -82 279 -319 q0 -186 -156 -293.5t-377 -107.5q-327 0 -491 184z" />
<glyph d="M68 160v246l501 782h435v-762h149v-266h-149v-324h-328v324h-608zM399 426h277v168q0 43 12 307h-8q-18 -35 -42 -74t-53.5 -86t-45.5 -73z" />
<glyph d="M86 -4l156 221q147 -123 282 -123q221 0 221 189q0 90 -56 135t-148 45q-57 0 -96 -12.5t-105 -49.5l-152 99l33 688h819v-295h-516l-16 -209q53 20 143 21q190 0 318.5 -104.5t128.5 -309.5q0 -219 -152.5 -349t-367.5 -130q-302 0 -492 184z" />
<glyph d="M111 627q0 334 165.5 515t399.5 181q262 0 434 -164l-184 -209q-98 90 -217 90q-115 0 -191 -84t-86 -270q63 61 145 97t148 36q176 0 288.5 -101.5t112.5 -299.5q0 -201 -139 -322t-340 -121q-102 0 -194.5 37t-171 111t-124.5 204t-46 300zM442 463q43 -225 197 -225 q72 0 120 43t48 137q0 156 -160 155q-111 0 -205 -110z" />
<glyph d="M121 893v295h989v-217q-160 -176 -241 -345t-107.5 -332t-40.5 -458h-352q20 338 98 573.5t268 483.5h-614z" />
<glyph d="M119 332q0 193 231 307v8q-186 133 -186 307q0 170 127 269.5t332 99.5q197 0 315.5 -97.5t118.5 -262.5q0 -162 -183 -273v-8q240 -121 240 -342q0 -162 -133 -263.5t-371 -101.5q-225 0 -358 97.5t-133 259.5zM422 373q0 -74 56.5 -115t139.5 -41q168 0 168 135 q0 43 -36.5 78t-76.5 53.5t-142 57.5q-15 6 -21 8q-88 -74 -88 -176zM471 954q0 -59 55 -99t170 -81q74 80 74 164q0 68 -41 105.5t-115 37.5q-63 0 -103 -31.5t-40 -95.5z" />
<glyph d="M98 754q0 211 139.5 334.5t340.5 123.5q102 0 194 -36.5t171 -110.5t125 -204t46 -300q0 -186 -47 -332.5t-128 -235.5t-180.5 -135t-209.5 -46q-262 -1 -434 163l184 209q98 -90 217 -90q242 0 275 357q-66 -61 -147 -96.5t-144 -35.5q-176 0 -289 112t-113 323z M418 754q0 -92 44 -140.5t116 -48.5q115 0 210 119q-18 147 -75.5 206.5t-126.5 59.5q-168 0 -168 -196z" />
<glyph d="M49 643q0 186 51.5 326.5t141.5 223.5t201.5 123t242.5 40q219 0 331.5 -127t112.5 -328v-573h-184l-24 98h-9q-82 -123 -235 -123q-111 0 -185.5 87t-74.5 208q0 160 128 241t372 111v13q0 78 -63.5 131t-176.5 53q-70 0 -134.5 -25.5t-125 -82t-96 -161t-35.5 -243.5 q0 -236 124 -359.5t296 -123.5q137 0 264 73l98 -172q-201 -111 -377 -110q-268 0 -455.5 180t-187.5 520zM672 606q0 -78 86 -78q57 0 123 54v159q-119 -18 -164 -48t-45 -87z" />
<glyph d="M471 1028.5q0 61.5 41 104.5t102.5 43t102.5 -43t41 -104.5t-41 -102.5t-102.5 -41t-102.5 41t-41 102.5z" />
<glyph d="M451 750q86 27 126.5 62.5t40.5 92.5h-6q-57 0 -99 37t-42 98q0 57 43 96.5t104 39.5q78 0 119 -56.5t41 -161.5q0 -127 -71.5 -212.5t-206.5 -122.5z" />
<glyph d="M471 -221.5q0 61.5 41 104.5t102.5 43t102.5 -43t41 -104.5t-41 -102.5t-102.5 -41t-102.5 41t-41 102.5z" />
<glyph d="M451 -500q86 27 126.5 63t40.5 93h-6q-57 0 -99 37t-42 98q0 57 43 96t104 39q78 0 119 -56t41 -161q0 -127 -71.5 -213t-206.5 -123z" />
<glyph d="M303 325.5q0 155.5 88 249t223.5 93.5t223.5 -93.5t88 -249t-89 -253t-222.5 -97.5t-222.5 97.5t-89 253zM541 326q0 -166 73.5 -166t73.5 166q0 158 -73.5 157.5t-73.5 -157.5z" />
<glyph d="M391 420v149q127 14 223 74h197v-643h-254v420h-166z" />
<glyph d="M307 532q135 135 285 136q127 0 202.5 -60.5t75.5 -165.5q0 -106 -135 -237h156v-205h-551v129q121 72 205 146.5t84 119.5q0 72 -78 72q-51 0 -100 -66z" />
<glyph d="M332 51l92 156q90 -47 162 -47q29 0 49 12t20 33q0 59 -131 59v127q55 0 81 10.5t26 40.5q0 41 -66 41q-39 0 -129 -45l-96 148q115 82 285 82q104 0 178 -52.5t74 -132.5q0 -57 -24 -90t-85 -53q133 -39 133 -156q0 -88 -84 -148.5t-199 -60.5q-173 0 -286 76z" />
<glyph d="M322 115v121l223 407h323v-375h107v-153h-107v-115h-221v115h-325zM541 268h106v19l12 217h-6l-61 -125z" />
<glyph d="M332 51l92 156q90 -47 160 -47q72 0 71 53q0 57 -69 57q-45 0 -97 -26l-98 65l27 334h456v-205h-268l-4 -45q33 8 78 8q102 0 161.5 -52t59.5 -144q0 -94 -81 -162t-202 -68q-173 0 -286 76z" />
<glyph d="M319 330q0 135 90.5 236.5t254.5 101.5q131 0 235 -90l-96 -140q-55 45 -119 45q-121 0 -135 -133q57 51 149.5 51t147.5 -48t55 -142q0 -98 -75.5 -167t-188.5 -69q-152 0 -235 98.5t-83 256.5zM551 229q18 -69 73.5 -69t55.5 49q0 47 -59 47q-37 0 -70 -27z" />
<glyph d="M358 438v205h557v-129q-106 -121 -143 -230.5t-45 -283.5h-264q8 123 47 216t129 222h-281z" />
<glyph d="M332 164q0 41 20.5 72.5t42 47t60.5 35.5v9q-43 29 -57.5 40t-32 40.5t-17.5 68.5q0 86 77 138.5t189 52.5q115 0 191 -52.5t76 -138.5q0 -82 -109 -129v-8q63 -33 94 -70t31 -106q0 -78 -80 -133.5t-202.5 -55.5t-202.5 54.5t-80 134.5zM553 184q0 -51 61 -51 q27 0 44.5 13.5t17.5 31.5q0 47 -86 70q-37 -23 -37 -64zM569 469q0 -34 66 -59q25 18 24 49q0 20 -13 33.5t-34 13.5q-43 0 -43 -37z" />
<glyph d="M328 432q0 98 75.5 167t188.5 69q152 0 234.5 -98.5t82.5 -256.5q0 -135 -90 -236.5t-254 -101.5q-131 1 -235 91l96 139q55 -45 119 -45q121 0 135 133q-57 -51 -149.5 -51t-147.5 48t-55 142zM549 434q0 -47 59 -47q37 0 70 27q-18 70 -73.5 69.5t-55.5 -49.5z" />
<glyph d="M422 344q0 158 55 284t166 253l188 -111q-168 -207 -167.5 -426t167.5 -426l-188 -111q-111 127 -166 253t-55 284z" />
<glyph d="M397 -82q168 207 168 426t-168 426l189 111q111 -127 166 -253t55 -284t-55.5 -284t-165.5 -253z" />
<glyph d="M471 127q0 61 41 104t102.5 43t102.5 -43t41 -104t-41 -102t-102.5 -41t-102.5 41t-41 102z" />
<glyph d="M451 -152q86 27 126.5 63t40.5 93h-6q-57 0 -99 37t-42 98q0 57 43 96t104 39q78 0 119 -56t41 -161q0 -127 -71.5 -213t-206.5 -123z" />
<glyph d="M303 981q0 156 88 249t223.5 93t223.5 -93t88 -249t-89 -253t-222.5 -97t-222.5 97t-89 253zM541 981q0 -166 73.5 -166t73.5 166q0 158 -73.5 158t-73.5 -158z" />
<glyph d="M391 1075v150q127 14 223 73h197v-643h-254v420h-166z" />
<glyph d="M311 1188q135 135 285 135q127 0 202.5 -60.5t75.5 -164.5q0 -106 -135 -238h156v-205h-551v129q121 72 205 147t84 120q0 72 -78 71q-51 0 -100 -65z" />
<glyph d="M332 707l92 155q90 -47 162 -47q29 0 49 12.5t20 32.5q0 59 -131 60v127q55 0 81 10t26 41q0 41 -66 41q-39 0 -129 -45l-96 147q115 82 285 82q104 0 178 -52t74 -132q0 -57 -24 -90t-85 -54q133 -39 133 -155q0 -88 -84 -148.5t-199 -60.5q-173 0 -286 76z" />
<glyph d="M322 770v121l223 407h323v-374h107v-154h-107v-115h-221v115h-325zM541 924h106v18l12 217h-6l-61 -125z" />
<glyph d="M332 707l92 155q90 -47 160 -47q72 0 71 53q0 57 -69 58q-45 0 -97 -27l-98 66l27 333h456v-204h-268l-4 -45q33 8 78 8q102 0 161.5 -52.5t59.5 -144.5q0 -94 -81 -161.5t-202 -67.5q-173 0 -286 76z" />
<glyph d="M319 985q0 135 90.5 236.5t254.5 101.5q131 0 235 -90l-96 -139q-55 45 -119 45q-121 0 -135 -133q57 51 149.5 51t147.5 -48t55 -143q0 -98 -75.5 -166.5t-188.5 -68.5q-152 0 -235 98t-83 256zM551 885q18 -70 73.5 -70t55.5 49q0 47 -59 47q-37 0 -70 -26z" />
<glyph d="M358 1094v204h557v-129q-106 -121 -143 -230.5t-45 -283.5h-264q8 123 47 216.5t129 222.5h-281z" />
<glyph d="M332 819q0 41 20.5 73t42 47t60.5 36v8q-43 29 -57.5 40t-32 41t-17.5 69q0 86 77 138t189 52q115 0 191 -52t76 -138q0 -82 -109 -129v-9q63 -33 94 -69.5t31 -106.5q0 -78 -80 -133t-202.5 -55t-202.5 54t-80 134zM553 840q0 -51 61 -52q27 0 44.5 13.5t17.5 32.5 q0 47 -86 69q-37 -22 -37 -63zM569 1124q0 -34 66 -59q25 18 24 49q0 20 -13 33.5t-34 13.5q-43 0 -43 -37z" />
<glyph d="M328 1087q0 98 75.5 167t188.5 69q152 0 234.5 -98.5t82.5 -255.5q0 -135 -90 -236.5t-254 -101.5q-131 0 -235 90l96 139q55 -45 119 -45q121 0 135 133q-57 -51 -149.5 -51t-147.5 48t-55 142zM549 1090q0 -47 59 -48q37 0 70 27q-18 70 -73.5 70t-55.5 -49z" />
<glyph d="M422 876.5q0 157.5 55 283.5t166 253l188 -110q-168 -207 -167.5 -426.5t167.5 -425.5l-188 -111q-111 127 -166 253t-55 283.5z" />
<glyph d="M397 451q168 207 168 426t-168 426l189 110q111 -127 166 -253t55 -283.5t-55.5 -283.5t-165.5 -253z" />
<glyph d="M471 659.5q0 61.5 41 104.5t102.5 43t102.5 -43t41 -104.5t-41 -102.5t-102.5 -41t-102.5 41t-41 102.5z" />
<glyph d="M451 381q86 27 126.5 62.5t40.5 93.5h-6q-57 0 -99 36.5t-42 98.5q0 57 43 96t104 39q78 0 119 -56.5t41 -160.5q0 -127 -71.5 -213t-206.5 -123z" />
<glyph d="M256 870q0 162 86 259.5t205 97.5q104 0 176 -84h6l21 67h188v-678h-199l-16 62h-6q-78 -78 -176 -78q-129 0 -207 95t-78 259zM506 874q0 -162 100 -161q61 0 88 45v241q-33 31 -94 31q-39 0 -66.5 -38t-27.5 -118z" />
<glyph d="M256 870q0 160 86 258.5t201 98.5q106 0 180 -86h6l19 69h190v-913h-244v190l11 95q-72 -66 -162 -66q-131 0 -209 95t-78 259zM506 874q0 -162 100 -161q57 0 88 45v241q-37 31 -92 31q-96 0 -96 -156z" />
<glyph d="M293 870q0 158 104.5 257.5t243.5 99.5q154 0 235.5 -93.5t81.5 -236.5q0 -53 -10 -94h-420q31 -104 172 -105q72 0 152 39l80 -141q-121 -80 -266 -80q-164 0 -268.5 95t-104.5 259zM395 1546h246l121 -237h-176zM526 948h226q0 96 -105 96q-103 0 -121 -96z" />
<glyph d="M293 870q0 158 104.5 257.5t243.5 99.5q154 0 235.5 -93.5t81.5 -236.5q0 -53 -10 -94h-420q31 -104 172 -105q72 0 152 39l80 -141q-121 -80 -266 -80q-164 0 -268.5 95t-104.5 259zM516 1309l121 237h248l-193 -237h-176zM526 948h226q0 96 -105 96q-103 0 -121 -96z " />
<glyph d="M256 870q0 162 86 259.5t205 97.5q104 0 176 -84h6l21 67h188v-678h-199l-16 62h-6q-78 -78 -176 -78q-129 0 -207 95t-78 259zM506 874q0 -162 100 -161q61 0 88 45v241q-33 31 -94 31q-39 0 -66.5 -38t-27.5 -118z" />
<glyph d="M256 885q0 147 90 244.5t201 97.5q106 0 174 -80h4l18 63h195v-653q0 -133 -97.5 -202.5t-277.5 -69.5q-150 0 -266 75l80 156q90 -45 186 -45q123 0 131 78l6 63q-68 -57 -159 -57q-127 0 -206 93t-79 237zM504 887q0 -68 28.5 -103.5t73.5 -35.5q57 0 88 49v202 q-33 31 -94 31q-39 0 -67.5 -37t-28.5 -106z" />
<glyph d="M25 225l385 344l118 -110l-327 -406zM700 872l328 406l176 -172l-385 -344z" />
<glyph d="M258 1688h369l159 -254h-278z" />
<glyph d="M442 1434l160 254h369l-250 -254h-279z" />
<glyph d="M246 1434l196 254h344l197 -254h-266l-99 118h-8l-98 -118h-266z" />
<glyph d="M246 1434q18 150 83.5 224.5t153.5 74.5q61 0 142.5 -43t103.5 -43q57 0 78 86h176q-18 -150 -84 -224.5t-154 -74.5q-61 0 -142 43t-103 43q-57 0 -78 -86h-176z" />
<glyph d="M311 1466v222h607v-222h-607z" />
<glyph d="M324 1688h188q20 -82 102 -82t103 82h188q-26 -254 -290.5 -254t-290.5 254z" />
<glyph d="M418 1601.5q0 77.5 55 127t141 49.5t141.5 -49.5t55.5 -127t-55.5 -127t-141.5 -49.5t-141 49.5t-55 127z" />
<glyph d="M242 1581q0 68 45 114t114.5 46t114.5 -46t45 -114t-45 -114t-114.5 -46t-114.5 46t-45 114zM668 1581q0 68 45 114t114.5 46t114.5 -46t45 -114t-45 -114t-114.5 -46t-114.5 46t-45 114z" />
<glyph d="M434 1655l41 172q369 -10 369 -197q0 -104 -86 -159.5t-221 -61.5l-25 135q82 10 82 49q0 51 -160 62z" />
<glyph d="M369 1634.5q0 94.5 67.5 151.5t178 57t178 -57t67.5 -151.5t-67.5 -152t-178 -57.5t-178 57.5t-67.5 152zM537 1634q0 -37 22.5 -59.5t55 -22.5t55 22.5t22.5 59.5t-22.5 59.5t-55 22.5t-55 -22.5t-22.5 -59.5z" />
<glyph d="M311 1434l127 254h295l-188 -254h-234zM696 1434l127 254h295l-188 -254h-234z" />
<glyph d="M246 1688h266l98 -119h8l99 119h266l-197 -254h-344z" />
<glyph d="M111 1688h295l126 -254h-233zM496 1688h295l127 -254h-234z" />
<glyph d="M389 -324q164 14 164 86q0 51 -115 82l82 164h201l-37 -90q119 -41 119 -156q0 -104 -109.5 -159.5t-279.5 -61.5z" />
<glyph d="M414 -266q0 88 51 160.5t104 109.5h209q-111 -90 -110 -176q0 -35 23.5 -52.5t58.5 -17.5q27 0 69 29l78 -176q-43 -35 -109.5 -56.5t-123.5 -21.5q-109 0 -179.5 54.5t-70.5 146.5z" />
<glyph d="M262 1294.5q0 59.5 39 99.5t100.5 40t100.5 -40t39 -99.5t-39 -99.5t-100.5 -40t-100.5 40t-39 99.5zM319 1552v160h590v-160h-590zM688 1294.5q0 59.5 39 99.5t100.5 40t100.5 -40t39 -99.5t-39 -99.5t-100.5 -40t-100.5 40t-39 99.5z" />
<glyph d="M262 1560.5q0 59.5 39 99.5t100.5 40t100.5 -40t39 -99.5t-39 -99.5t-100.5 -40t-100.5 40t-39 99.5zM311 1794v160h607v-160h-607zM688 1560.5q0 59.5 39 99.5t100.5 40t100.5 -40t39 -99.5t-39 -99.5t-100.5 -40t-100.5 40t-39 99.5z" />
<glyph d="M262 1294.5q0 59.5 39 99.5t100.5 40t100.5 -40t39 -99.5t-39 -99.5t-100.5 -40t-100.5 40t-39 99.5zM463 1524l172 233h295l-246 -233h-221zM688 1294.5q0 59.5 39 99.5t100.5 40t100.5 -40t39 -99.5t-39 -99.5t-100.5 -40t-100.5 40t-39 99.5z" />
<glyph d="M262 1560.5q0 59.5 39 99.5t100.5 40t100.5 -40t39 -99.5t-39 -99.5t-100.5 -40t-100.5 40t-39 99.5zM442 1761l160 254h365l-246 -254h-279zM688 1560.5q0 59.5 39 99.5t100.5 40t100.5 -40t39 -99.5t-39 -99.5t-100.5 -40t-100.5 40t-39 99.5z" />
<glyph d="M262 1294.5q0 59.5 39 99.5t100.5 40t100.5 -40t39 -99.5t-39 -99.5t-100.5 -40t-100.5 40t-39 99.5zM295 1757h233l82 -115h8l82 115h234l-172 -233h-295zM688 1294.5q0 59.5 39 99.5t100.5 40t100.5 -40t39 -99.5t-39 -99.5t-100.5 -40t-100.5 40t-39 99.5z" />
<glyph d="M246 2015h266l98 -119h8l99 119h266l-197 -254h-344zM262 1560.5q0 59.5 39 99.5t100.5 40t100.5 -40t39 -99.5t-39 -99.5t-100.5 -40t-100.5 40t-39 99.5zM688 1560.5q0 59.5 39 99.5t100.5 40t100.5 -40t39 -99.5t-39 -99.5t-100.5 -40t-100.5 40t-39 99.5z" />
<glyph d="M262 1294.5q0 59.5 39 99.5t100.5 40t100.5 -40t39 -99.5t-39 -99.5t-100.5 -40t-100.5 40t-39 99.5zM299 1757h295l172 -233h-221zM688 1294.5q0 59.5 39 99.5t100.5 40t100.5 -40t39 -99.5t-39 -99.5t-100.5 -40t-100.5 40t-39 99.5z" />
<glyph d="M262 1560.5q0 59.5 39 99.5t100.5 40t100.5 -40t39 -99.5t-39 -99.5t-100.5 -40t-100.5 40t-39 99.5zM262 2015h365l159 -254h-278zM688 1560.5q0 59.5 39 99.5t100.5 40t100.5 -40t39 -99.5t-39 -99.5t-100.5 -40t-100.5 40t-39 99.5z" />
<glyph d="M311 1176l164 270h279l164 -270h-213l-87 127h-8l-86 -127h-213zM848 1327l135 246h254l-197 -246h-192z" />
<glyph d="M266 1434l197 241h303l197 -241h-246l-99 106h-8l-98 -106h-246zM862 1577l139 254h267l-209 -254h-197z" />
<glyph d="M311 1176l164 270h279l164 -270h-213l-87 127h-8l-86 -127h-213zM774 1573h254l135 -246h-192z" />
<glyph d="M266 1434l197 241h303l197 -241h-246l-99 106h-8l-98 -106h-246zM739 1831h267l139 -254h-197z" />
<glyph d="M311 1176l164 270h279l164 -270h-213l-87 127h-8l-86 -127h-213zM815 1511l33 144q178 -6 250.5 -49t72.5 -119q0 -98 -67.5 -142.5t-190.5 -58.5l-20 115q53 10 53 49q0 51 -131 61z" />
<glyph d="M266 1434l197 241h303l197 -241h-246l-99 106h-8l-98 -106h-246zM815 1749l33 139q319 -10 319 -172q0 -170 -254 -184l-24 106q57 10 57 50q0 51 -131 61z" />
<glyph d="M295 1176l160 233h319l160 -233h-225l-91 114h-8l-90 -114h-225zM303 1483q14 127 68.5 188.5t128.5 61.5q61 0 124.5 -37t84.5 -37q53 0 69 74h148q-14 -127 -68.5 -188.5t-128.5 -61.5q-61 0 -124.5 36.5t-84.5 36.5q-53 1 -69 -73h-148z" />
<glyph d="M266 1434l197 241h303l197 -241h-246l-99 106h-8l-98 -106h-246zM295 1749q14 127 68.5 188.5t128.5 61.5q61 0 132.5 -37t92.5 -37q53 0 69 74h148q-14 -127 -68.5 -188.5t-128.5 -61.5q-61 0 -133 37t-92 37q-54 0 -70 -74h-147z" />
<glyph d="M319 1470h152q20 -127 143 -127t144 127h151q-4 -127 -78.5 -210.5t-216 -83.5t-216 83.5t-79.5 210.5zM512 1430l111 245h245l-184 -245h-172z" />
<glyph d="M324 1688h155q27 -102 135.5 -102.5t135.5 102.5h155q-26 -254 -290.5 -254t-290.5 254zM518 1659l123 254h258l-209 -254h-172z" />
<glyph d="M319 1470h152q20 -127 143 -127t144 127h151q-4 -127 -78.5 -210.5t-216 -83.5t-216 83.5t-79.5 210.5zM360 1675h246l111 -245h-172z" />
<glyph d="M324 1688h155q27 -102 135.5 -102.5t135.5 102.5h155q-26 -254 -290.5 -254t-290.5 254zM330 1913h258l123 -254h-172z" />
<glyph d="M319 1470h152q20 -127 143 -127t144 127h151q-4 -127 -78.5 -210.5t-216 -83.5t-216 83.5t-79.5 210.5zM438 1665l33 143q178 -6 251 -49t73 -119q0 -98 -67.5 -142t-190.5 -58l-21 114q53 10 53 50q0 51 -131 61z" />
<glyph d="M324 1688h155q27 -102 135.5 -102.5t135.5 102.5h155q-26 -254 -290.5 -254t-290.5 254zM442 1872l33 139q319 -10 320 -172q0 -170 -254 -184l-25 106q57 10 57 49q0 51 -131 62z" />
<glyph d="M303 1483q14 127 68.5 188.5t128.5 61.5q61 0 124.5 -37t84.5 -37q53 0 69 74h148q-14 -127 -68.5 -188.5t-128.5 -61.5q-61 0 -124.5 36.5t-84.5 36.5q-53 0 -69 -73h-148zM319 1430h160q25 -94 135.5 -94.5t135.5 94.5h159q-4 -111 -78.5 -182.5t-216 -71.5t-216 71.5 t-79.5 182.5z" />
<glyph d="M287 1749q14 127 70.5 188.5t129.5 61.5q49 0 122 -37t96 -37q57 0 73 74h152q-14 -127 -70.5 -188.5t-130.5 -61.5q-51 0 -122.5 37t-94.5 37q-57 0 -74 -74h-151zM324 1688h155q27 -102 135.5 -102.5t135.5 102.5h155q-26 -254 -290.5 -254t-290.5 254z" />
<glyph d="M510 1585h221l-4 -151l-57 -312h-148z" />
<glyph d="M426 1294q0 104 109.5 159.5t279.5 62.5l25 -136q-164 -14 -164 -69q0 -47 82 -70l-66 -123q-147 12 -206.5 53t-59.5 123z" />
<glyph />
<glyph />
<glyph d="M295 1176l160 233h319l160 -233h-225l-91 114h-8l-90 -114h-225zM340 1733h160q18 -90 114.5 -90.5t114.5 90.5h160q-4 -111 -74 -180.5t-201 -69.5t-200.5 69.5t-73.5 180.5z" />
<glyph d="M266 1434l197 241h303l197 -241h-246l-99 106h-8l-98 -106h-246zM324 1999h155q27 -98 135.5 -98t135.5 98h155q-26 -250 -290.5 -250t-290.5 250z" />
</font>
</defs>
</svg>
