<?xml version="1.0" standalone="no"?>
<!DOCTYPE svg PUBLIC "-//W3C//DTD SVG 1.1//EN" "http://www.w3.org/Graphics/SVG/1.1/DTD/svg11.dtd" >
<svg xmlns="http://www.w3.org/2000/svg">
<metadata>
This is a custom SVG webfont generated by Font Squirrel.
Copyright   :  2010 2012 Adobe Systems Incorporated All Rights Reserved
Designer    : Paul D Hunt
Foundry     : Adobe Systems Incorporated
Foundry URL : httpwwwadobecomtype
</metadata>
<defs>
<font id="SourceSansProRegular" horiz-adv-x="0" >
<font-face units-per-em="2048" ascent="1536" descent="-512" />
<missing-glyph horiz-adv-x="413" />
<glyph unicode="&#xfb00;" horiz-adv-x="1175" d="M61 858v127l136 10v131q0 158 78.5 247t230.5 89q102 0 182 -37l-35 -127q-61 27 -133 27q-74 0 -114.5 -52t-40.5 -151v-127h413v158q0 156 73 243t218 87q86 0 166 -33l-35 -129q-57 25 -113 25q-141 0 -141 -193v-158h211v-137h-211v-858h-168v858h-413v-858h-168v858 h-136z" />
<glyph unicode="ft" horiz-adv-x="1216" d="M61 858v127l136 10v158q0 156 72.5 243t217.5 87q86 0 166 -33l-37 -129q-55 25 -112 25q-139 0 -139 -193v-158h364l21 279h139v-279h270v-137h-270v-553q0 -193 155 -192q41 -1 113 26l33 -127q-111 -37 -184 -37q-285 0 -285 332v551h-356v-858h-168v858h-136z" />
<glyph unicode=" "  horiz-adv-x="413" />
<glyph unicode="&#x09;" horiz-adv-x="413" />
<glyph unicode="&#xa0;" horiz-adv-x="413" />
<glyph unicode="!" horiz-adv-x="591" d="M174 102q0 57 36 94t87 37t86 -36.5t35 -94.5q0 -55 -36 -91t-85 -36q-51 0 -87 36t-36 91zM211 1372h170l-4 -192l-23 -774h-116l-23 774z" />
<glyph unicode="&#x22;" horiz-adv-x="872" d="M164 1413h180l-6 -188l-33 -342h-102l-33 342zM526 1413h179l-5 -188l-32 -342h-105l-33 342z" />
<glyph unicode="#" horiz-adv-x="1017" d="M72 418v117h178l37 303h-174v118h188l47 375h109l-47 -375h272l49 375h109l-49 -375h165v-118h-178l-37 -303h174v-117h-188l-51 -418h-109l49 418h-270l-51 -418h-111l52 418h-164zM360 535h271l37 303h-271z" />
<glyph unicode="$" horiz-adv-x="1017" d="M106 135l78 117q160 -137 318 -137q111 0 169 56t58 155q0 90 -58.5 155.5t-142.5 106.5t-169 86t-143 122.5t-58 188.5q0 135 80.5 227.5t216.5 114.5v205h123v-203q159 -18 290 -155l-90 -101q-63 61 -117.5 89t-132.5 28q-94 0 -149 -53.5t-55 -143.5q0 -59 31.5 -105 t81.5 -78t110.5 -60.5t122 -63.5t111.5 -78t82 -111.5t32 -158.5q0 -145 -86 -240.5t-231 -115.5v-207h-123v202q-199 18 -349 158z" />
<glyph unicode="%" horiz-adv-x="1687" d="M72 946q0 201 82 311.5t223 110.5q139 0 222 -111.5t83 -310.5q0 -201 -83 -313.5t-222 -112.5t-222 112.5t-83 313.5zM199 946q0 -156 48 -238.5t130 -82.5q80 0 128 83t48 238.5t-47 236.5t-129 81t-130 -80t-48 -238zM416 -25l741 1393h113l-742 -1393h-112zM1008 401 q0 199 83 310.5t222 111.5t222 -111.5t83 -310.5q0 -201 -83 -313.5t-222 -112.5t-222 113t-83 313zM1135 401.5q0 -155.5 49 -238.5t129 -83t128 83t48 238.5t-47 236.5t-129 81t-130 -81t-48 -236.5z" />
<glyph unicode="&#x26;" horiz-adv-x="1247" d="M66 348q0 123 70.5 212t193.5 175q-88 176 -88 316q0 135 87 226t224 91q123 0 193.5 -72.5t70.5 -193.5q0 -63 -23.5 -118.5t-74.5 -108t-91 -85t-114 -85.5q127 -199 340 -377q129 174 188 397h158q-86 -283 -235 -481q143 -98 252 -129l-46 -140q-150 43 -309 154 q-170 -154 -387 -154q-182 0 -295.5 104.5t-113.5 268.5zM229 358q0 -111 76 -179t189 -68q131 0 256 108q-211 184 -353 399q-168 -135 -168 -260zM387 1053q0 -102 64 -236q113 76 171 139.5t58 143.5q0 63 -32 105t-95 42q-74 0 -120 -55t-46 -139z" />
<glyph unicode="'" horiz-adv-x="509" d="M164 1413h180l-6 -188l-33 -342h-102l-33 342z" />
<glyph unicode="(" horiz-adv-x="620" d="M168 569.5q0 493.5 270 929.5l105 -49q-236 -389 -236 -880.5t236 -880.5l-105 -49q-270 436 -270 929.5z" />
<glyph unicode=")" horiz-adv-x="620" d="M78 -311q236 389 235.5 880.5t-235.5 880.5l104 49q270 -436 270.5 -929.5t-270.5 -929.5z" />
<glyph unicode="*" horiz-adv-x="856" d="M119 1194l31 94l208 -51l19 221h100l19 -219l211 49l30 -94l-198 -82l114 -192l-80 -60l-145 176l-145 -176l-82 60l116 192z" />
<glyph unicode="+" horiz-adv-x="1017" d="M70 612v127h372v400h133v-400h373v-127h-373v-399h-133v399h-372z" />
<glyph unicode="," horiz-adv-x="509" d="M96 -250q184 82 185 250q-6 -2 -21 -2q-51 0 -86 30.5t-35 86.5q0 53 36 85.5t89 32.5q66 0 104 -53t38 -145q0 -131 -71 -230.5t-198 -152.5z" />
<glyph unicode="-" horiz-adv-x="636" d="M84 449v129h471v-129h-471z" />
<glyph unicode="." horiz-adv-x="509" d="M133 102q0 57 36 94t87 37t86 -36.5t35 -94.5q0 -55 -36 -91t-85 -36q-51 0 -87 36t-36 91z" />
<glyph unicode="/" horiz-adv-x="716" d="M20 -328l547 1782h123l-545 -1782h-125z" />
<glyph unicode="0" horiz-adv-x="1017" d="M90 657.5q0 325.5 110.5 499.5t309.5 174q197 0 307.5 -174t110.5 -499.5t-110.5 -504t-307.5 -178.5q-199 0 -309.5 178.5t-110.5 504zM254 657q0 -276 67.5 -411t188.5 -135q119 0 186.5 135t67.5 411q0 539 -254 539q-256 0 -256 -539z" />
<glyph unicode="1" horiz-adv-x="1017" d="M162 0v139h299v963h-238v108q164 29 277 97h129v-1168h270v-139h-737z" />
<glyph unicode="2" horiz-adv-x="1017" d="M74 1133q182 199 395 198q180 0 285.5 -105.5t105.5 -279.5q0 -168 -126 -344t-406 -469q143 12 219 12h379v-145h-844v100q170 170 265 270.5t185.5 212t127 194.5t36.5 161q0 117 -63.5 186.5t-183.5 69.5q-143 0 -279 -158z" />
<glyph unicode="3" horiz-adv-x="1017" d="M53 160l86 110q147 -156 334 -155q119 0 194.5 65.5t75.5 173.5q0 260 -417 260v129q371 0 370 244q0 96 -60.5 151.5t-164.5 55.5q-145 0 -278 -133l-91 106q174 164 375 164q174 0 282.5 -88t108.5 -244q0 -221 -237 -311v-8q125 -29 203.5 -116t78.5 -216 q0 -170 -122.5 -271.5t-307.5 -101.5q-262 1 -430 185z" />
<glyph unicode="4" horiz-adv-x="1017" d="M35 360v111l559 836h188v-811h179v-136h-179v-360h-159v360h-588zM213 496h410v378q0 78 10 252h-8q-4 -8 -107 -184z" />
<glyph unicode="5" horiz-adv-x="1017" d="M51 154l82 110q150 -150 330 -149q123 0 205 83t82 216t-76 209.5t-203 76.5q-102 0 -223 -79l-90 57l43 629h653v-146h-506l-35 -387q100 53 201 53q178 0 292 -103t114 -306t-130.5 -323t-310.5 -120q-250 1 -428 179z" />
<glyph unicode="6" horiz-adv-x="1017" d="M98 604q0 369 141.5 548t356.5 179q186 0 315 -139l-94 -105q-86 102 -215 103q-150 0 -244 -132t-100 -423q61 76 143 120t162 44q174 0 273.5 -103.5t99.5 -300.5q0 -184 -112.5 -302t-274.5 -118q-201 0 -326 163t-125 466zM262 500q16 -190 89 -290.5t198 -100.5 q98 0 162.5 79.5t64.5 206.5q0 131 -61.5 204t-179.5 73q-150 0 -273 -172z" />
<glyph unicode="7" horiz-adv-x="1017" d="M90 1161v146h842v-105q-221 -283 -299 -537.5t-96 -664.5h-175q16 371 101.5 633t277.5 528h-651z" />
<glyph unicode="8" horiz-adv-x="1017" d="M84 334q0 221 246 352v8q-182 127 -183 301q0 150 105.5 243t265.5 93q168 0 268.5 -97t100.5 -251q0 -94 -54.5 -177t-125.5 -138v-9q104 -61 165.5 -138t61.5 -197q0 -150 -118 -249.5t-304 -99.5q-184 0 -306 101.5t-122 257.5zM236 350q0 -109 79.5 -179.5 t200.5 -70.5q113 0 184.5 63.5t71.5 166.5q0 49 -21.5 90t-45 66.5t-84 57t-91 45t-112.5 46.5q-182 -121 -182 -285zM303 995q0 -104 77 -164.5t224 -117.5q137 121 137 262q0 100 -61.5 165.5t-165.5 65.5q-92 0 -151.5 -58t-59.5 -153z" />
<glyph unicode="9" horiz-adv-x="1017" d="M82 911q0 184 112.5 302t272.5 118q201 0 326 -161.5t125 -467.5q0 -369 -141.5 -548t-356.5 -179q-189 1 -316 138l95 106q88 -104 215 -104q152 0 247 133t99 428q-61 -78 -143 -123t-164 -45q-172 0 -271.5 103.5t-99.5 299.5zM240 911q0 -131 61 -203.5t180 -72.5 q152 0 275 174q-35 389 -289 389q-96 0 -161.5 -80t-65.5 -207z" />
<glyph unicode=":" horiz-adv-x="509" d="M133 102q0 57 36 94t87 37t86 -36.5t35 -94.5q0 -55 -36 -91t-85 -36q-51 0 -87 36t-36 91zM133 842q0 57 36 93t87 36t86 -36t35 -93q0 -55 -35 -91t-86 -36t-87 36t-36 91z" />
<glyph unicode=";" horiz-adv-x="509" d="M96 -250q184 82 185 250q-6 -2 -21 -2q-51 0 -86 30.5t-35 86.5q0 53 36 85.5t89 32.5q66 0 104 -53t38 -145q0 -131 -71 -230.5t-198 -152.5zM133 842q0 57 36 93t87 36t86 -36t35 -93q0 -55 -35 -91t-86 -36t-87 35.5t-36 91.5z" />
<glyph unicode="&#x3c;" horiz-adv-x="1017" d="M70 612v136l878 344v-146l-432 -160l-274 -102v-8l274 -103l432 -159v-146z" />
<glyph unicode="=" horiz-adv-x="1017" d="M70 393v127h878v-127h-878zM70 831v127h878v-127h-878z" />
<glyph unicode="&#x3e;" horiz-adv-x="1017" d="M70 268v146l432 159l274 103v8l-274 102l-432 160v146l878 -344v-136z" />
<glyph unicode="?" horiz-adv-x="870" d="M78 1227q150 170 344 170q160 0 255 -88t95 -240q0 -74 -33.5 -143.5t-81 -125t-92.5 -112.5t-71.5 -130t-18.5 -152h-147q-12 88 11 167.5t67.5 139t89.5 113t78.5 113.5t33.5 120q0 86 -52 142t-146 56q-133 0 -236 -118zM285 102q0 57 34.5 94t86 37t87 -36.5 t35.5 -94.5q0 -55 -35.5 -91t-87 -36t-86 36t-34.5 91z" />
<glyph unicode="@" horiz-adv-x="1734" d="M104 416q0 401 250 654t604 253q307 0 489.5 -186.5t182.5 -491.5q0 -252 -127 -398.5t-282 -146.5q-86 0 -143.5 40t-67.5 116h-4q-119 -139 -250 -139q-109 0 -177.5 76.5t-68.5 212.5q0 176 111.5 325.5t281.5 149.5q111 0 164 -99h4l23 82h112l-80 -409 q-61 -240 111 -240q104 0 189 118t85 306q0 256 -147 413.5t-420 157.5q-287 0 -502 -221t-215 -567q0 -293 171 -460t440 -167q172 0 331 92l45 -100q-174 -104 -389 -104q-313 0 -517 193.5t-204 539.5zM645 416q0 -94 39 -139.5t104 -45.5q88 0 189 121l59 326 q-53 86 -131 86q-115 0 -187.5 -110.5t-72.5 -237.5z" />
<glyph unicode="A" horiz-adv-x="1101" d="M0 0l455 1343h192l455 -1343h-180l-129 410h-490l-129 -410h-174zM346 547h404l-64 205q-66 209 -133 452h-8q-68 -244 -133 -452z" />
<glyph unicode="B" horiz-adv-x="1193" d="M178 0v1343h400q215 0 338.5 -78.5t123.5 -248.5q0 -104 -60 -184t-175 -109v-8q311 -49 311 -322q0 -193 -138 -293t-370 -100h-430zM350 135h234q364 0 364 265q0 243 -364 243h-234v-508zM350 770h199q323 0 323 230q0 208 -315 208h-207v-438z" />
<glyph unicode="C" horiz-adv-x="1159" d="M100 672q0 317 168 506.5t432 189.5q217 0 367 -166l-96 -108q-119 125 -269 125q-193 0 -309.5 -146.5t-116.5 -396.5q0 -254 113 -402.5t305 -148.5q174 0 307 149l97 -104q-166 -195 -408 -195q-260 0 -425 187.5t-165 509.5z" />
<glyph unicode="D" horiz-adv-x="1247" d="M174 0v1343h336q309 0 472 -172t163 -493q0 -324 -162 -501t-465 -177h-344zM344 139h154q231 0 351 140.5t120 398.5q0 256 -119 391t-352 135h-154v-1065z" />
<glyph unicode="E" horiz-adv-x="1069" d="M178 0v1343h774v-143h-602v-422h508v-145h-508v-488h623v-145h-795z" />
<glyph unicode="F" horiz-adv-x="1001" d="M178 0v1343h776v-143h-604v-455h512v-143h-512v-602h-172z" />
<glyph unicode="G" horiz-adv-x="1253" d="M100 672q0 319 173 507.5t448 188.5q223 0 385 -166l-98 -108q-119 125 -285 125q-205 0 -326 -146.5t-121 -396.5q0 -256 117 -403.5t330 -147.5q158 0 244 80v350h-285v141h440v-565q-160 -156 -417 -156q-268 0 -436.5 186.5t-168.5 510.5z" />
<glyph unicode="H" horiz-adv-x="1325" d="M178 0v1343h172v-563h625v563h170v-1343h-170v633h-625v-633h-172z" />
<glyph unicode="I" horiz-adv-x="528" d="M178 0v1343h172v-1343h-172z" />
<glyph unicode="J" horiz-adv-x="970" d="M59 190l121 86q87 -151 232 -151h2q109 0 162 67.5t53 219.5v931h170v-948q0 -186 -91.5 -303t-279.5 -117q-250 0 -369 215z" />
<glyph unicode="K" horiz-adv-x="1175" d="M178 0v1343h172v-673h4l559 673h195l-422 -512l485 -831h-190l-401 698l-230 -272v-426h-172z" />
<glyph unicode="L" horiz-adv-x="985" d="M178 0v1343h172v-1198h586v-145h-758z" />
<glyph unicode="M" horiz-adv-x="1478" d="M178 0v1343h203l260 -720l96 -275h8l95 275l258 720h200v-1343h-161v739q0 72 22 398h-8l-107 -299l-258 -703h-98l-258 703l-106 299h-9q20 -297 21 -398v-739h-158z" />
<glyph unicode="N" horiz-adv-x="1314" d="M178 0v1343h176l488 -843l145 -279h8q-22 357 -22 423v5v694h162v-1343h-177l-485 846l-145 276h-9q20 -338 21 -420v-702h-162z" />
<glyph unicode="O" horiz-adv-x="1349" d="M100 678q0 317 159 503.5t417 186.5q256 0 414.5 -186.5t158.5 -503.5q0 -319 -159.5 -511t-413.5 -192q-256 0 -416 190.5t-160 512.5zM276 678q0 -252 109 -402.5t291 -150.5q180 0 288.5 150.5t108.5 402.5q0 250 -108.5 395.5t-288.5 145.5q-182 0 -291 -145.5 t-109 -395.5z" />
<glyph unicode="P" horiz-adv-x="1169" d="M178 0v1343h414q495 0 495 -393q0 -207 -134 -312.5t-361 -105.5h-242v-532h-172zM350 672h219q178 0 263.5 67.5t85.5 209t-84 199.5t-265 58h-219v-534z" />
<glyph unicode="Q" horiz-adv-x="1349" d="M98 678q0 317 159 503.5t415 186.5t415.5 -186.5t159.5 -503.5q0 -287 -129 -472.5t-346 -221.5q90 -176 330 -177q67 1 141 21l33 -133q-88 -31 -193 -31q-178 0 -306 86t-189 232q-223 31 -356.5 217t-133.5 479zM274 678q0 -252 109 -402.5t289 -150.5t288.5 150.5 t108.5 402.5q0 250 -108.5 395.5t-288.5 145.5t-289 -145.5t-109 -395.5z" />
<glyph unicode="R" horiz-adv-x="1179" d="M178 0v1343h422q469 0 469 -376q0 -152 -80 -248t-221 -133l342 -586h-195l-323 567h-242v-567h-172zM350 707h225q324 0 324 260q0 129 -81 184t-243 55h-225v-499z" />
<glyph unicode="S" horiz-adv-x="1083" d="M82 174l102 119q162 -168 371 -168q131 0 206 59.5t75 159.5q0 49 -14.5 85t-53.5 64.5t-66.5 44t-91.5 44.5l-192 84q-272 117 -273 346q0 154 121 255t303 101q236 0 396 -166l-91 -110q-133 127 -305 127q-115 0 -183.5 -53.5t-68.5 -143.5q0 -45 17.5 -81t57.5 -63.5 t66.5 -41t82.5 -37.5l192 -82q133 -57 205 -139t72 -220q0 -164 -126 -273.5t-333 -109.5q-276 0 -469 199z" />
<glyph unicode="T" horiz-adv-x="1087" d="M51 1200v143h985v-143h-407v-1200h-170v1200h-408z" />
<glyph unicode="U" horiz-adv-x="1310" d="M172 555v788h172v-792q0 -426 311 -426q319 0 320 426v792h164v-788q0 -305 -130 -442.5t-353.5 -137.5t-353.5 137.5t-130 442.5z" />
<glyph unicode="V" horiz-adv-x="1044" d="M-4 1343h180l217 -725q14 -51 57.5 -202.5t71.5 -241.5h8q39 125 129 444l215 725h175l-426 -1343h-199z" />
<glyph unicode="W" horiz-adv-x="1599" d="M41 1343h176l141 -731q14 -72 40 -217t40 -217h8q31 160 95 434l186 731h156l186 -731q43 -199 96 -434h9q20 115 75 434l142 731h165l-278 -1343h-207l-203 809q-53 246 -63 305h-8q-12 -53 -35 -152.5t-33 -152.5l-201 -809h-202z" />
<glyph unicode="X" horiz-adv-x="1040" d="M27 0l391 694l-367 649h189l184 -344q84 -160 104 -194h9q76 160 94 194l178 344h180l-364 -657l391 -686h-189l-198 362q-10 18 -50 93t-65 123h-8q-66 -137 -107 -216l-194 -362h-178z" />
<glyph unicode="Y" horiz-adv-x="964" d="M-8 1343h184l172 -378q88 -201 131 -293h8q12 27 60.5 131t73.5 162l174 378h176l-404 -823v-520h-170v520z" />
<glyph unicode="Z" horiz-adv-x="1093" d="M86 0v102l709 1098h-645v143h856v-100l-709 -1098h715v-145h-926z" />
<glyph unicode="[" horiz-adv-x="620" d="M193 -311v1761h366v-98h-240v-1567h240v-96h-366z" />
<glyph unicode="\" horiz-adv-x="716" d="M29 1454h121l546 -1782h-123z" />
<glyph unicode="]" horiz-adv-x="620" d="M63 -215h238v1567h-238v98h365v-1761h-365v96z" />
<glyph unicode="^" horiz-adv-x="1017" d="M123 582l311 790h150l311 -790h-147l-134 360l-100 272h-8l-103 -272l-133 -360h-147z" />
<glyph unicode="_" horiz-adv-x="1024" d="M25 -145h974v-113h-974v113z" />
<glyph unicode="`" horiz-adv-x="1110" d="M328 1462h176l184 -288h-129z" />
<glyph unicode="a" horiz-adv-x="1048" d="M119 258q0 162 146.5 250t465.5 123q0 250 -205 250q-141 0 -297 -107l-67 117q201 129 391 129q176 0 261 -107.5t85 -302.5v-610h-139l-15 119h-4q-178 -143 -329 -144q-129 0 -211 76t-82 207zM285 270q0 -80 48 -119.5t126 -39.5q123 0 272 133v276 q-242 -31 -344 -91.5t-102 -158.5z" />
<glyph unicode="b" horiz-adv-x="1136" d="M168 0v1458h168v-397l-4 -180q158 139 311 139q190 0 292.5 -135t102.5 -371q0 -246 -126 -392.5t-304 -146.5q-145 0 -284 123h-7l-14 -98h-135zM336 221q121 -104 244 -104q125 0 204.5 107.5t79.5 287.5q0 367 -262 367q-121 0 -266 -136v-522z" />
<glyph unicode="c" horiz-adv-x="933" d="M94 495.5q0 241.5 139.5 383t339.5 141.5q164 0 291 -119l-84 -108q-102 88 -200 88q-135 0 -223.5 -107.5t-88.5 -277.5t85 -275.5t222 -105.5q121 0 234 100l76 -111q-145 -129 -324 -129q-205 0 -336 139.5t-131 381z" />
<glyph unicode="d" horiz-adv-x="1136" d="M96 496q0 236 127 380t305 144q137 0 279 -115l-8 170v383h170v-1458h-140l-14 117h-6q-145 -141 -301 -142q-190 0 -301 137.5t-111 383.5zM270 498q0 -178 73 -279.5t202 -101.5q131 0 254 137v520q-117 104 -242 105q-121 0 -204 -106.5t-83 -274.5z" />
<glyph unicode="e" horiz-adv-x="1021" d="M94 496q0 233 133 378.5t314 145.5q188 0 292.5 -126t104.5 -341q0 -55 -6 -92h-672q8 -162 98.5 -256t233.5 -94q127 0 248 77l59 -110q-160 -102 -328 -103q-205 0 -341 141.5t-136 379.5zM258 571h533q0 152 -64.5 234t-181.5 82q-109 0 -191 -85.5t-96 -230.5z" />
<glyph unicode="f" horiz-adv-x="598" d="M61 858v127l136 10v158q0 156 72.5 243t217.5 87q86 0 166 -33l-37 -129q-55 25 -112 25q-139 0 -139 -193v-158h210v-137h-210v-858h-168v858h-136z" />
<glyph unicode="g" horiz-adv-x="1032" d="M92 -190q0 127 146 225v8q-88 55 -88 162q0 111 108 184v8q-129 104 -129 269q0 158 108.5 256t266.5 98q78 0 141 -25h346v-129h-205q82 -78 82 -204q0 -156 -104.5 -251.5t-259.5 -95.5q-80 0 -150 35q-63 -55 -63 -119q0 -108 173 -108h3h192q176 0 262.5 -57.5 t86.5 -180.5q0 -143 -139.5 -243.5t-364.5 -100.5q-186 0 -299 71t-113 198zM240 -168q0 -80 76.5 -127t211.5 -47q137 0 226.5 60.5t89.5 142.5q0 68 -50.5 95.5t-150.5 27.5h-172q-72 0 -129 16q-102 -74 -102 -168zM293 665.5q0 -106.5 61.5 -172t149.5 -65.5t149.5 65.5 t61.5 172t-60.5 169t-150.5 62.5t-150.5 -62.5t-60.5 -169z" />
<glyph unicode="h" horiz-adv-x="1114" d="M168 0v1458h168v-397l-6 -205q172 164 332 164q303 0 303 -389v-631h-168v608q0 139 -45 202.5t-144 63.5q-72 0 -131 -35.5t-141 -117.5v-721h-168z" />
<glyph unicode="i" horiz-adv-x="503" d="M137 1309q0 49 34 78.5t83 29.5t83 -29.5t34 -78.5q0 -47 -34 -78t-83 -31t-83 31t-34 78zM168 0v995h168v-995h-168z" />
<glyph unicode="j" horiz-adv-x="505" d="M-82 -418l35 127q49 -16 94 -16q70 0 96.5 48t26.5 146v1108h168v-1108q0 -331 -270 -331h-2q-82 0 -148 26zM139 1309q0 49 34 78.5t83 29.5t82 -29.5t33 -78.5q0 -47 -33 -78t-82 -31t-83 31t-34 78z" />
<glyph unicode="k" horiz-adv-x="1013" d="M168 0v1458h166v-987h6l424 524h186l-334 -399l379 -596h-184l-291 479l-186 -217v-262h-166z" />
<glyph unicode="l" horiz-adv-x="522" d="M168 201v1257h168v-1270q0 -73 46 -73h1q18 0 37 4l22 -127q-37 -16 -96 -17q-178 1 -178 226z" />
<glyph unicode="m" horiz-adv-x="1697" d="M168 0v995h139l15 -143h6q154 168 309 168q209 0 274 -191q176 190 328 191q303 0 303 -389v-631h-168v608q0 139 -45 202.5t-139 63.5q-113 0 -250 -153v-721h-168v608q0 139 -45 202.5t-141 63.5q-111 0 -250 -153v-721h-168z" />
<glyph unicode="n" horiz-adv-x="1120" d="M168 0v995h139l15 -143h6q168 168 334 168q303 0 303 -389v-631h-168v608q0 139 -45 202.5t-144 63.5q-72 0 -131 -35.5t-141 -117.5v-721h-168z" />
<glyph unicode="o" horiz-adv-x="1110" d="M94 496q0 242 134 383t327 141t327 -141.5t134 -382.5q0 -238 -134 -379.5t-327 -141.5t-327 141.5t-134 379.5zM268 496q0 -170 80 -275.5t207 -105.5q129 0 208 105.5t79 275.5q0 172 -79 278.5t-208 106.5q-127 0 -207 -106.5t-80 -278.5z" />
<glyph unicode="p" horiz-adv-x="1136" d="M168 -420v1415h139l15 -114h6q166 139 317 139q188 0 290.5 -136t102.5 -372q0 -244 -126 -390.5t-304 -146.5q-129 0 -276 115l4 -174v-336h-168zM336 221q125 -104 244 -104q125 0 204.5 107.5t79.5 287.5q0 367 -262 367q-115 0 -266 -136v-522z" />
<glyph unicode="q" horiz-adv-x="1126" d="M96 496q0 236 127 380t305 144q147 0 285 -119h4l17 94h135v-1415h-170v354l8 177q-145 -135 -299 -136q-190 0 -301 137.5t-111 383.5zM270 498q0 -178 73 -279.5t202 -101.5q131 0 254 137v520q-117 104 -242 105q-121 0 -204 -106.5t-83 -274.5z" />
<glyph unicode="r" horiz-adv-x="710" d="M168 0v995h139l15 -180h6q51 96 124.5 150.5t157.5 54.5q59 0 107 -21l-33 -147q-53 16 -96 16q-70 0 -137.5 -55t-114.5 -174v-639h-168z" />
<glyph unicode="s" horiz-adv-x="858" d="M57 113l84 112q147 -119 293 -119q94 0 145.5 44.5t51.5 111.5q0 37 -18.5 65.5t-57.5 52t-67.5 37t-84.5 34.5q-66 23 -108.5 43t-90.5 55t-73 82t-25 106q0 123 92.5 203t250.5 80q170 0 309 -113l-80 -106q-117 88 -227 88q-88 0 -135.5 -41t-47.5 -103 q0 -41 35 -74.5t64.5 -48t106.5 -43.5q5 -2 8 -3t7 -3q57 -23 88 -35t79.5 -39.5t73 -55t44 -71.5t19.5 -100q0 -127 -97.5 -212t-267.5 -85q-205 1 -371 138z" />
<glyph unicode="t" horiz-adv-x="692" d="M49 858v127l156 10l20 279h142v-279h268v-137h-268v-553q0 -96 34.5 -144t118.5 -48q41 0 113 26l33 -127q-111 -37 -185 -37q-284 0 -284 332v551h-148z" />
<glyph unicode="u" horiz-adv-x="1124" d="M164 365v630h170v-608q0 -139 44 -202.5t142 -63.5q74 0 133.5 39t132.5 129v706h170v-995h-139l-14 156h-6q-154 -180 -328 -181q-305 1 -305 390z" />
<glyph unicode="v" horiz-adv-x="956" d="M25 995h174l188 -565q29 -96 92 -293h8q8 27 41 131.5t50 161.5l188 565h166l-352 -995h-197z" />
<glyph unicode="w" horiz-adv-x="1470" d="M49 995h172l148 -575q25 -104 59 -277h8l68 277l153 575h164l156 -575q33 -125 70 -277h8q12 49 61 277l146 575h159l-266 -995h-205l-143 535q-14 53 -35.5 149t-32.5 137h-8q-47 -207 -69 -289l-140 -532h-196z" />
<glyph unicode="x" horiz-adv-x="913" d="M29 0l325 520l-301 475h183l133 -219q68 -117 98 -166h8q49 96 90 166l121 219h176l-301 -493l324 -502h-183l-145 231q-61 106 -108 179h-9q-43 -72 -100 -179l-135 -231h-176z" />
<glyph unicode="y" horiz-adv-x="956" d="M25 995h174l202 -551q41 -115 97 -280h8q16 53 47 155.5t37 124.5l178 551h164l-375 -1077q-57 -164 -144 -255t-229 -91q-61 0 -116 20l32 134q47 -14 76 -15q154 0 225 213l23 74z" />
<glyph unicode="z" horiz-adv-x="870" d="M63 0v90l525 768h-467v137h680v-90l-525 -768h541v-137h-754z" />
<glyph unicode="{" horiz-adv-x="620" d="M70 516v107q176 2 176 157q0 63 -9.5 194.5t-9.5 203.5q0 152 56.5 212t181.5 60h94v-98h-57q-80 0 -108.5 -41t-28.5 -144q0 -59 6 -183t6 -187q0 -100 -29 -152.5t-94 -71.5v-8q66 -18 94.5 -71.5t28.5 -151.5q0 -72 -6 -190.5t-6 -180.5q0 -102 28.5 -144t108.5 -42 h57v-96h-94q-125 0 -181.5 59t-56.5 213q0 76 9.5 202t9.5 193q0 158 -176 160z" />
<glyph unicode="|" horiz-adv-x="493" d="M188 -512v2048h119v-2048h-119z" />
<glyph unicode="}" horiz-adv-x="620" d="M63 -215h54q80 0 109.5 42t29.5 144q0 61 -5 180t-5 191q0 100 27.5 152.5t93.5 70.5v8q-66 18 -93.5 70.5t-27.5 153.5q0 63 5 187t5 183q0 102 -28.5 143.5t-110.5 41.5h-54v98h91q127 0 183 -60.5t56 -211.5q0 -72 -9 -203t-9 -195q0 -68 41 -111.5t135 -45.5v-107 q-176 -2 -176 -160q0 -68 9 -193.5t9 -201.5q0 -154 -56 -213t-183 -59h-91v96z" />
<glyph unicode="~" horiz-adv-x="1017" d="M74 641q104 184 256 184q70 0 135 -43t122.5 -86t104.5 -43q90 0 158 125l94 -69q-104 -182 -256 -183q-70 0 -135.5 43t-122.5 86t-104 43q-90 0 -158 -125z" />
<glyph unicode="&#xa1;" horiz-adv-x="591" d="M174 893q0 55 36 91t87 36q49 0 85 -36t36 -91q0 -57 -35 -94t-86 -37t-87 37t-36 94zM211 -377l4 193l23 774h116l23 -774l4 -193h-170z" />
<glyph unicode="&#xa2;" horiz-adv-x="1017" d="M125 635q0 205 115.5 332t296.5 153v217h106v-211q150 -8 268 -118l-82 -107q-90 80 -186 86v-704q115 8 213 96l74 -107q-131 -117 -287 -129v-211h-106v213q-188 23 -300 151t-112 339zM293 635q0 -137 64.5 -227t179.5 -117v686q-113 -27 -178.5 -117t-65.5 -225z" />
<glyph unicode="&#xa3;" horiz-adv-x="1017" d="M109 584v106l137 8h37q-55 178 -56 256q0 172 104.5 274.5t276.5 102.5q193 0 318 -153l-99 -97q-88 109 -206 109q-109 0 -168.5 -65.5t-59.5 -174.5q0 -80 49 -252h326v-114h-299q10 -61 10 -115q0 -184 -127 -315v-9h576v-145h-817v102q102 55 159.5 153.5t57.5 215.5 q0 49 -15 113h-204z" />
<glyph unicode="&#xa4;" horiz-adv-x="1017" d="M53 303l131 133q-74 100 -73 238q0 139 73 239l-131 136l90 92l140 -144q98 76 227 76q127 0 225 -76l139 144l91 -92l-134 -136q76 -102 76 -239q0 -135 -76 -238l134 -133l-91 -92l-139 141q-96 -78 -225 -78q-131 0 -227 78l-140 -141zM266 674q0 -121 71 -198 t173 -77q100 0 171 77t71 198t-71 197.5t-171 76.5q-102 0 -173 -76.5t-71 -197.5z" />
<glyph unicode="&#xa5;" horiz-adv-x="1017" d="M47 1307h176l160 -351q23 -51 66 -147t57 -129h8q27 55 71 154.5t54 121.5l160 351h172l-336 -656h291v-96h-334v-133h334v-98h-334v-324h-168v324h-332v98h332v133h-332v96h289z" />
<glyph unicode="&#xa6;" horiz-adv-x="493" d="M188 438h119v-950h-119v950zM188 596v940h119v-940h-119z" />
<glyph unicode="&#xa7;" horiz-adv-x="1017" d="M92 702q0 166 176 265q-66 70 -65 168q0 113 82 189.5t229 76.5q172 0 315 -117l-81 -108q-117 94 -228 94q-82 0 -122 -36t-40 -93q0 -51 42 -92t105.5 -68t136.5 -62.5t136.5 -73.5t105.5 -106.5t42 -156.5q0 -166 -174 -265q61 -72 61 -167q0 -121 -93 -201t-237 -80 q-219 0 -354 145l102 92q111 -106 252 -106q80 0 127 41t47 100q0 63 -58 110.5t-141 81.5t-166 75t-141.5 115.5t-58.5 178.5zM240 713q0 -63 44 -112.5t97 -75t140 -64.5t134 -66q123 57 123 174q0 53 -25.5 94.5t-72.5 72t-95 52t-113.5 50t-106.5 53.5 q-125 -70 -125 -178z" />
<glyph unicode="&#xa8;" horiz-adv-x="1110" d="M279 1305q0 43 28.5 71.5t71.5 28.5t71.5 -28.5t28.5 -71.5t-28.5 -72t-71.5 -29t-71.5 29t-28.5 72zM633 1305q0 43 27.5 71.5t70.5 28.5q45 0 72.5 -28.5t27.5 -71.5t-27.5 -72t-72.5 -29q-43 0 -70.5 29t-27.5 72z" />
<glyph unicode="&#xa9;" horiz-adv-x="1523" d="M100 662q0 303 192.5 489t469 186t469 -186t192.5 -489q0 -305 -192.5 -495t-469 -190t-469 190t-192.5 495zM197 662q0 -264 163.5 -431.5t401 -167.5t401.5 167t164 432q0 262 -164 426.5t-401.5 164.5t-401 -164.5t-163.5 -426.5zM406 662q0 172 111.5 279.5 t266.5 107.5q139 0 256 -117l-71 -80q-88 84 -178 84q-111 0 -180.5 -77t-69.5 -197q0 -135 66.5 -214t176.5 -79q104 0 209 90l62 -86q-135 -117 -277 -117q-160 0 -266 110t-106 296z" />
<glyph unicode="&#xaa;" horiz-adv-x="706" d="M76 709q0 106 97 164.5t310 78.5q-4 152 -127 152q-90 0 -206 -70l-48 86q139 88 273 88q236 0 235 -274v-402h-102l-14 76h-9q-104 -92 -206 -92q-90 0 -146.5 53.5t-56.5 139.5zM201 719q-1 -101 114 -101q80 0 168 82v172q-283 -31 -282 -153z" />
<glyph unicode="&#xab;" horiz-adv-x="878" d="M92 453v127l279 317l73 -61l-241 -320l241 -323l-73 -58zM416 453v127l280 317l72 -61l-242 -320l242 -323l-72 -58z" />
<glyph unicode="&#xac;" horiz-adv-x="1017" d="M70 612v127h878v-526h-135v399h-743z" />
<glyph unicode="&#xad;" horiz-adv-x="636" d="M84 449v129h471v-129h-471z" />
<glyph unicode="&#xae;" horiz-adv-x="866" d="M47 1057q0 176 111.5 289.5t273.5 113.5t274.5 -113.5t112.5 -289.5t-112.5 -290t-274.5 -114t-273.5 114t-111.5 290zM129 1057q0 -145 86 -236.5t217 -91.5t218 92t87 235.5t-87 236.5t-218 93q-129 0 -216 -93t-87 -236zM285 854v416h155q160 0 160 -133 q0 -37 -21.5 -69t-54.5 -44l94 -170h-94l-71 143h-84v-143h-84zM369 1063h53q88 0 88 70q0 68 -84 67h-57v-137z" />
<glyph unicode="&#xaf;" horiz-adv-x="1110" d="M305 1231v117h502v-117h-502z" />
<glyph unicode="&#xb0;" horiz-adv-x="677" d="M84 1139q0 119 74.5 191.5t181 72.5t181.5 -73t75 -191q0 -115 -75 -187.5t-181.5 -72.5t-181 72.5t-74.5 187.5zM186 1139q0 -72 43 -119t111 -47t111 47t43 119q0 76 -43 123t-111 47t-111 -47.5t-43 -122.5z" />
<glyph unicode="&#xb1;" horiz-adv-x="1017" d="M70 0v127h878v-127h-878zM70 623v127h372v389h133v-389h373v-127h-373v-363h-133v363h-372z" />
<glyph unicode="&#xb2;" horiz-adv-x="751" d="M82 1569q104 156 266 155q123 0 194.5 -67.5t71.5 -190.5q0 -55 -18 -106t-70.5 -116.5t-86 -102.5t-122.5 -127h338v-113h-549v76q213 190 296 287.5t83 181.5q0 78 -41 123t-112 45q-92 0 -172 -117z" />
<glyph unicode="&#xb3;" horiz-adv-x="751" d="M72 1032l88 68q80 -119 202 -119q68 0 114 38t46 105.5t-64.5 104.5t-183.5 37v84q100 0 159 40t59 103q0 57 -40 92t-106 35q-84 0 -162 -96l-80 69q115 131 263 131q106 0 180 -58t74 -157q0 -131 -140 -196q74 -18 123 -69.5t49 -127.5q0 -109 -82 -174t-202 -65 q-191 -1 -297 155z" />
<glyph unicode="&#xb4;" horiz-adv-x="1110" d="M422 1174l184 288h176l-231 -288h-129z" />
<glyph unicode="&#xb5;" horiz-adv-x="1126" d="M168 -410v1405h168v-608q0 -139 45 -202.5t143 -63.5q74 0 133.5 39t133.5 129v706h167v-995h-139l-14 156h-4q-125 -172 -287 -172q-131 0 -188 88l10 -185v-297h-168z" />
<glyph unicode="&#xb6;" horiz-adv-x="1146" d="M84 907q0 229 133 332.5t361 103.5h90v-880h-68q-236 0 -376 110.5t-140 333.5zM778 -164v1507h172v-1507h-172z" />
<glyph unicode="&#xb7;" horiz-adv-x="509" d="M133 657q0 57 36 94t87 37t86 -36.5t35 -94.5q0 -55 -36 -91t-85 -36q-51 0 -87 36t-36 91z" />
<glyph unicode="&#xb8;" horiz-adv-x="1110" d="M395 -352q182 25 183 98q-1 67 -132 100l82 160h111l-53 -108q121 -41 121 -146q0 -84 -84 -130t-211 -58z" />
<glyph unicode="&#xb9;" horiz-adv-x="751" d="M178 1532v86q117 20 199 82h106v-799h-131v631h-174z" />
<glyph unicode="&#xba;" horiz-adv-x="747" d="M61 862q0 160 89.5 253t222.5 93q131 0 221 -93t90 -253q0 -158 -90 -252t-221 -94t-221.5 94.5t-90.5 251.5zM190 862q0 -109 49.5 -175t133.5 -66t132 66.5t48 174.5q0 111 -48 176.5t-132 65.5t-133.5 -65.5t-49.5 -176.5z" />
<glyph unicode="&#xbb;" horiz-adv-x="878" d="M111 193l241 323l-241 320l71 61l281 -317v-127l-281 -318zM434 193l242 323l-242 320l74 61l278 -317v-127l-278 -318z" />
<glyph unicode="&#xbc;" horiz-adv-x="1599" d="M129 1176v86q115 20 197 81h108v-798h-131v631h-174zM369 -25l741 1393h115l-742 -1393h-114zM934 213v68l334 518h147v-492h119v-94h-119v-213h-119v213h-362zM1069 307h227v144l11 223h-9l-102 -166z" />
<glyph unicode="&#xbd;" horiz-adv-x="1654" d="M129 1176v86q115 20 197 81h108v-798h-131v631h-174zM328 -25l741 1393h115l-742 -1393h-114zM985 668q104 156 266 155q123 0 195 -67.5t72 -190.5q0 -55 -18.5 -106t-71 -117t-86 -102.5t-121.5 -126.5h338v-113h-549v76q213 190 296 287.5t83 181.5q0 78 -41 123 t-113 45q-92 0 -172 -117z" />
<glyph unicode="&#xbe;" horiz-adv-x="1630" d="M70 678l86 65q80 -119 202 -118q68 0 114 38.5t46 104.5q0 141 -248 141v84q100 0 158.5 40t58.5 104q0 59 -38.5 93t-104.5 34q-84 -1 -164 -97l-78 70q111 131 260 131q109 0 182.5 -58.5t73.5 -156.5q0 -131 -139 -195q74 -20 122 -71t48 -127q0 -109 -81 -174.5 t-201 -65.5q-190 0 -297 158zM446 -25l742 1393h112l-741 -1393h-113zM963 213v68l335 518h148v-492h119v-94h-119v-213h-119v213h-364zM1100 307h227v144l10 223h-8l-102 -166z" />
<glyph unicode="&#xbf;" horiz-adv-x="870" d="M98 -74q0 74 34 143.5t80 125t92 113t72.5 130t16.5 152.5h150q12 -88 -11.5 -168t-67.5 -139.5t-89 -112.5t-79 -113.5t-34 -119.5q0 -86 51.5 -141.5t147.5 -55.5q133 0 233 117l99 -88q-152 -170 -344 -170q-160 0 -255.5 88t-95.5 239zM342 893q0 55 36 91t87 36 q49 0 85 -36t36 -91q0 -57 -35 -94t-86 -37t-87 37t-36 94z" />
<glyph unicode="&#xc0;" horiz-adv-x="1101" d="M0 0l455 1343h192l455 -1343h-180l-129 410h-490l-129 -410h-174zM281 1675h192l180 -229h-141zM346 547h404l-64 205q-66 209 -133 452h-8q-68 -244 -133 -452z" />
<glyph unicode="&#xc1;" horiz-adv-x="1101" d="M0 0l455 1343h192l455 -1343h-180l-129 410h-490l-129 -410h-174zM346 547h404l-64 205q-66 209 -133 452h-8q-68 -244 -133 -452zM444 1446l181 229h192l-231 -229h-142z" />
<glyph unicode="&#xc2;" horiz-adv-x="1101" d="M0 0l455 1343h192l455 -1343h-180l-129 410h-490l-129 -410h-174zM270 1446l197 229h164l196 -229h-137l-137 139h-8l-137 -139h-138zM346 547h404l-64 205q-66 209 -133 452h-8q-68 -244 -133 -452z" />
<glyph unicode="&#xc3;" horiz-adv-x="1101" d="M0 0l455 1343h192l455 -1343h-180l-129 410h-490l-129 -410h-174zM252 1456q10 98 56 159.5t118 61.5q57 0 132 -53t110 -53q66 0 84 106h92q-8 -96 -54.5 -158.5t-117.5 -62.5q-57 0 -133 53.5t-111 53.5q-66 0 -82 -107h-94zM346 547h404l-64 205q-66 209 -133 452h-8 q-68 -244 -133 -452z" />
<glyph unicode="&#xc4;" horiz-adv-x="1101" d="M0 0l455 1343h192l455 -1343h-180l-129 410h-490l-129 -410h-174zM272 1565q0 45 28 72.5t71 27.5q45 0 72.5 -27.5t27.5 -72.5q0 -43 -27.5 -72t-72.5 -29q-43 0 -71 29t-28 72zM346 547h404l-64 205q-66 209 -133 452h-8q-68 -244 -133 -452zM625 1565q0 45 28.5 72.5 t71.5 27.5t71.5 -27.5t28.5 -72.5q0 -43 -28.5 -72t-71.5 -29t-71.5 29t-28.5 72z" />
<glyph unicode="&#xc5;" horiz-adv-x="1101" d="M0 0l455 1343h192l455 -1343h-180l-129 410h-490l-129 -410h-174zM346 547h404l-64 205q-66 209 -133 452h-8q-68 -244 -133 -452zM356 1612q0 80 53.5 130t139.5 50q82 0 136 -50t54 -130q0 -82 -54 -131t-136 -49q-86 0 -139.5 49t-53.5 131zM451 1612q0 -49 27.5 -78 t70.5 -29q41 0 68.5 29t27.5 78q0 47 -28.5 75.5t-67.5 28.5q-43 0 -70.5 -28.5t-27.5 -75.5z" />
<glyph unicode="&#xc6;" horiz-adv-x="1673" d="M12 0l705 1343h842v-143h-572v-422h477v-145h-477v-488h592v-145h-762v391h-426l-203 -391h-176zM463 528h354v680h-8q-35 -74 -109.5 -220t-111.5 -218z" />
<glyph unicode="&#xc7;" horiz-adv-x="1159" d="M100 672q0 317 168 506.5t432 189.5q217 0 367 -166l-96 -108q-119 125 -269 125q-193 0 -309.5 -146.5t-116.5 -396.5q0 -254 113 -402.5t305 -148.5q174 -1 307 149l97 -104q-141 -166 -342 -190l-41 -82q123 -41 123 -146q0 -84 -84 -130t-213 -58l-17 84 q182 25 183 98q0 68 -132 100l68 131q-242 16 -392.5 202t-150.5 493z" />
<glyph unicode="&#xc8;" horiz-adv-x="1069" d="M178 0v1343h774v-143h-602v-422h508v-145h-508v-488h623v-145h-795zM309 1675h193l180 -229h-141z" />
<glyph unicode="&#xc9;" horiz-adv-x="1069" d="M178 0v1343h774v-143h-602v-422h508v-145h-508v-488h623v-145h-795zM473 1446l180 229h193l-232 -229h-141z" />
<glyph unicode="&#xca;" horiz-adv-x="1069" d="M178 0v1343h774v-143h-602v-422h508v-145h-508v-488h623v-145h-795zM299 1446l197 229h163l197 -229h-137l-137 139h-9l-137 -139h-137z" />
<glyph unicode="&#xcb;" horiz-adv-x="1069" d="M178 0v1343h774v-143h-602v-422h508v-145h-508v-488h623v-145h-795zM301 1565q0 45 27.5 72.5t70.5 27.5q45 0 73 -27.5t28 -72.5q0 -43 -28 -72t-73 -29q-43 0 -70.5 29t-27.5 72zM653 1565q0 45 29 72.5t72 27.5t71.5 -27.5t28.5 -72.5q0 -43 -28.5 -72t-71.5 -29 t-72 29t-29 72z" />
<glyph unicode="&#xcc;" horiz-adv-x="528" d="M-4 1675h192l181 -229h-142zM178 0v1343h172v-1343h-172z" />
<glyph unicode="&#xcd;" horiz-adv-x="528" d="M160 1446l180 229h192l-231 -229h-141zM178 0v1343h172v-1343h-172z" />
<glyph unicode="&#xce;" horiz-adv-x="528" d="M-14 1446l196 229h164l197 -229h-137l-138 139h-8l-137 -139h-137zM178 0v1343h172v-1343h-172z" />
<glyph unicode="&#xcf;" horiz-adv-x="528" d="M-12 1565q0 45 27.5 72.5t72.5 27.5q43 0 71.5 -27.5t28.5 -72.5q0 -43 -28.5 -72t-71.5 -29q-45 0 -72.5 29t-27.5 72zM178 0v1343h172v-1343h-172zM340 1565q0 45 28.5 72.5t71.5 27.5q45 0 73 -27.5t28 -72.5q0 -43 -28 -72t-73 -29q-43 0 -71.5 29t-28.5 72z" />
<glyph unicode="&#xd0;" horiz-adv-x="1292" d="M61 657v88l156 9v589h336q309 0 472 -172t163 -493q0 -324 -162 -501t-465 -177h-344v657h-156zM389 139h152q233 0 352 140.5t119 398.5q0 256 -119 391t-352 135h-152v-450h309v-97h-309v-518z" />
<glyph unicode="&#xd1;" horiz-adv-x="1314" d="M178 0v1343h176l488 -843l145 -279h8q-23 373 -22 428v694h162v-1343h-177l-485 846l-145 276h-9q20 -338 21 -420v-702h-162zM367 1456q10 98 56 159.5t118 61.5q57 0 133 -53t110 -53q66 0 82 106h95q-10 -96 -56.5 -158.5t-118.5 -62.5q-57 0 -132.5 53.5t-110.5 53.5 q-66 0 -82 -107h-94z" />
<glyph unicode="&#xd2;" horiz-adv-x="1349" d="M100 678q0 317 159 503.5t417 186.5q256 0 414.5 -186.5t158.5 -503.5q0 -319 -159.5 -511t-413.5 -192q-256 0 -416 190.5t-160 512.5zM276 678q0 -252 109 -402.5t291 -150.5q180 0 288.5 150.5t108.5 402.5q0 250 -108.5 395.5t-288.5 145.5q-182 0 -291 -145.5 t-109 -395.5zM408 1675h192l180 -229h-141z" />
<glyph unicode="&#xd3;" horiz-adv-x="1349" d="M100 678q0 317 159 503.5t417 186.5q256 0 414.5 -186.5t158.5 -503.5q0 -319 -159.5 -511t-413.5 -192q-256 0 -416 190.5t-160 512.5zM276 678q0 -252 109 -402.5t291 -150.5q180 0 288.5 150.5t108.5 402.5q0 250 -108.5 395.5t-288.5 145.5q-182 0 -291 -145.5 t-109 -395.5zM569 1446l183 229h192l-233 -229h-142z" />
<glyph unicode="&#xd4;" horiz-adv-x="1349" d="M100 678q0 317 159 503.5t417 186.5q256 0 414.5 -186.5t158.5 -503.5q0 -319 -159.5 -511t-413.5 -192q-256 0 -416 190.5t-160 512.5zM276 678q0 -252 109 -402.5t291 -150.5q180 0 288.5 150.5t108.5 402.5q0 250 -108.5 395.5t-288.5 145.5q-182 0 -291 -145.5 t-109 -395.5zM397 1446l197 229h162l196 -229h-135l-137 139h-8l-137 -139h-138z" />
<glyph unicode="&#xd5;" horiz-adv-x="1349" d="M100 678q0 317 159 503.5t417 186.5q256 0 414.5 -186.5t158.5 -503.5q0 -319 -159.5 -511t-413.5 -192q-256 0 -416 190.5t-160 512.5zM276 678q0 -252 109 -402.5t291 -150.5q180 0 288.5 150.5t108.5 402.5q0 250 -108.5 395.5t-288.5 145.5q-182 0 -291 -145.5 t-109 -395.5zM379 1456q10 98 56 159.5t116 61.5q59 0 135 -53t109 -53q66 0 84 106h92q-10 -96 -56 -158.5t-116 -62.5q-57 0 -133 53.5t-111 53.5q-66 0 -82 -107h-94z" />
<glyph unicode="&#xd6;" horiz-adv-x="1349" d="M100 678q0 317 159 503.5t417 186.5q256 0 414.5 -186.5t158.5 -503.5q0 -319 -159.5 -511t-413.5 -192q-256 0 -416 190.5t-160 512.5zM276 678q0 -252 109 -402.5t291 -150.5q180 0 288.5 150.5t108.5 402.5q0 250 -108.5 395.5t-288.5 145.5q-182 0 -291 -145.5 t-109 -395.5zM397 1565q0 45 29 72.5t72 27.5q45 0 72.5 -27.5t27.5 -72.5q0 -43 -27.5 -72t-72.5 -29q-43 0 -72 29t-29 72zM752 1565q0 45 28.5 72.5t71.5 27.5t71.5 -27.5t28.5 -72.5q0 -43 -28.5 -72t-71.5 -29t-71.5 29t-28.5 72z" />
<glyph unicode="&#xd7;" horiz-adv-x="1017" d="M102 350l318 326l-318 323l91 93l317 -326l315 326l90 -93l-317 -323l317 -326l-90 -92l-315 328l-317 -328z" />
<glyph unicode="&#xd8;" horiz-adv-x="1349" d="M96 12l142 185q-137 184 -138 481q0 317 159 503.5t417 186.5q213 0 362 -133l129 170l97 -72l-146 -188q131 -182 131 -467q0 -319 -159.5 -511t-413.5 -192q-209 0 -357 129l-126 -165zM276 678q0 -203 72 -340l590 768q-102 113 -262 113q-182 0 -291 -145.5 t-109 -395.5zM420 233q102 -109 256 -108q180 0 288.5 150.5t108.5 402.5q1 192 -65 323z" />
<glyph unicode="&#xd9;" horiz-adv-x="1310" d="M172 555v788h172v-792q0 -426 311 -426q319 0 320 426v792h164v-788q0 -305 -130 -442.5t-353.5 -137.5t-353.5 137.5t-130 442.5zM387 1675h193l180 -229h-142z" />
<glyph unicode="&#xda;" horiz-adv-x="1310" d="M172 555v788h172v-792q0 -426 311 -426q319 0 320 426v792h164v-788q0 -305 -130 -442.5t-353.5 -137.5t-353.5 137.5t-130 442.5zM551 1446l180 229h193l-232 -229h-141z" />
<glyph unicode="&#xdb;" horiz-adv-x="1310" d="M172 555v788h172v-792q0 -426 311 -426q319 0 320 426v792h164v-788q0 -305 -130 -442.5t-353.5 -137.5t-353.5 137.5t-130 442.5zM377 1446l196 229h164l197 -229h-137l-138 139h-8l-137 -139h-137z" />
<glyph unicode="&#xdc;" horiz-adv-x="1310" d="M172 555v788h172v-792q0 -426 311 -426q319 0 320 426v792h164v-788q0 -305 -130 -442.5t-353.5 -137.5t-353.5 137.5t-130 442.5zM379 1565q0 45 28.5 72.5t71.5 27.5t72 -27.5t29 -72.5q0 -43 -29 -72t-72 -29t-71.5 29t-28.5 72zM733 1565q0 45 27.5 72.5t73.5 27.5 q43 0 70.5 -27.5t27.5 -72.5q0 -43 -27.5 -72t-70.5 -29q-45 0 -73 29t-28 72z" />
<glyph unicode="&#xdd;" horiz-adv-x="964" d="M-8 1343h184l172 -378q88 -201 131 -293h8q12 27 60.5 131t73.5 162l174 378h176l-404 -823v-520h-170v520zM377 1446l180 229h193l-232 -229h-141z" />
<glyph unicode="&#xde;" horiz-adv-x="1193" d="M182 0v1343h170v-225h242q496 0 496 -395q0 -207 -133.5 -311.5t-362.5 -104.5h-242v-307h-170zM352 446h221q176 0 261.5 67t85.5 210q0 141 -83 198.5t-264 57.5h-221v-533z" />
<glyph unicode="&#xdf;" horiz-adv-x="1179" d="M168 0v1055q0 195 105.5 309.5t295.5 114.5q156 0 245 -86t89 -213q0 -70 -28.5 -131.5t-64.5 -99.5t-64.5 -87t-28.5 -96q0 -53 42 -93t101.5 -70t117.5 -64.5t100 -100t42 -157.5q0 -131 -89 -218.5t-238 -87.5q-152 0 -289 101l67 119q106 -88 217 -89 q80 0 126.5 48.5t46.5 115.5q0 66 -42 113t-101.5 76.5t-118 62.5t-100.5 89.5t-42 133.5q0 61 28.5 119t61.5 95.5t61.5 92t28.5 111.5q0 80 -44 129t-126 49q-111 0 -171 -80.5t-60 -236.5v-1024h-168z" />
<glyph unicode="&#xe0;" horiz-adv-x="1048" d="M119 258q0 162 146.5 250t465.5 123q0 250 -205 250q-141 0 -297 -107l-67 117q201 129 391 129q176 0 261 -107.5t85 -302.5v-610h-139l-15 119h-4q-178 -143 -329 -144q-129 0 -211 76t-82 207zM285 270q0 -80 48 -119.5t126 -39.5q123 0 272 133v276 q-242 -31 -344 -91.5t-102 -158.5zM324 1462h176l184 -288h-129z" />
<glyph unicode="&#xe1;" horiz-adv-x="1048" d="M119 258q0 162 146.5 250t465.5 123q0 250 -205 250q-141 0 -297 -107l-67 117q201 129 391 129q176 0 261 -107.5t85 -302.5v-610h-139l-15 119h-4q-178 -143 -329 -144q-129 0 -211 76t-82 207zM285 270q0 -80 48 -119.5t126 -39.5q123 0 272 133v276 q-242 -31 -344 -91.5t-102 -158.5zM418 1174l184 288h176l-231 -288h-129z" />
<glyph unicode="&#xe2;" horiz-adv-x="1048" d="M119 258q0 162 146.5 250t465.5 123q0 250 -205 250q-141 0 -297 -107l-67 117q201 129 391 129q176 0 261 -107.5t85 -302.5v-610h-139l-15 119h-4q-178 -143 -329 -144q-129 0 -211 76t-82 207zM285 270q0 -80 48 -119.5t126 -39.5q123 0 272 133v276 q-242 -31 -344 -91.5t-102 -158.5zM289 1174l192 288h140l194 -288h-123l-137 186h-8l-137 -186h-121z" />
<glyph unicode="&#xe3;" horiz-adv-x="1048" d="M119 258q0 162 146.5 250t465.5 123q0 250 -205 250q-141 0 -297 -107l-67 117q201 129 391 129q176 0 261 -107.5t85 -302.5v-610h-139l-15 119h-4q-178 -143 -329 -144q-129 0 -211 76t-82 207zM266 1186q10 98 52 157.5t116 59.5q55 0 129 -52.5t103 -52.5 q57 0 75 105h97q-10 -96 -53.5 -156.5t-114.5 -60.5q-55 0 -129 52t-105 52q-59 0 -74 -104h-96zM285 270q0 -80 48 -119.5t126 -39.5q123 0 272 133v276q-242 -31 -344 -91.5t-102 -158.5z" />
<glyph unicode="&#xe4;" horiz-adv-x="1048" d="M119 258q0 162 146.5 250t465.5 123q0 250 -205 250q-141 0 -297 -107l-67 117q201 129 391 129q176 0 261 -107.5t85 -302.5v-610h-139l-15 119h-4q-178 -143 -329 -144q-129 0 -211 76t-82 207zM274 1305q0 43 29 71.5t72 28.5t71.5 -28.5t28.5 -71.5t-28.5 -72 t-71.5 -29t-72 29t-29 72zM285 270q0 -80 48 -119.5t126 -39.5q123 0 272 133v276q-242 -31 -344 -91.5t-102 -158.5zM629 1305q0 43 27.5 71.5t72.5 28.5q43 0 70.5 -28.5t27.5 -71.5t-27.5 -72t-70.5 -29q-45 0 -72.5 29t-27.5 72z" />
<glyph unicode="&#xe5;" horiz-adv-x="1048" d="M119 258q0 162 146.5 250t465.5 123q0 250 -205 250q-141 0 -297 -107l-67 117q201 129 391 129q176 0 261 -107.5t85 -302.5v-610h-139l-15 119h-4q-178 -143 -329 -144q-129 0 -211 76t-82 207zM285 270q0 -80 48 -119.5t126 -39.5q123 0 272 133v276 q-242 -31 -344 -91.5t-102 -158.5zM360 1300q0 84 53.5 136.5t137.5 52.5t138 -52.5t54 -136.5q0 -86 -53 -138t-139 -52q-84 0 -137.5 52t-53.5 138zM453 1300q0 -51 28.5 -82.5t69.5 -31.5q43 0 70.5 31.5t27.5 82.5q0 49 -27.5 81t-70.5 32q-41 0 -69.5 -31.5 t-28.5 -81.5z" />
<glyph unicode="&#xe6;" horiz-adv-x="1613" d="M119 258q0 162 144.5 250t457.5 123q0 250 -203 250q-133 -1 -289 -107l-67 117q201 129 377 129q217 0 284 -211q127 211 328 211q180 0 279.5 -126t99.5 -343q0 -57 -6 -94h-645q6 -154 93 -249t216 -95q113 0 242 82l61 -117q-160 -102 -324 -103q-207 0 -350 187 q-209 -186 -405 -187q-129 0 -211 76t-82 207zM285 270q0 -80 48 -119.5t126 -39.5q72 0 153.5 41t147.5 112q-35 80 -39 205v51q-231 -31 -333.5 -91.5t-102.5 -158.5zM879 569h503q0 154 -60 236t-175 82q-104 0 -179 -87.5t-89 -230.5z" />
<glyph unicode="&#xe7;" horiz-adv-x="933" d="M94 496q0 242 139.5 383t339.5 141q164 0 291 -119l-84 -108q-102 88 -200 88q-135 0 -223.5 -107.5t-88.5 -277.5t85 -275.5t222 -105.5q121 0 234 100l76 -111q-124 -108 -271 -124l-39 -82q121 -41 121 -146q0 -84 -84 -130t-213 -58l-16 84q182 25 182 98 q0 68 -131 100l68 134q-180 20 -294 156t-114 360z" />
<glyph unicode="&#xe8;" horiz-adv-x="1021" d="M94 496q0 233 133 378.5t314 145.5q188 0 292.5 -126t104.5 -341q0 -55 -6 -92h-672q8 -162 98.5 -256t233.5 -94q127 0 248 77l59 -110q-160 -102 -328 -103q-205 0 -341 141.5t-136 379.5zM258 571h533q0 152 -64.5 234t-181.5 82q-109 0 -191 -85.5t-96 -230.5z M315 1462h174l187 -288h-131z" />
<glyph unicode="&#xe9;" horiz-adv-x="1021" d="M94 496q0 233 133 378.5t314 145.5q188 0 292.5 -126t104.5 -341q0 -55 -6 -92h-672q8 -162 98.5 -256t233.5 -94q127 0 248 77l59 -110q-160 -102 -328 -103q-205 0 -341 141.5t-136 379.5zM258 571h533q0 152 -64.5 234t-181.5 82q-109 0 -191 -85.5t-96 -230.5z M408 1174l186 288h174l-231 -288h-129z" />
<glyph unicode="&#xea;" horiz-adv-x="1021" d="M94 496q0 233 133 378.5t314 145.5q188 0 292.5 -126t104.5 -341q0 -55 -6 -92h-672q8 -162 98.5 -256t233.5 -94q127 0 248 77l59 -110q-160 -102 -328 -103q-205 0 -341 141.5t-136 379.5zM258 571h533q0 152 -64.5 234t-181.5 82q-109 0 -191 -85.5t-96 -230.5z M279 1174l194 288h137l195 -288h-123l-137 186h-8l-138 -186h-120z" />
<glyph unicode="&#xeb;" horiz-adv-x="1021" d="M94 496q0 233 133 378.5t314 145.5q188 0 292.5 -126t104.5 -341q0 -55 -6 -92h-672q8 -162 98.5 -256t233.5 -94q127 0 248 77l59 -110q-160 -102 -328 -103q-205 0 -341 141.5t-136 379.5zM258 571h533q0 152 -64.5 234t-181.5 82q-109 0 -191 -85.5t-96 -230.5z M264 1305q0 43 29 71.5t72 28.5t71.5 -28.5t28.5 -71.5t-28.5 -72t-71.5 -29t-72 29t-29 72zM618 1305q0 43 28 71.5t73 28.5q43 0 71.5 -28.5t28.5 -71.5t-28.5 -72t-71.5 -29q-45 0 -73 29t-28 72z" />
<glyph unicode="&#xec;" horiz-adv-x="503" d="M25 1462h176l184 -288h-129zM168 0v995h168v-995h-168z" />
<glyph unicode="&#xed;" horiz-adv-x="503" d="M119 1174l184 288h176l-231 -288h-129zM168 0v995h168v-995h-168z" />
<glyph unicode="&#xee;" horiz-adv-x="503" d="M-10 1174l192 288h140l194 -288h-123l-137 186h-8l-137 -186h-121zM168 0v995h168v-995h-168z" />
<glyph unicode="&#xef;" horiz-adv-x="503" d="M-25 1305q0 43 29 71.5t72 28.5t71.5 -28.5t28.5 -71.5t-28.5 -72t-71.5 -29t-72 29t-29 72zM168 0v995h168v-995h-168zM330 1305q0 43 27.5 71.5t70.5 28.5q45 0 72.5 -28.5t27.5 -71.5t-27.5 -72t-72.5 -29q-43 0 -70.5 29t-27.5 72z" />
<glyph unicode="&#xf0;" horiz-adv-x="1116" d="M109 455q0 205 119.5 332.5t301.5 127.5q172 0 275 -135q-49 227 -219 394l-289 -150l-49 84l260 133q-106 82 -229 148l77 106q170 -92 283 -186l291 149l49 -84l-264 -135q279 -283 278 -713q0 -246 -121.5 -398.5t-320.5 -152.5q-182 0 -312 132.5t-130 347.5z M268 455q0 -150 84 -245t203 -95q135 0 205.5 109.5t70.5 295.5q0 43 -4 113q-113 152 -272 151q-133 0 -210 -92t-77 -237z" />
<glyph unicode="&#xf1;" horiz-adv-x="1120" d="M168 0v995h139l15 -143h6q168 168 334 168q303 0 303 -389v-631h-168v608q0 139 -45 202.5t-144 63.5q-72 0 -131 -35.5t-141 -117.5v-721h-168zM313 1186q8 96 51.5 156.5t114.5 60.5q55 0 130 -52.5t104 -52.5q57 0 73 105h97q-8 -96 -51.5 -156.5t-114.5 -60.5 q-57 0 -130 52t-104 52q-57 0 -75 -104h-95z" />
<glyph unicode="&#xf2;" horiz-adv-x="1110" d="M94 496q0 242 134 383t327 141t327 -141.5t134 -382.5q0 -238 -134 -379.5t-327 -141.5t-327 141.5t-134 379.5zM268 496q0 -170 80 -275.5t207 -105.5q129 0 208 105.5t79 275.5q0 172 -79 278.5t-208 106.5q-127 0 -207 -106.5t-80 -278.5zM328 1462h176l184 -288h-129 z" />
<glyph unicode="&#xf3;" horiz-adv-x="1110" d="M94 496q0 242 134 383t327 141t327 -141.5t134 -382.5q0 -238 -134 -379.5t-327 -141.5t-327 141.5t-134 379.5zM268 496q0 -170 80 -275.5t207 -105.5q129 0 208 105.5t79 275.5q0 172 -79 278.5t-208 106.5q-127 0 -207 -106.5t-80 -278.5zM422 1174l184 288h176 l-231 -288h-129z" />
<glyph unicode="&#xf4;" horiz-adv-x="1110" d="M94 496q0 242 134 383t327 141t327 -141.5t134 -382.5q0 -238 -134 -379.5t-327 -141.5t-327 141.5t-134 379.5zM268 496q0 -170 80 -275.5t207 -105.5q129 0 208 105.5t79 275.5q0 172 -79 278.5t-208 106.5q-127 0 -207 -106.5t-80 -278.5zM293 1174l192 288h140 l194 -288h-123l-137 186h-8l-137 -186h-121z" />
<glyph unicode="&#xf5;" horiz-adv-x="1110" d="M94 496q0 242 134 383t327 141t327 -141.5t134 -382.5q0 -238 -134 -379.5t-327 -141.5t-327 141.5t-134 379.5zM268 496q0 -170 80 -275.5t207 -105.5q129 0 208 105.5t79 275.5q0 172 -79 278.5t-208 106.5q-127 0 -207 -106.5t-80 -278.5zM270 1186q8 96 51.5 156.5 t114.5 60.5q57 0 131 -52.5t103 -52.5q57 0 75 105h95q-8 -96 -51.5 -156.5t-114.5 -60.5q-55 0 -129 52t-105 52q-59 0 -73 -104h-97z" />
<glyph unicode="&#xf6;" horiz-adv-x="1110" d="M94 496q0 242 134 383t327 141t327 -141.5t134 -382.5q0 -238 -134 -379.5t-327 -141.5t-327 141.5t-134 379.5zM268 496q0 -170 80 -275.5t207 -105.5q129 0 208 105.5t79 275.5q0 172 -79 278.5t-208 106.5q-127 0 -207 -106.5t-80 -278.5zM279 1305q0 43 28.5 71.5 t71.5 28.5t71.5 -28.5t28.5 -71.5t-28.5 -72t-71.5 -29t-71.5 29t-28.5 72zM633 1305q0 43 27.5 71.5t70.5 28.5q45 0 72.5 -28.5t27.5 -71.5t-27.5 -72t-72.5 -29q-43 0 -70.5 29t-27.5 72z" />
<glyph unicode="&#xf7;" horiz-adv-x="1017" d="M70 612v127h878v-127h-878zM397 307q0 47 33 78t80 31t79 -31t32 -78q0 -49 -32 -79.5t-79 -30.5q-49 0 -81 30.5t-32 79.5zM397 1044q0 47 33 78t80 31t79 -30.5t32 -78.5q0 -49 -32 -79.5t-79 -30.5q-49 0 -81 30.5t-32 79.5z" />
<glyph unicode="&#xf8;" horiz-adv-x="1110" d="M94 12l111 133q-111 143 -111 351q0 242 134 383t327 141q164 0 285 -102l102 124l74 -59l-111 -133q111 -143 111 -354q0 -238 -134 -379.5t-327 -141.5q-162 0 -285 101l-100 -123zM260 504q0 -138 47 -232l438 531q-76 82 -190 82q-129 0 -212 -106.5t-83 -274.5z M365 190q80 -80 190 -79q129 0 212 105.5t83 272.5q0 139 -49 234z" />
<glyph unicode="&#xf9;" horiz-adv-x="1124" d="M164 365v630h170v-608q0 -139 44 -202.5t142 -63.5q74 0 133.5 39t132.5 129v706h170v-995h-139l-14 156h-6q-154 -180 -328 -181q-305 1 -305 390zM340 1462h176l184 -288h-129z" />
<glyph unicode="&#xfa;" horiz-adv-x="1124" d="M164 365v630h170v-608q0 -139 44 -202.5t142 -63.5q74 0 133.5 39t132.5 129v706h170v-995h-139l-14 156h-6q-154 -180 -328 -181q-305 1 -305 390zM434 1174l184 288h177l-232 -288h-129z" />
<glyph unicode="&#xfb;" horiz-adv-x="1124" d="M164 365v630h170v-608q0 -139 44 -202.5t142 -63.5q74 0 133.5 39t132.5 129v706h170v-995h-139l-14 156h-6q-154 -180 -328 -181q-305 1 -305 390zM305 1174l193 288h139l194 -288h-122l-138 186h-8l-137 -186h-121z" />
<glyph unicode="&#xfc;" horiz-adv-x="1124" d="M164 365v630h170v-608q0 -139 44 -202.5t142 -63.5q74 0 133.5 39t132.5 129v706h170v-995h-139l-14 156h-6q-154 -180 -328 -181q-305 1 -305 390zM291 1305q0 43 28.5 71.5t71.5 28.5t72 -28.5t29 -71.5t-29 -72t-72 -29t-71.5 29t-28.5 72zM645 1305q0 43 27.5 71.5 t70.5 28.5q45 0 73 -28.5t28 -71.5t-28 -72t-73 -29q-43 0 -70.5 29t-27.5 72z" />
<glyph unicode="&#xfd;" horiz-adv-x="956" d="M25 995h174l202 -551q41 -115 97 -280h8q16 53 47 155.5t37 124.5l178 551h164l-375 -1077q-57 -164 -144 -255t-229 -91q-61 0 -116 20l32 134q47 -14 76 -15q154 0 225 213l23 74zM365 1174l184 288h176l-231 -288h-129z" />
<glyph unicode="&#xfe;" horiz-adv-x="1136" d="M168 -420v1878h168v-397l-2 -170q164 129 303 129q193 0 297 -136t104 -372q0 -244 -126 -390.5t-304 -146.5q-131 0 -274 111l2 -170v-336h-168zM336 221q125 -104 244 -104q125 0 204.5 107.5t79.5 287.5q0 367 -262 367q-115 0 -266 -136v-522z" />
<glyph unicode="&#xff;" horiz-adv-x="956" d="M25 995h174l202 -551q41 -115 97 -280h8q16 53 47 155.5t37 124.5l178 551h164l-375 -1077q-57 -164 -144 -255t-229 -91q-61 0 -116 20l32 134q47 -14 76 -15q154 0 225 213l23 74zM221 1305q0 43 29 71.5t72 28.5t71.5 -28.5t28.5 -71.5t-28.5 -72t-71.5 -29t-72 29 t-29 72zM575 1305q0 43 28 71.5t71 28.5q45 0 72.5 -28.5t27.5 -71.5t-27.5 -72t-72.5 -29q-43 0 -71 29t-28 72z" />
<glyph unicode="&#x100;" horiz-adv-x="1101" d="M0 0l455 1343h192l455 -1343h-180l-129 410h-490l-129 -410h-174zM295 1493v117h508v-117h-508zM346 547h404l-64 205q-66 209 -133 452h-8q-68 -244 -133 -452z" />
<glyph unicode="&#x101;" horiz-adv-x="1048" d="M119 258q0 162 146.5 250t465.5 123q0 250 -205 250q-141 0 -297 -107l-67 117q201 129 391 129q176 0 261 -107.5t85 -302.5v-610h-139l-15 119h-4q-178 -143 -329 -144q-129 0 -211 76t-82 207zM285 270q0 -80 48 -119.5t126 -39.5q123 0 272 133v276 q-242 -31 -344 -91.5t-102 -158.5zM301 1231v117h502v-117h-502z" />
<glyph unicode="&#x102;" horiz-adv-x="1101" d="M0 0l455 1343h192l455 -1343h-180l-129 410h-490l-129 -410h-174zM297 1675h102q10 -55 48 -92t101.5 -37t101.5 37t48 92h103q-12 -96 -74.5 -160.5t-177.5 -64.5t-178.5 64.5t-73.5 160.5zM346 547h404l-64 205q-66 209 -133 452h-8q-68 -244 -133 -452z" />
<glyph unicode="&#x103;" horiz-adv-x="1048" d="M119 258q0 162 146.5 250t465.5 123q0 250 -205 250q-141 0 -297 -107l-67 117q201 129 391 129q176 0 261 -107.5t85 -302.5v-610h-139l-15 119h-4q-178 -143 -329 -144q-129 0 -211 76t-82 207zM285 270q0 -80 48 -119.5t126 -39.5q123 0 272 133v276 q-242 -31 -344 -91.5t-102 -158.5zM293 1438h104q8 -66 47 -111t106.5 -45t106.5 45t48 111h106q-8 -104 -73.5 -182t-186.5 -78t-186.5 77.5t-71.5 182.5z" />
<glyph unicode="&#x104;" horiz-adv-x="1101" d="M0 0l455 1343h192l455 -1343q-70 -29 -117 -91.5t-47 -127.5q0 -45 27.5 -69.5t66.5 -24.5q47 -1 86 28l47 -92q-72 -57 -164 -57q-84 0 -139 47t-55 131q0 76 46 145.5t108 110.5h-39l-129 410h-490l-129 -410h-174zM346 547h404l-64 205q-66 209 -133 452h-8 q-68 -244 -133 -452z" />
<glyph unicode="&#x105;" horiz-adv-x="1048" d="M119 258q0 162 146.5 250t465.5 123q0 250 -205 250q-141 0 -297 -107l-67 117q201 129 391 129q176 0 261 -107.5t85 -302.5v-610q-82 -33 -130 -93.5t-48 -121.5q0 -45 28.5 -69.5t67.5 -24.5q41 0 82 26l43 -84q-70 -55 -160 -55q-82 0 -133 45t-51 129q0 78 48 145.5 t116 110.5l-17 111h-4q-178 -143 -329 -144q-129 0 -211 76t-82 207zM285 270q0 -80 48 -119.5t126 -39.5q123 0 272 133v276q-242 -31 -344 -91.5t-102 -158.5z" />
<glyph unicode="&#x106;" horiz-adv-x="1159" d="M100 672q0 317 168 506.5t432 189.5q217 0 367 -166l-96 -108q-119 125 -269 125q-193 0 -309.5 -146.5t-116.5 -396.5q0 -254 113 -402.5t305 -148.5q174 0 307 149l97 -104q-166 -195 -408 -195q-260 0 -425 187.5t-165 509.5zM567 1446l181 229h192l-231 -229h-142z " />
<glyph unicode="&#x107;" horiz-adv-x="933" d="M94 495.5q0 241.5 139.5 383t339.5 141.5q164 0 291 -119l-84 -108q-102 88 -200 88q-135 0 -223.5 -107.5t-88.5 -277.5t85 -275.5t222 -105.5q121 0 234 100l76 -111q-145 -129 -324 -129q-205 0 -336 139.5t-131 381zM436 1174l187 288h174l-230 -288h-131z" />
<glyph unicode="&#x108;" horiz-adv-x="1159" d="M100 672q0 317 168 506.5t432 189.5q217 0 367 -166l-96 -108q-119 125 -269 125q-193 0 -309.5 -146.5t-116.5 -396.5q0 -254 113 -402.5t305 -148.5q174 0 307 149l97 -104q-166 -195 -408 -195q-260 0 -425 187.5t-165 509.5zM393 1446l197 229h164l196 -229h-137 l-137 139h-8l-138 -139h-137z" />
<glyph unicode="&#x109;" horiz-adv-x="933" d="M94 495.5q0 241.5 139.5 383t339.5 141.5q164 0 291 -119l-84 -108q-102 88 -200 88q-135 0 -223.5 -107.5t-88.5 -277.5t85 -275.5t222 -105.5q121 0 234 100l76 -111q-145 -129 -324 -129q-205 0 -336 139.5t-131 381zM307 1174l195 288h137l195 -288h-121l-138 186h-8 l-137 -186h-123z" />
<glyph unicode="&#x10a;" horiz-adv-x="1159" d="M100 672q0 317 168 506.5t432 189.5q217 0 367 -166l-96 -108q-119 125 -269 125q-193 0 -309.5 -146.5t-116.5 -396.5q0 -254 113 -402.5t305 -148.5q174 0 307 149l97 -104q-166 -195 -408 -195q-260 0 -425 187.5t-165 509.5zM555 1573q0 47 34 77.5t83 30.5 t82.5 -30.5t33.5 -77.5q0 -49 -33.5 -80t-82.5 -31t-83 31t-34 80z" />
<glyph unicode="&#x10b;" horiz-adv-x="933" d="M94 495.5q0 241.5 139.5 383t339.5 141.5q164 0 291 -119l-84 -108q-102 88 -200 88q-135 0 -223.5 -107.5t-88.5 -277.5t85 -275.5t222 -105.5q121 0 234 100l76 -111q-145 -129 -324 -129q-205 0 -336 139.5t-131 381zM459 1311q0 47 31.5 78.5t80.5 31.5 q47 0 79 -31.5t32 -78.5q0 -49 -32 -80t-79 -31q-49 0 -80.5 31t-31.5 80z" />
<glyph unicode="&#x10c;" horiz-adv-x="1159" d="M100 672q0 317 168 506.5t432 189.5q217 0 367 -166l-96 -108q-119 125 -269 125q-193 0 -309.5 -146.5t-116.5 -396.5q0 -254 113 -402.5t305 -148.5q174 0 307 149l97 -104q-166 -195 -408 -195q-260 0 -425 187.5t-165 509.5zM393 1675h137l138 -139h8l137 139h137 l-196 -229h-164z" />
<glyph unicode="&#x10d;" horiz-adv-x="933" d="M94 495.5q0 241.5 139.5 383t339.5 141.5q164 0 291 -119l-84 -108q-102 88 -200 88q-135 0 -223.5 -107.5t-88.5 -277.5t85 -275.5t222 -105.5q121 0 234 100l76 -111q-145 -129 -324 -129q-205 0 -336 139.5t-131 381zM307 1462h123l137 -188h8l138 188h121l-195 -288 h-137z" />
<glyph unicode="&#x10e;" horiz-adv-x="1247" d="M174 0v1343h336q309 0 472 -172t163 -493q0 -324 -162 -501t-465 -177h-344zM342 1675h137l137 -139h9l137 139h137l-197 -229h-163zM344 139h154q231 0 351 140.5t120 398.5q0 256 -119 391t-352 135h-154v-1065z" />
<glyph unicode="&#x10f;" horiz-adv-x="1173" d="M96 496q0 236 127 380t305 144q137 0 279 -115l-8 170v383h170v-1458h-140l-14 117h-6q-145 -141 -301 -142q-190 0 -301 137.5t-111 383.5zM270 498q0 -178 73 -279.5t202 -101.5q131 0 254 137v520q-117 104 -242 105q-121 0 -204 -106.5t-83 -274.5zM1077 1556h121 l-2 -116l-29 -318h-82z" />
<glyph unicode="&#x110;" horiz-adv-x="1292" d="M61 657v88l156 9v589h336q309 0 472 -172t163 -493q0 -324 -162 -501t-465 -177h-344v657h-156zM389 139h152q233 0 352 140.5t119 398.5q0 256 -119 391t-352 135h-152v-450h309v-97h-309v-518z" />
<glyph unicode="&#x111;" horiz-adv-x="1136" d="M96 475q0 225 127 364.5t305 139.5q137 0 279 -115l-8 170v135h-330v99h330v190h170v-190h147v-88l-147 -11v-1169h-144l-12 113h-6q-137 -137 -299 -138q-190 0 -301 131.5t-111 368.5zM270 477q0 -170 72 -265t203 -95t254 137v479q-117 104 -242 105 q-121 0 -204 -100.5t-83 -260.5z" />
<glyph unicode="&#x112;" horiz-adv-x="1069" d="M178 0v1343h774v-143h-602v-422h508v-145h-508v-488h623v-145h-795zM324 1493v117h507v-117h-507z" />
<glyph unicode="&#x113;" horiz-adv-x="1021" d="M94 496q0 233 133 378.5t314 145.5q188 0 292.5 -126t104.5 -341q0 -55 -6 -92h-672q8 -162 98.5 -256t233.5 -94q127 0 248 77l59 -110q-160 -102 -328 -103q-205 0 -341 141.5t-136 379.5zM258 571h533q0 152 -64.5 234t-181.5 82q-109 0 -191 -85.5t-96 -230.5z M291 1231v117h502v-117h-502z" />
<glyph unicode="&#x114;" horiz-adv-x="1069" d="M178 0v1343h774v-143h-602v-422h508v-145h-508v-488h623v-145h-795zM326 1675h102q10 -55 48 -92t101.5 -37t101.5 37t48 92h102q-12 -96 -74.5 -160.5t-177 -64.5t-178 64.5t-73.5 160.5z" />
<glyph unicode="&#x115;" horiz-adv-x="1021" d="M94 496q0 233 133 378.5t314 145.5q188 0 292.5 -126t104.5 -341q0 -55 -6 -92h-672q8 -162 98.5 -256t233.5 -94q127 0 248 77l59 -110q-160 -102 -328 -103q-205 0 -341 141.5t-136 379.5zM258 571h533q0 152 -64.5 234t-181.5 82q-109 0 -191 -85.5t-96 -230.5z M283 1438h104q8 -66 48 -111t106 -45q68 0 106.5 44t48.5 112h105q-8 -104 -73.5 -182t-186.5 -78t-185.5 77.5t-72.5 182.5z" />
<glyph unicode="&#x116;" horiz-adv-x="1069" d="M178 0v1343h774v-143h-602v-422h508v-145h-508v-488h623v-145h-795zM461 1573q0 47 33.5 77.5t83 30.5t83 -30.5t33.5 -77.5q0 -49 -33.5 -80t-83 -31t-83 31t-33.5 80z" />
<glyph unicode="&#x117;" horiz-adv-x="1021" d="M94 496q0 233 133 378.5t314 145.5q188 0 292.5 -126t104.5 -341q0 -55 -6 -92h-672q8 -162 98.5 -256t233.5 -94q127 0 248 77l59 -110q-160 -102 -328 -103q-205 0 -341 141.5t-136 379.5zM258 571h533q0 152 -64.5 234t-181.5 82q-109 0 -191 -85.5t-96 -230.5z M430 1311q0 47 32 78.5t79 31.5q49 0 79.5 -31.5t30.5 -78.5q0 -49 -30.5 -80t-79.5 -31q-47 0 -79 31t-32 80z" />
<glyph unicode="&#x118;" horiz-adv-x="1069" d="M178 0v1343h774v-143h-602v-422h508v-145h-508v-488h623v-145h-6q-72 -10 -130.5 -74.5t-58.5 -144.5q0 -45 29 -69.5t70 -24.5q43 0 81 28l48 -92q-72 -57 -164 -57q-84 0 -139.5 47t-55.5 131q0 80 45 147.5t109 108.5h-623z" />
<glyph unicode="&#x119;" horiz-adv-x="1021" d="M94 496q0 233 133 378.5t314 145.5q188 0 292.5 -126t104.5 -341q0 -55 -6 -92h-672q8 -162 98.5 -256t233.5 -94q127 0 248 77l59 -110q-129 -92 -178 -158.5t-49 -134.5q0 -45 27.5 -69.5t68.5 -24.5t82 26l43 -84q-70 -55 -160 -55q-82 0 -133 45t-51 129 q0 129 123 238q-41 -14 -101 -15q-205 0 -341 141.5t-136 379.5zM258 571h533q0 152 -63.5 234t-182.5 82q-109 0 -191 -85.5t-96 -230.5z" />
<glyph unicode="&#x11a;" horiz-adv-x="1069" d="M178 0v1343h774v-143h-602v-422h508v-145h-508v-488h623v-145h-795zM299 1675h137l137 -139h9l137 139h137l-197 -229h-163z" />
<glyph unicode="&#x11b;" horiz-adv-x="1021" d="M94 496q0 233 133 378.5t314 145.5q188 0 292.5 -126t104.5 -341q0 -55 -6 -92h-672q8 -162 98.5 -256t233.5 -94q127 0 248 77l59 -110q-160 -102 -328 -103q-205 0 -341 141.5t-136 379.5zM258 571h533q0 152 -64.5 234t-181.5 82q-109 0 -191 -85.5t-96 -230.5z M279 1462h120l138 -188h8l137 188h123l-195 -288h-137z" />
<glyph unicode="&#x11c;" horiz-adv-x="1253" d="M100 672q0 319 173 507.5t448 188.5q223 0 385 -166l-98 -108q-119 125 -285 125q-205 0 -326 -146.5t-121 -396.5q0 -256 117 -403.5t330 -147.5q158 0 244 80v350h-285v141h440v-565q-160 -156 -417 -156q-268 0 -436.5 186.5t-168.5 510.5zM440 1446l197 229h164 l196 -229h-137l-137 139h-8l-137 -139h-138z" />
<glyph unicode="&#x11d;" horiz-adv-x="1032" d="M92 -190q0 127 146 225v8q-88 55 -88 162q0 111 108 184v8q-129 104 -129 269q0 158 108.5 256t266.5 98q78 0 141 -25h346v-129h-205q82 -78 82 -204q0 -156 -104.5 -251.5t-259.5 -95.5q-80 0 -150 35q-63 -55 -63 -119q0 -109 176 -108h192q176 0 262.5 -57.5 t86.5 -180.5q0 -143 -139.5 -243.5t-364.5 -100.5q-186 0 -299 71t-113 198zM227 1174l195 288h137l195 -288h-121l-137 186h-9l-137 -186h-123zM240 -168q0 -80 76.5 -127t211.5 -47q137 0 226.5 60.5t89.5 142.5q0 68 -50.5 95.5t-150.5 27.5h-172q-72 0 -129 16 q-102 -74 -102 -168zM293 665.5q0 -106.5 61.5 -172t149.5 -65.5t149.5 65.5t61.5 172t-60.5 169t-150.5 62.5t-150.5 -62.5t-60.5 -169z" />
<glyph unicode="&#x11e;" horiz-adv-x="1253" d="M100 672q0 319 173 507.5t448 188.5q223 0 385 -166l-98 -108q-119 125 -285 125q-205 0 -326 -146.5t-121 -396.5q0 -256 117 -403.5t330 -147.5q158 0 244 80v350h-285v141h440v-565q-160 -156 -417 -156q-268 0 -436.5 186.5t-168.5 510.5zM467 1675h102 q10 -55 48 -92t101.5 -37t101.5 37t48 92h103q-12 -96 -74.5 -160.5t-177.5 -64.5t-177.5 64.5t-74.5 160.5z" />
<glyph unicode="&#x11f;" horiz-adv-x="1032" d="M92 -190q0 127 146 225v8q-88 55 -88 162q0 111 108 184v8q-129 104 -129 269q0 158 108.5 256t266.5 98q78 0 141 -25h346v-129h-205q82 -78 82 -204q0 -156 -104.5 -251.5t-259.5 -95.5q-80 0 -150 35q-63 -55 -63 -119q0 -109 176 -108h192q176 0 262.5 -57.5 t86.5 -180.5q0 -143 -139.5 -243.5t-364.5 -100.5q-186 0 -299 71t-113 198zM231 1438h105q10 -68 49 -112t107 -44q66 0 105.5 45t47.5 111h105q-8 -104 -73 -182t-185.5 -78t-186 77.5t-74.5 182.5zM240 -168q0 -80 76.5 -127t211.5 -47q137 0 226.5 60.5t89.5 142.5 q0 68 -50.5 95.5t-150.5 27.5h-172q-72 0 -129 16q-102 -74 -102 -168zM293 665.5q0 -106.5 61.5 -172t149.5 -65.5t149.5 65.5t61.5 172t-60.5 169t-150.5 62.5t-150.5 -62.5t-60.5 -169z" />
<glyph unicode="&#x120;" horiz-adv-x="1253" d="M100 672q0 319 173 507.5t448 188.5q223 0 385 -166l-98 -108q-119 125 -285 125q-205 0 -326 -146.5t-121 -396.5q0 -256 117 -403.5t330 -147.5q158 0 244 80v350h-285v141h440v-565q-160 -156 -417 -156q-268 0 -436.5 186.5t-168.5 510.5zM602 1573q0 47 34 77.5 t83 30.5t83 -30.5t34 -77.5q0 -49 -34 -80t-83 -31t-83 31t-34 80z" />
<glyph unicode="&#x121;" horiz-adv-x="1032" d="M92 -190q0 127 146 225v8q-88 55 -88 162q0 111 108 184v8q-129 104 -129 269q0 158 108.5 256t266.5 98q78 0 141 -25h346v-129h-205q82 -78 82 -204q0 -156 -104.5 -251.5t-259.5 -95.5q-80 0 -150 35q-63 -55 -63 -119q0 -109 176 -108h192q176 0 262.5 -57.5 t86.5 -180.5q0 -143 -139.5 -243.5t-364.5 -100.5q-186 0 -299 71t-113 198zM240 -168q0 -80 76.5 -127t211.5 -47q137 0 226.5 60.5t89.5 142.5q0 68 -50.5 95.5t-150.5 27.5h-172q-72 0 -129 16q-102 -74 -102 -168zM293 665.5q0 -106.5 61.5 -172t149.5 -65.5t149.5 65.5 t61.5 172t-60.5 169t-150.5 62.5t-150.5 -62.5t-60.5 -169zM379 1311q0 47 31.5 78.5t81.5 31.5q47 0 78.5 -31.5t31.5 -78.5q0 -49 -31.5 -80t-78.5 -31q-49 0 -81 31t-32 80z" />
<glyph unicode="&#x122;" horiz-adv-x="1253" d="M100 672q0 319 173 507.5t448 188.5q223 0 385 -166l-98 -108q-119 125 -285 125q-205 0 -326 -146.5t-121 -396.5q0 -256 117 -403.5t330 -147.5q158 0 244 80v350h-285v141h440v-565q-160 -156 -417 -156q-268 0 -436.5 186.5t-168.5 510.5zM535 -360q182 25 182 94 q0 63 -105 90l37 78q104 -16 151.5 -53t47.5 -105q0 -84 -84 -130t-213 -56z" />
<glyph unicode="&#x123;" horiz-adv-x="1032" d="M92 -190q0 127 146 225v8q-88 55 -88 162q0 111 108 184v8q-129 104 -129 269q0 158 108.5 256t266.5 98q78 0 141 -25h346v-129h-205q82 -78 82 -204q0 -156 -104.5 -251.5t-259.5 -95.5q-80 0 -150 35q-63 -55 -63 -119q0 -109 176 -108h192q176 0 262.5 -57.5 t86.5 -180.5q0 -143 -139.5 -243.5t-364.5 -100.5q-186 0 -299 71t-113 198zM240 -168q0 -80 76.5 -127t211.5 -47q137 0 226.5 60.5t89.5 142.5q0 68 -50.5 95.5t-150.5 27.5h-172q-72 0 -129 16q-102 -74 -102 -168zM293 665.5q0 -106.5 61.5 -172t149.5 -65.5t149.5 65.5 t61.5 172t-60.5 169t-150.5 62.5t-150.5 -62.5t-60.5 -169zM348 1266q0 84 84 130t213 58l17 -84q-182 -25 -183 -92q0 -66 107 -92l-39 -78q-102 16 -150.5 53t-48.5 105z" />
<glyph unicode="&#x124;" horiz-adv-x="1325" d="M178 0v1343h172v-563h625v563h170v-1343h-170v633h-625v-633h-172zM383 1446l197 229h163l197 -229h-137l-137 139h-9l-137 -139h-137z" />
<glyph unicode="&#x125;" horiz-adv-x="1114" d="M-25 1534l197 227h162l196 -227h-135l-137 139h-8l-137 -139h-138zM168 0v1458h168v-397l-6 -205q172 164 332 164q303 0 303 -389v-631h-168v608q0 139 -45 202.5t-144 63.5q-72 0 -131 -35.5t-141 -117.5v-721h-168z" />
<glyph unicode="&#x126;" horiz-adv-x="1396" d="M61 1008v86l154 10v239h170v-239h625v239h172v-239h153v-96h-153v-1008h-172v633h-625v-633h-170v1008h-154zM385 780h625v228h-625v-228z" />
<glyph unicode="&#x127;" horiz-adv-x="1114" d="M16 1169v88l152 11v190h168v-190h373v-99h-373v-149l-6 -205q172 164 332 164q303 0 303 -389v-590h-168v567q0 139 -45 203t-144 64q-72 0 -131 -36t-141 -118v-680h-168v1169h-152z" />
<glyph unicode="&#x128;" horiz-adv-x="528" d="M-33 1456q10 98 56.5 159.5t117.5 61.5q57 0 133 -53t109 -53q68 0 84 106h94q-10 -96 -56 -158.5t-118 -62.5q-59 0 -135 53.5t-109 53.5q-66 0 -82 -107h-94zM178 0v1343h172v-1343h-172z" />
<glyph unicode="&#x129;" horiz-adv-x="503" d="M-33 1186q8 96 51 156.5t115 60.5q57 0 131 -52.5t103 -52.5q57 0 75 105h95q-8 -96 -51.5 -156.5t-114.5 -60.5q-55 0 -129 52t-105 52q-59 0 -74 -104h-96zM168 0v995h168v-995h-168z" />
<glyph unicode="&#x12a;" horiz-adv-x="528" d="M10 1493v117h508v-117h-508zM178 0v1343h172v-1343h-172z" />
<glyph unicode="&#x12b;" horiz-adv-x="503" d="M2 1231v117h502v-117h-502zM168 0v995h168v-995h-168z" />
<glyph unicode="&#x12e;" horiz-adv-x="528" d="M84 -256q0 133 135 256h-41v1343h172v-1343q-135 -102 -135 -219q0 -45 28.5 -69.5t69.5 -24.5q43 0 82 28l47 -92q-72 -57 -163 -57q-84 0 -139.5 47t-55.5 131z" />
<glyph unicode="&#x12f;" horiz-adv-x="503" d="M78 -248q0 117 131 248h-41v995h168v-995q-133 -96 -133 -215q0 -45 27.5 -69.5t68.5 -24.5q39 0 82 26l43 -84q-70 -55 -160 -55q-82 0 -134 45t-52 129zM135 1309q0 49 34 78.5t83 29.5t82 -29.5t33 -78.5q0 -47 -33 -78t-82 -31t-83 31t-34 78z" />
<glyph unicode="&#x130;" horiz-adv-x="528" d="M147 1573q0 47 34 77.5t83 30.5t83 -30.5t34 -77.5q0 -49 -34 -80t-83 -31t-83 31t-34 80zM178 0v1343h172v-1343h-172z" />
<glyph unicode="&#x131;" horiz-adv-x="503" d="M168 0v995h168v-995h-168z" />
<glyph unicode="&#x134;" horiz-adv-x="970" d="M59 190l121 86q88 -152 234 -151q109 0 162 67.5t53 219.5v931h170v-948q0 -186 -91.5 -303t-279.5 -117q-250 0 -369 215zM428 1446l197 229h163l197 -229h-137l-137 139h-9l-137 -139h-137z" />
<glyph unicode="&#x135;" horiz-adv-x="505" d="M-82 -418l35 127q49 -16 94 -16q70 0 96.5 48t26.5 146v1108h168v-1108q0 -332 -272 -331q-82 0 -148 26zM-10 1174l194 288h140l192 -288h-121l-137 186h-8l-137 -186h-123z" />
<glyph unicode="&#x136;" horiz-adv-x="1175" d="M178 0v1343h172v-673h4l559 673h195l-422 -512l485 -831h-190l-401 698l-230 -272v-426h-172zM489 -360q180 25 181 94q0 66 -105 90l37 78q104 -16 151.5 -52t47.5 -106q0 -84 -84 -130t-211 -56z" />
<glyph unicode="&#x137;" horiz-adv-x="1013" d="M168 0v1458h166v-987h6l424 524h186l-334 -399l379 -596h-184l-291 479l-186 -217v-262h-166zM381 -360q182 25 182 94q0 66 -104 90l37 78q104 -16 151 -52t47 -106q0 -84 -84 -130t-211 -56z" />
<glyph unicode="&#x138;" horiz-adv-x="1013" d="M168 0v995h168v-528h6l422 528h186l-329 -399l374 -596h-184l-291 473l-184 -217v-256h-168z" />
<glyph unicode="&#x139;" horiz-adv-x="985" d="M166 1446l180 229h193l-232 -229h-141zM178 0v1343h172v-1198h586v-145h-758z" />
<glyph unicode="&#x13a;" horiz-adv-x="522" d="M139 1554l180 228h193l-231 -228h-142zM168 201v1257h168v-1270q0 -74 47 -73q18 0 37 4l22 -127q-37 -16 -96 -17q-178 1 -178 226z" />
<glyph unicode="&#x13b;" horiz-adv-x="985" d="M178 0v1343h172v-1198h586v-145h-758zM412 -360q180 25 180 94q0 66 -105 90l37 78q104 -16 151.5 -52t47.5 -106q0 -84 -84 -130t-211 -56z" />
<glyph unicode="&#x13c;" horiz-adv-x="522" d="M168 201v1257h168v-1270q0 -74 47 -73q18 0 37 4l22 -127q-37 -16 -96 -17q-178 1 -178 226zM174 -360q182 25 182 94q0 66 -104 90l37 78q104 -16 151 -52t47 -106q0 -84 -84 -130t-210 -56z" />
<glyph unicode="&#x13d;" horiz-adv-x="985" d="M178 0v1343h172v-1198h586v-145h-758zM670 1487h121l-3 -117l-28 -317h-82z" />
<glyph unicode="&#x13e;" horiz-adv-x="542" d="M168 201v1257h168v-1270q0 -74 47 -73q18 0 37 4l22 -127q-37 -16 -96 -17q-178 1 -178 226zM446 1556h119v-116l-28 -318h-84z" />
<glyph unicode="&#x13f;" horiz-adv-x="985" d="M178 0v1343h172v-1198h586v-145h-758zM645 666q0 57 35 93t86 36t87 -36t36 -93q0 -55 -36 -91t-87 -36t-86 36t-35 91z" />
<glyph unicode="&#x140;" horiz-adv-x="741" d="M168 201v1257h168v-1270q0 -74 47 -73q18 0 37 4l22 -127q-37 -16 -96 -17q-178 1 -178 226zM500 666q0 57 34.5 93t86 36t87 -36t35.5 -93q0 -55 -35.5 -91t-87 -36t-86 36t-34.5 91z" />
<glyph unicode="&#x141;" horiz-adv-x="991" d="M20 397v138l164 86v722h172v-638l385 206v-139l-385 -205v-422h586v-145h-758v483z" />
<glyph unicode="&#x142;" horiz-adv-x="536" d="M47 596v143l129 82v637h170v-549l143 92v-143l-143 -92v-578q0 -74 47 -73q16 0 37 4l23 -127q-39 -16 -99 -17q-178 0 -178 226v477z" />
<glyph unicode="&#x143;" horiz-adv-x="1314" d="M178 0v1343h176l488 -843l145 -279h8q-23 373 -22 428v694h162v-1343h-177l-485 846l-145 276h-9q20 -338 21 -420v-702h-162zM559 1446l180 229h193l-232 -229h-141z" />
<glyph unicode="&#x144;" horiz-adv-x="1120" d="M168 0v995h139l15 -143h6q168 168 334 168q303 0 303 -389v-631h-168v608q0 139 -45 202.5t-144 63.5q-72 0 -131 -35.5t-141 -117.5v-721h-168zM465 1174l184 288h176l-231 -288h-129z" />
<glyph unicode="&#x145;" horiz-adv-x="1314" d="M178 0v1343h176l488 -843l145 -279h8q-23 373 -22 428v694h162v-1343h-177l-485 846l-145 276h-9q20 -338 21 -420v-702h-162zM494 -360q180 25 180 94q0 66 -105 90l37 78q104 -16 151.5 -52t47.5 -106q0 -84 -84 -130t-211 -56z" />
<glyph unicode="&#x146;" horiz-adv-x="1120" d="M168 0v995h139l15 -143h6q168 168 334 168q303 0 303 -389v-631h-168v608q0 139 -45 202.5t-144 63.5q-72 0 -131 -35.5t-141 -117.5v-721h-168zM397 -360q182 25 183 94q0 63 -105 90l37 78q104 -16 151.5 -53t47.5 -105q0 -84 -84 -130t-213 -56z" />
<glyph unicode="&#x147;" horiz-adv-x="1314" d="M178 0v1343h176l488 -843l145 -279h8q-23 373 -22 428v694h162v-1343h-177l-485 846l-145 276h-9q20 -338 21 -420v-702h-162zM385 1675h137l137 -139h9l137 139h137l-197 -229h-163z" />
<glyph unicode="&#x148;" horiz-adv-x="1120" d="M168 0v995h139l15 -143h6q168 168 334 168q303 0 303 -389v-631h-168v608q0 139 -45 202.5t-144 63.5q-72 0 -131 -35.5t-141 -117.5v-721h-168zM334 1462h123l137 -188h8l137 188h121l-192 -288h-140z" />
<glyph unicode="&#x149;" horiz-adv-x="1587" d="M129 961q80 53 117 111t37 145q-6 -2 -17 -3q-45 0 -76.5 28t-31.5 75q0 53 29.5 84t78.5 31q59 0 94 -49.5t35 -137.5q0 -235 -219 -362zM623 0v995h139l14 -143h6q168 168 334 168q303 0 303 -389v-631h-168v608q0 139 -44 202.5t-144 63.5q-72 0 -131.5 -35.5 t-138.5 -117.5v-721h-170z" />
<glyph unicode="&#x14c;" horiz-adv-x="1349" d="M100 678q0 317 159 503.5t417 186.5q256 0 414.5 -186.5t158.5 -503.5q0 -319 -159.5 -511t-413.5 -192q-256 0 -416 190.5t-160 512.5zM276 678q0 -252 109 -402.5t291 -150.5q180 0 288.5 150.5t108.5 402.5q0 250 -108.5 395.5t-288.5 145.5q-182 0 -291 -145.5 t-109 -395.5zM422 1493v117h508v-117h-508z" />
<glyph unicode="&#x14d;" horiz-adv-x="1110" d="M94 496q0 242 134 383t327 141t327 -141.5t134 -382.5q0 -238 -134 -379.5t-327 -141.5t-327 141.5t-134 379.5zM268 496q0 -170 80 -275.5t207 -105.5q129 0 208 105.5t79 275.5q0 172 -79 278.5t-208 106.5q-127 0 -207 -106.5t-80 -278.5zM305 1231v117h502v-117h-502 z" />
<glyph unicode="&#x150;" horiz-adv-x="1349" d="M100 678q0 317 159 503.5t417 186.5q256 0 414.5 -186.5t158.5 -503.5q0 -319 -159.5 -511t-413.5 -192q-256 0 -416 190.5t-160 512.5zM276 678q0 -252 109 -402.5t291 -150.5q180 0 288.5 150.5t108.5 402.5q0 250 -108.5 395.5t-288.5 145.5q-182 0 -291 -145.5 t-109 -395.5zM453 1446l135 229h157l-172 -229h-120zM774 1446l135 229h158l-170 -229h-123z" />
<glyph unicode="&#x151;" horiz-adv-x="1110" d="M94 496q0 242 134 383t327 141t327 -141.5t134 -382.5q0 -238 -134 -379.5t-327 -141.5t-327 141.5t-134 379.5zM268 496q0 -170 80 -275.5t207 -105.5q129 0 208 105.5t79 275.5q0 172 -79 278.5t-208 106.5q-127 0 -207 -106.5t-80 -278.5zM354 1169l146 293h147 l-180 -293h-113zM655 1169l146 293h147l-180 -293h-113z" />
<glyph unicode="&#x152;" horiz-adv-x="1724" d="M100 678q0 319 172 492t486 173h852v-143h-570v-422h476v-145h-476v-488h590v-145h-880q-305 0 -477.5 178t-172.5 500zM276 678q0 -258 126 -398.5t368 -140.5h98v1065h-98q-242 0 -368 -135t-126 -391z" />
<glyph unicode="&#x153;" horiz-adv-x="1724" d="M94 496q0 242 130 383t321 141q115 0 211 -65.5t149 -184.5q57 117 149.5 183.5t200.5 66.5q182 0 283.5 -126t101.5 -343q0 -57 -6 -94h-653q6 -154 95 -249t218 -95q117 0 246 82l62 -117q-160 -102 -328 -103q-117 0 -213 65.5t-154 182.5q-117 -248 -366 -248 q-188 0 -317.5 140.5t-129.5 380.5zM266 496q0 -170 78 -275.5t201 -105.5t200.5 105.5t77.5 275.5q0 172 -77.5 278.5t-200.5 106.5t-201 -106.5t-78 -278.5zM981 569h512q0 152 -63.5 235t-178.5 83q-104 0 -180 -87.5t-90 -230.5z" />
<glyph unicode="&#x154;" horiz-adv-x="1179" d="M178 0v1343h422q469 0 469 -376q0 -152 -80 -248t-221 -133l342 -586h-195l-323 567h-242v-567h-172zM350 707h225q324 0 324 260q0 129 -81 184t-243 55h-225v-499zM492 1446l180 229h192l-231 -229h-141z" />
<glyph unicode="&#x155;" horiz-adv-x="710" d="M168 0v995h139l15 -180h6q51 96 124.5 150.5t157.5 54.5q59 0 107 -21l-33 -147q-53 16 -96 16q-70 0 -137.5 -55t-114.5 -174v-639h-168zM311 1174l187 288h174l-230 -288h-131z" />
<glyph unicode="&#x156;" horiz-adv-x="1179" d="M178 0v1343h422q469 0 469 -376q0 -152 -80 -248t-221 -133l342 -586h-195l-323 567h-242v-567h-172zM350 707h225q324 0 324 260q0 129 -81 184t-243 55h-225v-499zM455 -360q182 25 182 94q-1 63 -105 90l37 78q104 -16 151.5 -53t47.5 -105q0 -84 -84 -130t-213 -56z " />
<glyph unicode="&#x157;" horiz-adv-x="710" d="M76 -360q180 25 180 94q0 66 -104 90l36 78q104 -16 151.5 -52t47.5 -106q0 -84 -84 -130t-211 -56zM168 0v995h139l15 -180h6q51 96 124.5 150.5t157.5 54.5q59 0 107 -21l-33 -147q-53 16 -96 16q-70 0 -137.5 -55t-114.5 -174v-639h-168z" />
<glyph unicode="&#x158;" horiz-adv-x="1179" d="M178 0v1343h422q469 0 469 -376q0 -152 -80 -248t-221 -133l342 -586h-195l-323 567h-242v-567h-172zM319 1675h136l137 -139h8l137 139h137l-196 -229h-162zM350 707h225q324 0 324 260q0 129 -81 184t-243 55h-225v-499z" />
<glyph unicode="&#x159;" horiz-adv-x="710" d="M168 0v995h139l15 -180h6q51 96 124.5 150.5t157.5 54.5q59 0 107 -21l-33 -147q-53 16 -96 16q-70 0 -137.5 -55t-114.5 -174v-639h-168zM182 1462h123l137 -188h9l137 188h121l-195 -288h-137z" />
<glyph unicode="&#x15a;" horiz-adv-x="1083" d="M82 174l102 119q162 -168 371 -168q131 0 206 59.5t75 159.5q0 49 -14.5 85t-53.5 64.5t-66.5 44t-91.5 44.5l-192 84q-272 117 -273 346q0 154 121 255t303 101q236 0 396 -166l-91 -110q-133 127 -305 127q-115 0 -183.5 -53.5t-68.5 -143.5q0 -45 17.5 -81t57.5 -63.5 t66.5 -41t82.5 -37.5l192 -82q133 -57 205 -139t72 -220q0 -164 -126 -273.5t-333 -109.5q-276 0 -469 199zM461 1446l180 229h193l-232 -229h-141z" />
<glyph unicode="&#x15b;" horiz-adv-x="858" d="M57 113l84 112q147 -119 293 -119q94 0 145.5 44.5t51.5 111.5q0 37 -18.5 65.5t-57.5 52t-67.5 37t-84.5 34.5q-66 23 -108.5 43t-90.5 55t-73 82t-25 106q0 123 92.5 203t250.5 80q170 0 309 -113l-80 -106q-117 88 -227 88q-88 0 -135.5 -41t-47.5 -103 q0 -41 35 -74.5t64.5 -48t106.5 -43.5q5 -2 8 -3t7 -3q57 -23 88 -35t79.5 -39.5t73 -55t44 -71.5t19.5 -100q0 -127 -97.5 -212t-267.5 -85q-205 1 -371 138zM317 1174l185 288h176l-232 -288h-129z" />
<glyph unicode="&#x15c;" horiz-adv-x="1083" d="M82 174l102 119q162 -168 371 -168q131 0 206 59.5t75 159.5q0 49 -14.5 85t-53.5 64.5t-66.5 44t-91.5 44.5l-192 84q-272 117 -273 346q0 154 121 255t303 101q236 0 396 -166l-91 -110q-133 127 -305 127q-115 0 -183.5 -53.5t-68.5 -143.5q0 -45 17.5 -81t57.5 -63.5 t66.5 -41t82.5 -37.5l192 -82q133 -57 205 -139t72 -220q0 -164 -126 -273.5t-333 -109.5q-276 0 -469 199zM289 1446l196 229h162l197 -229h-137l-138 139h-8l-137 -139h-135z" />
<glyph unicode="&#x15d;" horiz-adv-x="858" d="M57 113l84 112q147 -119 293 -119q94 0 145.5 44.5t51.5 111.5q0 37 -18.5 65.5t-57.5 52t-67.5 37t-84.5 34.5q-66 23 -108.5 43t-90.5 55t-73 82t-25 106q0 123 92.5 203t250.5 80q170 0 309 -113l-80 -106q-117 88 -227 88q-88 0 -135.5 -41t-47.5 -103 q0 -41 35 -74.5t64.5 -48t106.5 -43.5q5 -2 8 -3t7 -3q57 -23 88 -35t79.5 -39.5t73 -55t44 -71.5t19.5 -100q0 -127 -97.5 -212t-267.5 -85q-205 1 -371 138zM186 1174l195 288h139l193 -288h-121l-137 186h-9l-137 -186h-123z" />
<glyph unicode="&#x15e;" horiz-adv-x="1083" d="M82 174l102 119q162 -168 371 -168q131 0 206 59.5t75 159.5q0 49 -14.5 85t-53.5 64.5t-66.5 44t-91.5 44.5l-192 84q-272 117 -273 346q0 154 121 255t303 101q236 0 396 -166l-91 -110q-133 127 -305 127q-115 0 -183.5 -53.5t-68.5 -143.5q0 -45 17.5 -81t57.5 -63.5 t67 -40.5t82 -38l192 -82q133 -57 205 -139t72 -220q0 -152 -108.5 -258t-291.5 -123l-39 -79q121 -41 121 -146q0 -84 -84 -130t-213 -58l-16 84q182 25 182 98q0 68 -129 100l68 131q-246 18 -418 197z" />
<glyph unicode="&#x15f;" horiz-adv-x="858" d="M57 113l84 112q147 -119 293 -119q94 0 145.5 44.5t51.5 111.5q0 37 -18.5 65.5t-57.5 52t-67.5 37t-84.5 34.5q-66 23 -108.5 43t-90.5 55t-73 82t-25 106q0 123 92.5 203t250.5 80q170 0 309 -113l-80 -106q-117 88 -227 88q-88 0 -135.5 -41t-47.5 -103 q0 -41 35 -74.5t64.5 -48t106.5 -43.5q5 -2 8 -3t7 -3q57 -23 88 -35t79.5 -39.5t73 -55t44 -71.5t19.5 -100q0 -109 -74 -189.5t-205 -100.5l-41 -84q121 -41 121 -146q0 -84 -84 -130t-211 -58l-16 84q182 25 182 98q0 68 -131 100l65 129q-193 12 -342 138z" />
<glyph unicode="&#x160;" horiz-adv-x="1083" d="M82 174l102 119q162 -168 371 -168q131 0 206 59.5t75 159.5q0 49 -14.5 85t-53.5 64.5t-66.5 44t-91.5 44.5l-192 84q-272 117 -273 346q0 154 121 255t303 101q236 0 396 -166l-91 -110q-133 127 -305 127q-115 0 -183.5 -53.5t-68.5 -143.5q0 -45 17.5 -81t57.5 -63.5 t66.5 -41t82.5 -37.5l192 -82q133 -57 205 -139t72 -220q0 -164 -126 -273.5t-333 -109.5q-276 0 -469 199zM289 1675h135l137 -139h8l138 139h137l-197 -229h-162z" />
<glyph unicode="&#x161;" horiz-adv-x="858" d="M57 113l84 112q147 -119 293 -119q94 0 145.5 44.5t51.5 111.5q0 37 -18.5 65.5t-57.5 52t-67.5 37t-84.5 34.5q-66 23 -108.5 43t-90.5 55t-73 82t-25 106q0 123 92.5 203t250.5 80q170 0 309 -113l-80 -106q-117 88 -227 88q-88 0 -135.5 -41t-47.5 -103 q0 -41 35 -74.5t64.5 -48t106.5 -43.5q5 -2 8 -3t7 -3q57 -23 88 -35t79.5 -39.5t73 -55t44 -71.5t19.5 -100q0 -127 -97.5 -212t-267.5 -85q-205 1 -371 138zM186 1462h123l137 -188h9l137 188h121l-193 -288h-139z" />
<glyph unicode="&#x162;" horiz-adv-x="1087" d="M51 1200v143h985v-143h-407v-1200h-25l-49 -102q121 -41 121 -146q0 -84 -84 -130t-213 -58l-17 84q182 25 183 98q0 68 -129 100l78 154h-35v1200h-408z" />
<glyph unicode="&#x163;" horiz-adv-x="692" d="M49 858v127l156 10l20 279h142v-279h268v-137h-268v-553q0 -96 34.5 -144t118.5 -48q41 0 113 26l33 -127q-94 -31 -166 -37l-39 -77q121 -41 121 -146q0 -84 -84 -130t-211 -58l-17 84q182 25 183 98q0 68 -131 100l71 140q-197 45 -196 321v551h-148z" />
<glyph unicode="&#x164;" horiz-adv-x="1087" d="M51 1200v143h985v-143h-407v-1200h-170v1200h-408zM264 1675h137l138 -139h8l137 139h137l-196 -229h-164z" />
<glyph unicode="&#x165;" horiz-adv-x="692" d="M49 858v127l156 10l20 279h142v-279h268v-137h-268v-553q0 -96 34.5 -144t118.5 -48q41 0 113 26l33 -127q-111 -37 -185 -37q-284 0 -284 332v551h-148zM518 1556h121l-2 -116l-29 -318h-84z" />
<glyph unicode="&#x168;" horiz-adv-x="1310" d="M172 555v788h172v-792q0 -426 311 -426q319 0 320 426v792h164v-788q0 -305 -130 -442.5t-353.5 -137.5t-353.5 137.5t-130 442.5zM360 1456q8 98 54.5 159.5t117.5 61.5q57 0 133 -53t111 -53q66 0 82 106h94q-10 -96 -56 -158.5t-118 -62.5q-57 0 -132 53.5t-109 53.5 q-66 0 -84 -107h-93z" />
<glyph unicode="&#x169;" horiz-adv-x="1124" d="M164 365v630h170v-608q0 -139 44 -202.5t142 -63.5q74 0 133.5 39t132.5 129v706h170v-995h-139l-14 156h-6q-154 -180 -328 -181q-305 1 -305 390zM283 1186q8 96 51 156.5t115 60.5q57 0 130.5 -52.5t102.5 -52.5q57 0 76 105h94q-8 -96 -51 -156.5t-115 -60.5 q-55 0 -129 52t-104 52q-59 0 -74 -104h-96z" />
<glyph unicode="&#x16a;" horiz-adv-x="1310" d="M172 555v788h172v-792q0 -426 311 -426q319 0 320 426v792h164v-788q0 -305 -130 -442.5t-353.5 -137.5t-353.5 137.5t-130 442.5zM401 1493v117h508v-117h-508z" />
<glyph unicode="&#x16b;" horiz-adv-x="1124" d="M164 365v630h170v-608q0 -139 44 -202.5t142 -63.5q74 0 133.5 39t132.5 129v706h170v-995h-139l-14 156h-6q-154 -180 -328 -181q-305 1 -305 390zM309 1231v117h504v-117h-504z" />
<glyph unicode="&#x16c;" horiz-adv-x="1310" d="M172 555v788h172v-792q0 -426 311 -426q319 0 320 426v792h164v-788q0 -305 -130 -442.5t-353.5 -137.5t-353.5 137.5t-130 442.5zM403 1675h103q10 -55 48 -92t101.5 -37t101.5 37t48 92h102q-10 -96 -73.5 -160.5t-178 -64.5t-177 64.5t-75.5 160.5z" />
<glyph unicode="&#x16d;" horiz-adv-x="1124" d="M164 365v630h170v-608q0 -139 44 -202.5t142 -63.5q74 0 133.5 39t132.5 129v706h170v-995h-139l-14 156h-6q-154 -180 -328 -181q-305 1 -305 390zM309 1438h105q8 -66 47 -111t106.5 -45t106.5 45t47 111h104q-6 -104 -71.5 -182t-186.5 -78t-186.5 77.5t-71.5 182.5z " />
<glyph unicode="&#x16e;" horiz-adv-x="1310" d="M172 555v788h172v-792q0 -426 311 -426q319 0 320 426v792h164v-788q0 -305 -130 -442.5t-353.5 -137.5t-353.5 137.5t-130 442.5zM465 1612q0 80 53 130t137 50q82 0 137.5 -50t55.5 -130q0 -82 -54.5 -131t-138.5 -49t-137 49t-53 131zM557 1612q0 -49 28.5 -78 t69.5 -29t69 29t28 78q0 47 -28 75.5t-69 28.5t-69.5 -28.5t-28.5 -75.5z" />
<glyph unicode="&#x16f;" horiz-adv-x="1124" d="M164 365v630h170v-608q0 -139 44 -202.5t142 -63.5q74 0 133.5 39t132.5 129v706h170v-995h-139l-14 156h-6q-154 -180 -328 -181q-305 1 -305 390zM377 1300q0 84 53 136.5t137 52.5t138.5 -52.5t54.5 -136.5q0 -86 -54.5 -138t-138.5 -52t-137 52t-53 138zM469 1300 q0 -51 27.5 -82.5t70.5 -31.5t71 31.5t28 82.5q0 49 -28 81t-71 32t-70.5 -31.5t-27.5 -81.5z" />
<glyph unicode="&#x170;" horiz-adv-x="1310" d="M172 555v788h172v-792q0 -426 311 -426q319 0 320 426v792h164v-788q0 -305 -130 -442.5t-353.5 -137.5t-353.5 137.5t-130 442.5zM432 1446l135 229h158l-170 -229h-123zM756 1446l135 229h158l-170 -229h-123z" />
<glyph unicode="&#x171;" horiz-adv-x="1124" d="M164 365v630h170v-608q0 -139 44 -202.5t142 -63.5q74 0 133.5 39t132.5 129v706h170v-995h-139l-14 156h-6q-154 -180 -328 -181q-305 1 -305 390zM367 1169l145 293h147l-180 -293h-112zM668 1169l145 293h148l-181 -293h-112z" />
<glyph unicode="&#x172;" horiz-adv-x="1310" d="M172 555v788h172v-792q0 -426 311 -426q319 0 320 426v792h164v-788q0 -131 -22.5 -227.5t-70 -160t-100.5 -103t-135 -78.5q-76 -37 -120 -94.5t-44 -110.5q0 -45 29 -69.5t69 -24.5q43 0 82 28l47 -92q-72 -57 -163 -57q-84 0 -139.5 47t-55.5 131q0 18 2 35.5t9.5 34 t11.5 29t15 28.5t16 24.5t20.5 25t18.5 19.5t21 20l17 17q-475 11 -475 578z" />
<glyph unicode="&#x173;" horiz-adv-x="1124" d="M164 365v630h170v-608q0 -141 44 -203.5t142 -62.5q74 0 133.5 39t132.5 129v706h170v-995q-178 -88 -178 -215q0 -45 28 -69.5t66 -24.5q45 0 84 26l43 -84q-70 -55 -159 -55q-82 0 -134.5 45t-52.5 129q0 135 164 256l-14 148h-6q-154 -180 -328 -181q-305 1 -305 390z " />
<glyph unicode="&#x174;" horiz-adv-x="1599" d="M41 1343h176l141 -731q14 -72 40 -217t40 -217h8q31 160 95 434l186 731h156l186 -731q43 -199 96 -434h9q20 115 75 434l142 731h165l-278 -1343h-207l-203 809q-53 246 -63 305h-8q-12 -53 -35 -152.5t-33 -152.5l-201 -809h-202zM522 1446l197 229h162l196 -229h-137 l-135 139h-8l-138 -139h-137z" />
<glyph unicode="&#x175;" horiz-adv-x="1470" d="M49 995h172l148 -575q25 -104 59 -277h8l68 277l153 575h164l156 -575q33 -125 70 -277h8q12 49 61 277l146 575h159l-266 -995h-205l-143 535q-14 53 -35.5 149t-32.5 137h-8q-47 -207 -69 -289l-140 -532h-196zM475 1174l193 288h139l194 -288h-122l-138 186h-8 l-137 -186h-121z" />
<glyph unicode="&#x176;" horiz-adv-x="964" d="M-8 1343h184l172 -378q88 -201 131 -293h8q12 27 60.5 131t73.5 162l174 378h176l-404 -823v-520h-170v520zM205 1446l196 229h162l197 -229h-137l-138 139h-8l-137 -139h-135z" />
<glyph unicode="&#x177;" horiz-adv-x="956" d="M25 995h174l202 -551q41 -115 97 -280h8q16 53 47 155.5t37 124.5l178 551h164l-375 -1077q-57 -164 -144 -255t-229 -91q-61 0 -116 20l32 134q47 -14 76 -15q154 0 225 213l23 74zM236 1174l192 288h139l195 -288h-123l-137 186h-8l-138 -186h-120z" />
<glyph unicode="&#x178;" horiz-adv-x="964" d="M-8 1343h184l172 -378q88 -201 131 -293h8q12 27 60.5 131t73.5 162l174 378h176l-404 -823v-520h-170v520zM205 1565q0 45 28.5 72.5t71.5 27.5t72 -27.5t29 -72.5q0 -43 -29 -72t-72 -29t-71.5 29t-28.5 72zM559 1565q0 45 27.5 72.5t72.5 27.5q43 0 72 -27.5t29 -72.5 q0 -43 -29 -72t-72 -29q-45 0 -72.5 29t-27.5 72z" />
<glyph unicode="&#x179;" horiz-adv-x="1093" d="M86 0v102l709 1098h-645v143h856v-100l-709 -1098h715v-145h-926zM465 1446l180 229h193l-232 -229h-141z" />
<glyph unicode="&#x17a;" horiz-adv-x="870" d="M63 0v90l525 768h-467v137h680v-90l-525 -768h541v-137h-754zM334 1174l186 288h176l-231 -288h-131z" />
<glyph unicode="&#x17b;" horiz-adv-x="1093" d="M86 0v102l709 1098h-645v143h856v-100l-709 -1098h715v-145h-926zM453 1573q0 47 33.5 77.5t82.5 30.5t83 -30.5t34 -77.5q0 -49 -34 -80t-83 -31t-82.5 31t-33.5 80z" />
<glyph unicode="&#x17c;" horiz-adv-x="870" d="M63 0v90l525 768h-467v137h680v-90l-525 -768h541v-137h-754zM358 1311q0 47 31 78.5t80 31.5q47 0 79 -31.5t32 -78.5q0 -49 -32 -80t-79 -31q-49 0 -80 31t-31 80z" />
<glyph unicode="&#x17d;" horiz-adv-x="1093" d="M86 0v102l709 1098h-645v143h856v-100l-709 -1098h715v-145h-926zM293 1675h135l137 -139h8l138 139h137l-197 -229h-162z" />
<glyph unicode="&#x17e;" horiz-adv-x="870" d="M63 0v90l525 768h-467v137h680v-90l-525 -768h541v-137h-754zM205 1462h123l137 -188h8l137 188h121l-194 -288h-138z" />
<glyph unicode="&#x18f;" horiz-adv-x="1359" d="M131 666q0 14 4 51h952q-10 238 -115.5 372t-291.5 134q-193 0 -328 -129l-80 116q162 158 420 158q260 0 411.5 -185.5t151.5 -506.5q0 -319 -158.5 -510t-412.5 -191q-250 0 -401.5 189.5t-151.5 501.5zM305 586q14 -215 116.5 -340t262.5 -125q164 0 271.5 125 t127.5 340h-778z" />
<glyph unicode="&#x192;" horiz-adv-x="1017" d="M37 -168l31 127q47 -20 102 -20q92 0 135 76.5t62 242.5l49 449h-178v120l141 9h51l12 114q25 211 105 314.5t239 103.5q82 0 160 -37l-37 -129q-68 29 -114 29q-158 0 -189 -266l-14 -129h258v-129h-272l-54 -486q-23 -203 -100.5 -311.5t-237.5 -108.5q-94 0 -149 31z " />
<glyph unicode="&#x1a0;" horiz-adv-x="1349" d="M100 678q0 317 159 503.5t417 186.5q147 0 266 -65q166 31 166 137q0 37 -29 84l121 59q47 -66 47 -133q0 -164 -209 -215q211 -190 211 -557q0 -319 -159.5 -511t-413.5 -192q-256 0 -416 190.5t-160 512.5zM276 678q0 -252 109 -402.5t291 -150.5q180 0 288.5 150.5 t108.5 402.5q0 250 -108.5 395.5t-288.5 145.5q-182 0 -291 -145.5t-109 -395.5z" />
<glyph unicode="&#x1a1;" horiz-adv-x="1110" d="M94 496q0 242 134 383t327 141q104 0 193 -43q152 27 151 133q0 41 -31 86l123 59q47 -66 47 -133q0 -156 -190 -211q168 -152 168 -415q0 -238 -134 -379.5t-327 -141.5t-327 141.5t-134 379.5zM268 496q0 -170 80 -275.5t207 -105.5q129 0 208 105.5t79 275.5 q0 172 -79 278.5t-208 106.5q-127 0 -207 -106.5t-80 -278.5z" />
<glyph unicode="&#x1af;" horiz-adv-x="1339" d="M172 555v788h172v-792q0 -426 311 -426q319 0 320 426v792h72q90 12 134 42t44 96q0 39 -31 84l123 59q47 -66 47 -133q0 -172 -225 -221v-715q0 -305 -130 -442.5t-353.5 -137.5t-353.5 137.5t-130 442.5z" />
<glyph unicode="&#x1b0;" horiz-adv-x="1159" d="M164 365v630h170v-608q0 -139 44 -202.5t142 -63.5q74 0 133.5 39t132.5 129v706h50q172 18 172 135q0 42 -31 87l121 59q47 -66 47 -133q0 -158 -189 -213v-930h-139l-14 156h-6q-154 -180 -328 -181q-305 0 -305 390z" />
<glyph unicode="&#x1cd;" horiz-adv-x="1101" d="M0 0l455 1343h192l455 -1343h-180l-129 410h-490l-129 -410h-174zM270 1675h138l137 -139h8l137 139h137l-196 -229h-164zM346 547h404l-64 205q-66 209 -133 452h-8q-68 -244 -133 -452z" />
<glyph unicode="&#x1ce;" horiz-adv-x="1048" d="M119 258q0 162 146.5 250t465.5 123q0 250 -205 250q-141 0 -297 -107l-67 117q201 129 391 129q176 0 261 -107.5t85 -302.5v-610h-139l-15 119h-4q-178 -143 -329 -144q-129 0 -211 76t-82 207zM285 270q0 -80 48 -119.5t126 -39.5q123 0 272 133v276 q-242 -31 -344 -91.5t-102 -158.5zM289 1462h121l137 -188h8l137 188h123l-194 -288h-140z" />
<glyph unicode="&#x1cf;" horiz-adv-x="528" d="M-14 1675h137l137 -139h8l138 139h137l-197 -229h-164zM178 0v1343h172v-1343h-172z" />
<glyph unicode="&#x1d0;" horiz-adv-x="503" d="M-10 1462h121l137 -188h8l137 188h123l-194 -288h-140zM168 0v995h168v-995h-168z" />
<glyph unicode="&#x1d1;" horiz-adv-x="1349" d="M100 678q0 317 159 503.5t417 186.5q256 0 414.5 -186.5t158.5 -503.5q0 -319 -159.5 -511t-413.5 -192q-256 0 -416 190.5t-160 512.5zM276 678q0 -252 109 -402.5t291 -150.5q180 0 288.5 150.5t108.5 402.5q0 250 -108.5 395.5t-288.5 145.5q-182 0 -291 -145.5 t-109 -395.5zM397 1675h138l137 -139h8l137 139h135l-196 -229h-162z" />
<glyph unicode="&#x1d2;" horiz-adv-x="1110" d="M94 496q0 242 134 383t327 141t327 -141.5t134 -382.5q0 -238 -134 -379.5t-327 -141.5t-327 141.5t-134 379.5zM268 496q0 -170 80 -275.5t207 -105.5q129 0 208 105.5t79 275.5q0 172 -79 278.5t-208 106.5q-127 0 -207 -106.5t-80 -278.5zM293 1462h121l137 -188h8 l137 188h123l-194 -288h-140z" />
<glyph unicode="&#x1d3;" horiz-adv-x="1310" d="M172 555v788h172v-792q0 -426 311 -426q319 0 320 426v792h164v-788q0 -305 -130 -442.5t-353.5 -137.5t-353.5 137.5t-130 442.5zM377 1675h137l137 -139h8l138 139h137l-197 -229h-164z" />
<glyph unicode="&#x1d4;" horiz-adv-x="1124" d="M164 365v630h170v-608q0 -139 44 -202.5t142 -63.5q74 0 133.5 39t132.5 129v706h170v-995h-139l-14 156h-6q-154 -180 -328 -181q-305 1 -305 390zM305 1462h121l137 -188h8l138 188h122l-194 -288h-139z" />
<glyph unicode="&#x1d5;" horiz-adv-x="1310" d="M172 555v788h172v-792q0 -426 311 -426q319 0 320 426v792h164v-788q0 -305 -130 -442.5t-353.5 -137.5t-353.5 137.5t-130 442.5zM387 1559q0 39 25.5 65.5t66.5 26.5t66.5 -27t25.5 -65q0 -41 -25.5 -68t-66.5 -27t-66.5 27t-25.5 68zM401 1763v95h508v-95h-508z M739 1558.5q0 40.5 27 66.5t68 26q39 0 65.5 -27t26.5 -65q0 -41 -26 -68t-66.5 -27t-67.5 27t-27 67.5z" />
<glyph unicode="&#x1d6;" horiz-adv-x="1124" d="M164 365v630h170v-608q0 -139 44 -202.5t142 -63.5q74 0 133.5 39t132.5 129v706h170v-995h-139l-14 156h-6q-154 -180 -328 -181q-305 1 -305 390zM299 1296q0 41 26.5 68t65.5 27t65.5 -27t26.5 -68q0 -39 -26.5 -65.5t-65.5 -26.5t-65.5 26.5t-26.5 65.5zM313 1536v96 h506v-96h-506zM651 1296q0 41 27 68t65 27q41 0 68 -27t27 -68q0 -39 -27 -65.5t-68 -26.5q-39 0 -65.5 26.5t-26.5 65.5z" />
<glyph unicode="&#x1d7;" horiz-adv-x="1310" d="M172 555v788h172v-792q0 -426 311 -426q319 0 320 426v792h164v-788q0 -305 -130 -442.5t-353.5 -137.5t-353.5 137.5t-130 442.5zM387 1559q0 39 25.5 65.5t66.5 26.5t66.5 -27t25.5 -65q0 -41 -25.5 -68t-66.5 -27t-66.5 27t-25.5 68zM551 1718l182 228h187l-230 -228 h-139zM739 1558.5q0 40.5 27 66.5t68 26q39 0 65.5 -27t26.5 -65q0 -41 -26 -68t-66.5 -27t-67.5 27t-27 67.5z" />
<glyph unicode="&#x1d8;" horiz-adv-x="1124" d="M164 365v630h170v-608q0 -139 44 -202.5t142 -63.5q74 0 133.5 39t132.5 129v706h170v-995h-139l-14 156h-6q-154 -180 -328 -181q-305 1 -305 390zM299 1296q0 41 26.5 68t65.5 27t65.5 -27t26.5 -68q0 -39 -26.5 -65.5t-65.5 -26.5t-65.5 26.5t-26.5 65.5zM461 1475 l166 211h164l-213 -211h-117zM651 1296q0 41 27 68t65 27q41 0 68 -27t27 -68q0 -39 -27 -65.5t-68 -26.5q-39 0 -65.5 26.5t-26.5 65.5z" />
<glyph unicode="&#x1d9;" horiz-adv-x="1310" d="M172 555v788h172v-792q0 -426 311 -426q319 0 320 426v792h164v-788q0 -305 -130 -442.5t-353.5 -137.5t-353.5 137.5t-130 442.5zM377 1946h137l137 -140h8l138 140h137l-197 -228h-164zM387 1559q0 39 25.5 65.5t66.5 26.5t66.5 -27t25.5 -65q0 -41 -25.5 -68 t-66.5 -27t-66.5 27t-25.5 68zM739 1558.5q0 40.5 27 66.5t68 26q39 0 65.5 -27t26.5 -65q0 -41 -26 -68t-66.5 -27t-67.5 27t-27 67.5z" />
<glyph unicode="&#x1da;" horiz-adv-x="1124" d="M164 365v630h170v-608q0 -139 44 -202.5t142 -63.5q74 0 133.5 39t132.5 129v706h170v-995h-139l-14 156h-6q-154 -180 -328 -181q-305 1 -305 390zM299 1296q0 41 26.5 68t65.5 27t65.5 -27t26.5 -68q0 -39 -26.5 -65.5t-65.5 -26.5t-65.5 26.5t-26.5 65.5zM309 1686 h125l129 -132h8l129 132h125l-186 -211h-143zM651 1296q0 41 27 68t65 27q41 0 68 -27t27 -68q0 -39 -27 -65.5t-68 -26.5q-39 0 -65.5 26.5t-26.5 65.5z" />
<glyph unicode="&#x1db;" horiz-adv-x="1310" d="M172 555v788h172v-792q0 -426 311 -426q319 0 320 426v792h164v-788q0 -305 -130 -442.5t-353.5 -137.5t-353.5 137.5t-130 442.5zM387 1559q0 39 25.5 65.5t66.5 26.5t66.5 -27t25.5 -65q0 -41 -25.5 -68t-66.5 -27t-66.5 27t-25.5 68zM391 1946h187l182 -228h-137z M739 1558.5q0 40.5 27 66.5t68 26q39 0 65.5 -27t26.5 -65q0 -41 -26 -68t-66.5 -27t-67.5 27t-27 67.5z" />
<glyph unicode="&#x1dc;" horiz-adv-x="1124" d="M164 365v630h170v-608q0 -139 44 -202.5t142 -63.5q74 0 133.5 39t132.5 129v706h170v-995h-139l-14 156h-6q-154 -180 -328 -181q-305 1 -305 390zM299 1296q0 41 26.5 68t65.5 27t65.5 -27t26.5 -68q0 -39 -26.5 -65.5t-65.5 -26.5t-65.5 26.5t-26.5 65.5zM346 1686 h162l168 -211h-119zM651 1296q0 41 27 68t65 27q41 0 68 -27t27 -68q0 -39 -27 -65.5t-68 -26.5q-39 0 -65.5 26.5t-26.5 65.5z" />
<glyph unicode="&#x1e6;" horiz-adv-x="1253" d="M100 672q0 319 173 507.5t448 188.5q223 0 385 -166l-98 -108q-119 125 -285 125q-205 0 -326 -146.5t-121 -396.5q0 -256 117 -403.5t330 -147.5q158 0 244 80v350h-285v141h440v-565q-160 -156 -417 -156q-268 0 -436.5 186.5t-168.5 510.5zM440 1675h138l137 -139h8 l137 139h137l-196 -229h-164z" />
<glyph unicode="&#x1e7;" horiz-adv-x="1032" d="M92 -190q0 127 146 225v8q-88 55 -88 162q0 111 108 184v8q-129 104 -129 269q0 158 108.5 256t266.5 98q78 0 141 -25h346v-129h-205q82 -78 82 -204q0 -156 -104.5 -251.5t-259.5 -95.5q-80 0 -150 35q-63 -55 -63 -119q0 -109 176 -108h192q176 0 262.5 -57.5 t86.5 -180.5q0 -143 -139.5 -243.5t-364.5 -100.5q-186 0 -299 71t-113 198zM227 1462h123l137 -188h9l137 188h121l-195 -288h-137zM240 -168q0 -80 76.5 -127t211.5 -47q137 0 226.5 60.5t89.5 142.5q0 68 -50.5 95.5t-150.5 27.5h-172q-72 0 -129 16q-102 -74 -102 -168z M293 665.5q0 -106.5 61.5 -172t149.5 -65.5t149.5 65.5t61.5 172t-60.5 169t-150.5 62.5t-150.5 -62.5t-60.5 -169z" />
<glyph unicode="&#x1ea;" horiz-adv-x="1349" d="M100 678q0 317 159 503.5t417 186.5q256 0 414.5 -186.5t158.5 -503.5q0 -266 -105.5 -431t-312.5 -261q-78 -35 -118.5 -91.5t-40.5 -113.5q0 -45 28.5 -69.5t67.5 -24.5q45 0 84 28l45 -92q-72 -57 -162 -57q-86 0 -141 47t-55 131q0 131 127 233q-260 6 -413 195.5 t-153 505.5zM276 678q0 -252 109 -402.5t291 -150.5q180 0 288.5 150.5t108.5 402.5q0 250 -108.5 395.5t-288.5 145.5q-182 0 -291 -145.5t-109 -395.5z" />
<glyph unicode="&#x1eb;" horiz-adv-x="1110" d="M94 496q0 242 134 383t327 141t327 -141.5t134 -382.5q0 -197 -84 -315t-242 -189q-68 -31 -106.5 -89.5t-38.5 -117.5q0 -45 27.5 -69.5t66.5 -24.5q41 0 84 26l43 -84q-70 -55 -162 -55q-80 0 -132 46t-52 128q0 131 115 225q-186 10 -313.5 149.5t-127.5 369.5z M268 496q0 -170 80 -275.5t207 -105.5q129 0 208 105.5t79 275.5q0 172 -79 278.5t-208 106.5q-127 0 -207 -106.5t-80 -278.5z" />
<glyph unicode="&#x218;" horiz-adv-x="1083" d="M82 174l102 119q162 -168 371 -168q131 0 206 59.5t75 159.5q0 49 -14.5 85t-53.5 64.5t-66.5 44t-91.5 44.5l-192 84q-272 117 -273 346q0 154 121 255t303 101q236 0 396 -166l-91 -110q-133 127 -305 127q-115 0 -183.5 -53.5t-68.5 -143.5q0 -45 17.5 -81t57.5 -63.5 t66.5 -41t82.5 -37.5l192 -82q133 -57 205 -139t72 -220q0 -164 -126 -273.5t-333 -109.5q-276 0 -469 199zM379 -360q182 25 182 94q0 63 -104 90l37 78q104 -16 151 -52t47 -106q0 -84 -84 -130t-213 -56z" />
<glyph unicode="&#x219;" horiz-adv-x="858" d="M57 113l84 112q147 -119 293 -119q94 0 145.5 44.5t51.5 111.5q0 37 -18.5 65.5t-57.5 52t-67.5 37t-84.5 34.5q-66 23 -108.5 43t-90.5 55t-73 82t-25 106q0 123 92.5 203t250.5 80q170 0 309 -113l-80 -106q-117 88 -227 88q-88 0 -135.5 -41t-47.5 -103 q0 -41 35 -74.5t64.5 -48t106.5 -43.5q5 -2 8 -3t7 -3q57 -23 88 -35t79.5 -39.5t73 -55t44 -71.5t19.5 -100q0 -127 -97.5 -212t-267.5 -85q-205 1 -371 138zM283 -360q182 25 182 94q0 63 -107 90l39 78q104 -16 151.5 -53t47.5 -105q0 -84 -84 -130t-213 -56z" />
<glyph unicode="&#x21a;" horiz-adv-x="1087" d="M51 1200v143h985v-143h-407v-1200h-170v1200h-408zM371 -360q182 25 182 94q0 66 -104 90l36 78q104 -16 151.5 -52t47.5 -106q0 -84 -84 -130t-211 -56z" />
<glyph unicode="&#x21b;" horiz-adv-x="692" d="M49 858v127l156 10l20 279h142v-279h268v-137h-268v-553q0 -96 34.5 -144t118.5 -48q41 0 113 26l33 -127q-111 -37 -185 -37q-284 0 -284 332v551h-148zM262 -360q182 25 182 94q0 66 -104 90l37 78q104 -16 151 -52t47 -106q0 -84 -83.5 -130t-210.5 -56z" />
<glyph unicode="&#x237;" horiz-adv-x="505" d="M-82 -418l35 127q49 -16 94 -16q70 0 96.5 48t26.5 146v1108h168v-1108q0 -332 -272 -331q-82 0 -148 26z" />
<glyph unicode="&#x251;" horiz-adv-x="1136" d="M96 496q0 233 128 378.5t306 145.5q145 0 283 -121h4l14 96h138v-995h-140l-14 117h-6q-145 -141 -301 -142q-190 0 -301 137.5t-111 383.5zM270 498q0 -178 73 -279.5t202 -101.5q131 0 254 137v520q-117 104 -242 105q-121 0 -204 -106.5t-83 -274.5z" />
<glyph unicode="&#x259;" horiz-adv-x="1021" d="M84 455q0 61 8 94h670q-8 154 -87 246t-210 92q-127 0 -258 -86l-60 110q158 109 342 109q193 0 316 -139.5t123 -380.5q0 -240 -123 -382.5t-311.5 -142.5t-299 128.5t-110.5 351.5zM233 436q0 -162 68 -243.5t191 -81.5q115 0 186.5 85t85.5 240h-531z" />
<glyph unicode="&#x261;" horiz-adv-x="1144" d="M102 512q0 225 128 366.5t305 141.5q150 0 278 -117h4l14 92h142v-1044q0 -184 -116 -288.5t-327 -104.5q-195 0 -356 108l62 119q137 -92 294 -92q133 0 202 69.5t73 192.5l2 188q-137 -133 -295 -133q-188 0 -299 134.5t-111 367.5zM274 514q0 -168 73 -266t202 -98 q127 0 256 137v487q-119 104 -244 105q-121 0 -204 -103.5t-83 -261.5z" />
<glyph unicode="&#x2b0;" horiz-adv-x="749" d="M106 532v961h127v-258l-6 -137q102 111 222 110q209 0 208 -260v-416h-127v398q0 86 -26.5 128t-97.5 42q-76 0 -173 -96v-472h-127z" />
<glyph unicode="&#x2b2;" horiz-adv-x="346" d="M-53 252l26 100q27 -10 58 -10q45 0 62.5 29.5t17.5 91.5v729h127v-721q-1 -235 -191 -235q-51 0 -100 16zM90 1399q0 35 24.5 57.5t61.5 22.5t61.5 -22.5t24.5 -57.5t-24.5 -57.5t-61.5 -22.5t-61.5 22.5t-24.5 57.5z" />
<glyph unicode="&#x2b3;" horiz-adv-x="491" d="M106 532v660h103l14 -117h6q80 133 187 133q49 0 78 -14l-25 -113q-41 10 -66 11q-106 0 -167 -144v-416h-130z" />
<glyph unicode="&#x2b7;" horiz-adv-x="997" d="M33 1192h131l90 -367l39 -188h8l45 188l96 367h115l102 -367l46 -188h8l43 188l88 367h121l-179 -660h-153l-88 336l-43 187h-4l-43 -187l-88 -336h-152z" />
<glyph unicode="&#x2b8;" horiz-adv-x="653" d="M16 1192h129l129 -348q49 -143 64 -189h8q18 66 60 189l106 348h125l-244 -698q-84 -236 -260 -236q-47 0 -84 12l27 103q23 -10 49 -11q102 0 145 134l15 41z" />
<glyph unicode="&#x2bb;" horiz-adv-x="509" d="M117 1061q0 239 217 364l49 -79q-82 -53 -119 -111.5t-37 -142.5q6 2 19 2q45 0 76.5 -28t31.5 -77q0 -51 -29.5 -81.5t-78.5 -30.5q-61 0 -95 48t-34 136z" />
<glyph unicode="&#x2bc;" horiz-adv-x="509" d="M129 961q80 53 117 111t37 145q-6 -2 -17 -3q-45 0 -76.5 28t-31.5 75q0 53 29.5 84t78.5 31q59 0 94 -49.5t35 -137.5q0 -235 -219 -362z" />
<glyph unicode="&#x2be;" horiz-adv-x="307" d="M61 1110v74q131 0 132 116q0 115 -132 115v74q109 2 168.5 -48t59.5 -140.5t-59.5 -141.5t-168.5 -49z" />
<glyph unicode="&#x2bf;" horiz-adv-x="331" d="M41 1300q0 88 60.5 139.5t166.5 49.5v-74q-131 0 -131 -115q0 -117 131 -116v-74q-109 -2 -168 49t-59 141z" />
<glyph unicode="&#x2c6;" horiz-adv-x="1110" d="M293 1174l192 288h140l194 -288h-123l-137 186h-8l-137 -186h-121z" />
<glyph unicode="&#x2c7;" horiz-adv-x="1110" d="M293 1462h121l137 -188h8l137 188h123l-194 -288h-140z" />
<glyph unicode="&#x2c8;" horiz-adv-x="233" d="M45 1466h143l-12 -374h-119z" />
<glyph unicode="&#x2c9;" horiz-adv-x="567" d="M33 1231v117h502v-117h-502z" />
<glyph unicode="&#x2ca;" horiz-adv-x="460" d="M94 1174l185 288h176l-232 -288h-129z" />
<glyph unicode="&#x2cb;" horiz-adv-x="460" d="M0 1462h176l184 -288h-129z" />
<glyph unicode="&#x2cc;" horiz-adv-x="233" d="M45 -520l12 375h119l12 -375h-143z" />
<glyph unicode="&#x2d8;" horiz-adv-x="1110" d="M297 1438h104q8 -66 47 -111t107 -45t106.5 45t47.5 111h104q-6 -104 -71.5 -182t-186.5 -78t-186.5 77.5t-71.5 182.5z" />
<glyph unicode="&#x2d9;" horiz-adv-x="1110" d="M444 1311q0 47 32 78.5t79 31.5t79 -31.5t32 -78.5q0 -49 -32 -80t-79 -31t-79 31t-32 80z" />
<glyph unicode="&#x2da;" horiz-adv-x="1110" d="M365 1300q0 84 53 136.5t137 52.5t138.5 -52.5t54.5 -136.5q0 -86 -54.5 -138t-138.5 -52t-137 52t-53 138zM457 1300q0 -51 27.5 -82.5t70.5 -31.5t70.5 31.5t27.5 82.5q0 49 -27.5 81t-70.5 32t-70.5 -31.5t-27.5 -81.5z" />
<glyph unicode="&#x2db;" horiz-adv-x="1110" d="M420 -248q0 143 145 254h119q-139 -104 -139 -221q0 -45 27.5 -69.5t66.5 -24.5q45 0 84 26l43 -84q-70 -55 -162 -55q-80 0 -132 46t-52 128z" />
<glyph unicode="&#x2dc;" horiz-adv-x="1110" d="M270 1186q8 96 51.5 156.5t114.5 60.5q57 0 131 -52.5t103 -52.5q57 0 75 105h95q-8 -96 -51.5 -156.5t-114.5 -60.5q-55 0 -129 52t-105 52q-59 0 -73 -104h-97z" />
<glyph unicode="&#x2dd;" horiz-adv-x="1110" d="M354 1169l146 293h147l-180 -293h-113zM655 1169l146 293h147l-180 -293h-113z" />
<glyph unicode="&#x2e1;" horiz-adv-x="356" d="M106 682v811h127v-821q0 -51 33 -51q16 0 29 4l18 -97q-37 -12 -73 -12q-134 0 -134 166z" />
<glyph unicode="&#x2e2;" horiz-adv-x="579" d="M39 606l61 84q100 -76 197 -76q55 0 87 27t32 68q0 29 -25.5 52t-47 32.5t-77.5 29.5q-43 16 -70.5 30.5t-59.5 37t-48 55.5t-16 74q0 78 61.5 133t165.5 55q117 0 219 -75l-63 -80q-82 57 -152 57q-53 0 -81.5 -24.5t-28.5 -59.5q0 -10 2 -19.5t8 -16.5t10 -13t17 -13 l17 -11q5 -3 21.5 -10t22.5 -9t24.5 -9t24.5 -10q51 -20 73.5 -30.5t58.5 -34t51.5 -56t15.5 -75.5q0 -88 -66.5 -145.5t-177.5 -57.5q-141 0 -256 90z" />
<glyph unicode="&#x2e3;" horiz-adv-x="628" d="M16 532l222 345l-203 315h139l84 -135l64 -107h8l55 107l76 135h135l-201 -328l215 -332h-139l-88 142l-72 112h-8l-67 -112l-84 -142h-136z" />
<glyph unicode="&#x300;" d="M-227 1462h176l184 -288h-129z" />
<glyph unicode="&#x301;" d="M-133 1174l184 288h176l-231 -288h-129z" />
<glyph unicode="&#x302;" d="M-264 1174l194 288h140l194 -288h-123l-137 186h-8l-137 -186h-123z" />
<glyph unicode="&#x303;" d="M-285 1186q8 96 51.5 156.5t114.5 60.5q57 0 131 -52.5t103 -52.5q57 0 75 105h95q-8 -96 -51.5 -156.5t-114.5 -60.5q-57 0 -130 52t-104 52q-57 0 -75 -104h-95z" />
<glyph unicode="&#x304;" d="M-252 1231v117h504v-117h-504z" />
<glyph unicode="&#x306;" d="M-258 1438h104q8 -66 47 -111t107 -45t106.5 45t47.5 111h104q-6 -104 -71.5 -182t-186.5 -78t-186.5 77.5t-71.5 182.5z" />
<glyph unicode="&#x307;" d="M-111 1311q0 47 32 78.5t79 31.5t79 -31.5t32 -78.5q0 -49 -32 -80t-79 -31t-79 31t-32 80z" />
<glyph unicode="&#x308;" d="M-276 1305q0 43 27.5 71.5t72.5 28.5q43 0 71.5 -28.5t28.5 -71.5t-28.5 -72t-71.5 -29q-45 0 -72.5 29t-27.5 72zM76 1305q0 43 28.5 71.5t71.5 28.5q45 0 72.5 -28.5t27.5 -71.5t-27.5 -72t-72.5 -29q-43 0 -71.5 29t-28.5 72z" />
<glyph unicode="&#x309;" d="M-131 1391l18 98q283 -10 283 -166q0 -151 -227 -190l-19 77q115 33 115 95q0 80 -170 86z" />
<glyph unicode="&#x30a;" d="M-190 1300q0 84 53 136.5t137 52.5t137 -52.5t53 -136.5q0 -86 -53 -138t-137 -52t-137 52t-53 138zM-98 1300q0 -51 27.5 -82.5t70.5 -31.5t70.5 31.5t27.5 82.5q0 49 -27.5 81t-70.5 32t-70.5 -31.5t-27.5 -81.5z" />
<glyph unicode="&#x30b;" d="M-201 1169l144 293h149l-180 -293h-113zM100 1169l146 293h147l-180 -293h-113z" />
<glyph unicode="&#x30c;" d="M-264 1462h123l137 -188h8l137 188h123l-194 -288h-140z" />
<glyph unicode="&#x30f;" d="M-393 1462h147l146 -293h-113zM-92 1462h149l144 -293h-113z" />
<glyph unicode="&#x312;" d="M-109 1257q0 166 166 242l37 -65q-111 -53 -117 -148q6 2 17 2q33 0 58.5 -21.5t25.5 -58.5q0 -45 -23.5 -68.5t-58.5 -23.5q-104 0 -105 141z" />
<glyph unicode="&#x313;" d="M-96 1180q111 53 116 147q-6 -2 -18 -2q-33 0 -58.5 21.5t-25.5 58.5q0 43 24.5 66.5t59.5 23.5q102 0 102 -141q1 -164 -165 -240z" />
<glyph unicode="&#x31b;" d="M-18 975q88 12 130 44t42 91q0 39 -29 86l121 59q47 -66 47 -133q0 -202 -295 -231z" />
<glyph unicode="&#x323;" d="M-111 -311q0 47 32 77.5t79 30.5t79 -30.5t32 -77.5q0 -49 -32 -80t-79 -31t-79 31t-32 80z" />
<glyph unicode="&#x324;" d="M-276 -311q0 43 27.5 71.5t72.5 28.5q43 0 71.5 -28.5t28.5 -71.5q0 -41 -28.5 -71t-71.5 -30t-71.5 29t-28.5 72zM76 -311q0 43 28.5 71.5t71.5 28.5q45 0 72.5 -28.5t27.5 -71.5t-28.5 -72t-71.5 -29t-71.5 30t-28.5 71z" />
<glyph unicode="&#x326;" d="M-174 -360q182 25 182 94q0 63 -104 90l37 78q104 -16 151 -52t47 -106q0 -84 -84 -130t-213 -56z" />
<glyph unicode="&#x327;" d="M-174 -352q182 25 182 98q0 67 -129 100l82 160h109l-52 -108q121 -41 121 -146q0 -84 -84 -130t-213 -58z" />
<glyph unicode="&#x328;" d="M-135 -248q0 143 145 254h119q-139 -104 -139 -221q0 -45 27.5 -69.5t66.5 -24.5q45 0 82 26l45 -84q-70 -55 -162 -55q-80 0 -132 46t-52 128z" />
<glyph unicode="&#x32e;" d="M-258 -162h104q8 -66 47 -110.5t107 -44.5t106.5 45t47.5 110h104q-6 -104 -71.5 -182t-186.5 -78t-186.5 78t-71.5 182z" />
<glyph unicode="&#x331;" d="M-254 -231h506v-119h-506v119z" />
<glyph unicode="&#x3c0;" horiz-adv-x="1148" d="M49 856v129l141 10h895v-139h-151v-637q0 -104 70 -104q14 0 49 10l22 -129q-47 -20 -112 -21q-199 0 -199 256v625h-373v-856h-166v856h-176z" />
<glyph unicode="&#x1d43;" horiz-adv-x="706" d="M76 709q0 106 97 164.5t310 78.5q-4 152 -127 152q-90 0 -206 -70l-48 86q139 88 273 88q236 0 235 -274v-402h-102l-14 76h-9q-104 -92 -206 -92q-90 0 -146.5 53.5t-56.5 139.5zM201 719q-1 -101 114 -101q80 0 168 82v172q-283 -31 -282 -153z" />
<glyph unicode="&#x1d47;" horiz-adv-x="765" d="M106 532v961h127v-260l-6 -117q111 92 205 92q127 0 196.5 -90t69.5 -244q0 -164 -84 -261t-202 -97q-100 0 -187 82h-8l-12 -66h-99zM233 686q74 -66 160 -65q76 0 125 67.5t49 183.5q0 229 -166 230q-78 0 -168 -86v-330z" />
<glyph unicode="&#x1d48;" horiz-adv-x="765" d="M68 874q0 147 85 240.5t201 93.5q96 0 185 -75l-7 114v246h127v-961h-102l-14 72h-6q-101 -88 -189 -88q-131 0 -205.5 94.5t-74.5 263.5zM199 874q0 -253 178 -253q70 0 155 86v329q-76 68 -157 68q-74 0 -125 -64.5t-51 -165.5z" />
<glyph unicode="&#x1d49;" horiz-adv-x="688" d="M57 862q0 154 89.5 250t218.5 96q139 0 204.5 -93t65.5 -210q0 -31 -8 -71h-445q6 -100 63.5 -158t149.5 -58q90 0 168 52l49 -82q-116 -72 -231 -72q-139 0 -231.5 92t-92.5 254zM180 915h342q0 80 -38 135.5t-119 55.5q-74 0 -123.5 -50.5t-61.5 -140.5z" />
<glyph unicode="&#x1d4d;" horiz-adv-x="702" d="M61 410q0 84 95 141v8q-59 39 -60 111q0 70 74 118v9q-88 63 -88 174q0 106 74.5 171.5t183.5 65.5q59 0 104 -18h226v-98h-127q47 -47 47 -123q0 -106 -72 -169t-178 -63q-53 0 -98 23q-39 -33 -39 -72q0 -66 114 -65h127q121 0 178.5 -38t57.5 -122q0 -96 -94 -163 t-250 -67q-127 0 -201 45.5t-74 131.5zM170 428q0 -51 49 -78.5t137 -27.5t144.5 35.5t56.5 86.5q0 74 -129 74h-109q-57 0 -86 8q-63 -45 -63 -98zM203 970.5q0 -67.5 38 -107.5t99 -40q57 0 96 41t39 107q0 68 -39 106.5t-96 38.5q-61 0 -99 -39t-38 -106.5z" />
<glyph unicode="&#x1d4f;" horiz-adv-x="690" d="M106 532v961h127v-631h9l268 330h141l-229 -270l258 -390h-141l-191 304l-115 -138v-166h-127z" />
<glyph unicode="&#x1d50;" horiz-adv-x="1144" d="M106 532v660h103l10 -94h8q100 111 207 110q139 0 184 -123q119 123 222 123q207 0 207 -260v-416h-127v398q0 84 -27 127t-94 43q-66 0 -160 -96v-472h-127v398q0 84 -26.5 127t-94.5 43q-63 0 -158 -96v-472h-127z" />
<glyph unicode="&#x1d52;" horiz-adv-x="747" d="M61 862q0 160 89.5 253t222.5 93q131 0 221 -93t90 -253q0 -158 -90 -252t-221 -94t-221.5 94.5t-90.5 251.5zM190 862q0 -109 49.5 -175t133.5 -66t132 66.5t48 174.5q0 111 -48 176.5t-132 65.5t-133.5 -65.5t-49.5 -176.5z" />
<glyph unicode="&#x1d56;" horiz-adv-x="765" d="M106 252v940h101l14 -76h6q104 92 205 92q127 0 196.5 -90t69.5 -244q0 -164 -84 -261t-202 -97q-100 0 -187 76l8 -127v-213h-127zM233 686q74 -66 160 -65q76 0 125 67.5t49 183.5q0 229 -166 230q-78 0 -168 -86v-330z" />
<glyph unicode="&#x1d57;" horiz-adv-x="475" d="M33 1090v96l102 6l17 184h106v-184h180v-102h-180v-345q0 -127 100 -127q37 0 76 17l27 -94q-74 -25 -133 -25q-197 1 -197 232v342h-98z" />
<glyph unicode="&#x1d58;" horiz-adv-x="757" d="M102 774v418h127v-399q0 -86 27 -127t98 -41q78 0 172 96v471h127v-660h-100l-14 93h-7q-104 -109 -219 -109q-211 0 -211 258z" />
<glyph unicode="&#x1d5b;" horiz-adv-x="657" d="M16 1192h127l119 -361l64 -198h8l63 198l119 361h125l-238 -660h-149z" />
<glyph unicode="&#x1d9c;" horiz-adv-x="626" d="M61 862q0 158 93.5 252t226.5 94q119 0 203 -71l-62 -84q-63 51 -133 51q-86 0 -142.5 -68.5t-56.5 -173.5q0 -106 55.5 -173.5t143.5 -67.5q80 0 152 57l53 -84q-94 -78 -217 -78q-139 0 -227.5 92t-88.5 254z" />
<glyph unicode="&#x1da0;" horiz-adv-x="411" d="M39 1092v94l92 6v86q0 106 51 172t154 66q60 0 115 -23l-27 -94q-43 14 -76 14q-90 0 -90 -127v-94h139v-100h-139v-560h-127v560h-92z" />
<glyph unicode="&#x1dbb;" horiz-adv-x="593" d="M43 532v70l344 488h-303v102h463v-72l-342 -485h352v-103h-514z" />
<glyph unicode="&#x1e0c;" horiz-adv-x="1247" d="M174 0v1343h336q309 0 472 -172t163 -493q0 -324 -162 -501t-465 -177h-344zM344 139h154q231 0 351 140.5t120 398.5q0 256 -119 391t-352 135h-154v-1065zM504 -311q0 47 30.5 77.5t79.5 30.5q47 0 79 -30.5t32 -77.5q0 -49 -32 -80t-79 -31q-49 0 -79.5 31t-30.5 80z " />
<glyph unicode="&#x1e0d;" horiz-adv-x="1136" d="M96 496q0 236 127 380t305 144q137 0 279 -115l-8 170v383h170v-1458h-140l-14 117h-6q-145 -141 -301 -142q-190 0 -301 137.5t-111 383.5zM270 498q0 -178 73 -279.5t202 -101.5q131 0 254 137v520q-117 104 -242 105q-121 0 -204 -106.5t-83 -274.5zM508 -311 q0 47 31.5 77.5t79 30.5t79 -30.5t31.5 -77.5q0 -49 -31.5 -80t-79 -31t-79 31t-31.5 80z" />
<glyph unicode="&#x1e0e;" horiz-adv-x="1247" d="M174 0v1343h336q309 0 472 -172t163 -493q0 -324 -162 -501t-465 -177h-344zM344 139h154q231 0 351 140.5t120 398.5q0 256 -119 391t-352 135h-154v-1065zM360 -231h504v-119h-504v119z" />
<glyph unicode="&#x1e0f;" horiz-adv-x="1136" d="M96 496q0 236 127 380t305 144q137 0 279 -115l-8 170v383h170v-1458h-140l-14 117h-6q-145 -141 -301 -142q-190 0 -301 137.5t-111 383.5zM270 498q0 -178 73 -279.5t202 -101.5q131 0 254 137v520q-117 104 -242 105q-121 0 -204 -106.5t-83 -274.5zM365 -231h503 v-119h-503v119z" />
<glyph unicode="&#x1e20;" horiz-adv-x="1253" d="M100 672q0 319 173 507.5t448 188.5q223 0 385 -166l-98 -108q-119 125 -285 125q-205 0 -326 -146.5t-121 -396.5q0 -256 117 -403.5t330 -147.5q158 0 244 80v350h-285v141h440v-565q-160 -156 -417 -156q-268 0 -436.5 186.5t-168.5 510.5zM465 1493v117h508v-117 h-508z" />
<glyph unicode="&#x1e21;" horiz-adv-x="1032" d="M92 -190q0 127 146 225v8q-88 55 -88 162q0 111 108 184v8q-129 104 -129 269q0 158 108.5 256t266.5 98q78 0 141 -25h346v-129h-205q82 -78 82 -204q0 -156 -104.5 -251.5t-259.5 -95.5q-80 0 -150 35q-63 -55 -63 -119q0 -109 176 -108h192q176 0 262.5 -57.5 t86.5 -180.5q0 -143 -139.5 -243.5t-364.5 -100.5q-186 0 -299 71t-113 198zM240 -168q0 -80 76.5 -127t211.5 -47q137 0 226.5 60.5t89.5 142.5q0 68 -50.5 95.5t-150.5 27.5h-172q-72 0 -129 16q-102 -74 -102 -168zM240 1231v117h501v-117h-501zM293 665.5 q0 -106.5 61.5 -172t149.5 -65.5t149.5 65.5t61.5 172t-60.5 169t-150.5 62.5t-150.5 -62.5t-60.5 -169z" />
<glyph unicode="&#x1e24;" horiz-adv-x="1325" d="M178 0v1343h172v-563h625v563h170v-1343h-170v633h-625v-633h-172zM551 -311q0 47 31.5 77.5t79 30.5t79 -30.5t31.5 -77.5q0 -49 -31.5 -80t-79 -31t-79 31t-31.5 80z" />
<glyph unicode="&#x1e25;" horiz-adv-x="1114" d="M168 0v1458h168v-397l-6 -205q172 164 332 164q303 0 303 -389v-631h-168v608q0 139 -45 202.5t-144 63.5q-72 0 -131 -35.5t-141 -117.5v-721h-168zM475 -311q0 47 32 77.5t79 30.5t78.5 -30.5t31.5 -77.5q0 -49 -31.5 -80t-78.5 -31t-79 31t-32 80z" />
<glyph unicode="&#x1e2a;" horiz-adv-x="1325" d="M178 0v1343h172v-563h625v563h170v-1343h-170v633h-625v-633h-172zM403 -162h105q8 -66 47 -110.5t106.5 -44.5t106.5 45t47 110h105q-6 -104 -72 -182t-186.5 -78t-186 78t-72.5 182z" />
<glyph unicode="&#x1e2b;" horiz-adv-x="1114" d="M168 0v1458h168v-397l-6 -205q172 164 332 164q303 0 303 -389v-631h-168v608q0 139 -45 202.5t-144 63.5q-72 0 -131 -35.5t-141 -117.5v-721h-168zM326 -162h104q8 -66 47 -110.5t106.5 -44.5t106.5 44t49 111h105q-8 -104 -73.5 -182t-186.5 -78t-186.5 78t-71.5 182z " />
<glyph unicode="&#x1e36;" horiz-adv-x="985" d="M178 0v1343h172v-1198h586v-145h-758zM473 -311q0 47 32 77.5t79 30.5q49 0 79.5 -30.5t30.5 -77.5q0 -49 -30.5 -80t-79.5 -31q-47 0 -79 31t-32 80z" />
<glyph unicode="&#x1e37;" horiz-adv-x="522" d="M168 201v1257h168v-1270q0 -74 47 -73q18 0 37 4l22 -127q-37 -16 -96 -17q-178 1 -178 226zM238 -311q0 47 31.5 77.5t78.5 30.5t79 -30.5t32 -77.5q0 -49 -32 -80t-79 -31t-78.5 31t-31.5 80z" />
<glyph unicode="&#x1e38;" horiz-adv-x="985" d="M16 1493v117h508v-117h-508zM178 0v1343h172v-1198h586v-145h-758zM473 -311q0 47 32 77.5t79 30.5q49 0 79.5 -30.5t30.5 -77.5q0 -49 -30.5 -80t-79.5 -31q-47 0 -79 31t-32 80z" />
<glyph unicode="&#x1e39;" horiz-adv-x="522" d="M0 1681v119h502v-119h-502zM168 201v1257h168v-1270q0 -74 47 -73q18 0 37 4l22 -127q-37 -16 -96 -17q-178 1 -178 226zM238 -311q0 47 31.5 77.5t78.5 30.5t79 -30.5t32 -77.5q0 -49 -32 -80t-79 -31t-78.5 31t-31.5 80z" />
<glyph unicode="&#x1e3a;" horiz-adv-x="985" d="M178 0v1343h172v-1198h586v-145h-758zM332 -231h504v-119h-504v119z" />
<glyph unicode="&#x1e3b;" horiz-adv-x="522" d="M94 -231h506v-119h-506v119zM168 201v1257h168v-1270q0 -74 47 -73q18 0 37 4l22 -127q-37 -16 -96 -17q-178 1 -178 226z" />
<glyph unicode="&#x1e42;" horiz-adv-x="1478" d="M178 0v1343h203l260 -720l96 -275h8l95 275l258 720h200v-1343h-161v739q0 72 22 398h-8l-107 -299l-258 -703h-98l-258 703l-106 299h-9q20 -297 21 -398v-739h-158zM631 -311q0 47 31.5 77.5t78.5 30.5t79 -30.5t32 -77.5q0 -49 -32 -80t-79 -31t-78.5 31t-31.5 80z " />
<glyph unicode="&#x1e43;" horiz-adv-x="1697" d="M168 0v995h139l15 -143h6q154 168 309 168q209 0 274 -191q176 190 328 191q303 0 303 -389v-631h-168v608q0 139 -45 202.5t-139 63.5q-113 0 -250 -153v-721h-168v608q0 139 -45 202.5t-141 63.5q-111 0 -250 -153v-721h-168zM762 -311q0 47 31.5 77.5t78.5 30.5 q49 0 80 -30.5t31 -77.5q0 -49 -31 -80t-80 -31q-47 0 -78.5 31t-31.5 80z" />
<glyph unicode="&#x1e44;" horiz-adv-x="1314" d="M178 0v1343h176l488 -843l145 -279h8q-23 373 -22 428v694h162v-1343h-177l-485 846l-145 276h-9q20 -338 21 -420v-702h-162zM547 1573q0 47 33.5 77.5t83 30.5t83 -30.5t33.5 -77.5q0 -49 -33.5 -80t-83 -31t-83 31t-33.5 80z" />
<glyph unicode="&#x1e45;" horiz-adv-x="1120" d="M168 0v995h139l15 -143h6q168 168 334 168q303 0 303 -389v-631h-168v608q0 139 -45 202.5t-144 63.5q-72 0 -131 -35.5t-141 -117.5v-721h-168zM487 1311q0 47 32 78.5t79 31.5t79 -31.5t32 -78.5q0 -49 -32 -80t-79 -31t-79 31t-32 80z" />
<glyph unicode="&#x1e46;" horiz-adv-x="1314" d="M178 0v1343h176l488 -843l145 -279h8q-23 373 -22 428v694h162v-1343h-177l-485 846l-145 276h-9q20 -338 21 -420v-702h-162zM555 -311q0 47 31.5 77.5t79.5 30.5q49 0 79.5 -30.5t30.5 -77.5q0 -49 -30.5 -80t-79.5 -31q-47 0 -79 31t-32 80z" />
<glyph unicode="&#x1e47;" horiz-adv-x="1120" d="M168 0v995h139l15 -143h6q168 168 334 168q303 0 303 -389v-631h-168v608q0 139 -45 202.5t-144 63.5q-72 0 -131 -35.5t-141 -117.5v-721h-168zM461 -311q0 47 31.5 77.5t80.5 30.5q47 0 79 -30.5t32 -77.5q0 -49 -32 -80t-79 -31q-49 0 -80.5 31t-31.5 80z" />
<glyph unicode="&#x1e48;" horiz-adv-x="1314" d="M178 0v1343h176l488 -843l145 -279h8q-23 373 -22 428v694h162v-1343h-177l-485 846l-145 276h-9q20 -338 21 -420v-702h-162zM414 -231h504v-119h-504v119z" />
<glyph unicode="&#x1e49;" horiz-adv-x="1120" d="M168 0v995h139l15 -143h6q168 168 334 168q303 0 303 -389v-631h-168v608q0 139 -45 202.5t-144 63.5q-72 0 -131 -35.5t-141 -117.5v-721h-168zM317 -231h504v-119h-504v119z" />
<glyph unicode="&#x1e5a;" horiz-adv-x="1179" d="M178 0v1343h422q469 0 469 -376q0 -152 -80 -248t-221 -133l342 -586h-195l-323 567h-242v-567h-172zM350 707h225q324 0 324 260q0 129 -81 184t-243 55h-225v-499zM518 -311q0 47 32 77.5t79 30.5t78.5 -30.5t31.5 -77.5q0 -49 -31.5 -80t-78.5 -31t-79 31t-32 80z" />
<glyph unicode="&#x1e5b;" horiz-adv-x="710" d="M139 -311q0 47 32 77.5t79 30.5t78.5 -30.5t31.5 -77.5q0 -49 -31.5 -80t-78.5 -31t-79 31t-32 80zM168 0v995h139l15 -180h6q51 96 124.5 150.5t157.5 54.5q59 0 107 -21l-33 -147q-53 16 -96 16q-70 0 -137.5 -55t-114.5 -174v-639h-168z" />
<glyph unicode="&#x1e5c;" horiz-adv-x="1179" d="M178 0v1343h422q469 0 469 -376q0 -152 -80 -248t-221 -133l342 -586h-195l-323 567h-242v-567h-172zM342 1493v117h508v-117h-508zM350 707h225q324 0 324 260q0 129 -81 184t-243 55h-225v-499zM518 -311q0 47 32 77.5t79 30.5t78.5 -30.5t31.5 -77.5q0 -49 -31.5 -80 t-78.5 -31t-79 31t-32 80z" />
<glyph unicode="&#x1e5d;" horiz-adv-x="710" d="M139 -311q0 47 32 77.5t79 30.5t78.5 -30.5t31.5 -77.5q0 -49 -31.5 -80t-78.5 -31t-79 31t-32 80zM168 0v995h139l15 -180h6q51 96 124.5 150.5t157.5 54.5q59 0 107 -21l-33 -147q-53 16 -96 16q-70 0 -137.5 -55t-114.5 -174v-639h-168zM195 1231v117h501v-117h-501z " />
<glyph unicode="&#x1e5e;" horiz-adv-x="1179" d="M178 0v1343h422q469 0 469 -376q0 -152 -80 -248t-221 -133l342 -586h-195l-323 567h-242v-567h-172zM350 707h225q324 0 324 260q0 129 -81 184t-243 55h-225v-499zM375 -231h504v-119h-504v119z" />
<glyph unicode="&#x1e5f;" horiz-adv-x="710" d="M-6 -231h506v-119h-506v119zM168 0v995h139l15 -180h6q51 96 124.5 150.5t157.5 54.5q59 0 107 -21l-33 -147q-53 16 -96 16q-70 0 -137.5 -55t-114.5 -174v-639h-168z" />
<glyph unicode="&#x1e60;" horiz-adv-x="1083" d="M82 174l102 119q162 -168 371 -168q131 0 206 59.5t75 159.5q0 49 -14.5 85t-53.5 64.5t-66.5 44t-91.5 44.5l-192 84q-272 117 -273 346q0 154 121 255t303 101q236 0 396 -166l-91 -110q-133 127 -305 127q-115 0 -183.5 -53.5t-68.5 -143.5q0 -45 17.5 -81t57.5 -63.5 t66.5 -41t82.5 -37.5l192 -82q133 -57 205 -139t72 -220q0 -164 -126 -273.5t-333 -109.5q-276 0 -469 199zM451 1573q0 47 32.5 77.5t81.5 30.5t83 -30.5t34 -77.5q0 -49 -34 -80t-83 -31t-81.5 31t-32.5 80z" />
<glyph unicode="&#x1e61;" horiz-adv-x="858" d="M57 113l84 112q147 -119 293 -119q94 0 145.5 44.5t51.5 111.5q0 37 -18.5 65.5t-57.5 52t-67.5 37t-84.5 34.5q-66 23 -108.5 43t-90.5 55t-73 82t-25 106q0 123 92.5 203t250.5 80q170 0 309 -113l-80 -106q-117 88 -227 88q-88 0 -135.5 -41t-47.5 -103 q0 -41 35 -74.5t64.5 -48t106.5 -43.5q5 -2 8 -3t7 -3q57 -23 88 -35t79.5 -39.5t73 -55t44 -71.5t19.5 -100q0 -127 -97.5 -212t-267.5 -85q-205 1 -371 138zM340 1311q0 47 31.5 78.5t79 31.5t79 -31.5t31.5 -78.5q0 -49 -31.5 -80t-79 -31t-79 31t-31.5 80z" />
<glyph unicode="&#x1e62;" horiz-adv-x="1083" d="M82 174l102 119q162 -168 371 -168q131 0 206 59.5t75 159.5q0 49 -14.5 85t-53.5 64.5t-66.5 44t-91.5 44.5l-192 84q-272 117 -273 346q0 154 121 255t303 101q236 0 396 -166l-91 -110q-133 127 -305 127q-115 0 -183.5 -53.5t-68.5 -143.5q0 -45 17.5 -81t57.5 -63.5 t66.5 -41t82.5 -37.5l192 -82q133 -57 205 -139t72 -220q0 -164 -126 -273.5t-333 -109.5q-276 0 -469 199zM442 -311q0 47 32 77.5t79 30.5t79 -30.5t32 -77.5q0 -49 -32 -80t-79 -31t-79 31t-32 80z" />
<glyph unicode="&#x1e63;" horiz-adv-x="858" d="M57 113l84 112q147 -119 293 -119q94 0 145.5 44.5t51.5 111.5q0 37 -18.5 65.5t-57.5 52t-67.5 37t-84.5 34.5q-66 23 -108.5 43t-90.5 55t-73 82t-25 106q0 123 92.5 203t250.5 80q170 0 309 -113l-80 -106q-117 88 -227 88q-88 0 -135.5 -41t-47.5 -103 q0 -41 35 -74.5t64.5 -48t106.5 -43.5q5 -2 8 -3t7 -3q57 -23 88 -35t79.5 -39.5t73 -55t44 -71.5t19.5 -100q0 -127 -97.5 -212t-267.5 -85q-205 1 -371 138zM346 -311q0 47 32 77.5t79 30.5q49 0 79.5 -30.5t30.5 -77.5q0 -49 -30.5 -80t-79.5 -31q-47 0 -79 31t-32 80z " />
<glyph unicode="&#x1e6c;" horiz-adv-x="1087" d="M51 1200v143h985v-143h-407v-1200h-170v1200h-408zM434 -311q0 47 32 77.5t79 30.5t78.5 -30.5t31.5 -77.5q0 -49 -31.5 -80t-78.5 -31t-79 31t-32 80z" />
<glyph unicode="&#x1e6d;" horiz-adv-x="692" d="M49 858v127l156 10l20 279h142v-279h268v-137h-268v-553q0 -96 34.5 -144t118.5 -48q41 0 113 26l33 -127q-111 -37 -185 -37q-284 0 -284 332v551h-148zM328 -311q0 47 30.5 77.5t79.5 30.5q47 0 79 -30.5t32 -77.5q0 -49 -32 -80t-79 -31q-49 0 -79.5 31t-30.5 80z" />
<glyph unicode="&#x1e6e;" horiz-adv-x="1087" d="M51 1200v143h985v-143h-407v-1200h-170v1200h-408zM291 -231h506v-119h-506v119z" />
<glyph unicode="&#x1e6f;" horiz-adv-x="692" d="M49 858v127l156 10l20 279h142v-279h268v-137h-268v-553q0 -96 34.5 -144t118.5 -48q41 0 113 26l33 -127q-111 -37 -185 -37q-284 0 -284 332v551h-148zM182 -231h506v-119h-506v119z" />
<glyph unicode="&#x1e80;" horiz-adv-x="1599" d="M41 1343h176l141 -731q14 -72 40 -217t40 -217h8q31 160 95 434l186 731h156l186 -731q43 -199 96 -434h9q20 115 75 434l142 731h165l-278 -1343h-207l-203 809q-53 246 -63 305h-8q-12 -53 -35 -152.5t-33 -152.5l-201 -809h-202zM530 1675h195l180 -229h-141z" />
<glyph unicode="&#x1e81;" horiz-adv-x="1470" d="M49 995h172l148 -575q25 -104 59 -277h8l68 277l153 575h164l156 -575q33 -125 70 -277h8q12 49 61 277l146 575h159l-266 -995h-205l-143 535q-14 53 -35.5 149t-32.5 137h-8q-47 -207 -69 -289l-140 -532h-196zM510 1462h176l184 -288h-129z" />
<glyph unicode="&#x1e82;" horiz-adv-x="1599" d="M41 1343h176l141 -731q14 -72 40 -217t40 -217h8q31 160 95 434l186 731h156l186 -731q43 -199 96 -434h9q20 115 75 434l142 731h165l-278 -1343h-207l-203 809q-53 246 -63 305h-8q-12 -53 -35 -152.5t-33 -152.5l-201 -809h-202zM694 1446l180 229h195l-233 -229h-142 z" />
<glyph unicode="&#x1e83;" horiz-adv-x="1470" d="M49 995h172l148 -575q25 -104 59 -277h8l68 277l153 575h164l156 -575q33 -125 70 -277h8q12 49 61 277l146 575h159l-266 -995h-205l-143 535q-14 53 -35.5 149t-32.5 137h-8q-47 -207 -69 -289l-140 -532h-196zM604 1174l184 288h177l-232 -288h-129z" />
<glyph unicode="&#x1e84;" horiz-adv-x="1599" d="M41 1343h176l141 -731q14 -72 40 -217t40 -217h8q31 160 95 434l186 731h156l186 -731q43 -199 96 -434h9q20 115 75 434l142 731h165l-278 -1343h-207l-203 809q-53 246 -63 305h-8q-12 -53 -35 -152.5t-33 -152.5l-201 -809h-202zM522 1565q0 45 29 72.5t72 27.5 q45 0 72.5 -27.5t27.5 -72.5q0 -43 -27.5 -72t-72.5 -29q-43 0 -72 29t-29 72zM877 1565q0 45 28.5 72.5t71.5 27.5t71.5 -27.5t28.5 -72.5q0 -43 -28.5 -72t-71.5 -29t-71.5 29t-28.5 72z" />
<glyph unicode="&#x1e85;" horiz-adv-x="1470" d="M49 995h172l148 -575q25 -104 59 -277h8l68 277l153 575h164l156 -575q33 -125 70 -277h8q12 49 61 277l146 575h159l-266 -995h-205l-143 535q-14 53 -35.5 149t-32.5 137h-8q-47 -207 -69 -289l-140 -532h-196zM461 1305q0 43 28.5 71.5t71.5 28.5t72 -28.5t29 -71.5 t-29 -72t-72 -29t-71.5 29t-28.5 72zM815 1305q0 43 27.5 71.5t70.5 28.5q45 0 73 -28.5t28 -71.5t-28 -72t-73 -29q-43 0 -70.5 29t-27.5 72z" />
<glyph unicode="&#x1e8e;" horiz-adv-x="964" d="M-8 1343h184l172 -378q88 -201 131 -293h8q12 27 60.5 131t73.5 162l174 378h176l-404 -823v-520h-170v520zM367 1573q0 47 32.5 77.5t81.5 30.5t83 -30.5t34 -77.5q0 -49 -34 -80t-83 -31t-81.5 31t-32.5 80z" />
<glyph unicode="&#x1e8f;" horiz-adv-x="956" d="M25 995h174l202 -551q41 -115 97 -280h8q16 53 47 155.5t37 124.5l178 551h164l-375 -1077q-57 -164 -144 -255t-229 -91q-61 0 -116 20l32 134q47 -14 76 -15q154 0 225 213l23 74zM387 1311q0 47 32 78.5t79 31.5t78.5 -31.5t31.5 -78.5q0 -49 -31.5 -80t-78.5 -31 t-79 31t-32 80z" />
<glyph unicode="&#x1e92;" horiz-adv-x="1093" d="M86 0v102l709 1098h-645v143h856v-100l-709 -1098h715v-145h-926zM461 -311q0 47 31.5 77.5t78.5 30.5t79 -30.5t32 -77.5q0 -49 -32 -80t-79 -31t-78.5 31t-31.5 80z" />
<glyph unicode="&#x1e93;" horiz-adv-x="870" d="M63 0v90l525 768h-467v137h680v-90l-525 -768h541v-137h-754zM356 -311q0 47 32 77.5t79 30.5t79 -30.5t32 -77.5q0 -49 -32 -80t-79 -31t-79 31t-32 80z" />
<glyph unicode="&#x1e97;" horiz-adv-x="692" d="M18 1583q0 43 28 71.5t71 28.5t71.5 -28.5t28.5 -71.5t-27.5 -71.5t-72.5 -28.5q-43 0 -71 28.5t-28 71.5zM49 858v127l156 10l20 279h142v-279h268v-137h-268v-553q0 -96 34.5 -144t118.5 -48q41 0 113 26l33 -127q-111 -37 -185 -37q-284 0 -284 332v551h-148z M371 1583q0 41 28.5 70.5t71.5 29.5t71.5 -29.5t28.5 -70.5q0 -43 -28.5 -71.5t-71.5 -28.5t-71.5 28.5t-28.5 71.5z" />
<glyph unicode="&#x1e9e;" horiz-adv-x="1355" d="M182 0v854q0 229 134.5 371.5t390.5 142.5q322 0 444 -315l-283 -312q403 -82 404 -391q0 -162 -107.5 -268.5t-281.5 -106.5q-229 0 -369 156l96 111q111 -123 258 -123q106 0 167 64.5t61 166.5q0 104 -86 176t-308 109l-12 110l281 314q-82 168 -271 168 q-166 0 -257 -100.5t-91 -303.5v-823h-170z" />
<glyph unicode="&#x1ea0;" horiz-adv-x="1101" d="M0 0l455 1343h192l455 -1343h-180l-129 410h-490l-129 -410h-174zM346 547h404l-64 205q-66 209 -133 452h-8q-68 -244 -133 -452zM438 -311q0 47 32 77.5t79 30.5t78.5 -30.5t31.5 -77.5q0 -49 -31.5 -80t-78.5 -31t-79 31t-32 80z" />
<glyph unicode="&#x1ea1;" horiz-adv-x="1048" d="M119 258q0 162 146.5 250t465.5 123q0 250 -205 250q-141 0 -297 -107l-67 117q201 129 391 129q176 0 261 -107.5t85 -302.5v-610h-139l-15 119h-4q-178 -143 -329 -144q-129 0 -211 76t-82 207zM285 270q0 -80 48 -119.5t126 -39.5q123 0 272 133v276 q-242 -31 -344 -91.5t-102 -158.5zM408 -311q0 47 31.5 77.5t78.5 30.5t79 -30.5t32 -77.5q0 -49 -32 -80t-79 -31t-78.5 31t-31.5 80z" />
<glyph unicode="&#x1ea2;" horiz-adv-x="1101" d="M0 0l455 1343h192l455 -1343h-180l-129 410h-490l-129 -410h-174zM346 547h404l-64 205q-66 209 -133 452h-8q-68 -244 -133 -452zM418 1688l16 98q285 -10 285 -166q0 -151 -227 -190l-21 77q117 33 117 95q0 80 -170 86z" />
<glyph unicode="&#x1ea3;" horiz-adv-x="1048" d="M119 258q0 162 146.5 250t465.5 123q0 250 -205 250q-141 0 -297 -107l-67 117q201 129 391 129q176 0 261 -107.5t85 -302.5v-610h-139l-15 119h-4q-178 -143 -329 -144q-129 0 -211 76t-82 207zM285 270q0 -80 48 -119.5t126 -39.5q123 0 272 133v276 q-242 -31 -344 -91.5t-102 -158.5zM420 1391l18 98q283 -10 283 -166q0 -151 -227 -190l-19 77q115 33 115 95q0 80 -170 86z" />
<glyph unicode="&#x1ea4;" horiz-adv-x="1101" d="M0 0l455 1343h192l455 -1343h-180l-129 410h-490l-129 -410h-174zM285 1446l190 217h148l188 -217h-129l-129 127h-8l-129 -127h-131zM346 547h404l-64 205q-66 209 -133 452h-8q-68 -244 -133 -452zM735 1577l146 227h145l-184 -227h-107z" />
<glyph unicode="&#x1ea5;" horiz-adv-x="1048" d="M119 258q0 162 146.5 250t465.5 123q0 250 -205 250q-141 0 -297 -107l-67 117q201 129 391 129q176 0 261 -107.5t85 -302.5v-610h-139l-15 119h-4q-178 -143 -329 -144q-129 0 -211 76t-82 207zM285 270q0 -80 48 -119.5t126 -39.5q123 0 272 133v276 q-242 -31 -344 -91.5t-102 -158.5zM313 1174l168 243h140l170 -243h-115l-121 149h-8l-119 -149h-115zM733 1311l152 233h141l-188 -233h-105z" />
<glyph unicode="&#x1ea6;" horiz-adv-x="1101" d="M0 0l455 1343h192l455 -1343h-180l-129 410h-490l-129 -410h-174zM285 1446l190 217h148l188 -217h-129l-129 127h-8l-129 -127h-131zM346 547h404l-64 205q-66 209 -133 452h-8q-68 -244 -133 -452zM633 1804h147l146 -227h-107z" />
<glyph unicode="&#x1ea7;" horiz-adv-x="1048" d="M119 258q0 162 146.5 250t465.5 123q0 250 -205 250q-141 0 -297 -107l-67 117q201 129 391 129q176 0 261 -107.5t85 -302.5v-610h-139l-15 119h-4q-178 -143 -329 -144q-129 0 -211 76t-82 207zM285 270q0 -80 48 -119.5t126 -39.5q123 0 272 133v276 q-242 -31 -344 -91.5t-102 -158.5zM313 1174l168 243h140l170 -243h-115l-121 149h-8l-119 -149h-115zM670 1544h143l150 -233h-105z" />
<glyph unicode="&#x1ea8;" horiz-adv-x="1101" d="M0 0l455 1343h192l455 -1343h-180l-129 410h-490l-129 -410h-174zM285 1446l190 217h148l188 -217h-129l-129 127h-8l-129 -127h-131zM346 547h404l-64 205q-66 209 -133 452h-8q-68 -244 -133 -452zM709 1769l18 86q246 -10 246 -149q-1 -129 -189 -162l-22 72 q92 23 92 74q0 39 -34 57t-111 22z" />
<glyph unicode="&#x1ea9;" horiz-adv-x="1048" d="M119 258q0 162 146.5 250t465.5 123q0 250 -205 250q-141 0 -297 -107l-67 117q201 129 391 129q176 0 261 -107.5t85 -302.5v-610h-139l-15 119h-4q-178 -143 -329 -144q-129 0 -211 76t-82 207zM285 270q0 -80 48 -119.5t126 -39.5q123 0 272 133v276 q-242 -31 -344 -91.5t-102 -158.5zM313 1174l168 243h140l170 -243h-115l-121 149h-8l-119 -149h-115zM717 1522l14 84q248 -10 248 -150q0 -76 -51.5 -113t-139.5 -57l-18 72q88 25 88 80q0 76 -141 84z" />
<glyph unicode="&#x1eaa;" horiz-adv-x="1101" d="M0 0l455 1343h192l455 -1343h-180l-129 410h-490l-129 -410h-174zM279 1737q8 82 50 133t109 51q55 0 121 -43t94 -43q64 0 80 86h86q-8 -84 -50 -134t-112 -50q-55 0 -119.5 43t-93.5 43q-68 0 -82 -86h-83zM285 1446l190 217h148l188 -217h-129l-129 127h-8l-129 -127 h-131zM346 547h404l-64 205q-66 209 -133 452h-8q-68 -244 -133 -452z" />
<glyph unicode="&#x1eab;" horiz-adv-x="1048" d="M119 258q0 162 146.5 250t465.5 123q0 250 -205 250q-141 0 -297 -107l-67 117q201 129 391 129q176 0 261 -107.5t85 -302.5v-610h-139l-15 119h-4q-178 -143 -329 -144q-129 0 -211 76t-82 207zM285 270q0 -80 48 -119.5t126 -39.5q123 0 272 133v276 q-242 -31 -344 -91.5t-102 -158.5zM285 1456q8 84 49 135t110 51q55 0 118 -44t91 -44q66 0 80 88h86q-8 -84 -50 -135t-112 -51q-55 0 -117.5 44t-90.5 44q-66 0 -80 -88h-84zM297 1169l178 213h154l178 -213h-121l-131 134h-8l-131 -134h-119z" />
<glyph unicode="&#x1eac;" horiz-adv-x="1101" d="M0 0l455 1343h192l455 -1343h-180l-129 410h-490l-129 -410h-174zM270 1446l197 229h164l196 -229h-137l-137 139h-8l-137 -139h-138zM346 547h404l-64 205q-66 209 -133 452h-8q-68 -244 -133 -452zM438 -311q0 47 32 77.5t79 30.5t78.5 -30.5t31.5 -77.5 q0 -49 -31.5 -80t-78.5 -31t-79 31t-32 80z" />
<glyph unicode="&#x1ead;" horiz-adv-x="1048" d="M119 258q0 162 146.5 250t465.5 123q0 250 -205 250q-141 0 -297 -107l-67 117q201 129 391 129q176 0 261 -107.5t85 -302.5v-610h-139l-15 119h-4q-178 -143 -329 -144q-129 0 -211 76t-82 207zM285 270q0 -80 48 -119.5t126 -39.5q123 0 272 133v276 q-242 -31 -344 -91.5t-102 -158.5zM289 1174l192 288h140l194 -288h-123l-137 186h-8l-137 -186h-121zM408 -311q0 47 31.5 77.5t78.5 30.5t79 -30.5t32 -77.5q0 -49 -32 -80t-79 -31t-78.5 31t-31.5 80z" />
<glyph unicode="&#x1eae;" horiz-adv-x="1101" d="M0 0l455 1343h192l455 -1343h-180l-129 410h-490l-129 -410h-174zM299 1669h90q31 -131 160 -131q127 0 158 131h92q-12 -92 -76 -155.5t-174 -63.5q-113 0 -175.5 62.5t-74.5 156.5zM346 547h404l-64 205q-66 209 -133 452h-8q-68 -244 -133 -452zM469 1642l152 216h147 l-199 -216h-100z" />
<glyph unicode="&#x1eaf;" horiz-adv-x="1048" d="M119 258q0 162 146.5 250t465.5 123q0 250 -205 250q-141 0 -297 -107l-67 117q201 129 391 129q176 0 261 -107.5t85 -302.5v-610h-139l-15 119h-4q-178 -143 -329 -144q-129 0 -211 76t-82 207zM285 270q0 -80 48 -119.5t126 -39.5q123 0 272 133v276 q-242 -31 -344 -91.5t-102 -158.5zM293 1438h90q10 -70 52 -117t116 -47t117 47t53 117h90q-8 -104 -73.5 -182t-186.5 -78t-186.5 77.5t-71.5 182.5zM475 1386l139 230h140l-181 -230h-98z" />
<glyph unicode="&#x1eb0;" horiz-adv-x="1101" d="M0 0l455 1343h192l455 -1343h-180l-129 410h-490l-129 -410h-174zM299 1669h90q31 -131 160 -131q127 0 158 131h92q-12 -92 -76 -155.5t-174 -63.5q-113 0 -175.5 62.5t-74.5 156.5zM330 1858h147l152 -216h-101zM346 547h404l-64 205q-66 209 -133 452h-8 q-68 -244 -133 -452z" />
<glyph unicode="&#x1eb1;" horiz-adv-x="1048" d="M119 258q0 162 146.5 250t465.5 123q0 250 -205 250q-141 0 -297 -107l-67 117q201 129 391 129q176 0 261 -107.5t85 -302.5v-610h-139l-15 119h-4q-178 -143 -329 -144q-129 0 -211 76t-82 207zM285 270q0 -80 48 -119.5t126 -39.5q123 0 272 133v276 q-242 -31 -344 -91.5t-102 -158.5zM293 1438h90q10 -70 52 -117t116 -47t117 47t53 117h90q-8 -104 -73.5 -182t-186.5 -78t-186.5 77.5t-71.5 182.5zM348 1616h141l140 -230h-101z" />
<glyph unicode="&#x1eb2;" horiz-adv-x="1101" d="M0 0l455 1343h192l455 -1343h-180l-129 410h-490l-129 -410h-174zM299 1669h90q31 -131 160 -131q127 0 158 131h92q-12 -92 -76 -155.5t-174 -63.5q-113 0 -175.5 62.5t-74.5 156.5zM346 547h404l-64 205q-66 209 -133 452h-8q-68 -244 -133 -452zM426 1864l18 86 q246 -10 246 -150q0 -131 -188 -162l-23 72q92 23 92 74q0 39 -33.5 57.5t-111.5 22.5z" />
<glyph unicode="&#x1eb3;" horiz-adv-x="1048" d="M119 258q0 162 146.5 250t465.5 123q0 250 -205 250q-141 0 -297 -107l-67 117q201 129 391 129q176 0 261 -107.5t85 -302.5v-610h-139l-15 119h-4q-178 -143 -329 -144q-129 0 -211 76t-82 207zM285 270q0 -80 48 -119.5t126 -39.5q123 0 272 133v276 q-242 -31 -344 -91.5t-102 -158.5zM293 1438h90q10 -70 52 -117t116 -47t117 47t53 117h90q-8 -104 -73.5 -182t-186.5 -78t-186.5 77.5t-71.5 182.5zM424 1634l14 84q250 -6 250 -149q0 -74 -51 -112t-139 -58l-19 71q86 25 86 80q0 78 -141 84z" />
<glyph unicode="&#x1eb4;" horiz-adv-x="1101" d="M0 0l455 1343h192l455 -1343h-180l-129 410h-490l-129 -410h-174zM274 1733q8 84 51.5 137t110.5 53q51 0 118 -46t95 -46q66 0 82 92h86q-8 -84 -51 -137t-111 -53q-51 0 -116.5 46t-94.5 46q-31 0 -53 -24.5t-29 -67.5h-88zM299 1669h90q31 -131 160 -131 q127 0 158 131h92q-12 -92 -76 -155.5t-174 -63.5q-113 0 -175.5 62.5t-74.5 156.5zM346 547h404l-64 205q-66 209 -133 452h-8q-68 -244 -133 -452z" />
<glyph unicode="&#x1eb5;" horiz-adv-x="1048" d="M119 258q0 162 146.5 250t465.5 123q0 250 -205 250q-141 0 -297 -107l-67 117q201 129 391 129q176 0 261 -107.5t85 -302.5v-610h-139l-15 119h-4q-178 -143 -329 -144q-129 0 -211 76t-82 207zM285 270q0 -80 48 -119.5t126 -39.5q123 0 272 133v276 q-242 -31 -344 -91.5t-102 -158.5zM285 1456q8 84 49 135t110 51q55 0 118 -44t91 -44q66 0 80 88h86q-8 -84 -50 -135t-112 -51q-55 0 -117.5 44t-90.5 44q-66 0 -80 -88h-84zM295 1397h92q10 -55 51 -91t113 -36t113 35.5t51 91.5h92q-6 -92 -69.5 -155.5t-186.5 -63.5 t-185.5 63.5t-70.5 155.5z" />
<glyph unicode="&#x1eb6;" horiz-adv-x="1101" d="M0 0l455 1343h192l455 -1343h-180l-129 410h-490l-129 -410h-174zM297 1675h102q10 -55 48 -92t101.5 -37t101.5 37t48 92h103q-12 -96 -74.5 -160.5t-177.5 -64.5t-178.5 64.5t-73.5 160.5zM346 547h404l-64 205q-66 209 -133 452h-8q-68 -244 -133 -452zM438 -311 q0 47 32 77.5t79 30.5t78.5 -30.5t31.5 -77.5q0 -49 -31.5 -80t-78.5 -31t-79 31t-32 80z" />
<glyph unicode="&#x1eb7;" horiz-adv-x="1048" d="M119 258q0 162 146.5 250t465.5 123q0 250 -205 250q-141 0 -297 -107l-67 117q201 129 391 129q176 0 261 -107.5t85 -302.5v-610h-139l-15 119h-4q-178 -143 -329 -144q-129 0 -211 76t-82 207zM285 270q0 -80 48 -119.5t126 -39.5q123 0 272 133v276 q-242 -31 -344 -91.5t-102 -158.5zM293 1438h104q8 -66 47 -111t106.5 -45t106.5 45t48 111h106q-8 -104 -73.5 -182t-186.5 -78t-186.5 77.5t-71.5 182.5zM408 -311q0 47 31.5 77.5t78.5 30.5t79 -30.5t32 -77.5q0 -49 -32 -80t-79 -31t-78.5 31t-31.5 80z" />
<glyph unicode="&#x1eb8;" horiz-adv-x="1069" d="M178 0v1343h774v-143h-602v-422h508v-145h-508v-488h623v-145h-795zM489 -311q0 47 32 77.5t79 30.5q49 0 80 -30.5t31 -77.5q0 -49 -31 -80t-80 -31q-47 0 -79 31t-32 80z" />
<glyph unicode="&#x1eb9;" horiz-adv-x="1021" d="M94 496q0 233 133 378.5t314 145.5q188 0 292.5 -126t104.5 -341q0 -55 -6 -92h-672q8 -162 98.5 -256t233.5 -94q127 0 248 77l59 -110q-160 -102 -328 -103q-205 0 -341 141.5t-136 379.5zM258 571h533q0 152 -64.5 234t-181.5 82q-109 0 -191 -85.5t-96 -230.5z M426 -311q0 47 31.5 77.5t81.5 30.5q47 0 78.5 -30.5t31.5 -77.5q0 -49 -31.5 -80t-78.5 -31q-49 0 -81 31t-32 80z" />
<glyph unicode="&#x1eba;" horiz-adv-x="1069" d="M178 0v1343h774v-143h-602v-422h508v-145h-508v-488h623v-145h-795zM446 1688l17 98q285 -10 285 -166q-1 -151 -228 -190l-20 77q117 33 116 95q0 80 -170 86z" />
<glyph unicode="&#x1ebb;" horiz-adv-x="1021" d="M94 496q0 233 133 378.5t314 145.5q188 0 292.5 -126t104.5 -341q0 -55 -6 -92h-672q8 -162 98.5 -256t233.5 -94q127 0 248 77l59 -110q-160 -102 -328 -103q-205 0 -341 141.5t-136 379.5zM258 571h533q0 152 -64.5 234t-181.5 82q-109 0 -191 -85.5t-96 -230.5z M410 1391l18 98q283 -10 283 -166q-1 -151 -226 -190l-20 77q115 33 115 95q0 80 -170 86z" />
<glyph unicode="&#x1ebc;" horiz-adv-x="1069" d="M178 0v1343h774v-143h-602v-422h508v-145h-508v-488h623v-145h-795zM281 1456q10 98 56 159.5t118 61.5q57 0 132 -53t109 -53q66 0 84 106h92q-8 -96 -54 -158.5t-118 -62.5q-57 0 -132.5 53.5t-110.5 53.5q-66 0 -82 -107h-94z" />
<glyph unicode="&#x1ebd;" horiz-adv-x="1021" d="M94 496q0 233 133 378.5t314 145.5q188 0 292.5 -126t104.5 -341q0 -55 -6 -92h-672q8 -162 98.5 -256t233.5 -94q127 0 248 77l59 -110q-160 -102 -328 -103q-205 0 -341 141.5t-136 379.5zM256 1186q10 98 52 157.5t116 59.5q55 0 129 -52.5t102 -52.5q57 0 76 105h96 q-10 -98 -52 -157.5t-116 -59.5q-55 0 -128.5 52t-104.5 52q-58 0 -74 -104h-96zM258 571h533q0 152 -64.5 234t-181.5 82q-109 0 -191 -85.5t-96 -230.5z" />
<glyph unicode="&#x1ebe;" horiz-adv-x="1069" d="M178 0v1343h774v-143h-602v-422h508v-145h-508v-488h623v-145h-795zM313 1446l191 217h147l189 -217h-129l-129 127h-9l-129 -127h-131zM764 1577l145 227h146l-185 -227h-106z" />
<glyph unicode="&#x1ebf;" horiz-adv-x="1021" d="M94 496q0 233 133 378.5t314 145.5q188 0 292.5 -126t104.5 -341q0 -55 -6 -92h-672q8 -162 98.5 -256t233.5 -94q127 0 248 77l59 -110q-160 -102 -328 -103q-205 0 -341 141.5t-136 379.5zM258 571h533q0 152 -64.5 234t-181.5 82q-109 0 -191 -85.5t-96 -230.5z M303 1174l170 243h137l170 -243h-114l-121 149h-8l-119 -149h-115zM723 1311l151 233h142l-189 -233h-104z" />
<glyph unicode="&#x1ec0;" horiz-adv-x="1069" d="M178 0v1343h774v-143h-602v-422h508v-145h-508v-488h623v-145h-795zM313 1446l191 217h147l189 -217h-129l-129 127h-9l-129 -127h-131zM662 1804h147l145 -227h-106z" />
<glyph unicode="&#x1ec1;" horiz-adv-x="1021" d="M94 496q0 233 133 378.5t314 145.5q188 0 292.5 -126t104.5 -341q0 -55 -6 -92h-672q8 -162 98.5 -256t233.5 -94q127 0 248 77l59 -110q-160 -102 -328 -103q-205 0 -341 141.5t-136 379.5zM258 571h533q0 152 -64.5 234t-181.5 82q-109 0 -191 -85.5t-96 -230.5z M303 1174l170 243h137l170 -243h-114l-121 149h-8l-119 -149h-115zM659 1544h144l149 -233h-104z" />
<glyph unicode="&#x1ec2;" horiz-adv-x="1069" d="M178 0v1343h774v-143h-602v-422h508v-145h-508v-488h623v-145h-795zM313 1446l191 217h147l189 -217h-129l-129 127h-9l-129 -127h-131zM737 1769l19 86q246 -10 245 -149q0 -129 -188 -162l-22 72q92 23 92 74q0 39 -34 57t-112 22z" />
<glyph unicode="&#x1ec3;" horiz-adv-x="1021" d="M94 496q0 233 133 378.5t314 145.5q188 0 292.5 -126t104.5 -341q0 -55 -6 -92h-672q8 -162 98.5 -256t233.5 -94q127 0 248 77l59 -110q-160 -102 -328 -103q-205 0 -341 141.5t-136 379.5zM258 571h533q0 152 -64.5 234t-181.5 82q-109 0 -191 -85.5t-96 -230.5z M303 1174l170 243h137l170 -243h-114l-121 149h-8l-119 -149h-115zM707 1522l14 84q248 -10 248 -150q0 -76 -51.5 -113t-139.5 -57l-18 72q88 25 88 80q0 76 -141 84z" />
<glyph unicode="&#x1ec4;" horiz-adv-x="1069" d="M178 0v1343h774v-143h-602v-422h508v-145h-508v-488h623v-145h-795zM307 1737q8 82 50 133t110 51q55 0 120.5 -43t94.5 -43q63 0 80 86h86q-8 -84 -50 -134t-112 -50q-55 0 -119.5 43t-93.5 43q-68 0 -82 -86h-84zM313 1446l191 217h147l189 -217h-129l-129 127h-9 l-129 -127h-131z" />
<glyph unicode="&#x1ec5;" horiz-adv-x="1021" d="M94 496q0 233 133 378.5t314 145.5q188 0 292.5 -126t104.5 -341q0 -55 -6 -92h-672q8 -162 98.5 -256t233.5 -94q127 0 248 77l59 -110q-160 -102 -328 -103q-205 0 -341 141.5t-136 379.5zM258 571h533q0 152 -64.5 234t-181.5 82q-109 0 -191 -85.5t-96 -230.5z M274 1456q8 84 49.5 135t110.5 51q55 0 117.5 -44t91.5 -44q68 0 80 88h86q-8 -84 -49 -135t-111 -51q-57 0 -118.5 44t-90.5 44q-68 0 -80 -88h-86zM287 1169l178 213h153l179 -213h-119l-133 134h-8l-131 -134h-119z" />
<glyph unicode="&#x1ec6;" horiz-adv-x="1069" d="M178 0v1343h774v-143h-602v-422h508v-145h-508v-488h623v-145h-795zM299 1446l197 229h163l197 -229h-137l-137 139h-9l-137 -139h-137zM489 -311q0 47 32 77.5t79 30.5q49 0 80 -30.5t31 -77.5q0 -49 -31 -80t-80 -31q-47 0 -79 31t-32 80z" />
<glyph unicode="&#x1ec7;" horiz-adv-x="1021" d="M94 496q0 233 133 378.5t314 145.5q188 0 292.5 -126t104.5 -341q0 -55 -6 -92h-672q8 -162 98.5 -256t233.5 -94q127 0 248 77l59 -110q-160 -102 -328 -103q-205 0 -341 141.5t-136 379.5zM258 571h533q0 152 -64.5 234t-181.5 82q-109 0 -191 -85.5t-96 -230.5z M279 1174l194 288h137l195 -288h-123l-137 186h-8l-138 -186h-120zM426 -311q0 47 31.5 77.5t79 30.5t79 -30.5t31.5 -77.5q0 -49 -31.5 -80t-79 -31t-79 31t-31.5 80z" />
<glyph unicode="&#x1ec8;" horiz-adv-x="528" d="M133 1688l19 98q283 -10 282 -166q0 -151 -227 -190l-19 77q115 33 115 95q0 80 -170 86zM178 0v1343h172v-1343h-172z" />
<glyph unicode="&#x1ec9;" horiz-adv-x="503" d="M121 1391l18 98q283 -10 283 -166q0 -151 -227 -190l-19 77q115 33 115 95q0 80 -170 86zM168 0v995h168v-995h-168z" />
<glyph unicode="&#x1eca;" horiz-adv-x="528" d="M154 -311q0 47 31.5 77.5t80.5 30.5q47 0 79 -30.5t32 -77.5q0 -49 -32 -80t-79 -31q-49 0 -80.5 31t-31.5 80zM178 0v1343h172v-1343h-172z" />
<glyph unicode="&#x1ecb;" horiz-adv-x="503" d="M137 1309q0 49 34 78.5t83 29.5t83 -29.5t34 -78.5q0 -47 -34 -78t-83 -31t-83 31t-34 78zM143 -311q0 47 32 77.5t79 30.5t79 -30.5t32 -77.5q0 -49 -32 -80t-79 -31t-79 31t-32 80zM168 0v995h168v-995h-168z" />
<glyph unicode="&#x1ecc;" horiz-adv-x="1349" d="M100 678q0 317 159 503.5t417 186.5q256 0 414.5 -186.5t158.5 -503.5q0 -319 -159.5 -511t-413.5 -192q-256 0 -416 190.5t-160 512.5zM276 678q0 -252 109 -402.5t291 -150.5q180 0 288.5 150.5t108.5 402.5q0 250 -108.5 395.5t-288.5 145.5q-182 0 -291 -145.5 t-109 -395.5zM563 -311q0 47 32 77.5t81 30.5q47 0 78.5 -30.5t31.5 -77.5q0 -49 -31.5 -80t-78.5 -31q-49 0 -81 31t-32 80z" />
<glyph unicode="&#x1ecd;" horiz-adv-x="1110" d="M94 496q0 242 134 383t327 141t327 -141.5t134 -382.5q0 -238 -134 -379.5t-327 -141.5t-327 141.5t-134 379.5zM268 496q0 -170 80 -275.5t207 -105.5q129 0 208 105.5t79 275.5q0 172 -79 278.5t-208 106.5q-127 0 -207 -106.5t-80 -278.5zM446 -311q0 47 32 77.5 t79 30.5t79 -30.5t32 -77.5q0 -49 -32 -80t-79 -31t-79 31t-32 80z" />
<glyph unicode="&#x1ece;" horiz-adv-x="1349" d="M100 678q0 317 159 503.5t417 186.5q256 0 414.5 -186.5t158.5 -503.5q0 -319 -159.5 -511t-413.5 -192q-256 0 -416 190.5t-160 512.5zM276 678q0 -252 109 -402.5t291 -150.5q180 0 288.5 150.5t108.5 402.5q0 250 -108.5 395.5t-288.5 145.5q-182 0 -291 -145.5 t-109 -395.5zM545 1688l16 98q283 -10 283 -166q-1 -151 -226 -190l-20 77q117 33 117 95q0 80 -170 86z" />
<glyph unicode="&#x1ecf;" horiz-adv-x="1110" d="M94 496q0 242 134 383t327 141t327 -141.5t134 -382.5q0 -238 -134 -379.5t-327 -141.5t-327 141.5t-134 379.5zM268 496q0 -170 80 -275.5t207 -105.5q129 0 208 105.5t79 275.5q0 172 -79 278.5t-208 106.5q-127 0 -207 -106.5t-80 -278.5zM424 1391l18 98 q283 -10 283 -166q0 -151 -227 -190l-19 77q115 33 115 95q0 80 -170 86z" />
<glyph unicode="&#x1ed0;" horiz-adv-x="1349" d="M100 678q0 317 159 503.5t417 186.5q256 0 414.5 -186.5t158.5 -503.5q0 -319 -159.5 -511t-413.5 -192q-256 0 -416 190.5t-160 512.5zM276 678q0 -252 109 -402.5t291 -150.5q180 0 288.5 150.5t108.5 402.5q0 250 -108.5 395.5t-288.5 145.5q-182 0 -291 -145.5 t-109 -395.5zM412 1446l188 217h150l188 -217h-129l-129 127h-8l-131 -127h-129zM862 1577l144 227h147l-184 -227h-107z" />
<glyph unicode="&#x1ed1;" horiz-adv-x="1110" d="M94 496q0 242 134 383t327 141t327 -141.5t134 -382.5q0 -238 -134 -379.5t-327 -141.5t-327 141.5t-134 379.5zM268 496q0 -170 80 -275.5t207 -105.5q129 0 208 105.5t79 275.5q0 172 -79 278.5t-208 106.5q-127 0 -207 -106.5t-80 -278.5zM317 1174l168 243h140 l170 -243h-115l-121 149h-8l-119 -149h-115zM737 1311l150 233h143l-188 -233h-105z" />
<glyph unicode="&#x1ed2;" horiz-adv-x="1349" d="M100 678q0 317 159 503.5t417 186.5q256 0 414.5 -186.5t158.5 -503.5q0 -319 -159.5 -511t-413.5 -192q-256 0 -416 190.5t-160 512.5zM276 678q0 -252 109 -402.5t291 -150.5q180 0 288.5 150.5t108.5 402.5q0 250 -108.5 395.5t-288.5 145.5q-182 0 -291 -145.5 t-109 -395.5zM412 1446l188 217h150l188 -217h-129l-129 127h-8l-131 -127h-129zM760 1804h147l144 -227h-105z" />
<glyph unicode="&#x1ed3;" horiz-adv-x="1110" d="M94 496q0 242 134 383t327 141t327 -141.5t134 -382.5q0 -238 -134 -379.5t-327 -141.5t-327 141.5t-134 379.5zM268 496q0 -170 80 -275.5t207 -105.5q129 0 208 105.5t79 275.5q0 172 -79 278.5t-208 106.5q-127 0 -207 -106.5t-80 -278.5zM317 1174l168 243h140 l170 -243h-115l-121 149h-8l-119 -149h-115zM674 1544h143l150 -233h-105z" />
<glyph unicode="&#x1ed4;" horiz-adv-x="1349" d="M100 678q0 317 159 503.5t417 186.5q256 0 414.5 -186.5t158.5 -503.5q0 -319 -159.5 -511t-413.5 -192q-256 0 -416 190.5t-160 512.5zM276 678q0 -252 109 -402.5t291 -150.5q180 0 288.5 150.5t108.5 402.5q0 250 -108.5 395.5t-288.5 145.5q-182 0 -291 -145.5 t-109 -395.5zM412 1446l188 217h150l188 -217h-129l-129 127h-8l-131 -127h-129zM836 1769l16 86q248 -10 248 -149q-1 -129 -189 -162l-22 72q90 23 90 74q0 39 -34 57t-109 22z" />
<glyph unicode="&#x1ed5;" horiz-adv-x="1110" d="M94 496q0 242 134 383t327 141t327 -141.5t134 -382.5q0 -238 -134 -379.5t-327 -141.5t-327 141.5t-134 379.5zM268 496q0 -170 80 -275.5t207 -105.5q129 0 208 105.5t79 275.5q0 172 -79 278.5t-208 106.5q-127 0 -207 -106.5t-80 -278.5zM317 1174l168 243h140 l170 -243h-115l-121 149h-8l-119 -149h-115zM719 1522l16 84q248 -10 248 -150q0 -76 -51 -113t-139 -57l-19 72q88 25 88 80q0 76 -143 84z" />
<glyph unicode="&#x1ed6;" horiz-adv-x="1349" d="M100 678q0 317 159 503.5t417 186.5q256 0 414.5 -186.5t158.5 -503.5q0 -319 -159.5 -511t-413.5 -192q-256 0 -416 190.5t-160 512.5zM276 678q0 -252 109 -402.5t291 -150.5q180 0 288.5 150.5t108.5 402.5q0 250 -108.5 395.5t-288.5 145.5q-182 0 -291 -145.5 t-109 -395.5zM406 1737q8 82 50 133t109 51q55 0 121 -43t94 -43q63 0 80 86h86q-8 -84 -50 -134t-112 -50q-55 0 -120.5 43t-94.5 43q-66 0 -80 -86h-83zM412 1446l188 217h150l188 -217h-129l-129 127h-8l-131 -127h-129z" />
<glyph unicode="&#x1ed7;" horiz-adv-x="1110" d="M94 496q0 242 134 383t327 141t327 -141.5t134 -382.5q0 -238 -134 -379.5t-327 -141.5t-327 141.5t-134 379.5zM268 496q0 -170 80 -275.5t207 -105.5q129 0 208 105.5t79 275.5q0 172 -79 278.5t-208 106.5q-127 0 -207 -106.5t-80 -278.5zM289 1456q8 84 49 135 t111 51q55 0 117.5 -44t90.5 -44q66 0 80 88h86q-8 -84 -50 -135t-111 -51q-55 0 -118 44t-91 44q-66 0 -80 -88h-84zM301 1169l178 213h154l178 -213h-121l-131 134h-8l-131 -134h-119z" />
<glyph unicode="&#x1ed8;" horiz-adv-x="1349" d="M100 678q0 317 159 503.5t417 186.5q256 0 414.5 -186.5t158.5 -503.5q0 -319 -159.5 -511t-413.5 -192q-256 0 -416 190.5t-160 512.5zM276 678q0 -252 109 -402.5t291 -150.5q180 0 288.5 150.5t108.5 402.5q0 250 -108.5 395.5t-288.5 145.5q-182 0 -291 -145.5 t-109 -395.5zM397 1446l197 229h162l196 -229h-135l-137 139h-8l-137 -139h-138zM563 -311q0 47 32 77.5t81 30.5q47 0 78.5 -30.5t31.5 -77.5q0 -49 -31.5 -80t-78.5 -31q-49 0 -81 31t-32 80z" />
<glyph unicode="&#x1ed9;" horiz-adv-x="1110" d="M94 496q0 242 134 383t327 141t327 -141.5t134 -382.5q0 -238 -134 -379.5t-327 -141.5t-327 141.5t-134 379.5zM268 496q0 -170 80 -275.5t207 -105.5q129 0 208 105.5t79 275.5q0 172 -79 278.5t-208 106.5q-127 0 -207 -106.5t-80 -278.5zM293 1174l192 288h140 l194 -288h-123l-137 186h-8l-137 -186h-121zM446 -311q0 47 32 77.5t79 30.5t79 -30.5t32 -77.5q0 -49 -32 -80t-79 -31t-79 31t-32 80z" />
<glyph unicode="&#x1eda;" horiz-adv-x="1349" d="M100 678q0 317 159 503.5t417 186.5q147 0 266 -65q166 31 166 137q0 37 -29 84l121 59q47 -66 47 -133q0 -164 -209 -215q211 -190 211 -557q0 -319 -159.5 -511t-413.5 -192q-256 0 -416 190.5t-160 512.5zM276 678q0 -252 109 -402.5t291 -150.5q180 0 288.5 150.5 t108.5 402.5q0 250 -108.5 395.5t-288.5 145.5q-182 0 -291 -145.5t-109 -395.5zM569 1446l183 229h192l-233 -229h-142z" />
<glyph unicode="&#x1edb;" horiz-adv-x="1110" d="M94 496q0 242 134 383t327 141q104 0 193 -43q152 27 151 133q0 41 -31 86l123 59q47 -66 47 -133q0 -156 -190 -211q168 -152 168 -415q0 -238 -134 -379.5t-327 -141.5t-327 141.5t-134 379.5zM268 496q0 -170 80 -275.5t207 -105.5q129 0 208 105.5t79 275.5 q0 172 -79 278.5t-208 106.5q-127 0 -207 -106.5t-80 -278.5zM422 1174l184 288h176l-231 -288h-129z" />
<glyph unicode="&#x1edc;" horiz-adv-x="1349" d="M100 678q0 317 159 503.5t417 186.5q147 0 266 -65q166 31 166 137q0 37 -29 84l121 59q47 -66 47 -133q0 -164 -209 -215q211 -190 211 -557q0 -319 -159.5 -511t-413.5 -192q-256 0 -416 190.5t-160 512.5zM276 678q0 -252 109 -402.5t291 -150.5q180 0 288.5 150.5 t108.5 402.5q0 250 -108.5 395.5t-288.5 145.5q-182 0 -291 -145.5t-109 -395.5zM408 1675h192l180 -229h-141z" />
<glyph unicode="&#x1edd;" horiz-adv-x="1110" d="M94 496q0 242 134 383t327 141q104 0 193 -43q152 27 151 133q0 41 -31 86l123 59q47 -66 47 -133q0 -156 -190 -211q168 -152 168 -415q0 -238 -134 -379.5t-327 -141.5t-327 141.5t-134 379.5zM268 496q0 -170 80 -275.5t207 -105.5q129 0 208 105.5t79 275.5 q0 172 -79 278.5t-208 106.5q-127 0 -207 -106.5t-80 -278.5zM328 1462h176l184 -288h-129z" />
<glyph unicode="&#x1ede;" horiz-adv-x="1349" d="M100 678q0 317 159 503.5t417 186.5q147 0 266 -65q166 31 166 137q0 37 -29 84l121 59q47 -66 47 -133q0 -164 -209 -215q211 -190 211 -557q0 -319 -159.5 -511t-413.5 -192q-256 0 -416 190.5t-160 512.5zM276 678q0 -252 109 -402.5t291 -150.5q180 0 288.5 150.5 t108.5 402.5q0 250 -108.5 395.5t-288.5 145.5q-182 0 -291 -145.5t-109 -395.5zM545 1688l16 98q283 -10 283 -166q-1 -151 -226 -190l-20 77q117 33 117 95q0 80 -170 86z" />
<glyph unicode="&#x1edf;" horiz-adv-x="1110" d="M94 496q0 242 134 383t327 141q104 0 193 -43q152 27 151 133q0 41 -31 86l123 59q47 -66 47 -133q0 -156 -190 -211q168 -152 168 -415q0 -238 -134 -379.5t-327 -141.5t-327 141.5t-134 379.5zM268 496q0 -170 80 -275.5t207 -105.5q129 0 208 105.5t79 275.5 q0 172 -79 278.5t-208 106.5q-127 0 -207 -106.5t-80 -278.5zM424 1391l18 98q283 -10 283 -166q0 -151 -227 -190l-19 77q115 33 115 95q0 80 -170 86z" />
<glyph unicode="&#x1ee0;" horiz-adv-x="1349" d="M100 678q0 317 159 503.5t417 186.5q147 0 266 -65q166 31 166 137q0 37 -29 84l121 59q47 -66 47 -133q0 -164 -209 -215q211 -190 211 -557q0 -319 -159.5 -511t-413.5 -192q-256 0 -416 190.5t-160 512.5zM276 678q0 -252 109 -402.5t291 -150.5q180 0 288.5 150.5 t108.5 402.5q0 250 -108.5 395.5t-288.5 145.5q-182 0 -291 -145.5t-109 -395.5zM379 1456q10 98 56 159.5t116 61.5q59 0 135 -53t109 -53q66 0 84 106h92q-10 -96 -56.5 -158.5t-115.5 -62.5q-57 0 -133 53.5t-111 53.5q-66 0 -82 -107h-94z" />
<glyph unicode="&#x1ee1;" horiz-adv-x="1110" d="M94 496q0 242 134 383t327 141q104 0 193 -43q152 27 151 133q0 41 -31 86l123 59q47 -66 47 -133q0 -156 -190 -211q168 -152 168 -415q0 -238 -134 -379.5t-327 -141.5t-327 141.5t-134 379.5zM268 496q0 -170 80 -275.5t207 -105.5q129 0 208 105.5t79 275.5 q0 172 -79 278.5t-208 106.5q-127 0 -207 -106.5t-80 -278.5zM270 1186q8 96 51.5 156.5t114.5 60.5q57 0 131 -52.5t103 -52.5q57 1 75 105h95q-8 -96 -51.5 -156.5t-114.5 -60.5q-55 0 -129 52t-105 52q-59 0 -73 -104h-97z" />
<glyph unicode="&#x1ee2;" horiz-adv-x="1349" d="M100 678q0 317 159 503.5t417 186.5q147 0 266 -65q166 31 166 137q0 37 -29 84l121 59q47 -66 47 -133q0 -164 -209 -215q211 -190 211 -557q0 -319 -159.5 -511t-413.5 -192q-256 0 -416 190.5t-160 512.5zM276 678q0 -252 109 -402.5t291 -150.5q180 0 288.5 150.5 t108.5 402.5q0 250 -108.5 395.5t-288.5 145.5q-182 0 -291 -145.5t-109 -395.5zM563 -311q0 47 32 77.5t81 30.5q47 0 78.5 -30.5t31.5 -77.5q0 -49 -31.5 -80t-78.5 -31q-49 0 -81 31t-32 80z" />
<glyph unicode="&#x1ee3;" horiz-adv-x="1110" d="M94 496q0 242 134 383t327 141q104 0 193 -43q152 27 151 133q0 41 -31 86l123 59q47 -66 47 -133q0 -156 -190 -211q168 -152 168 -415q0 -238 -134 -379.5t-327 -141.5t-327 141.5t-134 379.5zM268 496q0 -170 80 -275.5t207 -105.5q129 0 208 105.5t79 275.5 q0 172 -79 278.5t-208 106.5q-127 0 -207 -106.5t-80 -278.5zM446 -311q0 47 32 77.5t79 30.5t79 -30.5t32 -77.5q0 -49 -32 -80t-79 -31t-79 31t-32 80z" />
<glyph unicode="&#x1ee4;" horiz-adv-x="1310" d="M172 555v788h172v-792q0 -426 311 -426q319 0 320 426v792h164v-788q0 -305 -130 -442.5t-353.5 -137.5t-353.5 137.5t-130 442.5zM545 -311q0 47 31.5 77.5t78.5 30.5t79 -30.5t32 -77.5q0 -49 -32 -80t-79 -31t-78.5 31t-31.5 80z" />
<glyph unicode="&#x1ee5;" horiz-adv-x="1124" d="M164 365v630h170v-608q0 -139 44 -202.5t142 -63.5q74 0 133.5 39t132.5 129v706h170v-995h-139l-14 156h-6q-154 -180 -328 -181q-305 1 -305 390zM496 -311q0 47 31.5 77.5t78.5 30.5t79 -30.5t32 -77.5q0 -49 -32 -80t-79 -31t-78.5 31t-31.5 80z" />
<glyph unicode="&#x1ee6;" horiz-adv-x="1310" d="M172 555v788h172v-792q0 -426 311 -426q319 0 320 426v792h164v-788q0 -305 -130 -442.5t-353.5 -137.5t-353.5 137.5t-130 442.5zM524 1688l19 98q283 -10 282 -166q0 -151 -227 -190l-18 77q115 33 114 95q0 80 -170 86z" />
<glyph unicode="&#x1ee7;" horiz-adv-x="1124" d="M164 365v630h170v-608q0 -139 44 -202.5t142 -63.5q74 0 133.5 39t132.5 129v706h170v-995h-139l-14 156h-6q-154 -180 -328 -181q-305 1 -305 390zM436 1391l19 98q283 -10 282 -166q0 -151 -227 -190l-18 77q115 33 114 95q0 80 -170 86z" />
<glyph unicode="&#x1ee8;" horiz-adv-x="1339" d="M172 555v788h172v-792q0 -426 311 -426q319 0 320 426v792h72q90 12 134 42t44 96q0 39 -31 84l123 59q47 -66 47 -133q0 -172 -225 -221v-715q0 -305 -130 -442.5t-353.5 -137.5t-353.5 137.5t-130 442.5zM549 1446l182 229h193l-234 -229h-141z" />
<glyph unicode="&#x1ee9;" horiz-adv-x="1159" d="M164 365v630h170v-608q0 -139 44 -202.5t142 -63.5q74 0 133.5 39t132.5 129v706h50q172 18 172 135q0 42 -31 87l121 59q47 -66 47 -133q0 -158 -189 -213v-930h-139l-14 156h-6q-154 -180 -328 -181q-305 0 -305 390zM432 1174l186 288h175l-230 -288h-131z" />
<glyph unicode="&#x1eea;" horiz-adv-x="1339" d="M172 555v788h172v-792q0 -426 311 -426q319 0 320 426v792h72q90 12 134 42t44 96q0 39 -31 84l123 59q47 -66 47 -133q0 -172 -225 -221v-715q0 -305 -130 -442.5t-353.5 -137.5t-353.5 137.5t-130 442.5zM387 1675h193l180 -229h-142z" />
<glyph unicode="&#x1eeb;" horiz-adv-x="1159" d="M164 365v630h170v-608q0 -139 44 -202.5t142 -63.5q74 0 133.5 39t132.5 129v706h50q172 18 172 135q0 42 -31 87l121 59q47 -66 47 -133q0 -158 -189 -213v-930h-139l-14 156h-6q-154 -180 -328 -181q-305 0 -305 390zM340 1462h174l186 -288h-131z" />
<glyph unicode="&#x1eec;" horiz-adv-x="1339" d="M172 555v788h172v-792q0 -426 311 -426q319 0 320 426v792h72q90 12 134 42t44 96q0 39 -31 84l123 59q47 -66 47 -133q0 -172 -225 -221v-715q0 -305 -130 -442.5t-353.5 -137.5t-353.5 137.5t-130 442.5zM524 1688l17 98q283 -10 282 -166q0 -151 -225 -190l-20 77 q117 33 116 95q0 80 -170 86z" />
<glyph unicode="&#x1eed;" horiz-adv-x="1159" d="M164 365v630h170v-608q0 -139 44 -202.5t142 -63.5q74 0 133.5 39t132.5 129v706h50q172 18 172 135q0 42 -31 87l121 59q47 -66 47 -133q0 -158 -189 -213v-930h-139l-14 156h-6q-154 -180 -328 -181q-305 0 -305 390zM436 1391l17 98q283 -10 282 -166 q0 -151 -225 -190l-21 77q117 33 117 95q0 80 -170 86z" />
<glyph unicode="&#x1eee;" horiz-adv-x="1339" d="M172 555v788h172v-792q0 -426 311 -426q319 0 320 426v792h72q90 12 134 42t44 96q0 39 -31 84l123 59q47 -66 47 -133q0 -172 -225 -221v-715q0 -305 -130 -442.5t-353.5 -137.5t-353.5 137.5t-130 442.5zM358 1456q10 98 56.5 159.5t115.5 61.5q59 0 135 -53t109 -53 q66 0 84 106h92q-10 -96 -56 -158.5t-116 -62.5q-57 0 -133 53.5t-110 53.5q-66 0 -82 -107h-95z" />
<glyph unicode="&#x1eef;" horiz-adv-x="1159" d="M164 365v630h170v-608q0 -139 44 -202.5t142 -63.5q74 0 133.5 39t132.5 129v706h50q172 18 172 135q0 42 -31 87l121 59q47 -66 47 -133q0 -158 -189 -213v-930h-139l-14 156h-6q-154 -180 -328 -181q-305 0 -305 390zM281 1186q10 98 52 157.5t116 59.5 q55 0 129.5 -52.5t103.5 -52.5q59 1 74 105h96q-10 -98 -52 -157.5t-116 -59.5q-55 0 -129 52t-102 52q-59 0 -76 -104h-96z" />
<glyph unicode="&#x1ef0;" horiz-adv-x="1339" d="M172 555v788h172v-792q0 -426 311 -426q319 0 320 426v792h72q90 12 134 42t44 96q0 39 -31 84l123 59q47 -66 47 -133q0 -172 -225 -221v-715q0 -305 -130 -442.5t-353.5 -137.5t-353.5 137.5t-130 442.5zM543 -311q0 47 31.5 77.5t80.5 30.5q47 0 79 -30.5t32 -77.5 q0 -49 -32 -80t-79 -31q-49 0 -80.5 31t-31.5 80z" />
<glyph unicode="&#x1ef1;" horiz-adv-x="1159" d="M164 365v630h170v-608q0 -139 44 -202.5t142 -63.5q74 0 133.5 39t132.5 129v706h50q172 18 172 135q0 42 -31 87l121 59q47 -66 47 -133q0 -158 -189 -213v-930h-139l-14 156h-6q-154 -180 -328 -181q-305 0 -305 390zM494 -311q0 47 31.5 77.5t78.5 30.5t79 -30.5 t32 -77.5q0 -49 -32 -80t-79 -31t-78.5 31t-31.5 80z" />
<glyph unicode="&#x1ef2;" horiz-adv-x="964" d="M-8 1343h184l172 -378q88 -201 131 -293h8q12 27 60.5 131t73.5 162l174 378h176l-404 -823v-520h-170v520zM213 1675h193l180 -229h-142z" />
<glyph unicode="&#x1ef3;" horiz-adv-x="956" d="M25 995h174l202 -551q41 -115 97 -280h8q16 53 47 155.5t37 124.5l178 551h164l-375 -1077q-57 -164 -144 -255t-229 -91q-61 0 -116 20l32 134q47 -14 76 -15q154 0 225 213l23 74zM270 1462h176l185 -288h-129z" />
<glyph unicode="&#x1ef4;" horiz-adv-x="964" d="M-8 1343h184l172 -378q88 -201 131 -293h8q12 27 60.5 131t73.5 162l174 378h176l-404 -823v-520h-170v520zM375 -311q0 47 31.5 77.5t78.5 30.5q49 0 80 -30.5t31 -77.5q0 -49 -31 -80t-80 -31q-47 0 -78.5 31t-31.5 80z" />
<glyph unicode="&#x1ef5;" horiz-adv-x="956" d="M25 995h174l202 -551q41 -115 97 -280h8q16 53 47 155.5t37 124.5l178 551h164l-375 -1077q-57 -164 -144 -255t-229 -91q-61 0 -116 20l32 134q47 -14 76 -15q154 0 225 213l23 74zM692 -303q0 47 32 77.5t79 30.5t78.5 -30.5t31.5 -77.5q0 -49 -31.5 -81t-78.5 -32 t-79 32t-32 81z" />
<glyph unicode="&#x1ef6;" horiz-adv-x="964" d="M-8 1343h184l172 -378q88 -201 131 -293h8q12 27 60.5 131t73.5 162l174 378h176l-404 -823v-520h-170v520zM350 1688l19 98q283 -10 282 -166q0 -151 -227 -190l-18 77q115 33 114 95q0 80 -170 86z" />
<glyph unicode="&#x1ef7;" horiz-adv-x="956" d="M25 995h174l202 -551q41 -115 97 -280h8q16 53 47 155.5t37 124.5l178 551h164l-375 -1077q-57 -164 -144 -255t-229 -91q-61 0 -116 20l32 134q47 -14 76 -15q154 0 225 213l23 74zM367 1391l18 98q283 -10 283 -166q-1 -151 -228 -190l-18 77q115 33 115 95 q0 80 -170 86z" />
<glyph unicode="&#x1ef8;" horiz-adv-x="964" d="M-8 1343h184l172 -378q88 -201 131 -293h8q12 27 60.5 131t73.5 162l174 378h176l-404 -823v-520h-170v520zM186 1456q8 98 54.5 159.5t117.5 61.5q59 0 135 -53t109 -53q66 0 82 106h94q-10 -96 -56 -158.5t-116 -62.5q-57 0 -134 53.5t-110 53.5q-66 0 -83 -107h-93z " />
<glyph unicode="&#x1ef9;" horiz-adv-x="956" d="M25 995h174l202 -551q41 -115 97 -280h8q16 53 47 155.5t37 124.5l178 551h164l-375 -1077q-57 -164 -144 -255t-229 -91q-61 0 -116 20l32 134q47 -14 76 -15q154 0 225 213l23 74zM213 1186q8 96 51 156.5t115 60.5q57 0 131 -52.5t102 -52.5q57 0 76 105h94 q-8 -96 -51 -156.5t-115 -60.5q-55 0 -128.5 52t-104.5 52q-59 0 -74 -104h-96z" />
<glyph unicode="&#x2000;" horiz-adv-x="975" />
<glyph unicode="&#x2001;" horiz-adv-x="1950" />
<glyph unicode="&#x2002;" horiz-adv-x="975" />
<glyph unicode="&#x2003;" horiz-adv-x="1950" />
<glyph unicode="&#x2004;" horiz-adv-x="650" />
<glyph unicode="&#x2005;" horiz-adv-x="487" />
<glyph unicode="&#x2006;" horiz-adv-x="325" />
<glyph unicode="&#x2007;" horiz-adv-x="1017" />
<glyph unicode="&#x2008;" horiz-adv-x="243" />
<glyph unicode="&#x2009;" horiz-adv-x="390" />
<glyph unicode="&#x200a;" horiz-adv-x="108" />
<glyph unicode="&#x2010;" horiz-adv-x="636" d="M84 449v129h471v-129h-471z" />
<glyph unicode="&#x2011;" horiz-adv-x="636" d="M84 449v129h471v-129h-471z" />
<glyph unicode="&#x2012;" horiz-adv-x="1017" d="M84 457v116h852v-116h-852z" />
<glyph unicode="&#x2013;" horiz-adv-x="983" d="M84 457v116h815v-116h-815z" />
<glyph unicode="&#x2014;" horiz-adv-x="1638" d="M84 457v116h1470v-116h-1470z" />
<glyph unicode="&#x2015;" horiz-adv-x="1638" d="M84 457v116h1470v-116h-1470z" />
<glyph unicode="&#x2018;" horiz-adv-x="509" d="M117 1061q0 239 217 364l49 -79q-82 -53 -119 -111.5t-37 -142.5q6 2 19 2q45 0 76.5 -28t31.5 -77q0 -51 -29.5 -81.5t-78.5 -30.5q-61 0 -95 48t-34 136z" />
<glyph unicode="&#x2019;" horiz-adv-x="509" d="M129 961q80 53 117 111t37 145q-6 -2 -17 -3q-45 0 -76.5 28t-31.5 75q0 53 29.5 84t78.5 31q59 0 94 -49.5t35 -137.5q0 -235 -219 -362z" />
<glyph unicode="&#x201a;" horiz-adv-x="509" d="M129 -219q80 55 117 112.5t37 143.5q-6 -2 -17 -2q-45 0 -76.5 27.5t-31.5 74.5q0 53 29.5 84t78.5 31q59 0 94 -49t35 -137q0 -236 -219 -363z" />
<glyph unicode="&#x201c;" horiz-adv-x="872" d="M117 1061q0 239 217 364l49 -79q-82 -53 -119 -111.5t-37 -142.5q6 2 19 2q45 0 76.5 -28t31.5 -77q0 -51 -29.5 -81.5t-78.5 -30.5q-61 0 -95 48t-34 136zM477 1061q0 239 219 364l47 -79q-80 -53 -117.5 -111.5t-37.5 -142.5q6 2 18 2q45 0 77 -28t32 -77 q0 -51 -30 -81.5t-79 -30.5q-61 0 -95 48t-34 136z" />
<glyph unicode="&#x201d;" horiz-adv-x="872" d="M129 961q80 53 117 111t37 145q-6 -2 -17 -3q-45 0 -76.5 28t-31.5 75q0 53 29.5 84t78.5 31q59 0 94 -49.5t35 -137.5q0 -235 -219 -362zM489 961q80 53 118 111t38 145q-6 -2 -18 -3q-45 0 -77 28t-32 75q0 53 30 84t79 31q61 0 95 -49.5t34 -137.5q0 -237 -217 -362z " />
<glyph unicode="&#x201e;" horiz-adv-x="872" d="M129 -219q80 55 117 112.5t37 143.5q-6 -2 -17 -2q-45 0 -76.5 27.5t-31.5 74.5q0 53 29.5 84t78.5 31q59 0 94 -49t35 -137q0 -236 -219 -363zM489 -219q82 55 119 112.5t37 143.5q-6 -2 -18 -2q-45 0 -77 27.5t-32 74.5q0 53 30 84t79 31q61 0 95 -49t34 -137 q0 -238 -217 -363z" />
<glyph unicode="&#x2020;" horiz-adv-x="929" d="M111 995v146l292 -11l-10 328h144l-11 -328l293 11v-146l-293 11l11 -1170h-144l10 1170z" />
<glyph unicode="&#x2021;" horiz-adv-x="929" d="M111 154v145l292 -14l-10 362l10 363l-292 -15v146l292 -11l-10 328h144l-11 -328l293 11v-146l-293 15l11 -363l-11 -362l293 14v-145l-293 10l11 -328h-144l10 328z" />
<glyph unicode="&#x2022;" horiz-adv-x="622" d="M82 538.5q0 108.5 67.5 178t162 69.5t162 -69.5t67.5 -178t-67.5 -177t-162 -68.5t-162 68.5t-67.5 177z" />
<glyph unicode="&#x2026;" horiz-adv-x="1941" d="M193 102q0 57 35.5 94t87 37t86 -36.5t34.5 -94.5q0 -55 -35.5 -91t-85.5 -36q-51 0 -86.5 36t-35.5 91zM879 102q0 57 35.5 94t87 37t86 -36.5t34.5 -94.5q0 -55 -35.5 -91t-85.5 -36q-51 0 -86.5 36t-35.5 91zM1565 102q0 57 35.5 94t87 37t86 -36.5t34.5 -94.5 q0 -55 -35.5 -91t-84.5 -36q-51 0 -87 36t-36 91z" />
<glyph unicode="&#x202f;" horiz-adv-x="390" />
<glyph unicode="&#x2030;" horiz-adv-x="2445" d="M72 946q0 201 82 311.5t223 110.5q139 0 222 -111.5t83 -310.5q0 -201 -83 -313.5t-222 -112.5t-222 112.5t-83 313.5zM199 946q0 -156 48 -238.5t130 -82.5q80 0 128 83t48 238.5t-47 236.5t-129 81t-130 -80t-48 -238zM410 -25l741 1393h115l-742 -1393h-114zM1001 401 q0 199 83 310.5t222.5 111.5t222.5 -111.5t83 -310.5q0 -201 -83 -313.5t-222.5 -112.5t-222.5 113t-83 313zM1130 401.5q0 -155.5 48.5 -238.5t128.5 -83q82 0 130 83t48 238.5t-48 236.5t-130 81t-129.5 -81t-47.5 -236.5zM1763 401q0 199 83 310.5t222.5 111.5 t223.5 -111.5t84 -310.5q0 -201 -83.5 -313.5t-224.5 -112.5q-139 0 -222 113t-83 313zM1892 401.5q0 -155.5 48 -238.5t128 -83q82 0 130.5 83t48.5 238.5t-48.5 236.5t-130 81t-129 -81t-47.5 -236.5z" />
<glyph unicode="&#x2032;" horiz-adv-x="509" d="M166 889l47 524h166l-33 -205l-70 -319h-110z" />
<glyph unicode="&#x2033;" horiz-adv-x="872" d="M166 889l47 524h166l-33 -205l-70 -319h-110zM526 889l47 524h166l-30 -205l-72 -319h-111z" />
<glyph unicode="&#x2039;" horiz-adv-x="555" d="M92 453v127l279 317l73 -61l-241 -320l241 -323l-73 -58z" />
<glyph unicode="&#x203a;" horiz-adv-x="555" d="M111 193l241 323l-241 320l71 61l281 -317v-127l-281 -318z" />
<glyph unicode="&#x2044;" horiz-adv-x="176" d="M-342 -25l741 1393h115l-741 -1393h-115z" />
<glyph unicode="&#x205f;" horiz-adv-x="487" />
<glyph unicode="&#x2070;" horiz-adv-x="751" d="M72 1303q0 199 83 310t222 111t222 -111.5t83 -309.5q0 -201 -83 -313.5t-222 -112.5t-222 112.5t-83 313.5zM199 1302.5q0 -155.5 48 -238.5t130 -83q80 0 128 83t48 238.5t-47 236.5t-129 81t-130 -81t-48 -236.5z" />
<glyph unicode="&#x2071;" horiz-adv-x="339" d="M86 1399q0 35 24.5 57.5t61.5 22.5t61.5 -22.5t24.5 -57.5t-24.5 -57.5t-61.5 -22.5t-61.5 22.5t-24.5 57.5zM106 532v660h127v-660h-127z" />
<glyph unicode="&#x2074;" horiz-adv-x="751" d="M86 1114v68l336 518h147v-492h119v-94h-119v-213h-118v213h-365zM223 1208h228v144l8 223h-8l-103 -166z" />
<glyph unicode="&#x2075;" horiz-adv-x="751" d="M72 1032l88 68q82 -119 207 -119q72 0 117.5 50t45.5 126q0 80 -47 128t-121 48q-76 0 -151 -65l-64 47l37 385h437v-115h-328l-23 -194q74 31 129 30q113 0 188 -71.5t75 -196.5q0 -121 -82 -198.5t-205 -77.5q-192 -1 -303 155z" />
<glyph unicode="&#x2076;" horiz-adv-x="751" d="M92 1280q0 217 96.5 330.5t251.5 113.5q111 0 195 -61l-53 -92q-72 49 -138 49q-92 0 -154.5 -76t-72.5 -223q88 82 201 82q117 0 183.5 -69.5t66.5 -186.5q0 -115 -77 -192.5t-190 -77.5q-141 0 -225 107.5t-84 295.5zM217 1219q8 -115 57 -176.5t125 -61.5 q63 0 104.5 46t41.5 118q0 74 -40 118t-114 44q-92 0 -174 -88z" />
<glyph unicode="&#x2077;" horiz-adv-x="751" d="M102 1587v113h560v-74q-137 -176 -189.5 -337t-66.5 -388h-138q12 209 67.5 364.5t178.5 321.5h-412z" />
<glyph unicode="&#x2078;" horiz-adv-x="751" d="M92 1100q0 135 152 223v8q-119 78 -119 182q0 94 71.5 152.5t176.5 58.5q111 0 183.5 -58t72.5 -153q0 -111 -123 -192v-8q150 -76 149 -207q0 -96 -80.5 -162.5t-201.5 -66.5q-123 0 -202 65.5t-79 157.5zM215 1112q0 -55 45 -97t113 -42q66 0 112.5 40t46.5 97 q0 20 -5 37.5t-18 32t-23.5 23.5t-34 21.5t-37 17.5t-44 17.5t-44.5 18.5q-111 -66 -111 -166zM246 1511q0 -98 174 -153q86 66 86 151q0 51 -38 83t-95 32q-53 0 -90 -31.5t-37 -81.5z" />
<glyph unicode="&#x2079;" horiz-adv-x="751" d="M80 1454q0 115 75.5 192.5t188.5 77.5q143 0 227 -107.5t84 -295.5q0 -217 -96 -330.5t-252 -113.5q-108 0 -196 61l55 92q72 -49 137 -49q94 0 156.5 77t70.5 224q-88 -84 -200 -84q-117 0 -183.5 69.5t-66.5 186.5zM201 1456q0 -72 40.5 -117t112.5 -45q94 0 176 88 q-8 117 -57 177.5t-127 60.5q-63 0 -104 -46t-41 -118z" />
<glyph unicode="&#x207d;" horiz-adv-x="485" d="M133 1300q0 301 180 558l93 -46q-145 -223 -145.5 -511.5t145.5 -516.5l-93 -45q-180 256 -180 561z" />
<glyph unicode="&#x207e;" horiz-adv-x="485" d="M80 784q145 227 145 516t-145 512l96 46q176 -260 176 -558q0 -301 -176 -561z" />
<glyph unicode="&#x207f;" horiz-adv-x="755" d="M106 532v660h101l12 -94h8q102 111 222 110q209 0 208 -260v-416h-127v398q0 86 -25.5 128t-96.5 42q-78 0 -175 -96v-472h-127z" />
<glyph unicode="&#x2080;" horiz-adv-x="751" d="M72 -24.5q0 200.5 82 311t223 110.5q139 0 222 -111.5t83 -310.5q0 -201 -83 -313.5t-222 -112.5t-222 113t-83 313.5zM199 -25q0 -156 48 -238.5t130 -82.5q80 0 128 83t48 238.5t-47 236.5t-129 81t-130 -80t-48 -238z" />
<glyph unicode="&#x2081;" horiz-adv-x="751" d="M178 205v86q117 20 199 82h106v-799h-131v631h-174z" />
<glyph unicode="&#x2082;" horiz-adv-x="751" d="M82 244q104 154 266 153q123 0 194.5 -66.5t71.5 -191.5q0 -55 -18 -106t-70.5 -117t-86 -102.5t-122.5 -126.5h338v-113h-549v76q211 190 295 288.5t84 182.5q0 76 -41 121t-112 45q-94 0 -172 -115z" />
<glyph unicode="&#x2083;" horiz-adv-x="751" d="M72 -293l88 66q82 -119 202 -119q68 0 114 39t46 104q0 68 -64.5 105t-183.5 37v84q100 0 159 40.5t59 104.5q0 57 -40 91t-106 34q-86 0 -162 -96l-80 69q115 131 263 131q106 0 180 -58t74 -155q0 -133 -140 -196q74 -20 123 -71.5t49 -127.5q0 -109 -82 -174.5 t-202 -65.5q-188 0 -297 158z" />
<glyph unicode="&#x2084;" horiz-adv-x="751" d="M86 -145l336 518h147v-492h119v-94h-119v-213h-118v213h-365v68zM223 -119h228v146l8 221h-8l-103 -166z" />
<glyph unicode="&#x2085;" horiz-adv-x="751" d="M72 -293l88 66q84 -119 207 -119q70 0 116.5 50t46.5 126q0 82 -46 129t-122 47q-74 0 -151 -63l-64 45l37 385h437v-115h-328l-23 -195q66 31 129 31q113 0 188 -71.5t75 -196.5q0 -121 -82 -199t-205 -78q-192 0 -303 158z" />
<glyph unicode="&#x2086;" horiz-adv-x="751" d="M92 -47q0 217 96.5 330.5t251.5 113.5q115 0 195 -61l-53 -90q-70 47 -138 47q-94 0 -155.5 -76t-71.5 -223q84 82 201 82t183.5 -69.5t66.5 -184.5t-77 -194t-190 -79q-141 0 -225 107.5t-84 296.5zM217 -106q8 -117 57 -178.5t125 -61.5q63 0 104.5 46t41.5 118 q0 74 -40 119t-114 45q-88 0 -174 -88z" />
<glyph unicode="&#x2087;" horiz-adv-x="751" d="M102 262v111h560v-72q-137 -176 -189.5 -338t-66.5 -389h-138q12 209 67.5 365.5t178.5 322.5h-412z" />
<glyph unicode="&#x2088;" horiz-adv-x="751" d="M92 -225q0 137 152 221v8q-119 80 -119 184q0 92 71.5 150.5t176.5 58.5q111 0 183.5 -57t72.5 -152q0 -113 -123 -194v-8q150 -74 149 -207q0 -96 -80.5 -163t-201.5 -67q-123 0 -202 66t-79 160zM215 -213q0 -57 44 -99t114 -42q66 0 112.5 41t46.5 98q0 20 -5 37.5 t-18 32t-22.5 23.5t-35 21.5t-37 16.5t-45 17.5t-43.5 17.5q-111 -64 -111 -164zM246 184q0 -55 45 -89.5t129 -63.5q86 68 86 151q0 53 -38 85t-95 32q-53 0 -90 -33t-37 -82z" />
<glyph unicode="&#x2089;" horiz-adv-x="751" d="M80 127q0 115 75.5 192.5t188.5 77.5q143 0 227 -106.5t84 -294.5q0 -217 -96 -332t-252 -115q-110 1 -196 64l55 90q72 -49 137 -49q92 0 154.5 76.5t72.5 224.5q-88 -82 -200 -82q-117 0 -183.5 69.5t-66.5 184.5zM201 131q0 -74 40.5 -119t112.5 -45q90 0 176 88 q-8 117 -57 177.5t-127 60.5q-63 0 -104 -45t-41 -117z" />
<glyph unicode="&#x208d;" horiz-adv-x="485" d="M133 -27q0 166 44 296t136 263l93 -47q-145 -223 -145.5 -511.5t145.5 -514.5l-93 -45q-180 256 -180 559z" />
<glyph unicode="&#x208e;" horiz-adv-x="485" d="M80 485l96 47q176 -262 176 -559q0 -299 -176 -559l-96 45q145 225 145 514t-145 512z" />
<glyph unicode="&#x2094;" horiz-adv-x="688" d="M51 827q0 31 8 72h445q-4 96 -53.5 151.5t-139.5 55.5q-84 0 -166 -51l-47 80q111 74 221 73q141 0 225.5 -92t84.5 -254q0 -156 -86 -251t-215 -95q-143 0 -210 94.5t-67 216.5zM164 815q0 -88 40 -142.5t122 -54.5q78 0 125 50.5t53 146.5h-340z" />
<glyph unicode="&#x20a1;" horiz-adv-x="1017" d="M125 651q0 270 108.5 445.5t298.5 220.5l25 215h78l-25 -203q14 2 45 2q41 0 74 -8l25 209h77l-28 -234q96 -45 166 -135l-101 -94q-39 49 -82 80l-122 -1036q119 14 217 143l98 -90q-139 -178 -332 -191l-24 -200h-78l24 202q-57 6 -116 29l-27 -231h-78l33 268 q-121 78 -188.5 235.5t-67.5 372.5zM299 657q0 -276 104 -426l111 934q-215 -109 -215 -508zM471 160q51 -37 115 -45l127 1073q-41 8 -61.5 8t-57.5 -4z" />
<glyph unicode="&#x20a4;" horiz-adv-x="1017" d="M109 481v90l141 11h65q-18 76 -34 120h-172v91l124 10h19q-25 88 -25 151q0 172 104.5 274.5t276.5 102.5q193 0 318 -153l-99 -97q-88 109 -206 109q-109 0 -168.5 -65.5t-59.5 -174.5q0 -66 21 -147h354v-101h-328q20 -63 29 -120h299v-101h-289v-12q0 -184 -127 -315 v-9h576v-145h-817v102q102 55 159.5 153.5t57.5 215.5v10h-219z" />
<glyph unicode="&#x20a6;" horiz-adv-x="1017" d="M23 492v77l153 11v122h-153v76l153 10v519h172l182 -519h179v519h133v-519h147v-86h-147v-122h147v-88h-147v-492h-172l-172 492h-189v-492h-133v492h-153zM276 1153l25 -365h96l-112 365h-9zM307 702l2 -45v-77h158l-43 120v2h-117zM561 702l33 -94l8 -28h111l-4 69v53 h-148zM629 492l104 -340h8l-22 340h-90z" />
<glyph unicode="&#x20a7;" horiz-adv-x="1017" d="M20 854v104l150 11v338h248q193 0 310.5 -81t135.5 -257h127v-115h-127q-18 -174 -139 -264t-307 -90h-86v-500h-162v854h-150zM332 616h65q276 0 305 238h-370v-238zM332 969h370q-29 221 -305 221h-65v-221z" />
<glyph unicode="&#x20ab;" horiz-adv-x="1017" d="M139 612q0 164 99.5 265.5t234.5 101.5q117 0 223 -94l-8 170v69h-299v101h299v137h143v-137h160v-90l-160 -11v-878h-118l-13 88h-6q-104 -109 -233 -109q-150 0 -236 101.5t-86 285.5zM162 0v100h735v-100h-735zM289 614q0 -127 53 -197.5t147 -70.5q105 0 199 109v317 q-96 84 -190 84q-86 0 -147.5 -69.5t-61.5 -172.5z" />
<glyph unicode="&#x20ac;" horiz-adv-x="1017" d="M47 481v88l121 9q-2 25 -2 73q0 45 2 66h-121v90l131 10q35 242 169 378t335 136q178 0 305 -160l-100 -96q-96 121 -211 121q-133 0 -217 -99.5t-109 -279.5h520v-100h-528q-2 -18 -2 -60q0 -53 2 -77h446v-99h-436q27 -176 107 -273t205 -97q135 0 241 145l101 -90 q-145 -190 -353 -191q-186 0 -313 134.5t-162 371.5h-131z" />
<glyph unicode="&#x20b1;" horiz-adv-x="1017" d="M20 772v74l150 10v121h-150v76l150 8v246h248q348 0 428 -246h145v-84h-129q4 -41 4 -68q0 -37 -2 -53h127v-84h-143q-39 -135 -153.5 -203.5t-276.5 -68.5h-86v-500h-162v772h-150zM332 616h65q219 0 285 156h-350v-156zM332 856h370q4 33 5 53q0 27 -5 68h-370v-121z M332 1061h346q-64 129 -281 129h-65v-129z" />
<glyph unicode="&#x20b2;" horiz-adv-x="1017" d="M96 651q0 283 117 461t317 213v207h123v-203q160 -14 283 -162l-100 -94q-102 123 -222 123q-166 0 -256 -144.5t-90 -394.5q0 -254 88 -398t244 -144q121 0 188 75v347h-206v141h360v-553q-121 -127 -289 -145v-205h-123v205q-197 25 -315.5 202.5t-118.5 468.5z" />
<glyph unicode="&#x20b5;" horiz-adv-x="1017" d="M125 651q0 285 120 464t326 210v201h107v-195q164 -12 283 -160l-101 -96q-80 109 -182 119v-1079q111 20 203 141l98 -90q-127 -164 -301 -186v-205h-107v202q-203 20 -324.5 199.5t-121.5 474.5zM299 657q0 -229 71.5 -371t200.5 -169v1069q-131 -33 -201.5 -171 t-70.5 -358z" />
<glyph unicode="&#x20b9;" horiz-adv-x="1017" d="M147 516v137h146q309 0 328 242h-474v90l142 10h327q-39 172 -323 172h-146v140h777v-101h-291q123 -66 151 -211h140v-100h-136q-8 -150 -91 -240t-220 -123l385 -532h-192l-365 516h-158z" />
<glyph unicode="&#x20ba;" horiz-adv-x="1017" d="M47 436v109l189 98v148l-189 -99v107l189 100v408h172v-324l335 176v-108l-335 -177v-147l335 176v-106l-335 -179v-483q152 6 274.5 96.5t122.5 239.5q0 49 -10 88l143 37q14 -66 14 -117q0 -250 -198.5 -380t-517.5 -124v560z" />
<glyph unicode="&#x2113;" horiz-adv-x="837" d="M43 358q109 72 176 125v547q0 227 82 336t217 109q119 0 192.5 -84t73.5 -234q0 -367 -399 -704v-72q0 -135 50 -198.5t132 -63.5q95 0 189 90l67 -105q-141 -129 -278 -129q-133 0 -225.5 91.5t-100.5 259.5q-35 -25 -108 -74zM385 629q256 260 256 528q0 188 -119 189 q-59 0 -98 -73t-39 -214v-430z" />
<glyph unicode="&#x2117;" horiz-adv-x="1521" d="M100 662q0 303 192.5 489t469 186t469 -186t192.5 -489q0 -305 -192.5 -495t-469 -190t-469 190t-192.5 495zM197 662q0 -264 163.5 -431.5t401 -167.5t401.5 167t164 432q0 262 -164 426.5t-401.5 164.5t-401 -164.5t-163.5 -426.5zM518 281v743h283q135 0 219 -60.5 t84 -179.5q0 -129 -85 -198.5t-218 -69.5h-150v-235h-133zM651 618h127q193 0 193 162q0 139 -193 140h-127v-302z" />
<glyph unicode="&#x2120;" horiz-adv-x="1304" d="M55 823l68 76q82 -78 172 -78q100 0 100 80q0 37 -17.5 53.5t-70.5 40.5l-96 47q-123 61 -123 177q0 80 59.5 130t155.5 50q109 0 195 -78l-60 -80q-80 61 -141 62q-45 0 -70.5 -23t-25.5 -55q0 -49 86 -88l94 -47q129 -55 129 -179q0 -76 -62.5 -131t-160.5 -55 q-133 0 -232 98zM635 750v634h153l95 -229l55 -162h8l55 162l93 229h151v-634h-117v280l13 215h-8l-146 -397h-92l-147 397h-9l15 -215v-280h-119z" />
<glyph unicode="&#x2122;" horiz-adv-x="1304" d="M6 1274v110h531v-110h-205v-524h-123v524h-203zM635 750v634h153l95 -229l55 -162h8l55 162l93 229h151v-634h-117v280l13 215h-8l-146 -397h-92l-147 397h-9l15 -215v-280h-119z" />
<glyph unicode="&#x2126;" horiz-adv-x="1404" d="M88 0v139h272v8q-244 240 -243 574q0 299 159.5 477t426 178t426 -178t159.5 -477q0 -334 -244 -574v-8h273v-139h-488v115q283 213 283 600q0 231 -110.5 371.5t-299.5 140.5q-190 0 -299.5 -139.5t-109.5 -372.5q0 -387 282 -600v-115h-487z" />
<glyph unicode="&#x212e;" horiz-adv-x="1638" d="M94 663.5q0 286.5 212 487.5t513 201t513 -201t212 -487v-17h-1175q-8 0 -9 -8v-377q1 -16 17 -41q178 -205 446 -205q135 0 257 61.5t210 168.5h107q-104 -125 -255 -198t-323 -73q-301 0 -513 201t-212 487.5zM360 696q1 -12 9 -12h901q12 0 12 12v377q0 25 -20 45 q-186 193 -439 193q-260 0 -446 -201q-16 -25 -17 -45v-369z" />
<glyph unicode="&#x2153;" horiz-adv-x="1646" d="M129 1176v86q115 20 197 81h108v-798h-131v631h-174zM315 -25l742 1393h114l-741 -1393h-115zM969 131l86 68q80 -119 202 -119q68 0 114 38t46 105.5t-64.5 104.5t-183.5 37v84q100 0 158.5 39.5t58.5 103.5q0 57 -39.5 92t-105.5 35q-84 0 -162 -96l-78 69 q111 131 261 131q106 0 181 -58t75 -157q0 -129 -142 -196q74 -18 123 -69.5t49 -127.5q0 -109 -82 -174.5t-200 -65.5q-94 0 -172 43t-125 113z" />
<glyph unicode="&#x2154;" horiz-adv-x="1681" d="M82 1214q109 154 268 154q123 0 194.5 -66.5t71.5 -191.5q0 -55 -18 -106.5t-70.5 -117t-86 -102t-122.5 -127.5h338v-112h-548v76q213 190 295.5 287.5t82.5 183.5q0 76 -42 120.5t-111 44.5q-92 0 -172 -114zM418 -25l741 1393h115l-742 -1393h-114zM1001 131l86 68 q80 -119 203 -119q70 0 115 38t45 105q0 141 -248 142v84q100 0 158.5 39.5t58.5 103.5q0 57 -39 92t-104 35q-82 0 -164 -96l-78 69q111 131 260 131q109 0 182.5 -58t73.5 -157q0 -131 -141 -196q74 -18 123 -69.5t49 -127.5q0 -109 -81 -174.5t-202 -65.5 q-191 0 -297 156z" />
<glyph unicode="&#x215b;" horiz-adv-x="1646" d="M129 1176v86q115 20 197 81h108v-798h-131v631h-174zM336 -25l741 1393h115l-741 -1393h-115zM987 199q0 135 152 223v8q-119 78 -119 182q0 94 71.5 152.5t178.5 58.5q109 0 181.5 -58t72.5 -153q0 -109 -121 -192v-8q147 -78 147 -207q0 -96 -80.5 -163t-199.5 -67 q-125 0 -204 66t-79 158zM1110 211q0 -55 45 -97t115 -42q66 0 111.5 40t45.5 97q0 20 -5 37.5t-18 32t-23.5 23.5t-34 21.5t-37 17.5t-44 17.5t-44.5 18.5q-111 -66 -111 -166zM1141 610q0 -98 174 -153q86 66 86 151q0 51 -38 83t-95 32q-53 0 -90 -32t-37 -81z" />
<glyph unicode="&#x215c;" horiz-adv-x="1681" d="M72 678l88 65q80 -119 202 -118q68 0 114 38.5t46 104.5q0 68 -64.5 104.5t-183.5 36.5v84q100 0 159 40t59 104q0 57 -40 92t-106 35q-86 0 -162 -97l-80 70q115 131 263 131q106 0 180 -58.5t74 -156.5q0 -131 -140 -195q74 -20 123 -71t49 -127q0 -109 -82 -174.5 t-202 -65.5q-188 0 -297 158zM410 -25l741 1393h115l-742 -1393h-114zM1020 199q0 135 151 223v8q-119 78 -118 182q0 94 71.5 152.5t178.5 58.5q111 0 182 -58t71 -153q0 -109 -120 -192v-8q147 -78 147 -207q0 -96 -81 -163t-199 -67q-125 0 -204 66t-79 158zM1143 211 q0 -55 45 -97t115 -42q66 0 111.5 40t45.5 97q0 20 -5 37.5t-18.5 32t-23.5 23.5t-33.5 21.5t-37 17.5t-44 17.5t-45.5 18.5q-110 -66 -110 -166zM1176 610q0 -57 45 -91.5t129 -61.5q86 68 86 151q0 51 -38 83t-95 32q-53 0 -90 -32t-37 -81z" />
<glyph unicode="&#x215d;" horiz-adv-x="1681" d="M72 678l88 65q82 -119 207 -118q70 0 116.5 50t46.5 126q0 82 -46 129t-122 47q-74 0 -151 -64l-64 45l37 385h437v-114h-328l-23 -195q66 31 129 31q113 0 188 -71.5t75 -196.5q0 -121 -82 -199t-205 -78q-192 0 -303 158zM410 -25l741 1393h115l-742 -1393h-114z M1020 199q0 135 151 223v8q-119 78 -118 182q0 94 71.5 152.5t178.5 58.5q111 0 182 -58t71 -153q0 -109 -120 -192v-8q147 -78 147 -207q0 -96 -81 -163t-199 -67q-125 0 -204 66t-79 158zM1143 211q0 -55 45 -97t115 -42q66 0 111.5 40t45.5 97q0 20 -5 37.5t-18.5 32 t-23.5 23.5t-33.5 21.5t-37 17.5t-44 17.5t-45.5 18.5q-110 -66 -110 -166zM1176 610q0 -57 45 -91.5t129 -61.5q86 68 86 151q0 51 -38 83t-95 32q-53 0 -90 -32t-37 -81z" />
<glyph unicode="&#x215e;" horiz-adv-x="1640" d="M61 1233v110h560v-71q-137 -176 -189.5 -338t-66.5 -389h-138q12 209 67.5 365.5t178.5 322.5h-412zM307 -25l742 1393h114l-741 -1393h-115zM979 199q0 135 151 223v8q-119 78 -118 182q0 94 71.5 152.5t178.5 58.5q111 0 182.5 -58t71.5 -153q0 -109 -121 -192v-8 q147 -78 147 -207q0 -96 -81 -163t-199 -67q-125 0 -204 66t-79 158zM1102 211q0 -55 45 -97t115 -42q66 0 111.5 40t45.5 97q0 20 -5 37.5t-18.5 32t-23.5 23.5t-33.5 21.5t-37 17.5t-44 17.5t-45.5 18.5q-110 -66 -110 -166zM1135 610q0 -57 45 -91.5t129 -61.5 q86 68 86 151q0 51 -38 83t-95 32q-53 0 -90 -32t-37 -81z" />
<glyph unicode="&#x2190;" horiz-adv-x="1267" d="M53 512v8l559 543l86 -94l-411 -383h899v-140h-899l411 -383l-86 -94z" />
<glyph unicode="&#x2191;" horiz-adv-x="1267" d="M86 522l543 557h8l545 -557l-97 -86l-383 412v-899h-139v899l-383 -412z" />
<glyph unicode="&#x2192;" horiz-adv-x="1267" d="M80 446v140h897l-412 383l88 94l557 -543v-8l-557 -543l-88 94l412 383h-897z" />
<glyph unicode="&#x2193;" horiz-adv-x="1267" d="M86 508l94 86l383 -412v897h139v-897l383 412l97 -86l-545 -559h-8z" />
<glyph unicode="&#x2202;" horiz-adv-x="1081" d="M82 369q0 207 120 334.5t324 127.5q178 0 305 -147q2 23 3 68q0 485 -287 485q-130 0 -230 -104l-77 106q137 137 323 137q203 0 318.5 -159.5t115.5 -468.5q0 -346 -149.5 -559.5t-392.5 -213.5q-154 0 -263.5 109t-109.5 285zM242 379q0 -119 66.5 -191.5t162.5 -72.5 q133 0 224 111.5t124 314.5q-125 156 -278 155q-145 0 -222 -88t-77 -229z" />
<glyph unicode="&#x2206;" horiz-adv-x="1212" d="M61 0v102l447 1250h197l448 -1250v-102h-1092zM254 145h707l-218 621l-131 410h-8l-133 -410z" />
<glyph unicode="&#x220f;" horiz-adv-x="1378" d="M182 -246v1553h1016v-1553h-174v1403h-672v-1403h-170z" />
<glyph unicode="&#x2211;" horiz-adv-x="1032" d="M45 -137l487 667l-464 668v109h901v-146h-690v-8l434 -621l-455 -624v-8h768v-146h-981v109z" />
<glyph unicode="&#x2212;" horiz-adv-x="1017" d="M70 612v127h878v-127h-878z" />
<glyph unicode="&#x2215;" horiz-adv-x="176" d="M-342 -25l741 1393h115l-741 -1393h-115z" />
<glyph unicode="&#x2219;" horiz-adv-x="1028" d="M385 666q0 57 35 93t86 36t87 -36t36 -93q0 -55 -36 -91t-87 -36t-86 36t-35 91z" />
<glyph unicode="&#x221a;" horiz-adv-x="1140" d="M84 709l272 120l238 -708q12 -37 35 -131h8q4 20 12 65t13 66l364 1558h123l-444 -1874h-130l-307 877l-145 -66z" />
<glyph unicode="&#x221e;" horiz-adv-x="1601" d="M82 664q0 160 94 255t240 95q186 0 348 -215h8q184 248 397 248q152 0 251.5 -101.5t99.5 -257.5q0 -174 -99.5 -280.5t-253.5 -106.5q-123 0 -218 62.5t-195 187.5h-9q-53 -59 -88.5 -95t-111.5 -76t-154 -40q-127 0 -218 95t-91 229zM213 670q0 -86 56.5 -143.5 t138.5 -57.5q150 0 274 188q-143 195 -279 195q-84 0 -137 -49t-53 -133zM834 696q92 -121 168.5 -178t166.5 -57q100 0 158.5 64.5t58.5 156.5q0 104 -62 168.5t-171 64.5q-163 0 -319 -219z" />
<glyph unicode="&#x222b;" horiz-adv-x="679" d="M106 -309l21 127q23 -8 70 -8q82 0 109.5 76.5t27.5 250.5q0 150 -43 505t-43 507q0 223 60.5 345t223.5 122q63 0 97 -12l-21 -127q-37 8 -71 8q-80 0 -107 -79t-27 -253q0 -147 42 -501.5t42 -506.5q0 -227 -60 -348t-222 -121q-66 0 -99 15z" />
<glyph unicode="&#x2248;" horiz-adv-x="1017" d="M74 422q104 184 256 184q70 0 135 -44t122.5 -87t104.5 -43q90 0 158 125l94 -70q-106 -182 -256 -182q-70 0 -135.5 44t-122.5 87t-104 43q-90 0 -158 -125zM74 860q104 186 256 187q70 0 135 -44.5t122.5 -87.5t104.5 -43q90 0 158 125l94 -69q-106 -182 -256 -183 q-70 0 -135.5 44.5t-122.5 87.5t-104 43q-90 0 -158 -125z" />
<glyph unicode="&#x2260;" horiz-adv-x="1017" d="M70 393v127h284l187 311h-471v127h544l156 261h123l-156 -261h211v-127h-284l-187 -311h471v-127h-545l-155 -260h-123l156 260h-211z" />
<glyph unicode="&#x2264;" horiz-adv-x="1017" d="M70 0v127h878v-127h-878zM70 627v151l878 314v-146l-430 -149l-276 -90v-9l276 -90l430 -149v-146z" />
<glyph unicode="&#x2265;" horiz-adv-x="1017" d="M70 0v127h878v-127h-878zM70 313v146l430 149l276 90v9l-276 90l-430 149v146l878 -314v-151z" />
<glyph unicode="&#x25a0;" horiz-adv-x="626" d="M111 332v416h405v-416h-405z" />
<glyph unicode="&#x25b2;" horiz-adv-x="1169" d="M47 78v4l535 1012h8l532 -1012v-4h-1075z" />
<glyph unicode="&#x25b3;" horiz-adv-x="1169" d="M47 78v4l535 1012h8l532 -1012v-4h-1075zM260 197h653l-327 641z" />
<glyph unicode="&#x25b6;" horiz-adv-x="1169" d="M117 39v1075h4l1012 -532v-9l-1012 -534h-4z" />
<glyph unicode="&#x25b7;" horiz-adv-x="1169" d="M117 39v1075h4l1012 -532v-9l-1012 -534h-4zM238 250l634 328l-634 325v-653z" />
<glyph unicode="&#x25bc;" horiz-adv-x="1169" d="M47 1071v4h1075v-4l-532 -1010h-8z" />
<glyph unicode="&#x25bd;" horiz-adv-x="1169" d="M47 1071v4h1075v-4l-532 -1012h-8zM260 956l326 -643l327 643h-653z" />
<glyph unicode="&#x25c0;" horiz-adv-x="1169" d="M37 573v9l1012 532h4v-1075h-4z" />
<glyph unicode="&#x25c1;" horiz-adv-x="1169" d="M37 573v9l1012 532h4v-1075h-4zM297 578l633 -328v653z" />
<glyph unicode="&#x25c6;" horiz-adv-x="626" d="M25 539l288 286l287 -286l-287 -287z" />
<glyph unicode="&#x25c9;" horiz-adv-x="909" d="M84 539q0 168 107.5 272t263 104t263 -103t107.5 -273t-107.5 -273.5t-263 -103.5t-263 104.5t-107.5 272.5zM193 539q0 -125 76.5 -201t185 -76t186.5 76t78 201q0 127 -78 202.5t-186.5 75.5t-185 -75.5t-76.5 -202.5zM338 539q0 53 34 88t83 35t83.5 -35t34.5 -88.5 t-34.5 -89t-83.5 -35.5t-83 34.5t-34 90.5z" />
<glyph unicode="&#x25ca;" horiz-adv-x="1058" d="M115 676l338 696h153l338 -696l-338 -696h-153zM264 676l133 -283l129 -272h9l127 272l133 283l-133 280l-127 275h-9l-129 -275z" />
<glyph unicode="&#x2610;" horiz-adv-x="1636" d="M152 -20v1290l124 104h1209v-1270l-109 -124h-1224zM240 68h1091v1155h-1091v-1155z" />
<glyph unicode="&#x2611;" horiz-adv-x="1636" d="M152 -20v1290l124 104h1041q98 129 223 254l109 -102q-84 -78 -164 -170v-1252l-109 -124h-1224zM240 68h1091v1091q-299 -418 -440 -926l-176 -20q-104 295 -287 567l115 78q160 -252 241 -506h9q133 451 415 871h-968v-1155z" />
<glyph unicode="&#x266a;" horiz-adv-x="1030" d="M59 106q0 96 92.5 168t231.5 72q86 0 123 -24v1099h102q14 -41 40 -65.5t104 -81.5q133 -94 183 -186.5t50 -215.5q0 -133 -65 -268l-72 27q27 86 26 188q0 100 -68.5 185.5t-187.5 121.5v-833q0 -162 -101 -252t-251 -90q-88 0 -147.5 40.5t-59.5 114.5z" />
<glyph unicode="&#x2713;" horiz-adv-x="1253" d="M0 563l115 78q172 -258 270 -543h8q109 362 313.5 713.5t444.5 589.5l111 -103q-252 -236 -458 -576.5t-319 -741.5l-176 -21q-121 332 -309 604z" />
<glyph unicode="&#x2752;" horiz-adv-x="770" d="M111 250v459l120 100h428v-440l-100 -119h-448zM188 324h324v338h-324v-338z" />
<glyph unicode="&#xe000;" horiz-adv-x="995" d="M0 995h995v-995h-995v995z" />
<glyph unicode="&#xfb01;" horiz-adv-x="1138" d="M61 858v127l136 10v158q0 156 72.5 243t217.5 87q86 0 166 -33l-37 -129q-55 25 -112 25q-139 0 -139 -193v-158h210v-137h-210v-858h-168v858h-136zM772 1309q0 49 34 78.5t83 29.5t82 -29.5t33 -78.5q0 -47 -33 -78t-82 -31t-83 31t-34 78zM803 0v995h168v-995h-168z " />
<glyph unicode="&#xfb02;" horiz-adv-x="1120" d="M61 858v127l136 10v158q0 156 72.5 243t217.5 87q86 0 166 -33l-37 -129q-55 25 -112 25q-139 0 -139 -193v-158h210v-137h-210v-858h-168v858h-136zM766 201v1257h168v-1270q0 -74 47 -73q19 0 37 4l22 -127q-39 -16 -96 -17q-178 0 -178 226z" />
<glyph horiz-adv-x="1253" d="M100 672q0 319 173 507.5t448 188.5q223 0 385 -166l-98 -108q-119 125 -285 125q-205 0 -326 -146.5t-121 -396.5q0 -256 117 -403.5t330 -147.5q158 0 244 80v350h-285v141h440v-565q-160 -156 -417 -156q-268 0 -436.5 186.5t-168.5 510.5zM424 1456q8 98 54 159.5 t118 61.5q59 0 135 -53t109 -53q66 0 82 106h94q-10 -96 -56 -158.5t-118 -62.5q-57 0 -133 53.5t-109 53.5q-66 0 -84 -107h-92z" />
<glyph horiz-adv-x="1032" d="M92 -190q0 127 146 225v8q-88 55 -88 162q0 111 108 184v8q-129 104 -129 269q0 158 108.5 256t266.5 98q78 0 141 -25h346v-129h-205q82 -78 82 -204q0 -156 -104.5 -251.5t-259.5 -95.5q-80 0 -150 35q-63 -55 -63 -119q0 -109 176 -108h192q176 0 262.5 -57.5 t86.5 -180.5q0 -143 -139.5 -243.5t-364.5 -100.5q-186 0 -299 71t-113 198zM205 1186q10 98 52 157.5t116 59.5q55 0 130 -52.5t103 -52.5q58 0 74 105h96q-10 -98 -52 -157.5t-116 -59.5q-55 0 -128.5 52t-102.5 52q-57 0 -76 -104h-96zM240 -168q0 -80 76.5 -127 t211.5 -47q137 0 226.5 60.5t89.5 142.5q0 68 -50.5 95.5t-150.5 27.5h-172q-72 0 -129 16q-102 -74 -102 -168zM293 665.5q0 -106.5 61.5 -172t149.5 -65.5t149.5 65.5t61.5 172t-60.5 169t-150.5 62.5t-150.5 -62.5t-60.5 -169z" />
<glyph horiz-adv-x="503" d="M78 -248q0 117 131 248h-41v995h168v-995q-133 -96 -133 -215q0 -45 27.5 -69.5t68.5 -24.5q39 0 82 26l43 -84q-70 -55 -160 -55q-82 0 -134 45t-52 129z" />
<glyph horiz-adv-x="704" d="M94 0v145h172v1055h-172v143h512v-143h-170v-1055h170v-145h-512z" />
<glyph horiz-adv-x="704" d="M84 1675h192l181 -229h-142zM94 0v145h172v1055h-172v143h512v-143h-170v-1055h170v-145h-512z" />
<glyph horiz-adv-x="704" d="M94 0v145h172v1055h-172v143h512v-143h-170v-1055h170v-145h-512zM248 1446l180 229h193l-232 -229h-141z" />
<glyph horiz-adv-x="704" d="M74 1446l196 229h164l197 -229h-137l-138 139h-8l-137 -139h-137zM94 0v145h172v1055h-172v143h512v-143h-170v-1055h170v-145h-512z" />
<glyph horiz-adv-x="704" d="M55 1456q10 98 56.5 159.5t117.5 61.5q57 0 133 -53t111 -53q66 0 82 106h94q-10 -96 -56 -158.5t-118 -62.5q-57 0 -133 53.5t-111 53.5q-66 0 -81 -107h-95zM94 0v145h172v1055h-172v143h512v-143h-170v-1055h170v-145h-512z" />
<glyph horiz-adv-x="704" d="M76 1565q0 45 27.5 72.5t72.5 27.5q43 0 71.5 -27.5t28.5 -72.5q0 -43 -28.5 -72t-71.5 -29q-45 0 -72.5 29t-27.5 72zM94 0v145h172v1055h-172v143h512v-143h-170v-1055h170v-145h-512zM428 1565q0 45 28.5 72.5t71.5 27.5q45 0 73 -27.5t28 -72.5q0 -43 -28 -72 t-73 -29q-43 0 -71.5 29t-28.5 72z" />
<glyph horiz-adv-x="704" d="M94 0v145h172v1055h-172v143h512v-143h-170v-1055h170v-145h-512zM98 1493v117h508v-117h-508z" />
<glyph horiz-adv-x="704" d="M94 0v145h172v1055h-172v143h512v-143h-170v-1055h170v-145h-512zM236 1573q0 47 33.5 77.5t82.5 30.5t83 -30.5t34 -77.5q0 -49 -34 -80t-83 -31t-82.5 31t-33.5 80z" />
<glyph horiz-adv-x="704" d="M74 1675h137l137 -139h8l138 139h137l-197 -229h-164zM94 0v145h172v1055h-172v143h512v-143h-170v-1055h170v-145h-512z" />
<glyph horiz-adv-x="704" d="M94 0v145h172v1055h-172v143h512v-143h-170v-1055h170v-145h-512zM221 1688l19 98q283 -10 282 -166q0 -151 -227 -190l-19 77q115 33 115 95q0 80 -170 86z" />
<glyph horiz-adv-x="704" d="M94 0v145h172v1055h-172v143h512v-143h-170v-1055h170v-145h-512zM244 -311q0 47 31.5 77.5t78.5 30.5t79 -30.5t32 -77.5q0 -49 -32 -80t-79 -31t-78.5 31t-31.5 80z" />
<glyph horiz-adv-x="704" d="M94 0v145h172v1055h-172v143h512v-143h-170v-1055h170v-145h-178q-129 -102 -129 -219q0 -45 28.5 -69.5t69.5 -24.5q43 0 82 28l47 -92q-72 -57 -164 -57q-84 0 -139 47t-55 131q0 143 139 256h-213z" />
<glyph horiz-adv-x="1136" d="M96 496q0 233 128 378.5t306 145.5q145 0 283 -121h4l14 96h138v-995h-140l-14 117h-6q-145 -141 -301 -142q-190 0 -301 137.5t-111 383.5zM270 498q0 -178 73 -279.5t202 -101.5q131 0 254 137v520q-117 104 -242 105q-121 0 -204 -106.5t-83 -274.5z" />
<glyph horiz-adv-x="1136" d="M96 496q0 233 128 378.5t306 145.5q145 0 283 -121h4l14 96h138v-995h-140l-14 117h-6q-145 -141 -301 -142q-190 0 -301 137.5t-111 383.5zM270 498q0 -178 73 -279.5t202 -101.5q131 0 254 137v520q-117 104 -242 105q-121 0 -204 -106.5t-83 -274.5zM352 1462h174 l187 -288h-129z" />
<glyph horiz-adv-x="1136" d="M96 496q0 233 128 378.5t306 145.5q145 0 283 -121h4l14 96h138v-995h-140l-14 117h-6q-145 -141 -301 -142q-190 0 -301 137.5t-111 383.5zM270 498q0 -178 73 -279.5t202 -101.5q131 0 254 137v520q-117 104 -242 105q-121 0 -204 -106.5t-83 -274.5zM444 1174l187 288 h176l-232 -288h-131z" />
<glyph horiz-adv-x="1136" d="M96 496q0 233 128 378.5t306 145.5q145 0 283 -121h4l14 96h138v-995h-140l-14 117h-6q-145 -141 -301 -142q-190 0 -301 137.5t-111 383.5zM270 498q0 -178 73 -279.5t202 -101.5q131 0 254 137v520q-117 104 -242 105q-121 0 -204 -106.5t-83 -274.5zM315 1174l195 288 h137l195 -288h-121l-137 186h-9l-137 -186h-123z" />
<glyph horiz-adv-x="1136" d="M96 496q0 233 128 378.5t306 145.5q145 0 283 -121h4l14 96h138v-995h-140l-14 117h-6q-145 -141 -301 -142q-190 0 -301 137.5t-111 383.5zM270 498q0 -178 73 -279.5t202 -101.5q131 0 254 137v520q-117 104 -242 105q-121 0 -204 -106.5t-83 -274.5zM293 1186 q10 98 52 157.5t116 59.5q55 0 130 -52.5t103 -52.5q58 0 74 105h96q-10 -98 -52 -157.5t-116 -59.5q-55 0 -128.5 52t-102.5 52q-57 0 -76 -104h-96z" />
<glyph horiz-adv-x="1136" d="M96 496q0 233 128 378.5t306 145.5q145 0 283 -121h4l14 96h138v-995h-140l-14 117h-6q-145 -141 -301 -142q-190 0 -301 137.5t-111 383.5zM270 498q0 -178 73 -279.5t202 -101.5q131 0 254 137v520q-117 104 -242 105q-121 0 -204 -106.5t-83 -274.5zM301 1305 q0 43 28.5 71.5t71.5 28.5q45 0 73 -28.5t28 -71.5t-28 -72t-73 -29q-43 0 -71.5 29t-28.5 72zM655 1305q0 43 29 71.5t72 28.5t71.5 -28.5t28.5 -71.5t-28.5 -72t-71.5 -29t-72 29t-29 72z" />
<glyph horiz-adv-x="1136" d="M96 496q0 233 128 378.5t306 145.5q145 0 283 -121h4l14 96h138v-995h-140l-14 117h-6q-145 -141 -301 -142q-190 0 -301 137.5t-111 383.5zM270 498q0 -178 73 -279.5t202 -101.5q131 0 254 137v520q-117 104 -242 105q-121 0 -204 -106.5t-83 -274.5zM328 1231v117h501 v-117h-501z" />
<glyph horiz-adv-x="1136" d="M96 496q0 233 128 378.5t306 145.5q145 0 283 -121h4l14 96h138v-995h-140l-14 117h-6q-145 -141 -301 -142q-190 0 -301 137.5t-111 383.5zM270 498q0 -178 73 -279.5t202 -101.5q131 0 254 137v520q-117 104 -242 105q-121 0 -204 -106.5t-83 -274.5zM319 1438h105 q10 -68 49 -112t107 -44q66 0 105.5 45t47.5 111h105q-8 -104 -73 -182t-185.5 -78t-186 77.5t-74.5 182.5z" />
<glyph horiz-adv-x="1136" d="M96 496q0 233 128 378.5t306 145.5q145 0 283 -121h4l14 96h138v-995h-140l-14 117h-6q-145 -141 -301 -142q-190 0 -301 137.5t-111 383.5zM270 498q0 -178 73 -279.5t202 -101.5q131 0 254 137v520q-117 104 -242 105q-121 0 -204 -106.5t-83 -274.5zM387 1300 q0 84 54.5 136.5t138.5 52.5t137 -52.5t53 -136.5q0 -86 -53 -138t-137 -52q-86 0 -139.5 52t-53.5 138zM481 1300q0 -51 28 -82.5t71 -31.5q41 0 69.5 31.5t28.5 82.5q0 49 -28.5 81t-69.5 32q-43 0 -71 -31.5t-28 -81.5z" />
<glyph horiz-adv-x="1136" d="M96 496q0 233 128 378.5t306 145.5q145 0 283 -121h4l14 96h138v-995h-140l-14 117h-6q-145 -141 -301 -142q-190 0 -301 137.5t-111 383.5zM270 498q0 -178 73 -279.5t202 -101.5q131 0 254 137v520q-117 104 -242 105q-121 0 -204 -106.5t-83 -274.5zM315 1462h123 l137 -188h9l137 188h121l-195 -288h-137z" />
<glyph horiz-adv-x="1136" d="M96 496q0 233 128 378.5t306 145.5q145 0 283 -121h4l14 96h138v-995h-140l-14 117h-6q-145 -141 -301 -142q-190 0 -301 137.5t-111 383.5zM270 498q0 -178 73 -279.5t202 -101.5q131 0 254 137v520q-117 104 -242 105q-121 0 -204 -106.5t-83 -274.5zM471 -311 q0 47 32 77.5t79 30.5t78.5 -30.5t31.5 -77.5q0 -49 -31.5 -80t-78.5 -31t-79 31t-32 80z" />
<glyph horiz-adv-x="1136" d="M96 496q0 233 128 378.5t306 145.5q145 0 283 -121h4l14 96h138v-995h-140l-14 117h-6q-145 -141 -301 -142q-190 0 -301 137.5t-111 383.5zM270 498q0 -178 73 -279.5t202 -101.5q131 0 254 137v520q-117 104 -242 105q-121 0 -204 -106.5t-83 -274.5zM449 1391l16 98 q285 -10 285 -166q-1 -151 -228 -190l-20 77q117 33 116 95q0 80 -169 86z" />
<glyph horiz-adv-x="1136" d="M96 496q0 233 128 378.5t306 145.5q145 0 283 -121h4l14 96h138v-995h-140l-14 117h-6q-145 -141 -301 -142q-190 0 -301 137.5t-111 383.5zM270 498q0 -178 73 -279.5t202 -101.5q131 0 254 137v520q-117 104 -242 105q-121 0 -204 -106.5t-83 -274.5zM340 1174l170 243 h137l170 -243h-115l-118 149h-9l-120 -149h-115zM760 1311l151 233h144l-191 -233h-104z" />
<glyph horiz-adv-x="1136" d="M96 496q0 233 128 378.5t306 145.5q145 0 283 -121h4l14 96h138v-995h-140l-14 117h-6q-145 -141 -301 -142q-190 0 -301 137.5t-111 383.5zM270 498q0 -178 73 -279.5t202 -101.5q131 0 254 137v520q-117 104 -242 105q-121 0 -204 -106.5t-83 -274.5zM340 1174l170 243 h137l170 -243h-115l-118 149h-9l-120 -149h-115zM696 1544h144l151 -233h-104z" />
<glyph horiz-adv-x="1136" d="M96 496q0 233 128 378.5t306 145.5q145 0 283 -121h4l14 96h138v-995h-140l-14 117h-6q-145 -141 -301 -142q-190 0 -301 137.5t-111 383.5zM270 498q0 -178 73 -279.5t202 -101.5q131 0 254 137v520q-117 104 -242 105q-121 0 -204 -106.5t-83 -274.5zM340 1174l170 243 h137l170 -243h-115l-118 149h-9l-120 -149h-115zM743 1522l15 84q248 -10 248 -150q0 -76 -51.5 -113t-139.5 -57l-16 72q86 25 86 80q0 76 -142 84z" />
<glyph horiz-adv-x="1136" d="M96 496q0 233 128 378.5t306 145.5q145 0 283 -121h4l14 96h138v-995h-140l-14 117h-6q-145 -141 -301 -142q-190 0 -301 137.5t-111 383.5zM270 498q0 -178 73 -279.5t202 -101.5q131 0 254 137v520q-117 104 -242 105q-121 0 -204 -106.5t-83 -274.5zM311 1456 q8 84 50 135t110 51q57 0 118.5 -44t90.5 -44q68 0 80 88h86q-8 -84 -49 -135t-111 -51q-55 0 -117.5 44t-91.5 44q-66 0 -80 -88h-86zM324 1169l178 213h153l179 -213h-119l-131 134h-9l-133 -134h-118z" />
<glyph horiz-adv-x="1136" d="M96 496q0 233 128 378.5t306 145.5q145 0 283 -121h4l14 96h138v-995h-140l-14 117h-6q-145 -141 -301 -142q-190 0 -301 137.5t-111 383.5zM270 498q0 -178 73 -279.5t202 -101.5q131 0 254 137v520q-117 104 -242 105q-121 0 -204 -106.5t-83 -274.5zM315 1174l195 288 h137l195 -288h-121l-137 186h-9l-137 -186h-123zM471 -311q0 47 32 77.5t79 30.5t78.5 -30.5t31.5 -77.5q0 -49 -31.5 -80t-78.5 -31t-79 31t-32 80z" />
<glyph horiz-adv-x="1136" d="M96 496q0 233 128 378.5t306 145.5q145 0 283 -121h4l14 96h138v-995h-140l-14 117h-6q-145 -141 -301 -142q-190 0 -301 137.5t-111 383.5zM270 498q0 -178 73 -279.5t202 -101.5q131 0 254 137v520q-117 104 -242 105q-121 0 -204 -106.5t-83 -274.5zM319 1438h91 q10 -70 53 -117t116.5 -47t115.5 47t53 117h90q-8 -104 -73 -182t-185.5 -78t-186 77.5t-74.5 182.5zM502 1386l139 230h139l-178 -230h-100z" />
<glyph horiz-adv-x="1136" d="M96 496q0 233 128 378.5t306 145.5q145 0 283 -121h4l14 96h138v-995h-140l-14 117h-6q-145 -141 -301 -142q-190 0 -301 137.5t-111 383.5zM270 498q0 -178 73 -279.5t202 -101.5q131 0 254 137v520q-117 104 -242 105q-121 0 -204 -106.5t-83 -274.5zM319 1438h91 q10 -70 53 -117t116.5 -47t115.5 47t53 117h90q-8 -104 -73 -182t-185.5 -78t-186 77.5t-74.5 182.5zM377 1616h139l139 -230h-100z" />
<glyph horiz-adv-x="1136" d="M96 496q0 233 128 378.5t306 145.5q145 0 283 -121h4l14 96h138v-995h-140l-14 117h-6q-145 -141 -301 -142q-190 0 -301 137.5t-111 383.5zM270 498q0 -178 73 -279.5t202 -101.5q131 0 254 137v520q-117 104 -242 105q-121 0 -204 -106.5t-83 -274.5zM319 1438h91 q10 -70 53 -117t116.5 -47t115.5 47t53 117h90q-8 -104 -73 -182t-185.5 -78t-186 77.5t-74.5 182.5zM453 1634l14 84q248 -6 248 -149q0 -74 -51.5 -112t-139.5 -58l-18 71q88 25 88 80q0 78 -141 84z" />
<glyph horiz-adv-x="1136" d="M96 496q0 233 128 378.5t306 145.5q145 0 283 -121h4l14 96h138v-995h-140l-14 117h-6q-145 -141 -301 -142q-190 0 -301 137.5t-111 383.5zM270 498q0 -178 73 -279.5t202 -101.5q131 0 254 137v520q-117 104 -242 105q-121 0 -204 -106.5t-83 -274.5zM311 1456 q8 84 50 135t110 51q57 0 118.5 -44t90.5 -44q68 0 80 88h86q-8 -84 -49 -135t-111 -51q-55 0 -117.5 44t-91.5 44q-66 0 -80 -88h-86zM324 1397h92q10 -55 51 -91t112.5 -36t112.5 35.5t51 91.5h93q-8 -92 -71 -155.5t-185.5 -63.5t-186 63.5t-69.5 155.5z" />
<glyph horiz-adv-x="1136" d="M96 496q0 233 128 378.5t306 145.5q145 0 283 -121h4l14 96h138v-995h-140l-14 117h-6q-145 -141 -301 -142q-190 0 -301 137.5t-111 383.5zM270 498q0 -178 73 -279.5t202 -101.5q131 0 254 137v520q-117 104 -242 105q-121 0 -204 -106.5t-83 -274.5zM319 1438h105 q10 -68 49 -112t107 -44q66 0 105.5 45t47.5 111h105q-8 -104 -73 -182t-185.5 -78t-186 77.5t-74.5 182.5zM471 -311q0 47 32 77.5t79 30.5t78.5 -30.5t31.5 -77.5q0 -49 -31.5 -80t-78.5 -31t-79 31t-32 80z" />
<glyph horiz-adv-x="1136" d="M96 496q0 233 128 378.5t306 145.5q145 0 283 -121h4l14 96h138v-995q-178 -88 -178 -215q0 -45 27.5 -69.5t66.5 -24.5q45 0 84 26l43 -84q-70 -55 -160 -55q-82 0 -134 45t-52 129q0 135 163 256l-14 109h-6q-145 -141 -301 -142q-190 0 -301 137.5t-111 383.5z M270 498q0 -178 73 -279.5t202 -101.5q131 0 254 137v520q-117 104 -242 105q-121 0 -204 -106.5t-83 -274.5z" />
<glyph horiz-adv-x="1144" d="M102 512q0 225 128 366.5t305 141.5q150 0 278 -117h4l14 92h142v-1044q0 -184 -116 -288.5t-327 -104.5q-195 0 -356 108l62 119q137 -92 294 -92q133 0 202 69.5t73 192.5l2 188q-137 -133 -295 -133q-188 0 -299 134.5t-111 367.5zM274 514q0 -168 73 -266t202 -98 q127 0 256 137v487q-119 104 -244 105q-121 0 -204 -103.5t-83 -261.5z" />
<glyph horiz-adv-x="1144" d="M102 512q0 225 128 366.5t305 141.5q150 0 278 -117h4l14 92h142v-1044q0 -184 -116 -288.5t-327 -104.5q-195 0 -356 108l62 119q137 -92 294 -92q133 0 202 69.5t73 192.5l2 188q-137 -133 -295 -133q-188 0 -299 134.5t-111 367.5zM274 514q0 -168 73 -266t202 -98 q127 0 256 137v487q-119 104 -244 105q-121 0 -204 -103.5t-83 -261.5zM326 1174l194 288h139l193 -288h-121l-137 186h-8l-137 -186h-123z" />
<glyph horiz-adv-x="1144" d="M102 512q0 225 128 366.5t305 141.5q150 0 278 -117h4l14 92h142v-1044q0 -184 -116 -288.5t-327 -104.5q-195 0 -356 108l62 119q137 -92 294 -92q133 0 202 69.5t73 192.5l2 188q-137 -133 -295 -133q-188 0 -299 134.5t-111 367.5zM274 514q0 -168 73 -266t202 -98 q127 0 256 137v487q-119 104 -244 105q-121 0 -204 -103.5t-83 -261.5zM330 1438h104q10 -68 49 -112t107 -44q66 0 105.5 45t47.5 111h105q-8 -104 -72.5 -182t-185.5 -78t-186.5 77.5t-73.5 182.5z" />
<glyph horiz-adv-x="1144" d="M102 512q0 225 128 366.5t305 141.5q150 0 278 -117h4l14 92h142v-1044q0 -184 -116 -288.5t-327 -104.5q-195 0 -356 108l62 119q137 -92 294 -92q133 0 202 69.5t73 192.5l2 188q-137 -133 -295 -133q-188 0 -299 134.5t-111 367.5zM274 514q0 -168 73 -266t202 -98 q127 0 256 137v487q-119 104 -244 105q-121 0 -204 -103.5t-83 -261.5zM479 1311q0 47 31 78.5t80 31.5q47 0 78.5 -31.5t31.5 -78.5q0 -49 -31.5 -80t-78.5 -31q-49 0 -80 31t-31 80z" />
<glyph horiz-adv-x="1144" d="M102 512q0 225 128 366.5t305 141.5q150 0 278 -117h4l14 92h142v-1044q0 -184 -116 -288.5t-327 -104.5q-195 0 -356 108l62 119q137 -92 294 -92q133 0 202 69.5t73 192.5l2 188q-137 -133 -295 -133q-188 0 -299 134.5t-111 367.5zM274 514q0 -168 73 -266t202 -98 q127 0 256 137v487q-119 104 -244 105q-121 0 -204 -103.5t-83 -261.5zM446 1266q0 84 84 130t213 58l17 -84q-182 -25 -182 -92q0 -66 106 -92l-37 -78q-104 16 -152.5 53t-48.5 105z" />
<glyph horiz-adv-x="1144" d="M102 512q0 225 128 366.5t305 141.5q150 0 278 -117h4l14 92h142v-1044q0 -184 -116 -288.5t-327 -104.5q-195 0 -356 108l62 119q137 -92 294 -92q133 0 202 69.5t73 192.5l2 188q-137 -133 -295 -133q-188 0 -299 134.5t-111 367.5zM274 514q0 -168 73 -266t202 -98 q127 0 256 137v487q-119 104 -244 105q-121 0 -204 -103.5t-83 -261.5zM326 1462h123l137 -188h8l137 188h121l-193 -288h-139z" />
<glyph horiz-adv-x="1144" d="M102 512q0 225 128 366.5t305 141.5q150 0 278 -117h4l14 92h142v-1044q0 -184 -116 -288.5t-327 -104.5q-195 0 -356 108l62 119q137 -92 294 -92q133 0 202 69.5t73 192.5l2 188q-137 -133 -295 -133q-188 0 -299 134.5t-111 367.5zM274 514q0 -168 73 -266t202 -98 q127 0 256 137v487q-119 104 -244 105q-121 0 -204 -103.5t-83 -261.5zM338 1231v117h502v-117h-502z" />
<glyph horiz-adv-x="1144" d="M102 512q0 225 128 366.5t305 141.5q150 0 278 -117h4l14 92h142v-1044q0 -184 -116 -288.5t-327 -104.5q-195 0 -356 108l62 119q137 -92 294 -92q133 0 202 69.5t73 192.5l2 188q-137 -133 -295 -133q-188 0 -299 134.5t-111 367.5zM274 514q0 -168 73 -266t202 -98 q127 0 256 137v487q-119 104 -244 105q-121 0 -204 -103.5t-83 -261.5zM303 1186q10 98 52 157.5t116 59.5q55 0 130 -52.5t104 -52.5q58 0 73 105h96q-10 -98 -52 -157.5t-115 -59.5q-55 0 -129 52t-103 52q-57 0 -76 -104h-96z" />
<glyph horiz-adv-x="503" d="M168 0v1458h168v-1458h-168z" />
<glyph horiz-adv-x="503" d="M141 1554l183 228h192l-233 -228h-142zM168 0v1458h168v-1458h-168z" />
<glyph horiz-adv-x="542" d="M168 0v1458h168v-1458h-168zM446 1556h119v-116l-28 -318h-84z" />
<glyph horiz-adv-x="741" d="M168 0v1458h168v-1458h-168zM500 666q0 57 35.5 93t87 36t86 -36t34.5 -93q0 -55 -34.5 -91t-86 -36t-87 36t-35.5 91z" />
<glyph horiz-adv-x="503" d="M78 -360q182 25 182 94q0 63 -104 90l37 78q104 -16 151 -53t47 -105q0 -84 -84 -130t-213 -56zM168 0v1458h168v-1458h-168z" />
<glyph horiz-adv-x="503" d="M141 -311q0 47 32 77.5t79 30.5q49 0 79.5 -30.5t30.5 -77.5q0 -49 -30.5 -80t-79.5 -31q-47 0 -79 31t-32 80zM168 0v1458h168v-1458h-168z" />
<glyph horiz-adv-x="503" d="M0 1681v119h502v-119h-502zM141 -311q0 47 32 77.5t79 30.5q49 0 79.5 -30.5t30.5 -77.5q0 -49 -30.5 -80t-79.5 -31q-47 0 -79 31t-32 80zM168 0v1458h168v-1458h-168z" />
<glyph horiz-adv-x="503" d="M-2 -231h504v-119h-504v119zM168 0v1458h168v-1458h-168z" />
<glyph horiz-adv-x="526" d="M47 596v143l121 78v641h168v-555l153 98v-143l-153 -98v-760h-168v674z" />
<glyph horiz-adv-x="1138" d="M61 858v127l136 10v158q0 156 72.5 243t217.5 87q86 0 166 -33l-37 -129q-55 25 -112 25q-139 0 -139 -193v-158h210v-137h-210v-858h-168v858h-136zM803 0v1458h168v-1458h-168z" />
<glyph horiz-adv-x="1101" d="M113 657.5q0 321.5 115.5 497.5t322.5 176q205 0 321.5 -177t116.5 -497q0 -322 -116.5 -502t-321.5 -180t-321.5 180.5t-116.5 502zM283 657q0 -274 70.5 -408t197.5 -134t197.5 134t70.5 408q0 532 -268 532.5t-268 -532.5z" />
<glyph horiz-adv-x="755" d="M102 1102v108q164 29 279 97h129v-1307h-168v1102h-240z" />
<glyph horiz-adv-x="1026" d="M76 1133q182 199 397 198q180 0 283.5 -104.5t103.5 -280.5q0 -88 -34.5 -179t-117.5 -202.5t-158 -196.5t-214 -235q139 12 219 12h363v-145h-830v100q332 332 470 511.5t138 326.5q0 117 -61.5 186.5t-181.5 69.5q-147 0 -279 -158z" />
<glyph horiz-adv-x="1017" d="M53 160l86 110q147 -156 334 -155q119 0 194.5 65.5t75.5 173.5q0 260 -417 260v129q371 0 370 244q0 96 -60.5 151.5t-164.5 55.5q-145 0 -278 -133l-91 106q174 164 375 164q174 0 282.5 -88t108.5 -244q0 -221 -237 -311v-8q125 -29 203.5 -116t78.5 -216 q0 -170 -122.5 -271.5t-307.5 -101.5q-262 1 -430 185z" />
<glyph horiz-adv-x="1062" d="M70 360v111l559 836h186v-811h178v-136h-178v-360h-158v360h-587zM246 496h411v378q0 113 9 252h-9q-4 -8 -106 -184z" />
<glyph horiz-adv-x="1017" d="M51 154l82 110q150 -150 330 -149q123 0 205 83t82 216t-76 209.5t-203 76.5q-102 0 -223 -79l-90 57l43 629h653v-146h-506l-35 -387q100 53 201 53q178 0 292 -103t114 -306t-130.5 -323t-310.5 -120q-250 1 -428 179z" />
<glyph horiz-adv-x="1075" d="M125 604q0 369 141.5 548t356.5 179q186 0 315 -139l-94 -105q-86 102 -215 103q-150 0 -244 -132t-100 -423q61 76 143 120t162 44q174 0 273.5 -103.5t99.5 -300.5q0 -184 -113 -302t-275 -118q-201 0 -325.5 162t-124.5 467zM289 500q16 -190 88.5 -290.5 t197.5 -100.5q98 0 163 79.5t65 206.5q0 131 -61.5 204t-180.5 73q-150 0 -272 -172z" />
<glyph horiz-adv-x="1005" d="M90 1161v146h813v-105q-217 -281 -292.5 -535.5t-94.5 -666.5h-174q16 373 99 634t272 527h-623z" />
<glyph horiz-adv-x="1075" d="M113 334q0 221 245 352v8q-182 127 -182 301q0 150 105.5 243t265.5 93q170 0 269 -97t99 -251q0 -94 -54 -177t-126 -138v-9q104 -61 166 -138t62 -197q0 -147 -117 -248t-303.5 -101t-308 101.5t-121.5 257.5zM264 350q0 -109 80 -179.5t201 -70.5q115 0 185.5 63.5 t70.5 166.5q0 49 -21.5 90t-45 66.5t-83 57t-91.5 45t-111 46.5q-185 -121 -185 -285zM332 995q0 -104 77 -164.5t224 -117.5q137 121 137 262q0 100 -60.5 165.5t-166.5 65.5q-92 0 -151.5 -58t-59.5 -153z" />
<glyph horiz-adv-x="1075" d="M104 911q0 184 113 302t275 118q201 0 325.5 -162.5t124.5 -466.5q0 -369 -141.5 -548t-356.5 -179q-188 1 -315 138l94 106q88 -104 215 -104q152 0 245 132t99 425q-61 -76 -143 -120t-162 -44q-174 0 -273.5 103.5t-99.5 299.5zM264 911q0 -131 61.5 -203.5 t180.5 -72.5q150 0 272 172q-16 190 -89 290.5t-197 100.5q-98 0 -163 -80t-65 -207z" />
<glyph horiz-adv-x="1017" d="M90 588q0 299 111.5 455.5t308.5 156.5q195 0 306.5 -156.5t111.5 -455.5t-111.5 -456t-306.5 -157q-197 0 -308.5 157t-111.5 456zM254 587.5q0 -225.5 67.5 -351t188.5 -125.5q119 0 186.5 125.5t67.5 351.5q0 223 -66.5 349t-187.5 126t-188.5 -125t-67.5 -350.5z" />
<glyph horiz-adv-x="1017" d="M162 0v139h299v832h-238v108q164 29 277 97h129v-1037h270v-139h-737z" />
<glyph horiz-adv-x="1017" d="M74 997q178 199 395 199q178 0 282.5 -103.5t104.5 -275.5q0 -100 -66.5 -209.5t-151.5 -196.5t-250 -239q-28 -27 -42 -39q143 12 219 12h361v-145h-844v100q336 279 473 429.5t137 281.5q0 113 -62.5 180.5t-178.5 67.5q-147 0 -281 -156z" />
<glyph horiz-adv-x="1017" d="M53 8l86 111q145 -154 334 -154q119 0 194.5 67.5t75.5 178.5q0 262 -417 262v131q371 0 370 248q0 96 -60.5 153.5t-164.5 57.5q-145 0 -278 -133l-91 106q174 164 375 164q174 0 282.5 -90t108.5 -246q0 -115 -63.5 -195.5t-173.5 -119.5v-8q125 -29 203.5 -118 t78.5 -220q0 -170 -122.5 -274.5t-307.5 -104.5q-262 0 -430 184z" />
<glyph horiz-adv-x="1017" d="M35 193v112l559 871h188v-848h179v-135h-179v-345h-159v345h-588zM213 328h410v415q0 72 10 246h-8q-51 -102 -107 -201z" />
</font>
</defs>
</svg>
