<?xml version="1.0" standalone="no"?>
<!DOCTYPE svg PUBLIC "-//W3C//DTD SVG 1.1//EN" "http://www.w3.org/Graphics/SVG/1.1/DTD/svg11.dtd" >
<svg xmlns="http://www.w3.org/2000/svg">
<metadata>
This is a custom SVG webfont generated by Font Squirrel.
Copyright   :  2010 2012 Adobe Systems Incorporated All Rights Reserved
Designer    : Paul D Hunt
Foundry     : Adobe Systems Incorporated
Foundry URL : httpwwwadobecomtype
</metadata>
<defs>
<font id="SourceSansProItalic" horiz-adv-x="0" >
<font-face units-per-em="2048" ascent="1536" descent="-512" />
<missing-glyph horiz-adv-x="393" />
<glyph unicode="&#xfb00;" horiz-adv-x="1130" d="M88 0l174 868h-129l23 117l133 10l28 146q33 154 117 237.5t211 83.5q92 0 191 -47l-56 -115q-61 35 -123 35q-72 0 -118.5 -50t-63.5 -140l-31 -150h398l32 166q31 154 112 238t204 84q84 0 178 -47l-57 -115q-51 35 -109 35q-133 0 -170 -191l-35 -170h203l-26 -127 h-201l-174 -868h-158l174 868h-395l-176 -868h-156z" />
<glyph unicode="ft" horiz-adv-x="1148" d="M88 0l174 868h-129l23 117l133 10l33 166q31 154 111.5 238t203.5 84q86 0 176 -47l-55 -115q-53 35 -111 35q-131 0 -168 -191l-35 -170h342l74 275h133l-55 -275h252l-25 -127h-256l-116 -569q-6 -37 -7 -74q0 -63 29 -93t98 -30q39 0 105 31l33 -113q-94 -45 -187 -45 q-123 0 -180 60.5t-57 161.5q0 63 10 110l117 561h-334l-176 -868h-156z" />
<glyph unicode=" "  horiz-adv-x="393" />
<glyph unicode="&#x09;" horiz-adv-x="393" />
<glyph unicode="&#xa0;" horiz-adv-x="393" />
<glyph unicode="!" horiz-adv-x="577" d="M88 78q0 53 40 98t97 45q45 0 69.5 -28.5t24.5 -75.5q0 -55 -38 -98.5t-95 -43.5q-45 0 -71.5 29t-26.5 74zM209 401l137 785l31 188h158l-39 -188l-177 -785h-110z" />
<glyph unicode="&#x22;" horiz-adv-x="833" d="M262 872l47 314l31 188h154l-39 -188l-86 -314h-107zM602 872l45 314l31 188h156l-41 -188l-84 -314h-107z" />
<glyph unicode="#" horiz-adv-x="980" d="M49 420l27 112h168l94 308h-164l29 112h172l121 379h104l-119 -379h256l121 379h105l-119 -379h162l-29 -112h-168l-94 -308h166l-29 -112h-174l-131 -420h-107l133 420h-258l-131 -420h-106l133 420h-162zM350 532h260l95 308h-261z" />
<glyph unicode="$" horiz-adv-x="983" d="M35 168l100 98q119 -160 283 -160q113 0 184.5 66t71.5 172q0 70 -33 128t-81 98t-105.5 85t-105.5 86t-80.5 102.5t-32.5 135.5q0 150 100 249t260 109l41 201h115l-43 -211q143 -37 241 -168l-102 -92q-98 141 -232 141q-98 0 -161.5 -58t-63.5 -151q0 -68 45 -126 t109.5 -103t128 -96t108.5 -129t45 -176q0 -162 -104.5 -272.5t-276.5 -121.5l-40 -200h-115l41 209q-174 35 -297 184z" />
<glyph unicode="%" horiz-adv-x="1619" d="M125 840q0 207 102.5 372.5t270.5 165.5q117 0 184.5 -87t67.5 -224q0 -209 -102.5 -374t-270.5 -165q-117 0 -184.5 87t-67.5 225zM246 848q0 -217 141 -217q109 0 175.5 133t66.5 293q0 100 -35 159.5t-105 59.5q-74 0 -131 -66.5t-84.5 -163t-27.5 -198.5zM276 -25 l992 1401h106l-991 -1401h-107zM915 287q0 207 102.5 372.5t270.5 165.5q117 0 184.5 -87t67.5 -224q0 -209 -102.5 -374t-270.5 -165q-117 0 -184.5 87.5t-67.5 224.5zM1036 295q0 -217 142 -217q109 0 175 133t66 293q0 219 -141 219q-109 0 -175.5 -133t-66.5 -295z" />
<glyph unicode="&#x26;" horiz-adv-x="1191" d="M31 289q0 150 90 254t250 200q-37 119 -37 232q0 168 104.5 280.5t247.5 112.5q106 0 163.5 -60.5t57.5 -158.5q0 -74 -29.5 -138.5t-93 -123t-113.5 -94t-141 -93.5q86 -215 252 -391q143 152 262 412h144q-141 -303 -318 -494q113 -90 209 -125l-65 -127 q-125 41 -252 150q-186 -150 -393 -150q-152 0 -245 85t-93 229zM186 309q0 -94 58.5 -151.5t152.5 -57.5q137 0 279 109q-170 186 -262 414q-109 -74 -168.5 -148t-59.5 -166zM469 983q0 -78 23 -168q141 86 213.5 157.5t72.5 170.5q0 49 -25.5 81.5t-76.5 32.5 q-88 0 -147.5 -77.5t-59.5 -196.5z" />
<glyph unicode="'" horiz-adv-x="495" d="M262 872l47 314l31 188h154l-39 -188l-86 -314h-107z" />
<glyph unicode="(" horiz-adv-x="595" d="M133 272q0 342 119 632t358 593l92 -51q-438 -557 -438 -1190q0 -346 88 -578l-102 -38q-117 309 -117 632z" />
<glyph unicode=")" horiz-adv-x="600" d="M-90 -307q436 551 436 1188q0 352 -86 577l102 39q117 -309 117 -631q0 -344 -118.5 -632.5t-358.5 -593.5z" />
<glyph unicode="*" horiz-adv-x="825" d="M256 1229l37 82l203 -68l51 217l90 -8l-16 -219l210 29l15 -88l-211 -64l78 -199l-82 -47l-107 180l-164 -155l-65 59l141 180z" />
<glyph unicode="+" horiz-adv-x="983" d="M98 618v117h359v400h123v-400h358v-117h-360v-407h-123v407h-357z" />
<glyph unicode="," horiz-adv-x="495" d="M-63 -242q195 76 227 234h-4q-47 0 -77 26.5t-30 71.5q0 53 37 92t94 39q53 0 82 -35.5t29 -99.5q0 -150 -92 -264.5t-244 -157.5z" />
<glyph unicode="-" horiz-adv-x="612" d="M72 455l24 120h449l-27 -120h-446z" />
<glyph unicode="." horiz-adv-x="495" d="M47 78q0 53 40 98t97 45q43 0 69 -29.5t26 -74.5q0 -55 -39.5 -98.5t-96.5 -43.5q-43 0 -69.5 29t-26.5 74z" />
<glyph unicode="/" horiz-adv-x="696" d="M-147 -328l888 1782h115l-891 -1782h-112z" />
<glyph unicode="0" horiz-adv-x="983" d="M86 420q0 367 162 639t379 272q150 0 234.5 -126t84.5 -322q0 -367 -159.5 -637.5t-376.5 -270.5q-152 0 -238 124t-86 321zM233 414q0 -141 46.5 -227.5t138.5 -86.5q102 0 191 120t140.5 302.5t51.5 366.5q0 143 -47.5 229t-137.5 86q-102 0 -191 -120.5t-140.5 -303 t-51.5 -366.5z" />
<glyph unicode="1" horiz-adv-x="983" d="M53 0l27 131h285l196 979h-231l20 102q174 25 287 95h121l-238 -1176h266l-24 -131h-709z" />
<glyph unicode="2" horiz-adv-x="983" d="M-20 0l16 94q424 360 528 462q212 208 242 365q6 34 6 68q0 94 -55 153.5t-158 59.5q-125 0 -268 -131l-80 98q188 162 367 162q164 0 256 -89t92 -232q0 -61 -16.5 -121t-37 -108t-75 -115.5t-91 -110.5t-130 -128t-146.5 -133t-182 -159h565l-25 -135h-808z" />
<glyph unicode="3" horiz-adv-x="983" d="M-18 201l104 82q121 -176 299 -177q139 0 228 77t89 194q0 240 -378 239l24 119q223 0 325.5 80t102.5 191q0 90 -53 143t-154 53q-127 0 -256 -104l-80 104q170 129 361 129q162 0 252 -81t90 -218q0 -127 -78 -220t-227 -136v-8q109 -35 169 -110t60 -175 q0 -184 -134 -296t-343 -112q-127 0 -231 64t-170 162z" />
<glyph unicode="4" horiz-adv-x="983" d="M16 360l19 107l700 840h172l-164 -820h172l-26 -127h-170l-72 -360h-147l73 360h-557zM209 487h389l76 387q8 41 30.5 130.5t32.5 130.5h-8q-119 -162 -158 -213z" />
<glyph unicode="5" horiz-adv-x="983" d="M-8 197l102 84q115 -174 293 -175q133 0 228.5 97.5t95.5 251.5q0 123 -63.5 186.5t-172.5 63.5q-96 0 -219 -68l-68 53l164 617h613l-27 -136h-477l-107 -385q86 41 172 41q154 0 248 -89t94 -255q0 -225 -145 -366.5t-346 -141.5q-242 1 -385 222z" />
<glyph unicode="6" horiz-adv-x="983" d="M104 418q0 397 173.5 655t437.5 258q180 0 284 -166l-106 -84q-70 119 -186 119q-156 0 -277 -153.5t-162 -407.5q63 74 147.5 113t155.5 39q145 0 231.5 -91.5t86.5 -248.5q0 -195 -122 -335.5t-300 -140.5q-166 0 -264.5 123t-98.5 320zM252 414q0 -141 60.5 -228.5 t162.5 -87.5q111 0 189.5 101.5t78.5 228.5q0 115 -54 180.5t-154 65.5q-57 0 -134 -39t-147 -127q-2 -31 -2 -94z" />
<glyph unicode="7" horiz-adv-x="983" d="M219 1171l29 136h807l-21 -103q-147 -139 -253.5 -282.5t-176 -299t-112.5 -296t-82 -326.5h-164q92 389 227 662.5t373 508.5h-627z" />
<glyph unicode="8" horiz-adv-x="983" d="M72 315q0 260 305 394v8q-117 117 -117 258q0 162 111.5 259t271.5 97q133 0 227.5 -78.5t94.5 -224.5q0 -227 -250 -369v-8q176 -121 176 -295q0 -172 -127 -276.5t-309 -104.5q-156 0 -269.5 88t-113.5 252zM215 332q0 -111 71.5 -175.5t176.5 -64.5q113 0 196.5 69.5 t83.5 186.5q0 55 -20.5 98t-70.5 83t-85.5 61.5t-115.5 64.5q-236 -131 -236 -323zM403 983q0 -96 55.5 -157.5t172.5 -118.5q197 129 196 301q0 94 -55 149t-141 55q-94 0 -161 -62.5t-67 -166.5z" />
<glyph unicode="9" horiz-adv-x="983" d="M37 141l106 84q70 -119 189 -119q154 0 273.5 153t160.5 405q-63 -72 -145 -110t-154 -38q-147 0 -233.5 91t-86.5 249q0 195 122 335t300 140q166 0 264.5 -123t98.5 -319q0 -397 -173 -655.5t-437 -258.5q-181 0 -285 166zM295 879q0 -115 53.5 -180.5t153.5 -65.5 q57 0 134 39t146 127q2 31 2 94q0 141 -60 228t-163 87q-109 0 -187.5 -101t-78.5 -228z" />
<glyph unicode=":" horiz-adv-x="495" d="M47 78q0 53 40 98t97 45q43 0 69 -29.5t26 -74.5q0 -55 -39.5 -98.5t-96.5 -43.5q-43 0 -69.5 29t-26.5 74zM178 834q0 53 40 98t97 45q43 0 69 -29.5t26 -75.5q0 -55 -39.5 -98t-96.5 -43q-43 0 -69.5 28.5t-26.5 74.5z" />
<glyph unicode=";" horiz-adv-x="495" d="M-63 -242q195 76 227 234h-4q-47 0 -77 26.5t-30 71.5q0 53 37 92t94 39q53 0 82 -35.5t29 -99.5q0 -150 -92 -264.5t-244 -157.5zM178 834q0 53 40 98t97 45q43 0 69 -29.5t26 -75.5q0 -55 -39 -98t-97 -43q-43 0 -69.5 28.5t-26.5 74.5z" />
<glyph unicode="&#x3c;" horiz-adv-x="983" d="M94 616v119l844 342v-133l-416 -164l-256 -98v-8l256 -101l416 -161v-136z" />
<glyph unicode="=" horiz-adv-x="983" d="M98 397v119h840v-119h-840zM98 836v118h840v-118h-840z" />
<glyph unicode="&#x3e;" horiz-adv-x="983" d="M98 276v136l418 161l254 101v8l-254 98l-418 164v133l844 -342v-119z" />
<glyph unicode="?" horiz-adv-x="837" d="M193 78q0 53 39.5 98t97.5 45q43 0 68.5 -29.5t25.5 -74.5q0 -55 -39 -98.5t-96 -43.5q-43 0 -69.5 29t-26.5 74zM227 1255q137 141 318 142q143 0 227 -76t84 -207q0 -92 -41 -170t-101.5 -136t-121 -115.5t-106.5 -132.5t-54 -161l-135 13q6 96 50 178t102.5 139 t116 110.5t97 116t39.5 131.5q0 84 -47 131.5t-129 47.5q-117 0 -215 -105z" />
<glyph unicode="@" horiz-adv-x="1667" d="M92 334q0 205 75 390t198.5 314t285.5 205t332 76q285 0 446.5 -169t161.5 -437q0 -285 -127 -451t-303 -166q-72 0 -121 42t-63 114h-6q-113 -137 -236 -137q-98 0 -166.5 74.5t-68.5 201.5q0 186 119.5 337t281.5 151q96 0 150 -105h4l26 88h105l-103 -444 q-47 -213 107 -213q109 0 199 133t90 354q0 236 -128 379t-382 143q-139 0 -276.5 -66.5t-244 -179t-173 -274.5t-66.5 -338q0 -264 149.5 -415.5t374.5 -151.5q154 0 277 76l47 -94q-164 -88 -336 -88q-272 0 -450.5 175t-178.5 476zM625 406q0 -88 37.5 -135.5 t101.5 -47.5q92 0 184 125l74 330q-49 92 -121 92q-115 0 -195.5 -117.5t-80.5 -246.5z" />
<glyph unicode="A" horiz-adv-x="1044" d="M-109 0l730 1343h184l156 -1343h-166l-37 420h-475l-215 -420h-177zM346 543h399l-20 229q-33 377 -37 438h-8q-88 -190 -215 -438z" />
<glyph unicode="B" horiz-adv-x="1193" d="M72 0l268 1343h358q197 0 306.5 -76.5t109.5 -219.5q0 -129 -89 -219.5t-210 -116.5l-2 -9q113 -27 180.5 -95t67.5 -177q0 -215 -153.5 -322.5t-405.5 -107.5h-430zM254 125h233q418 0 418 297q0 104 -81 165.5t-226 61.5h-238zM383 766h192q186 0 281.5 69.5 t95.5 188.5q0 193 -293 193h-186z" />
<glyph unicode="C" horiz-adv-x="1126" d="M117 518q0 213 85 406.5t246.5 318.5t362.5 125q217 0 330 -199l-111 -84q-90 145 -227 146q-152 0 -274.5 -107.5t-185 -266.5t-62.5 -325q0 -193 84 -306t258 -113q141 0 284 120l72 -102q-178 -156 -385 -156q-225 0 -351 148.5t-126 394.5z" />
<glyph unicode="D" horiz-adv-x="1212" d="M72 0l268 1343h250q276 0 422.5 -137t146.5 -387q0 -371 -194.5 -595t-532.5 -224h-360zM256 131h176q258 0 411.5 187.5t153.5 490.5q0 193 -106.5 299t-306.5 106h-111z" />
<glyph unicode="E" horiz-adv-x="1030" d="M72 0l268 1343h741l-26 -133h-584l-86 -436h494l-29 -135h-490l-104 -504h602l-29 -135h-757z" />
<glyph unicode="F" horiz-adv-x="968" d="M72 0l268 1343h741l-26 -133h-584l-92 -467h493l-26 -135h-492l-123 -608h-159z" />
<glyph unicode="G" horiz-adv-x="1204" d="M117 518q0 217 85 408.5t252 316.5t377 125q221 0 338 -199l-112 -84q-86 145 -234 146q-162 0 -288.5 -107.5t-190 -265.5t-63.5 -326q0 -193 86 -307t270 -114q133 0 229 82l76 370h-278l26 131h422l-117 -581q-164 -137 -381 -138q-238 0 -367.5 146.5t-129.5 396.5z " />
<glyph unicode="H" horiz-adv-x="1273" d="M72 0l268 1343h160l-115 -567h606l115 567h158l-269 -1343h-159l129 639h-607l-127 -639h-159z" />
<glyph unicode="I" horiz-adv-x="516" d="M72 0l268 1343h160l-269 -1343h-159z" />
<glyph unicode="J" horiz-adv-x="933" d="M-4 182l104 88q61 -157 228 -157h2q100 0 164.5 74.5t91.5 211.5l188 944h160l-193 -966q-35 -182 -141 -292t-274 -110q-236 0 -330 207z" />
<glyph unicode="K" horiz-adv-x="1144" d="M72 0l268 1343h160l-133 -663h6l674 663h180l-504 -516l305 -827h-166l-258 725l-280 -274l-93 -451h-159z" />
<glyph unicode="L" horiz-adv-x="946" d="M72 0l268 1343h160l-242 -1208h565l-26 -135h-725z" />
<glyph unicode="M" horiz-adv-x="1443" d="M72 0l268 1343h190l117 -725l45 -278h8l144 278l399 725h191l-269 -1343h-153l155 758q39 190 97 395h-9l-161 -299l-396 -713h-90l-125 713l-45 299h-8q-43 -322 -57 -395l-152 -758h-149z" />
<glyph unicode="N" horiz-adv-x="1267" d="M72 0l268 1343h160l307 -860l86 -280h8q39 322 62 428l141 712h153l-268 -1343h-158l-303 858l-88 289h-8q-29 -252 -63 -424l-144 -723h-153z" />
<glyph unicode="O" horiz-adv-x="1296" d="M123 539q0 207 81 395t233.5 311t338.5 123q221 0 343 -151.5t122 -409.5q0 -207 -81 -396.5t-233.5 -312.5t-338.5 -123q-221 0 -343 152t-122 412zM285 551q0 -205 77.5 -321.5t233.5 -116.5q137 0 251 105.5t173 260t59 314.5q0 205 -77.5 321.5t-233.5 116.5 q-137 0 -251 -105.5t-173 -260t-59 -314.5z" />
<glyph unicode="P" horiz-adv-x="1126" d="M72 0l268 1343h379q422 0 422 -327q0 -238 -160 -356.5t-428 -118.5h-215l-107 -541h-159zM365 670h194q424 0 424 325q0 221 -303 222h-207z" />
<glyph unicode="Q" horiz-adv-x="1296" d="M123 539q0 207 81 395t233.5 311t338.5 123q221 0 343 -151.5t122 -409.5q0 -307 -173 -556t-433 -274q35 -86 119 -131t196 -45q50 1 113 15l10 -125q-68 -23 -133 -23q-176 0 -298 80t-171 240q-168 39 -258 183t-90 368zM285 551q0 -205 77.5 -321.5t233.5 -116.5 q137 0 251 105.5t173 260t59 314.5q0 205 -77.5 321.5t-233.5 116.5q-137 0 -251 -105.5t-173 -260t-59 -314.5z" />
<glyph unicode="R" horiz-adv-x="1136" d="M72 0l268 1343h369q419 0 419 -312q0 -181 -108.5 -297t-286.5 -150l236 -584h-170l-221 569h-234l-113 -569h-159zM371 698h202q190 0 294 83t104 229q0 207 -301 207h-197z" />
<glyph unicode="S" horiz-adv-x="1036" d="M25 213l116 88q129 -190 346 -190q125 0 207 70.5t82 183.5q0 70 -42 120t-126 101l-155 94q-207 125 -207 315q0 154 119.5 263.5t298.5 109.5q115 0 215 -51t165 -137l-104 -95q-123 145 -289 146q-109 0 -176 -65.5t-67 -151.5q0 -72 43 -119t131 -100l155 -93 q102 -59 152.5 -132.5t50.5 -182.5q0 -180 -131 -296t-336 -116q-286 0 -448 238z" />
<glyph unicode="T" horiz-adv-x="1044" d="M190 1206l27 137h940l-27 -137h-391l-239 -1206h-160l240 1206h-390z" />
<glyph unicode="U" horiz-adv-x="1261" d="M162 399q0 78 20 191l152 753h160l-154 -768q-18 -92 -18 -161q0 -301 272 -301q123 0 212 98t130 309l166 823h155l-167 -829q-104 -539 -504 -539q-205 0 -314.5 109t-109.5 315z" />
<glyph unicode="V" horiz-adv-x="1015" d="M168 1343h162l55 -745q25 -283 33 -442h8q135 287 213 442l371 745h172l-703 -1343h-190z" />
<glyph unicode="W" horiz-adv-x="1548" d="M195 0l18 1343h164l-21 -739q-4 -59 -9 -207.5t-11 -228.5h8q20 49 60 138t72 162t59 136l335 739h146l18 -739q2 -141 2 -436h8q31 84 91.5 235.5t78.5 200.5l291 739h158l-553 -1343h-203l-14 821q0 156 6 316h-8q-14 -41 -131 -316l-367 -821h-198z" />
<glyph unicode="X" horiz-adv-x="1011" d="M-74 0l516 696l-221 647h172l115 -356q6 -16 24.5 -81.5t30.5 -106.5h6q76 104 136 194l245 350h168l-485 -659l239 -684h-172l-122 377q-2 6 -27 86t-37 123h-6q-47 -63 -150 -217l-262 -369h-170z" />
<glyph unicode="Y" horiz-adv-x="944" d="M170 1343h164l92 -387q14 -53 35.5 -150t32.5 -140h8q123 201 184 292l254 385h170l-561 -819l-107 -524h-157l104 524z" />
<glyph unicode="Z" horiz-adv-x="1048" d="M-2 0l20 96l871 1114h-615l29 133h805l-21 -94l-864 -1114h678l-31 -135h-872z" />
<glyph unicode="[" horiz-adv-x="598" d="M16 -311l353 1761h346l-15 -92h-231l-313 -1577h229l-23 -92h-346z" />
<glyph unicode="\" horiz-adv-x="696" d="M180 1454h107l239 -1782h-110z" />
<glyph unicode="]" horiz-adv-x="600" d="M-100 -311l20 92h227l318 1577h-229l16 92h350l-352 -1761h-350z" />
<glyph unicode="^" horiz-adv-x="980" d="M170 580l299 792h127l299 -792h-131l-133 364l-92 273h-7l-96 -273l-131 -364h-135z" />
<glyph unicode="_" horiz-adv-x="989" d="M-74 -254l23 102h936l-21 -102h-938z" />
<glyph unicode="`" horiz-adv-x="1058" d="M520 1458h154l121 -289h-115z" />
<glyph unicode="a" horiz-adv-x="1099" d="M80 336q0 283 164 483.5t374 200.5q162 0 240 -150h8l39 125h127l-198 -995h-129l16 147h-8q-162 -172 -346 -172q-133 0 -210 94.5t-77 266.5zM242 360q0 -125 48 -189.5t134 -64.5q168 0 313 191l90 444q-82 147 -202 148q-150 0 -266.5 -162t-116.5 -367z" />
<glyph unicode="b" horiz-adv-x="1097" d="M63 0l291 1458h158l-80 -389l-45 -197h4q182 147 338 148q133 0 210 -94.5t77 -266.5q0 -283 -163 -483.5t-374 -200.5q-162 0 -239 150h-7l-40 -125h-130zM270 254q78 -147 203 -148q150 0 265.5 162t115.5 369q0 123 -48 187.5t-134 64.5q-70 0 -154 -44t-153 -118z " />
<glyph unicode="c" horiz-adv-x="890" d="M76 375q0 272 167 458.5t388 186.5q152 0 258 -121l-92 -98q-76 90 -176 90q-150 0 -267.5 -151.5t-117.5 -354.5q0 -279 235 -279q106 0 221 89l70 -103q-152 -117 -320 -117q-166 0 -266 107t-100 293z" />
<glyph unicode="d" horiz-adv-x="1095" d="M80 336q0 283 164 483.5t374 200.5q154 0 236 -146h6l33 195l78 389h157l-294 -1458h-129l16 147h-8q-162 -172 -346 -172q-133 0 -210 94.5t-77 266.5zM242 360q0 -125 48 -189.5t134 -64.5q166 0 313 191l90 444q-82 147 -202 148q-150 0 -266.5 -162t-116.5 -367z" />
<glyph unicode="e" horiz-adv-x="985" d="M76 391q0 270 163.5 449.5t368.5 179.5q160 0 233.5 -98.5t73.5 -262.5q0 -90 -34 -194h-648q-7 -47 -7 -88q0 -117 58 -185q78 -92 220 -92q106 0 223 86l61 -104q-147 -106 -321 -107q-180 0 -285.5 109.5t-105.5 306.5zM250 571h522q10 55 10 103q0 94 -46 157.5 t-146 63.5q-111 0 -207 -89.5t-133 -234.5z" />
<glyph unicode="f" horiz-adv-x="577" d="M88 0l174 868h-129l23 117l133 10l33 166q31 154 111.5 238t203.5 84q92 0 176 -49l-55 -113q-53 35 -111 35q-131 0 -168 -191l-35 -170h201l-24 -127h-203l-174 -868h-156z" />
<glyph unicode="g" horiz-adv-x="1087" d="M-4 -322l74 109q137 -119 280 -119q242 0 314 297l49 205h-6q-166 -160 -338 -160q-131 0 -210 91.5t-79 258.5q0 268 160.5 464t365.5 196q78 0 140.5 -40t99.5 -110h6l39 125h129l-209 -1042q-41 -199 -161 -305.5t-306 -106.5q-182 0 -348 137zM242 383 q0 -119 47 -180.5t131 -61.5q74 0 156.5 45t150.5 129l88 426q-86 147 -203 148q-143 0 -256.5 -155.5t-113.5 -350.5z" />
<glyph unicode="h" horiz-adv-x="1062" d="M63 0l291 1458h158l-98 -481l-33 -125h8q197 168 342 168q236 0 236 -248q0 -63 -17 -137l-127 -635h-155l123 614q16 86 16 117q0 154 -148 154q-119 0 -299 -180l-141 -705h-156z" />
<glyph unicode="i" horiz-adv-x="485" d="M63 0l199 995h158l-201 -995h-156zM295 1294q0 49 35 84t84 35q41 0 70.5 -25.5t29.5 -68.5q0 -49 -35 -83t-84 -34q-43 0 -71.5 24.5t-28.5 67.5z" />
<glyph unicode="j" horiz-adv-x="487" d="M-254 -406l51 117q41 -26 90 -26h4q102 0 146 188l227 1122h158l-227 -1120q-66 -319 -295 -319q-82 0 -154 38zM297 1294q0 51 35 85t84 34q41 0 69.5 -25.5t28.5 -68.5q0 -49 -35 -83t-84 -34q-41 0 -69.5 24.5t-28.5 67.5z" />
<glyph unicode="k" horiz-adv-x="974" d="M63 0l291 1458h158l-197 -989h4l510 526h181l-398 -415l240 -580h-160l-190 485l-230 -233l-53 -252h-156z" />
<glyph unicode="l" horiz-adv-x="507" d="M90 104q0 34 12 86l252 1268h158l-256 -1276q-4 -20 -4 -39q0 -37 35 -37q14 0 32 7l3 -121q-43 -16 -99 -17q-133 0 -133 129z" />
<glyph unicode="m" horiz-adv-x="1636" d="M63 0l197 995h129l-14 -149h8q184 174 328 174q203 0 229 -195q205 195 352 195q236 0 236 -248q0 -49 -17 -137l-127 -635h-157l125 614q16 86 16 117q0 154 -145 154q-109 0 -281 -180l-141 -705h-156l123 614q16 86 16 117q0 154 -143 154q-113 0 -281 -180l-141 -705 h-156z" />
<glyph unicode="n" horiz-adv-x="1075" d="M63 0l197 995h129l-14 -149h8q199 174 348 174q236 0 236 -248q0 -63 -17 -137l-127 -635h-155l123 614q16 86 16 117q0 154 -148 154q-119 0 -299 -180l-141 -705h-156z" />
<glyph unicode="o" horiz-adv-x="1054" d="M80 375q0 274 163 459.5t373 185.5q162 0 259.5 -107.5t97.5 -291.5q0 -274 -164 -460t-375 -186q-162 0 -258 107.5t-96 292.5zM238 385q0 -135 55 -207t158 -72q141 0 251.5 150t110.5 354q0 135 -55.5 208t-157.5 73q-139 0 -250.5 -150.5t-111.5 -355.5z" />
<glyph unicode="p" horiz-adv-x="1095" d="M-20 -420l282 1415h129l-12 -131h6q186 156 344 156q133 0 210 -94.5t77 -266.5q0 -283 -163 -483.5t-374 -200.5q-152 0 -239 144h-4l-37 -213l-64 -326h-155zM270 250q78 -143 203 -144q150 0 265.5 162t115.5 369q0 123 -48 187.5t-134 64.5q-70 0 -154 -44t-153 -120 z" />
<glyph unicode="q" horiz-adv-x="1099" d="M80 336q0 283 164 483.5t374 200.5q162 0 240 -150h8l39 125h127l-282 -1415h-158l67 326l62 244h-4q-170 -174 -350 -175q-133 0 -210 94.5t-77 266.5zM242 360q0 -125 48 -189.5t134 -64.5q74 0 158 49.5t155 141.5l90 444q-82 147 -202 148q-150 0 -266.5 -162 t-116.5 -367z" />
<glyph unicode="r" horiz-adv-x="700" d="M63 0l197 995h129l-22 -190h8q141 215 309 215q51 0 94 -19l-55 -139q-33 16 -86 17q-76 0 -153.5 -65.5t-139.5 -184.5l-125 -629h-156z" />
<glyph unicode="s" horiz-adv-x="823" d="M-8 164l98 78q104 -145 256 -146q86 0 148.5 49.5t62.5 116.5q0 53 -38 92t-144 97q-119 66 -173.5 128t-54.5 144q0 129 99.5 213t242.5 84q166 0 293 -133l-90 -88q-94 98 -207 98q-80 0 -134 -46t-54 -110q0 -31 12.5 -54t45 -48t51 -36t67.5 -38q131 -72 182.5 -135 t51.5 -147q0 -137 -104.5 -222.5t-268.5 -85.5q-98 0 -194.5 54.5t-147.5 134.5z" />
<glyph unicode="t" horiz-adv-x="665" d="M123 868l22 117l156 10l74 275h133l-55 -275h252l-25 -127h-256l-117 -569q-6 -37 -6 -74q0 -63 28.5 -93t98.5 -30q39 0 104 31l35 -113q-98 -45 -188 -45q-123 0 -180.5 60.5t-57.5 161.5q1 18 11 110l116 561h-145z" />
<glyph unicode="u" horiz-adv-x="1081" d="M131 360l127 635h158l-125 -614q-16 -86 -17 -117q0 -153 146 -153h2q121 0 295 180l141 704h156l-199 -995h-129l16 152h-8q-199 -176 -344 -177q-235 0 -235 246q0 68 16 139z" />
<glyph unicode="v" horiz-adv-x="917" d="M121 995h155l74 -575q6 -49 15.5 -149.5t13.5 -147.5h8q82 174 148 297l292 575h158l-530 -995h-189z" />
<glyph unicode="w" horiz-adv-x="1447" d="M143 995h156l33 -585q2 -94 6 -279h8q18 41 57 134t62 145l262 585h154l34 -585q2 -47 5.5 -139.5t5.5 -139.5h8q12 29 51 127t64 152l260 585h147l-452 -995h-195l-29 545q-2 47 -6 293h-8q-12 -29 -54 -133.5t-67 -159.5l-242 -545h-188z" />
<glyph unicode="x" horiz-adv-x="878" d="M-90 0l446 528l-186 467h160l86 -221q12 -35 33.5 -94t25.5 -74h8q16 20 60.5 77.5t66.5 90.5l174 221h170l-409 -501l203 -494h-162l-90 233q-57 152 -72 185h-8q-37 -53 -142 -182l-192 -236h-172z" />
<glyph unicode="y" horiz-adv-x="917" d="M-127 -399l51 116q37 -18 74 -18q147 0 260 227l37 72l-170 997h156l77 -559q14 -96 33 -297h8q10 23 64.5 132.5t83.5 164.5l287 559h155l-586 -1079q-88 -166 -185 -255t-230 -89q-59 0 -115 29z" />
<glyph unicode="z" horiz-adv-x="843" d="M-39 0l16 90l662 778h-451l25 127h649l-14 -92l-664 -776h523l-27 -127h-719z" />
<glyph unicode="{" horiz-adv-x="593" d="M66 518l22 103q166 0 201 161q10 57 28.5 186.5t34.5 205.5q31 158 90.5 217t184.5 59h94l-21 -92h-53q-78 0 -114.5 -44t-57.5 -149q-10 -55 -29.5 -179t-31.5 -189q-20 -102 -60.5 -156.5t-111.5 -73.5v-8q90 -31 90 -125q0 -74 -53.5 -281.5t-53.5 -271.5 q0 -53 24.5 -76.5t88.5 -23.5h49l-20 -92h-91q-94 0 -137 39t-43 125q0 80 56.5 287.5t56.5 262.5q0 115 -143 115z" />
<glyph unicode="|" horiz-adv-x="473" d="M195 -512v2048h106v-2048h-106z" />
<glyph unicode="}" horiz-adv-x="600" d="M-106 -311l18 92h53q80 0 117 43t55 147q12 63 31.5 189.5t30.5 179.5q23 104 61.5 158.5t110.5 72.5v9q-90 31 -90 125q0 72 53 279.5t53 270.5q0 55 -23.5 79t-87.5 24h-51l21 92h90q96 0 139 -40t43 -124q0 -80 -56 -289t-56 -266q0 -111 143 -110l-23 -103 q-170 0 -200 -162q-10 -57 -28.5 -188t-35.5 -207q-33 -156 -93 -214t-181 -58h-94z" />
<glyph unicode="~" horiz-adv-x="983" d="M92 641q96 182 244 182q63 0 127.5 -44t120 -88t100.5 -44q88 0 152 125l88 -57q-96 -182 -244 -183q-63 0 -128 44.5t-120 88.5t-100 44q-89 0 -152 -125z" />
<glyph unicode="&#xa1;" horiz-adv-x="577" d="M43 -379l39 189l176 784h111l-138 -784l-30 -189h-158zM258 879q0 55 38 98t95 43q43 0 69.5 -28.5t26.5 -73.5q0 -55 -39.5 -99.5t-97.5 -44.5q-43 0 -67.5 30t-24.5 75z" />
<glyph unicode="&#xa2;" horiz-adv-x="983" d="M160 588q0 242 149.5 399.5t343.5 175.5l41 209h101l-41 -211q123 -18 225 -135l-96 -92q-76 86 -156 98l-141 -715q111 8 223 89l55 -107q-160 -102 -303 -113l-43 -215h-102l43 217q-139 20 -219 124t-80 276zM315 614q0 -243 170 -290l142 706q-127 -23 -219.5 -138.5 t-92.5 -277.5z" />
<glyph unicode="&#xa3;" horiz-adv-x="983" d="M8 0l19 94q143 72 219 195t76 274v17h-197l22 110l166 10q-12 131 -12 187q0 205 117 327.5t301 122.5q180 0 287 -170l-107 -84q-76 125 -188 125q-115 0 -188.5 -90t-73.5 -241q0 -53 12 -177h317l-24 -120h-287q-2 -264 -180 -437l-2 -8h530l-24 -135h-783z" />
<glyph unicode="&#xa4;" horiz-adv-x="983" d="M23 322l145 127q-31 72 -31 155q0 184 123 318l-96 125l90 75l98 -129q111 78 236 78q123 0 205 -76l149 129l72 -86l-150 -129q33 -70 33 -155q0 -178 -117 -310l109 -139l-88 -74l-111 140q-117 -86 -244 -86q-131 0 -204 80l-148 -129zM285 621q0 -104 46 -161 t132 -57q111 0 199 97.5t88 236.5q0 104 -46.5 160.5t-132.5 56.5q-109 0 -197.5 -98t-88.5 -235z" />
<glyph unicode="&#xa5;" horiz-adv-x="983" d="M57 330l19 86h319l25 141h-318l19 88h278l-186 662h160l84 -361q20 -96 61 -278h6q23 35 57.5 92t63.5 102t55 84l222 361h157l-442 -662h278l-20 -88h-317l-27 -141h319l-20 -86h-320l-65 -330h-156l68 330h-320z" />
<glyph unicode="&#xa6;" horiz-adv-x="473" d="M195 436h106v-948h-106v948zM195 592v944h106v-944h-106z" />
<glyph unicode="&#xa7;" horiz-adv-x="976" d="M31 31l84 102q125 -133 266 -133q78 0 130 46t52 116q0 59 -46 106t-111.5 84t-132 77t-112.5 104.5t-46 148.5q0 211 221 305q-33 55 -33 119q0 133 87 214t222 81q171 0 310 -150l-88 -92q-104 119 -224 119q-66 0 -113.5 -41t-47.5 -111q0 -53 46 -99t111.5 -85 t132 -82t112.5 -110.5t46 -151.5q0 -113 -54.5 -182.5t-162.5 -118.5q27 -53 27 -113q0 -133 -94.5 -220t-239.5 -87q-188 0 -342 154zM254 705q0 -74 55.5 -126.5t156.5 -106.5t144 -91q74 27 111 73t37 124q0 72 -52.5 125t-156 113.5t-141.5 92.5q-154 -66 -154 -204z " />
<glyph unicode="&#xa8;" horiz-adv-x="1058" d="M436 1288q0 47 31 80t74 33q37 0 60.5 -23.5t23.5 -62.5q0 -45 -31 -77t-74 -32q-37 0 -60.5 22.5t-23.5 59.5zM776 1288q0 47 31 80t74 33q37 0 60.5 -23.5t23.5 -62.5q0 -45 -31 -77t-74 -32q-37 0 -60.5 22.5t-23.5 59.5z" />
<glyph unicode="&#xa9;" horiz-adv-x="1361" d="M74 545q0 203 91 383t263 294.5t387 114.5q238 0 388.5 -157.5t150.5 -407.5q0 -203 -91.5 -384t-264.5 -296t-388 -115q-238 0 -387 159t-149 409zM162 555q0 -221 122 -357.5t332 -136.5q276 0 463 214t187 487q0 221 -123 357t-334 136q-184 0 -335.5 -103 t-231.5 -263t-80 -334zM369 565q0 211 133 347.5t293 136.5q119 0 200 -105l-75 -70q-59 72 -140 72q-104 0 -197.5 -105.5t-93.5 -256.5q0 -109 53.5 -166.5t147.5 -57.5q76 0 201 80l51 -80q-143 -104 -274 -104q-135 0 -217 81t-82 228z" />
<glyph unicode="&#xaa;" horiz-adv-x="724" d="M119 758q0 184 110.5 317t251.5 133q102 0 152 -96h8l29 80h92l-129 -660h-96l12 99h-8q-109 -115 -230 -115q-88 0 -140 62.5t-52 179.5zM240 774q0 -80 30.5 -120t79.5 -40q111 0 207 129l53 273q-49 94 -125 94q-92 0 -168.5 -102.5t-76.5 -233.5z" />
<glyph unicode="&#xab;" horiz-adv-x="843" d="M82 461l22 127l320 303l57 -60l-291 -319l175 -330l-72 -45zM410 461l22 127l318 303l57 -60l-289 -319l174 -330l-74 -45z" />
<glyph unicode="&#xac;" horiz-adv-x="983" d="M98 618v117h840v-524h-123v407h-717z" />
<glyph unicode="&#xad;" horiz-adv-x="612" d="M72 455l26 120h447l-25 -120h-448z" />
<glyph unicode="&#xae;" horiz-adv-x="831" d="M150 1008q0 176 117.5 311t289.5 135q137 0 234.5 -98.5t99.5 -247.5q0 -178 -119 -312t-291 -134q-137 0 -234 97t-97 249zM225 1016q0 -125 71 -205t191 -80q135 0 231.5 109.5t96.5 259.5q0 123 -72.5 202.5t-191.5 79.5q-137 0 -231.5 -108.5t-94.5 -257.5zM346 854 l84 414h135q59 0 94 -31t35 -88q0 -45 -26.5 -81t-73.5 -52l57 -162h-82l-45 143h-69l-31 -143h-78zM467 1059h45q45 0 72.5 22.5t27.5 59.5q0 61 -67 61h-51z" />
<glyph unicode="&#xaf;" horiz-adv-x="1058" d="M444 1231l21 110h481l-20 -110h-482z" />
<glyph unicode="&#xb0;" horiz-adv-x="641" d="M207 1112q0 119 79 205t189 86q94 0 155.5 -63.5t61.5 -163.5q0 -119 -78.5 -205t-187.5 -86q-96 0 -157.5 63.5t-61.5 163.5zM303 1116q0 -61 35 -101t94 -40q72 0 118 59.5t46 136.5q0 61 -35 102.5t-94 41.5q-72 0 -118 -60.5t-46 -138.5z" />
<glyph unicode="&#xb1;" horiz-adv-x="983" d="M98 0v119h840v-119h-840zM98 645v119h359v371h123v-371h358v-119h-360v-379h-123v379h-357z" />
<glyph unicode="&#xb2;" horiz-adv-x="722" d="M178 901l15 78q264 184 369.5 294.5t105.5 217.5q0 127 -133 127q-76 0 -166 -96l-72 73q133 129 256 129q111 0 174.5 -57t63.5 -158q0 -121 -93.5 -232.5t-306.5 -270.5h336l-20 -105h-529z" />
<glyph unicode="&#xb3;" horiz-adv-x="718" d="M176 1040l84 60q70 -123 186 -123q74 0 123 39t49 108q0 63 -54 104.5t-165 41.5l19 84q127 0 186.5 47t59.5 112q0 51 -34 82t-91 31q-80 0 -170 -67l-54 83q115 82 246 82q100 0 163.5 -52t63.5 -142q0 -76 -50 -136.5t-138 -86.5q68 -23 103.5 -74t35.5 -107 q0 -115 -84 -182t-204 -67q-183 -1 -275 163z" />
<glyph unicode="&#xb4;" horiz-adv-x="1058" d="M539 1169l237 289h168l-278 -289h-127z" />
<glyph unicode="&#xb5;" horiz-adv-x="1077" d="M-20 -391l276 1386h158l-125 -614q-16 -86 -17 -117q0 -154 148 -153q117 0 295 180l141 704h154l-197 -995h-129l16 152h-8q-170 -170 -297 -170q-135 0 -174 104l-26 -170l-60 -307h-155z" />
<glyph unicode="&#xb6;" horiz-adv-x="1095" d="M150 825q0 250 163.5 384t397.5 134h98l-178 -878h-31q-193 0 -321.5 95t-128.5 265zM614 -164l299 1507h158l-301 -1507h-156z" />
<glyph unicode="&#xb7;" horiz-adv-x="495" d="M162 651q0 55 40 100.5t97 45.5q43 0 68.5 -30t25.5 -77q0 -55 -39 -98t-96 -43q-43 0 -69.5 28.5t-26.5 73.5z" />
<glyph unicode="&#xb8;" horiz-adv-x="1058" d="M199 -365q193 33 192 123q0 33 -24.5 52.5t-83.5 35.5l110 160h107l-78 -115q92 -33 92 -116q0 -92 -87 -144.5t-220 -66.5z" />
<glyph unicode="&#xb9;" horiz-adv-x="729" d="M367 1540l14 80q137 20 225 80h96l-157 -799h-123l127 639h-182z" />
<glyph unicode="&#xba;" horiz-adv-x="712" d="M119 782q0 186 110.5 306t253.5 120q111 0 177.5 -70.5t66.5 -195.5q0 -186 -112 -306t-255 -120q-111 0 -176 70.5t-65 195.5zM236 786q0 -172 135 -172q96 0 166.5 95.5t70.5 226.5q0 174 -135 174q-96 0 -166.5 -96t-70.5 -228z" />
<glyph unicode="&#xbb;" horiz-adv-x="843" d="M47 197l289 319l-174 330l74 45l210 -324l-22 -127l-320 -303zM373 197l291 319l-175 330l72 45l211 -324l-22 -127l-320 -303z" />
<glyph unicode="&#xbc;" horiz-adv-x="1531" d="M244 1192l16 80q135 20 225 80h97l-160 -799h-123l129 639h-184zM248 -25l991 1401h107l-990 -1401h-108zM823 217l15 68l436 514h133l-98 -494h116l-18 -88h-115l-43 -217h-108l43 217h-361zM963 305h239l31 156l51 221h-8l-137 -172z" />
<glyph unicode="&#xbd;" horiz-adv-x="1581" d="M203 -25l991 1401h106l-991 -1401h-106zM236 1192l16 80q135 20 225 80h96l-159 -799h-123l129 639h-184zM860 0l14 78q264 184 370 294.5t106 217.5q0 127 -133 127q-74 0 -164 -96l-72 73q129 129 256 129q109 0 172.5 -57t63.5 -158q0 -121 -93.5 -232.5 t-304.5 -271.5h334l-20 -104h-529z" />
<glyph unicode="&#xbe;" horiz-adv-x="1564" d="M94 692l84 60q70 -123 187 -123q74 0 123 39t49 108q0 63 -54.5 104.5t-165.5 41.5l19 84q127 0 186.5 47t59.5 112q0 51 -34 82t-91 31q-80 0 -170 -68l-54 84q115 82 246 82q100 0 164 -52t64 -142q0 -76 -50.5 -136.5t-138.5 -87.5q68 -23 103.5 -73.5t35.5 -106.5 q0 -115 -84 -182.5t-204 -67.5q-182 0 -275 164zM317 -25l992 1401h106l-991 -1401h-107zM858 217l14 68l437 514h135l-98 -494h116l-20 -88h-115l-43 -217h-108l43 217h-361zM999 305h238l31 156l53 221h-8l-137 -172z" />
<glyph unicode="&#xbf;" horiz-adv-x="837" d="M-8 -115q0 90 41 169t100.5 137.5t119.5 116t107.5 132t55.5 158.5l135 -12q-6 -94 -50 -176t-102.5 -139.5t-116 -111t-97.5 -116.5t-40 -133q0 -84 46.5 -131t127.5 -47q121 0 218 106l81 -94q-133 -143 -315 -143q-143 0 -227 75.5t-84 208.5zM424 881q0 55 38 98 t95 43q45 0 71.5 -28.5t26.5 -73.5q0 -53 -41 -98.5t-96 -45.5q-45 0 -69.5 29t-24.5 76z" />
<glyph unicode="&#xc0;" horiz-adv-x="1044" d="M-109 0l730 1343h184l156 -1343h-166l-37 420h-475l-215 -420h-177zM346 543h399l-20 229q-33 377 -37 438h-8q-88 -190 -215 -438zM496 1671h166l139 -225h-123z" />
<glyph unicode="&#xc1;" horiz-adv-x="1044" d="M-109 0l730 1343h184l156 -1343h-166l-37 420h-475l-215 -420h-177zM346 543h399l-20 229q-33 377 -37 438h-8q-88 -190 -215 -438zM604 1446l217 225h178l-262 -225h-133z" />
<glyph unicode="&#xc2;" horiz-adv-x="1044" d="M-109 0l730 1343h184l156 -1343h-166l-37 420h-475l-215 -420h-177zM346 543h399l-20 229q-33 377 -37 438h-8q-88 -190 -215 -438zM440 1446l234 223h149l144 -223h-121l-105 143h-6l-160 -143h-135z" />
<glyph unicode="&#xc3;" horiz-adv-x="1044" d="M-109 0l730 1343h184l156 -1343h-166l-37 420h-475l-215 -420h-177zM346 543h399l-20 229q-33 377 -37 438h-8q-88 -190 -215 -438zM422 1456q23 92 79 153.5t124 61.5q53 0 114.5 -56t98.5 -56q61 -1 100 108h90q-23 -92 -79 -153.5t-124 -61.5q-53 0 -114.5 57.5 t-98.5 57.5q-59 0 -100 -111h-90z" />
<glyph unicode="&#xc4;" horiz-adv-x="1044" d="M-109 0l730 1343h184l156 -1343h-166l-37 420h-475l-215 -420h-177zM346 543h399l-20 229q-33 377 -37 438h-8q-88 -190 -215 -438zM465 1546q0 45 30.5 79t73.5 34q37 0 59.5 -22.5t22.5 -61.5q0 -43 -30.5 -77t-73.5 -34q-37 0 -59.5 22.5t-22.5 59.5zM805 1546 q0 45 30.5 79t73.5 34q35 0 58.5 -22.5t23.5 -61.5q0 -43 -30.5 -77t-73.5 -34q-37 0 -59.5 22.5t-22.5 59.5z" />
<glyph unicode="&#xc5;" horiz-adv-x="1044" d="M-109 0l730 1343h184l156 -1343h-166l-37 420h-475l-215 -420h-177zM346 543h399l-20 229q-33 377 -37 438h-8q-88 -190 -215 -438zM547 1589q0 84 60.5 143.5t142.5 59.5q76 0 124 -41t48 -121q0 -84 -59.5 -143.5t-143.5 -59.5q-76 0 -124 41t-48 121zM637 1597 q0 -43 22.5 -69.5t63.5 -26.5q45 0 78 36t33 87q0 43 -24 68.5t-65 25.5q-45 0 -76.5 -34.5t-31.5 -86.5z" />
<glyph unicode="&#xc6;" horiz-adv-x="1644" d="M-68 0l940 1343h824l-29 -133h-559l-86 -436h469l-27 -135h-467l-104 -504h577l-26 -135h-735l79 397h-405l-268 -397h-183zM469 524h344l139 699h-6q-59 -88 -168.5 -247t-136.5 -198z" />
<glyph unicode="&#xc7;" horiz-adv-x="1126" d="M117 518q0 213 85 406.5t246.5 318.5t362.5 125q217 0 330 -199l-111 -84q-90 145 -227 146q-152 0 -274.5 -107.5t-185 -266.5t-62.5 -325q0 -193 84 -306t258 -113q141 0 284 120l72 -102q-170 -147 -367 -156l-57 -84q92 -33 92 -116q0 -92 -87 -144.5t-220 -66.5 l-8 71q193 33 192 123q0 33 -23.5 52.5t-82.5 35.5l94 136q-188 27 -291.5 171t-103.5 365z" />
<glyph unicode="&#xc8;" horiz-adv-x="1030" d="M72 0l268 1343h741l-26 -133h-584l-86 -436h494l-29 -135h-490l-104 -504h602l-29 -135h-757zM518 1671h166l141 -225h-125z" />
<glyph unicode="&#xc9;" horiz-adv-x="1030" d="M72 0l268 1343h741l-26 -133h-584l-86 -436h494l-29 -135h-490l-104 -504h602l-29 -135h-757zM627 1446l217 225h180l-262 -225h-135z" />
<glyph unicode="&#xca;" horiz-adv-x="1030" d="M72 0l268 1343h741l-26 -133h-584l-86 -436h494l-29 -135h-490l-104 -504h602l-29 -135h-757zM465 1446l231 223h150l143 -223h-121l-102 143h-8l-160 -143h-133z" />
<glyph unicode="&#xcb;" horiz-adv-x="1030" d="M72 0l268 1343h741l-26 -133h-584l-86 -436h494l-29 -135h-490l-104 -504h602l-29 -135h-757zM489 1546q0 45 30 79t73 34q37 0 59.5 -22.5t22.5 -61.5q0 -43 -30 -77t-73 -34q-37 0 -59.5 21.5t-22.5 60.5zM829 1546q0 45 30 79t73 34q37 0 59.5 -22.5t22.5 -61.5 q0 -43 -31 -77t-72 -34q-37 0 -59.5 21.5t-22.5 60.5z" />
<glyph unicode="&#xcc;" horiz-adv-x="516" d="M72 0l268 1343h160l-269 -1343h-159zM211 1671h166l141 -225h-125z" />
<glyph unicode="&#xcd;" horiz-adv-x="516" d="M72 0l268 1343h160l-269 -1343h-159zM319 1446l220 225h178l-262 -225h-136z" />
<glyph unicode="&#xce;" horiz-adv-x="516" d="M72 0l268 1343h160l-269 -1343h-159zM158 1446l233 223h148l145 -223h-121l-104 143h-6l-162 -143h-133z" />
<glyph unicode="&#xcf;" horiz-adv-x="516" d="M72 0l268 1343h160l-269 -1343h-159zM182 1546q0 45 31 79t74 34q35 0 58.5 -22.5t23.5 -61.5q0 -43 -31 -77t-74 -34q-37 0 -59.5 22.5t-22.5 59.5zM522 1546q0 45 31 79t72 34q37 0 59.5 -22.5t22.5 -61.5q0 -43 -30 -77t-73 -34q-37 0 -59.5 22.5t-22.5 59.5z" />
<glyph unicode="&#xd0;" horiz-adv-x="1249" d="M96 664l19 84l143 6l119 589h250q276 0 422.5 -137t146.5 -387q0 -371 -194.5 -595t-532.5 -224h-360l133 664h-146zM293 131h176q258 0 411.5 187.5t153.5 490.5q0 193 -106.5 299t-306.5 106h-111l-92 -460h307l-20 -90h-306z" />
<glyph unicode="&#xd1;" horiz-adv-x="1267" d="M72 0l268 1343h160l307 -860l86 -280h8q39 322 62 428l141 712h153l-268 -1343h-158l-303 858l-88 289h-8q-29 -252 -63 -424l-144 -723h-153zM528 1456q23 92 79.5 153.5t123.5 61.5q53 0 114.5 -56t98.5 -56q61 0 100 108h91q-23 -92 -79.5 -153.5t-123.5 -61.5 q-53 0 -114.5 57.5t-98.5 57.5q-60 0 -101 -111h-90z" />
<glyph unicode="&#xd2;" horiz-adv-x="1296" d="M123 539q0 207 81 395t233.5 311t338.5 123q221 0 343 -151.5t122 -409.5q0 -207 -81 -396.5t-233.5 -312.5t-338.5 -123q-221 0 -343 152t-122 412zM285 551q0 -205 77.5 -321.5t233.5 -116.5q137 0 251 105.5t173 260t59 314.5q0 205 -77.5 321.5t-233.5 116.5 q-137 0 -251 -105.5t-173 -260t-59 -314.5zM616 1671h166l140 -225h-123z" />
<glyph unicode="&#xd3;" horiz-adv-x="1296" d="M123 539q0 207 81 395t233.5 311t338.5 123q221 0 343 -151.5t122 -409.5q0 -207 -81 -396.5t-233.5 -312.5t-338.5 -123q-221 0 -343 152t-122 412zM285 551q0 -205 77.5 -321.5t233.5 -116.5q137 0 251 105.5t173 260t59 314.5q0 205 -77.5 321.5t-233.5 116.5 q-137 0 -251 -105.5t-173 -260t-59 -314.5zM725 1446l217 225h178l-262 -225h-133z" />
<glyph unicode="&#xd4;" horiz-adv-x="1296" d="M123 539q0 207 81 395t233.5 311t338.5 123q221 0 343 -151.5t122 -409.5q0 -207 -81 -396.5t-233.5 -312.5t-338.5 -123q-221 0 -343 152t-122 412zM285 551q0 -205 77.5 -321.5t233.5 -116.5q137 0 251 105.5t173 260t59 314.5q0 205 -77.5 321.5t-233.5 116.5 q-137 0 -251 -105.5t-173 -260t-59 -314.5zM563 1446l232 223h149l143 -223h-120l-105 143h-6l-160 -143h-133z" />
<glyph unicode="&#xd5;" horiz-adv-x="1296" d="M123 539q0 207 81 395t233.5 311t338.5 123q221 0 343 -151.5t122 -409.5q0 -207 -81 -396.5t-233.5 -312.5t-338.5 -123q-221 0 -343 152t-122 412zM285 551q0 -205 77.5 -321.5t233.5 -116.5q137 0 251 105.5t173 260t59 314.5q0 205 -77.5 321.5t-233.5 116.5 q-137 0 -251 -105.5t-173 -260t-59 -314.5zM543 1456q23 92 79 153.5t123 61.5q53 0 115 -56t98 -56q61 0 101 108h90q-23 -92 -79 -153.5t-124 -61.5q-53 0 -114.5 57.5t-98.5 57.5q-59 0 -100 -111h-90z" />
<glyph unicode="&#xd6;" horiz-adv-x="1296" d="M123 539q0 207 81 395t233.5 311t338.5 123q221 0 343 -151.5t122 -409.5q0 -207 -81 -396.5t-233.5 -312.5t-338.5 -123q-221 0 -343 152t-122 412zM285 551q0 -205 77.5 -321.5t233.5 -116.5q137 0 251 105.5t173 260t59 314.5q0 205 -77.5 321.5t-233.5 116.5 q-137 0 -251 -105.5t-173 -260t-59 -314.5zM588 1546q0 45 29.5 79t72.5 34q37 0 59.5 -22.5t22.5 -61.5q0 -43 -30.5 -77t-71.5 -34q-37 0 -59.5 21.5t-22.5 60.5zM926 1546q0 45 30.5 79t73.5 34q35 0 58.5 -22.5t23.5 -61.5q0 -43 -30.5 -77t-73.5 -34q-37 0 -59.5 22.5 t-22.5 59.5z" />
<glyph unicode="&#xd7;" horiz-adv-x="983" d="M133 360l303 318l-303 317l82 82l303 -317l303 317l84 -82l-305 -317l305 -318l-84 -84l-303 320l-303 -320z" />
<glyph unicode="&#xd8;" horiz-adv-x="1296" d="M-6 10l194 207q-66 135 -65 322q0 207 81 395t233.5 311t338.5 123q225 0 346 -156l183 195l73 -72l-198 -213q61 -131 61 -315q0 -207 -81 -396.5t-233.5 -312.5t-338.5 -123q-219 0 -340 148l-172 -184zM285 551q-1 -117 24 -205l705 750q-80 135 -246 135 q-137 0 -251 -105.5t-173 -260t-59 -314.5zM356 240q82 -127 240 -127q137 0 251 105.5t173 260t59 314.5q1 106 -22 196z" />
<glyph unicode="&#xd9;" horiz-adv-x="1261" d="M162 399q0 78 20 191l152 753h160l-154 -768q-18 -92 -18 -161q0 -301 272 -301q123 0 212 98t130 309l166 823h155l-167 -829q-104 -539 -504 -539q-205 0 -314.5 109t-109.5 315zM596 1671h166l139 -225h-123z" />
<glyph unicode="&#xda;" horiz-adv-x="1261" d="M162 399q0 78 20 191l152 753h160l-154 -768q-18 -92 -18 -161q0 -301 272 -301q123 0 212 98t130 309l166 823h155l-167 -829q-104 -539 -504 -539q-205 0 -314.5 109t-109.5 315zM705 1446l217 225h180l-264 -225h-133z" />
<glyph unicode="&#xdb;" horiz-adv-x="1261" d="M162 399q0 78 20 191l152 753h160l-154 -768q-18 -92 -18 -161q0 -301 272 -301q123 0 212 98t130 309l166 823h155l-167 -829q-104 -539 -504 -539q-205 0 -314.5 109t-109.5 315zM543 1446l231 223h150l143 -223h-121l-102 143h-8l-160 -143h-133z" />
<glyph unicode="&#xdc;" horiz-adv-x="1261" d="M162 399q0 78 20 191l152 753h160l-154 -768q-18 -92 -18 -161q0 -301 272 -301q123 0 212 98t130 309l166 823h155l-167 -829q-104 -539 -504 -539q-205 0 -314.5 109t-109.5 315zM567 1546q0 45 30 79t73 34q37 0 59.5 -22.5t22.5 -61.5q0 -43 -30 -77t-73 -34 q-37 0 -59.5 21.5t-22.5 60.5zM907 1546q0 45 30 79t73 34q37 0 59.5 -22.5t22.5 -61.5q0 -43 -31 -77t-72 -34q-37 0 -59.5 21.5t-22.5 60.5z" />
<glyph unicode="&#xdd;" horiz-adv-x="944" d="M170 1343h164l92 -387q14 -53 35.5 -150t32.5 -140h8q123 201 184 292l254 385h170l-561 -819l-107 -524h-157l104 524zM528 1446l217 225h181l-262 -225h-136z" />
<glyph unicode="&#xde;" horiz-adv-x="1150" d="M72 0l268 1352h160l-47 -236h235q190 0 299 -80t109 -248q0 -238 -160 -357.5t-428 -119.5h-217l-62 -311h-157zM319 440h193q209 0 317.5 83t108.5 243q0 221 -297 221h-215z" />
<glyph unicode="&#xdf;" horiz-adv-x="1136" d="M63 0l216 1075q37 176 150.5 292t279.5 116q129 0 212 -70t83 -201q0 -70 -28 -129t-68 -100t-80 -77t-67.5 -78t-27.5 -85q0 -37 22.5 -71.5t55.5 -60t73 -57.5t72.5 -64.5t55 -83t22.5 -109.5q0 -135 -97 -228.5t-243 -93.5q-160 0 -286 103l71 104q104 -84 215 -84 q82 0 137.5 50.5t55.5 127.5q0 66 -48 122.5t-105.5 92t-105.5 95t-48 129.5q0 72 43 135t93 104t93 105.5t43 136.5q0 160 -150 160q-100 0 -172.5 -90t-101.5 -228l-209 -1038h-156z" />
<glyph unicode="&#xe0;" horiz-adv-x="1099" d="M80 336q0 283 164 483.5t374 200.5q162 0 240 -150h8l39 125h127l-198 -995h-129l16 147h-8q-162 -172 -346 -172q-133 0 -210 94.5t-77 266.5zM242 360q0 -125 48 -189.5t134 -64.5q168 0 313 191l90 444q-82 147 -202 148q-150 0 -266.5 -162t-116.5 -367zM516 1458 h154l118 -289h-112z" />
<glyph unicode="&#xe1;" horiz-adv-x="1099" d="M80 336q0 283 164 483.5t374 200.5q162 0 240 -150h8l39 125h127l-198 -995h-129l16 147h-8q-162 -172 -346 -172q-133 0 -210 94.5t-77 266.5zM242 360q0 -125 48 -189.5t134 -64.5q168 0 313 191l90 444q-82 147 -202 148q-150 0 -266.5 -162t-116.5 -367zM532 1169 l238 289h170l-281 -289h-127z" />
<glyph unicode="&#xe2;" horiz-adv-x="1099" d="M80 336q0 283 164 483.5t374 200.5q162 0 240 -150h8l39 125h127l-198 -995h-129l16 147h-8q-162 -172 -346 -172q-133 0 -210 94.5t-77 266.5zM242 360q0 -125 48 -189.5t134 -64.5q168 0 313 191l90 444q-82 147 -202 148q-150 0 -266.5 -162t-116.5 -367zM416 1169 l250 289h118l136 -289h-109l-96 189h-8l-172 -189h-119z" />
<glyph unicode="&#xe3;" horiz-adv-x="1099" d="M80 336q0 283 164 483.5t374 200.5q162 0 240 -150h8l39 125h127l-198 -995h-129l16 147h-8q-162 -172 -346 -172q-133 0 -210 94.5t-77 266.5zM242 360q0 -125 48 -189.5t134 -64.5q168 0 313 191l90 444q-82 147 -202 148q-150 0 -266.5 -162t-116.5 -367zM399 1188 q27 94 77 151.5t113.5 57.5t124 -54.5t99.5 -54.5q49 0 90 105h90q-27 -94 -77 -151.5t-113.5 -57.5t-122.5 54t-100 54q-50 0 -91 -104h-90z" />
<glyph unicode="&#xe4;" horiz-adv-x="1099" d="M80 336q0 283 164 483.5t374 200.5q162 0 240 -150h8l39 125h127l-198 -995h-129l16 147h-8q-162 -172 -346 -172q-133 0 -210 94.5t-77 266.5zM242 360q0 -125 48 -189.5t134 -64.5q168 0 313 191l90 444q-82 147 -202 148q-150 0 -266.5 -162t-116.5 -367zM430 1288 q0 45 32 79t75 34q37 0 59 -23.5t22 -62.5q0 -45 -30.5 -77t-73.5 -32q-37 0 -60.5 22.5t-23.5 59.5zM770 1288q0 45 32 79t72 34q37 0 60.5 -23.5t23.5 -62.5q0 -45 -30.5 -77t-73.5 -32q-37 0 -60.5 22.5t-23.5 59.5z" />
<glyph unicode="&#xe5;" horiz-adv-x="1099" d="M80 336q0 283 164 483.5t374 200.5q162 0 240 -150h8l39 125h127l-198 -995h-129l16 147h-8q-162 -172 -346 -172q-133 0 -210 94.5t-77 266.5zM242 360q0 -125 48 -189.5t134 -64.5q168 0 313 191l90 444q-82 147 -202 148q-150 0 -266.5 -162t-116.5 -367zM508 1274 q0 86 59.5 147.5t141.5 61.5q76 0 123 -44t47 -124q0 -86 -59.5 -147.5t-141.5 -61.5q-76 0 -123 44t-47 124zM596 1280q0 -45 22.5 -72.5t63.5 -27.5q45 0 77 37.5t32 91.5q0 45 -22.5 72.5t-63.5 27.5q-43 0 -76 -39t-33 -90z" />
<glyph unicode="&#xe6;" horiz-adv-x="1558" d="M66 217q0 379 651 399q10 47 10 91q0 186 -172 186q-119 0 -279 -90l-43 115q186 102 355 102q219 0 252 -195q147 195 342 195q160 0 234.5 -98.5t74.5 -262.5q0 -100 -37 -194h-620q-27 -162 42.5 -263.5t200.5 -101.5q111 0 223 86l62 -104q-145 -106 -315 -107 q-104 0 -190.5 55.5t-123.5 141.5q-209 -197 -411 -197q-109 0 -182.5 64.5t-73.5 177.5zM219 250q0 -70 44 -110t116 -40q145 0 313 176q-14 121 4 236q-227 -6 -352 -72.5t-125 -189.5zM850 571h496q10 61 10 103q0 94 -46 157.5t-147 63.5q-96 0 -186 -90.5t-127 -233.5z " />
<glyph unicode="&#xe7;" horiz-adv-x="890" d="M76 375q0 272 167 458.5t388 186.5q152 0 258 -121l-92 -98q-76 90 -176 90q-150 0 -267.5 -151.5t-117.5 -354.5q0 -279 235 -279q106 0 221 89l70 -103q-147 -113 -303 -117l-58 -84q92 -33 93 -116q0 -92 -87.5 -144.5t-220.5 -66.5l-8 71q193 33 193 123 q0 33 -25 52.5t-84 35.5l94 138q-129 25 -204.5 127t-75.5 264z" />
<glyph unicode="&#xe8;" horiz-adv-x="985" d="M76 391q0 270 163.5 449.5t368.5 179.5q160 0 233.5 -98.5t73.5 -262.5q0 -90 -34 -194h-648q-27 -182 51 -273.5t220 -91.5q106 0 223 86l61 -104q-147 -106 -321 -107q-180 0 -285.5 109.5t-105.5 306.5zM250 571h522q10 55 10 103q0 94 -46 157.5t-146 63.5 q-111 0 -207 -89.5t-133 -234.5zM483 1458h154l121 -289h-115z" />
<glyph unicode="&#xe9;" horiz-adv-x="985" d="M76 391q0 270 163.5 449.5t368.5 179.5q160 0 233.5 -98.5t73.5 -262.5q0 -90 -34 -194h-648q-27 -182 51 -273.5t220 -91.5q106 0 223 86l61 -104q-147 -106 -321 -107q-180 0 -285.5 109.5t-105.5 306.5zM250 571h522q10 55 10 103q0 94 -46 157.5t-146 63.5 q-111 0 -207 -89.5t-133 -234.5zM502 1169l237 289h168l-278 -289h-127z" />
<glyph unicode="&#xea;" horiz-adv-x="985" d="M76 391q0 270 163.5 449.5t368.5 179.5q160 0 233.5 -98.5t73.5 -262.5q0 -90 -34 -194h-648q-27 -182 51 -273.5t220 -91.5q106 0 223 86l61 -104q-147 -106 -321 -107q-180 0 -285.5 109.5t-105.5 306.5zM250 571h522q10 55 10 103q0 94 -46 157.5t-146 63.5 q-111 0 -207 -89.5t-133 -234.5zM385 1169l250 289h117l135 -289h-107l-98 189h-8l-170 -189h-119z" />
<glyph unicode="&#xeb;" horiz-adv-x="985" d="M76 391q0 270 163.5 449.5t368.5 179.5q160 0 233.5 -98.5t73.5 -262.5q0 -90 -34 -194h-648q-27 -182 51 -273.5t220 -91.5q106 0 223 86l61 -104q-147 -106 -321 -107q-180 0 -285.5 109.5t-105.5 306.5zM250 571h522q10 55 10 103q0 94 -46 157.5t-146 63.5 q-111 0 -207 -89.5t-133 -234.5zM399 1288q0 47 31 80t74 33q37 0 60.5 -23.5t23.5 -62.5q0 -45 -31 -77t-74 -32q-37 0 -60.5 22.5t-23.5 59.5zM739 1288q0 47 31 80t74 33q37 0 60.5 -23.5t23.5 -62.5q0 -45 -32 -77t-75 -32q-37 0 -59.5 22.5t-22.5 59.5z" />
<glyph unicode="&#xec;" horiz-adv-x="485" d="M63 0l199 995h158l-201 -995h-156zM221 1458h154l121 -289h-115z" />
<glyph unicode="&#xed;" horiz-adv-x="485" d="M63 0l199 995h158l-201 -995h-156zM240 1169l237 289h168l-278 -289h-127z" />
<glyph unicode="&#xee;" horiz-adv-x="485" d="M63 0l199 995h158l-201 -995h-156zM123 1169l250 289h116l136 -289h-107l-98 189h-8l-170 -189h-119z" />
<glyph unicode="&#xef;" horiz-adv-x="485" d="M63 0l199 995h158l-201 -995h-156zM137 1288q0 47 31 80t74 33q37 0 60.5 -23.5t23.5 -62.5q0 -45 -31 -77t-74 -32q-37 0 -60.5 22.5t-23.5 59.5zM477 1288q0 47 31 80t74 33q37 0 60.5 -23.5t23.5 -62.5q0 -45 -32 -77t-75 -32q-37 0 -59.5 22.5t-22.5 59.5z" />
<glyph unicode="&#xf0;" horiz-adv-x="1073" d="M88 352q0 223 131 393t342 170q152 0 248 -145q-14 236 -125 395l-301 -125l-33 84l277 115q-76 86 -195 162l74 94q150 -88 250 -203l297 123l32 -84l-272 -112q147 -217 148 -508q0 -197 -59.5 -363t-180.5 -269.5t-279 -103.5q-152 0 -253 107.5t-101 269.5zM231 367 q0 -111 62 -186t168 -75q143 0 238.5 152t109.5 375q-102 158 -234 158q-152 0 -248 -128t-96 -296z" />
<glyph unicode="&#xf1;" horiz-adv-x="1075" d="M63 0l197 995h129l-14 -149h8q199 174 348 174q236 0 236 -248q0 -63 -17 -137l-127 -635h-155l123 614q16 86 16 117q0 154 -148 154q-119 0 -299 -180l-141 -705h-156zM430 1188q27 94 78 151.5t114.5 57.5t123 -54.5t100.5 -54.5q49 0 90 105h90q-27 -94 -77 -151.5 t-113.5 -57.5t-124 54t-99.5 54q-49 0 -92 -104h-90z" />
<glyph unicode="&#xf2;" horiz-adv-x="1054" d="M80 375q0 274 163 459.5t373 185.5q162 0 259.5 -107.5t97.5 -291.5q0 -274 -164 -460t-375 -186q-162 0 -258 107.5t-96 292.5zM238 385q0 -135 55 -207t158 -72q141 0 251.5 150t110.5 354q0 135 -55.5 208t-157.5 73q-139 0 -250.5 -150.5t-111.5 -355.5zM520 1458 h154l121 -289h-115z" />
<glyph unicode="&#xf3;" horiz-adv-x="1054" d="M80 375q0 274 163 459.5t373 185.5q162 0 259.5 -107.5t97.5 -291.5q0 -274 -164 -460t-375 -186q-162 0 -258 107.5t-96 292.5zM238 385q0 -135 55 -207t158 -72q141 0 251.5 150t110.5 354q0 135 -55.5 208t-157.5 73q-139 0 -250.5 -150.5t-111.5 -355.5zM539 1169 l237 289h168l-278 -289h-127z" />
<glyph unicode="&#xf4;" horiz-adv-x="1054" d="M80 375q0 274 163 459.5t373 185.5q162 0 259.5 -107.5t97.5 -291.5q0 -274 -164 -460t-375 -186q-162 0 -258 107.5t-96 292.5zM238 385q0 -135 55 -207t158 -72q141 0 251.5 150t110.5 354q0 135 -55.5 208t-157.5 73q-139 0 -250.5 -150.5t-111.5 -355.5zM422 1169 l250 289h119l133 -289h-107l-98 189h-8l-170 -189h-119z" />
<glyph unicode="&#xf5;" horiz-adv-x="1054" d="M80 375q0 274 163 459.5t373 185.5q162 0 259.5 -107.5t97.5 -291.5q0 -274 -164 -460t-375 -186q-162 0 -258 107.5t-96 292.5zM238 385q0 -135 55 -207t158 -72q141 0 251.5 150t110.5 354q0 135 -55.5 208t-157.5 73q-139 0 -250.5 -150.5t-111.5 -355.5zM403 1188 q27 94 78 151.5t114.5 57.5t123 -54.5t100.5 -54.5q49 0 90 105h90q-27 -94 -78 -151.5t-114 -57.5q-61 0 -121.5 54t-99.5 54q-49 0 -92 -104h-91z" />
<glyph unicode="&#xf6;" horiz-adv-x="1054" d="M80 375q0 274 163 459.5t373 185.5q162 0 259.5 -107.5t97.5 -291.5q0 -274 -164 -460t-375 -186q-162 0 -258 107.5t-96 292.5zM238 385q0 -135 55 -207t158 -72q141 0 251.5 150t110.5 354q0 135 -55.5 208t-157.5 73q-139 0 -250.5 -150.5t-111.5 -355.5zM436 1288 q0 47 31 80t74 33q37 0 60.5 -23.5t23.5 -62.5q0 -45 -31 -77t-74 -32q-37 0 -60.5 22.5t-23.5 59.5zM776 1288q0 47 31 80t74 33q37 0 60.5 -23.5t23.5 -62.5q0 -45 -31 -77t-74 -32q-37 0 -60.5 22.5t-23.5 59.5z" />
<glyph unicode="&#xf7;" horiz-adv-x="983" d="M98 618v117h840v-117h-840zM414 303q0 43 29.5 73t74.5 30t75 -30t30 -73q0 -45 -30 -74.5t-75 -29.5t-74.5 29.5t-29.5 74.5zM414 1049q0 43 29.5 72.5t74.5 29.5t75 -29.5t30 -72.5q0 -45 -30 -76t-75 -31t-74.5 31t-29.5 76z" />
<glyph unicode="&#xf8;" horiz-adv-x="1054" d="M0 10l131 135q-51 96 -51 230q0 274 163 459.5t373 185.5q164 0 261 -109l124 129l62 -57l-137 -141q47 -94 47 -221q0 -274 -163 -460t-376 -186q-158 0 -254 103l-121 -125zM229 385q1 -74 15 -123l530 545q-57 86 -170 86q-150 0 -262.5 -155.5t-112.5 -352.5z M281 180q55 -78 165 -78q152 0 264.5 155t112.5 351q0 66 -12 115z" />
<glyph unicode="&#xf9;" horiz-adv-x="1081" d="M115 223q0 66 16 137l127 635h158l-125 -614q-16 -86 -17 -117q0 -154 148 -153q121 0 295 180l141 704h156l-199 -995h-129l16 152h-8q-199 -176 -344 -177q-236 0 -235 248zM506 1458h153l121 -289h-114z" />
<glyph unicode="&#xfa;" horiz-adv-x="1081" d="M115 223q0 66 16 137l127 635h158l-125 -614q-16 -86 -17 -117q0 -154 148 -153q121 0 295 180l141 704h156l-199 -995h-129l16 152h-8q-199 -176 -344 -177q-236 0 -235 248zM524 1169l238 289h168l-279 -289h-127z" />
<glyph unicode="&#xfb;" horiz-adv-x="1081" d="M115 223q0 66 16 137l127 635h158l-125 -614q-16 -86 -17 -117q0 -154 148 -153q121 0 295 180l141 704h156l-199 -995h-129l16 152h-8q-199 -176 -344 -177q-236 0 -235 248zM408 1169l249 289h117l135 -289h-106l-98 189h-9l-170 -189h-118z" />
<glyph unicode="&#xfc;" horiz-adv-x="1081" d="M115 223q0 66 16 137l127 635h158l-125 -614q-16 -86 -17 -117q0 -154 148 -153q121 0 295 180l141 704h156l-199 -995h-129l16 152h-8q-199 -176 -344 -177q-236 0 -235 248zM422 1288q0 47 30.5 80t73.5 33q37 0 60.5 -23.5t23.5 -62.5q0 -45 -30.5 -77t-73.5 -32 q-37 0 -60.5 22.5t-23.5 59.5zM762 1288q0 47 30.5 80t73.5 33q37 0 60.5 -23.5t23.5 -62.5q0 -45 -30.5 -77t-73.5 -32q-37 0 -60.5 22.5t-23.5 59.5z" />
<glyph unicode="&#xfd;" horiz-adv-x="917" d="M-127 -399l51 116q37 -18 74 -18q147 0 260 227l37 72l-170 997h156l77 -559q14 -96 33 -297h8q10 23 64.5 132.5t83.5 164.5l287 559h155l-586 -1079q-88 -166 -185 -255t-230 -89q-59 0 -115 29zM428 1169l238 289h168l-279 -289h-127z" />
<glyph unicode="&#xfe;" horiz-adv-x="1095" d="M-20 -420l374 1878h158l-80 -389l-45 -197h4q182 147 338 148q133 0 210 -94.5t77 -266.5q0 -283 -163 -483.5t-374 -200.5q-150 0 -239 144h-4l-37 -213l-64 -326h-155zM270 250q78 -143 203 -144q150 0 265.5 162t115.5 369q0 123 -48 187.5t-134 64.5q-70 0 -154 -44 t-153 -118z" />
<glyph unicode="&#xff;" horiz-adv-x="917" d="M-127 -399l51 116q37 -18 74 -18q147 0 260 227l37 72l-170 997h156l77 -559q14 -96 33 -297h8q10 23 64.5 132.5t83.5 164.5l287 559h155l-586 -1079q-88 -166 -185 -255t-230 -89q-59 0 -115 29zM326 1288q0 45 31.5 79t72.5 34q37 0 60.5 -23.5t23.5 -62.5 q0 -45 -30.5 -77t-73.5 -32q-37 0 -60.5 22.5t-23.5 59.5zM666 1288q0 47 30.5 80t73.5 33q37 0 60.5 -23.5t23.5 -62.5q0 -45 -30.5 -77t-73.5 -32q-37 0 -60.5 22.5t-23.5 59.5z" />
<glyph unicode="&#x100;" horiz-adv-x="1044" d="M-109 0l730 1343h184l156 -1343h-166l-37 420h-475l-215 -420h-177zM346 543h399l-20 229q-33 377 -37 438h-8q-88 -190 -215 -438zM473 1493l23 111h481l-23 -111h-481z" />
<glyph unicode="&#x101;" horiz-adv-x="1099" d="M80 336q0 283 164 483.5t374 200.5q162 0 240 -150h8l39 125h127l-198 -995h-129l16 147h-8q-162 -172 -346 -172q-133 0 -210 94.5t-77 266.5zM242 360q0 -125 48 -189.5t134 -64.5q168 0 313 191l90 444q-82 147 -202 148q-150 0 -266.5 -162t-116.5 -367zM438 1231 l21 110h481l-20 -110h-482z" />
<glyph unicode="&#x102;" horiz-adv-x="1044" d="M-109 0l730 1343h184l156 -1343h-166l-37 420h-475l-215 -420h-177zM346 543h399l-20 229q-33 377 -37 438h-8q-88 -190 -215 -438zM510 1671h92q-4 -57 25.5 -95t93.5 -38q59 0 103.5 39t64.5 94h96q-31 -96 -100.5 -160.5t-179.5 -64.5q-104 0 -153.5 66.5t-41.5 158.5 z" />
<glyph unicode="&#x103;" horiz-adv-x="1099" d="M80 336q0 283 164 483.5t374 200.5q162 0 240 -150h8l39 125h127l-198 -995h-129l16 147h-8q-162 -172 -346 -172q-133 0 -210 94.5t-77 266.5zM242 360q0 -125 48 -189.5t134 -64.5q168 0 313 191l90 444q-82 147 -202 148q-150 0 -266.5 -162t-116.5 -367zM477 1434h92 q-14 -162 115 -162q66 0 114 45t72 117h97q-33 -109 -106.5 -182.5t-190.5 -73.5q-115 0 -162 75.5t-31 180.5z" />
<glyph unicode="&#x104;" horiz-adv-x="1044" d="M-109 0l730 1343h184l156 -1343q-201 -113 -201 -244q0 -35 21.5 -56.5t52.5 -21.5q37 0 73 23l35 -86q-74 -47 -156 -47q-72 0 -115.5 37t-43.5 104q0 80 58 159t136 132h-26l-37 420h-475l-215 -420h-177zM346 543h399l-20 229q-33 377 -37 438h-8q-88 -190 -215 -438z " />
<glyph unicode="&#x105;" horiz-adv-x="1099" d="M80 336q0 283 164 483.5t374 200.5q78 0 142.5 -42t101.5 -112h4l39 129h127l-198 -995q-106 -49 -166 -111.5t-60 -130.5q0 -35 21.5 -55t52.5 -20q39 0 78 24l33 -78q-84 -51 -156 -51q-70 0 -112 36t-42 101q0 86 66.5 166t157.5 131l14 138h-4q-170 -174 -350 -175 q-133 0 -210 94.5t-77 266.5zM242 360q0 -125 48 -189.5t134 -64.5q74 0 159 49.5t154 141.5l90 446q-80 145 -202 146q-150 0 -266.5 -162t-116.5 -367z" />
<glyph unicode="&#x106;" horiz-adv-x="1126" d="M117 518q0 213 85 406.5t246.5 318.5t362.5 125q217 0 330 -199l-111 -84q-90 145 -227 146q-152 0 -274.5 -107.5t-185 -266.5t-62.5 -325q0 -193 84 -306t258 -113q141 0 284 120l72 -102q-178 -156 -385 -156q-225 0 -351 148.5t-126 394.5zM737 1446l217 225h179 l-263 -225h-133z" />
<glyph unicode="&#x107;" horiz-adv-x="890" d="M76 375q0 272 167 458.5t388 186.5q152 0 258 -121l-92 -98q-76 90 -176 90q-150 0 -267.5 -151.5t-117.5 -354.5q0 -279 235 -279q106 0 221 89l70 -103q-152 -117 -320 -117q-166 0 -266 107t-100 293zM510 1169l238 289h167l-278 -289h-127z" />
<glyph unicode="&#x108;" horiz-adv-x="1126" d="M117 518q0 213 85 406.5t246.5 318.5t362.5 125q217 0 330 -199l-111 -84q-90 145 -227 146q-152 0 -274.5 -107.5t-185 -266.5t-62.5 -325q0 -193 84 -306t258 -113q141 0 284 120l72 -102q-178 -156 -385 -156q-225 0 -351 148.5t-126 394.5zM573 1446l234 223h147 l146 -223h-121l-105 143h-6l-159 -143h-136z" />
<glyph unicode="&#x109;" horiz-adv-x="890" d="M76 375q0 272 167 458.5t388 186.5q152 0 258 -121l-92 -98q-76 90 -176 90q-150 0 -267.5 -151.5t-117.5 -354.5q0 -279 235 -279q106 0 221 89l70 -103q-152 -117 -320 -117q-166 0 -266 107t-100 293zM393 1169l250 289h119l135 -289h-109l-96 189h-8l-172 -189h-119z " />
<glyph unicode="&#x10a;" horiz-adv-x="1126" d="M117 518q0 213 85 406.5t246.5 318.5t362.5 125q217 0 330 -199l-111 -84q-90 145 -227 146q-152 0 -274.5 -107.5t-185 -266.5t-62.5 -325q0 -193 84 -306t258 -113q141 0 284 120l72 -102q-178 -156 -385 -156q-225 0 -351 148.5t-126 394.5zM754 1559q0 49 34.5 83.5 t83.5 34.5q41 0 70 -25.5t29 -68.5q0 -49 -35 -83t-84 -34q-41 0 -69.5 25t-28.5 68z" />
<glyph unicode="&#x10b;" horiz-adv-x="890" d="M76 375q0 272 167 458.5t388 186.5q152 0 258 -121l-92 -98q-76 90 -176 90q-150 0 -267.5 -151.5t-117.5 -354.5q0 -279 235 -279q106 0 221 89l70 -103q-152 -117 -320 -117q-166 0 -266 107t-100 293zM561 1294q0 49 35 84t84 35q41 0 69.5 -25.5t28.5 -68.5 q0 -49 -35 -83t-84 -34q-41 0 -69.5 24.5t-28.5 67.5z" />
<glyph unicode="&#x10c;" horiz-adv-x="1126" d="M117 518q0 213 85 406.5t246.5 318.5t362.5 125q217 0 330 -199l-111 -84q-90 145 -227 146q-152 0 -274.5 -107.5t-185 -266.5t-62.5 -325q0 -193 84 -306t258 -113q141 0 284 120l72 -102q-178 -156 -385 -156q-225 0 -351 148.5t-126 394.5zM621 1671h120l105 -143h6 l160 143h135l-234 -225h-147z" />
<glyph unicode="&#x10d;" horiz-adv-x="890" d="M76 375q0 272 167 458.5t388 186.5q152 0 258 -121l-92 -98q-76 90 -176 90q-150 0 -267.5 -151.5t-117.5 -354.5q0 -279 235 -279q106 0 221 89l70 -103q-152 -117 -320 -117q-166 0 -266 107t-100 293zM453 1458h108l96 -186h9l172 186h118l-249 -289h-119z" />
<glyph unicode="&#x10e;" horiz-adv-x="1212" d="M72 0l268 1343h250q276 0 422.5 -137t146.5 -387q0 -371 -194.5 -595t-532.5 -224h-360zM256 131h176q258 0 411.5 187.5t153.5 490.5q0 193 -106.5 299t-306.5 106h-111zM545 1671h121l102 -143h8l160 143h133l-231 -225h-150z" />
<glyph unicode="&#x10f;" horiz-adv-x="1110" d="M80 336q0 283 164 483.5t374 200.5q154 0 236 -146h6l33 195l78 389h157l-294 -1458h-129l16 147h-8q-162 -172 -346 -172q-133 0 -210 94.5t-77 266.5zM242 360q0 -125 48 -189.5t134 -64.5q166 0 313 191l90 444q-82 147 -202 148q-150 0 -266.5 -162t-116.5 -367z M1159 1122l82 434h111l-23 -116l-90 -318h-80z" />
<glyph unicode="&#x110;" horiz-adv-x="1249" d="M96 664l19 84l143 6l119 589h250q276 0 422.5 -137t146.5 -387q0 -371 -194.5 -595t-532.5 -224h-360l133 664h-146zM293 131h176q258 0 411.5 187.5t153.5 490.5q0 193 -106.5 299t-306.5 106h-111l-92 -460h307l-20 -90h-306z" />
<glyph unicode="&#x111;" horiz-adv-x="1095" d="M80 336q0 254 164 448.5t370 194.5q158 0 232 -145h6l33 194l28 143h-317l16 93h320l39 194h157l-38 -194h145l-21 -82l-143 -11l-237 -1171h-129l16 147h-8q-162 -172 -346 -172q-133 0 -210 94.5t-77 266.5zM242 360q0 -125 48 -189.5t134 -64.5q166 1 313 191l82 403 q-76 147 -198 148q-145 0 -262 -153.5t-117 -334.5z" />
<glyph unicode="&#x112;" horiz-adv-x="1030" d="M72 0l268 1343h741l-26 -133h-584l-86 -436h494l-29 -135h-490l-104 -504h602l-29 -135h-757zM496 1493l22 111h483l-22 -111h-483z" />
<glyph unicode="&#x113;" horiz-adv-x="985" d="M76 391q0 270 163.5 449.5t368.5 179.5q160 0 233.5 -98.5t73.5 -262.5q0 -90 -34 -194h-648q-27 -182 51 -273.5t220 -91.5q106 0 223 86l61 -104q-147 -106 -321 -107q-180 0 -285.5 109.5t-105.5 306.5zM250 571h522q10 55 10 103q0 94 -46 157.5t-146 63.5 q-111 0 -207 -89.5t-133 -234.5zM408 1231l20 110h481l-20 -110h-481z" />
<glyph unicode="&#x114;" horiz-adv-x="1030" d="M72 0l268 1343h741l-26 -133h-584l-86 -436h494l-29 -135h-490l-104 -504h602l-29 -135h-757zM532 1671h93q-4 -57 25.5 -95t92.5 -38q117 0 170 133h95q-29 -96 -99.5 -160.5t-181.5 -64.5q-104 0 -153.5 66.5t-41.5 158.5z" />
<glyph unicode="&#x115;" horiz-adv-x="985" d="M76 391q0 270 163.5 449.5t368.5 179.5q160 0 233.5 -98.5t73.5 -262.5q0 -90 -34 -194h-648q-27 -182 51 -273.5t220 -91.5q106 0 223 86l61 -104q-147 -106 -321 -107q-180 0 -285.5 109.5t-105.5 306.5zM250 571h522q10 55 10 103q0 94 -46 157.5t-146 63.5 q-111 0 -207 -89.5t-133 -234.5zM444 1434h93q-14 -162 116 -162q63 0 111.5 45t73.5 117h98q-31 -106 -106.5 -181t-192.5 -75q-115 0 -161 74.5t-32 181.5z" />
<glyph unicode="&#x116;" horiz-adv-x="1030" d="M72 0l268 1343h741l-26 -133h-584l-86 -436h494l-29 -135h-490l-104 -504h602l-29 -135h-757zM643 1559q0 49 36 83.5t83 34.5q41 0 70.5 -25.5t29.5 -68.5q0 -49 -35 -83t-84 -34q-43 0 -71.5 25t-28.5 68z" />
<glyph unicode="&#x117;" horiz-adv-x="985" d="M76 391q0 270 163.5 449.5t368.5 179.5q160 0 233.5 -98.5t73.5 -262.5q0 -90 -34 -194h-648q-27 -182 51 -273.5t220 -91.5q106 0 223 86l61 -104q-147 -106 -321 -107q-180 0 -285.5 109.5t-105.5 306.5zM250 571h522q10 55 10 103q0 94 -46 157.5t-146 63.5 q-111 0 -207 -89.5t-133 -234.5zM551 1294q0 49 36 84t85 35q41 0 69.5 -25.5t28.5 -68.5q0 -49 -35 -83t-84 -34q-41 0 -70.5 24.5t-29.5 67.5z" />
<glyph unicode="&#x118;" horiz-adv-x="1030" d="M72 0l268 1343h741l-26 -133h-584l-86 -436h494l-29 -135h-490l-104 -504h602l-29 -135q-88 -10 -158.5 -92t-70.5 -152q0 -37 21.5 -57.5t54.5 -20.5q35 0 72 23l34 -86q-74 -47 -155 -47q-72 0 -116 37t-44 104q0 80 60.5 161t131.5 130h-587z" />
<glyph unicode="&#x119;" horiz-adv-x="985" d="M76 391q0 270 163.5 449.5t368.5 179.5q160 0 233.5 -98.5t73.5 -262.5q0 -90 -34 -194h-648q-27 -182 51 -273.5t220 -91.5q106 0 223 86l61 -104q-297 -174 -296 -324q0 -35 21.5 -55t51.5 -20q37 0 78 24l33 -78q-84 -51 -158 -51q-68 0 -109.5 35.5t-41.5 101.5 q0 133 163 269q-31 -8 -63 -9q-180 0 -285.5 110t-105.5 306zM250 571h522q10 55 10 103q0 94 -46 157.5t-146 63.5q-111 0 -207 -89.5t-133 -234.5z" />
<glyph unicode="&#x11a;" horiz-adv-x="1030" d="M72 0l268 1343h741l-26 -133h-584l-86 -436h494l-29 -135h-490l-104 -504h602l-29 -135h-757zM512 1671h121l102 -143h8l160 143h133l-231 -225h-150z" />
<glyph unicode="&#x11b;" horiz-adv-x="985" d="M76 391q0 270 163.5 449.5t368.5 179.5q160 0 233.5 -98.5t73.5 -262.5q0 -90 -34 -194h-648q-27 -182 51 -273.5t220 -91.5q106 0 223 86l61 -104q-147 -106 -321 -107q-180 0 -285.5 109.5t-105.5 306.5zM250 571h522q10 55 10 103q0 94 -46 157.5t-146 63.5 q-111 0 -207 -89.5t-133 -234.5zM444 1458h109l96 -186h8l172 186h119l-250 -289h-118z" />
<glyph unicode="&#x11c;" horiz-adv-x="1204" d="M117 518q0 217 85 408.5t252 316.5t377 125q221 0 338 -199l-112 -84q-86 145 -234 146q-162 0 -288.5 -107.5t-190 -265.5t-63.5 -326q0 -193 86 -307t270 -114q133 0 229 82l76 370h-278l26 131h422l-117 -581q-164 -137 -381 -138q-238 0 -367.5 146.5t-129.5 396.5z M569 1446l234 223h147l146 -223h-121l-105 143h-6l-159 -143h-136z" />
<glyph unicode="&#x11d;" horiz-adv-x="1087" d="M-4 -322l74 109q137 -119 280 -119q242 0 314 297l49 205h-6q-166 -160 -338 -160q-131 0 -210 91.5t-79 258.5q0 268 160.5 464t365.5 196q78 0 140.5 -40t99.5 -110h6l39 125h129l-209 -1042q-41 -199 -161 -305.5t-306 -106.5q-182 0 -348 137zM242 383 q0 -119 47 -180.5t131 -61.5q74 0 156.5 45t150.5 129l88 426q-86 147 -203 148q-143 0 -256.5 -155.5t-113.5 -350.5zM406 1169l249 289h119l135 -289h-108l-96 189h-9l-170 -189h-120z" />
<glyph unicode="&#x11e;" horiz-adv-x="1204" d="M117 518q0 217 85 408.5t252 316.5t377 125q221 0 338 -199l-112 -84q-86 145 -234 146q-162 0 -288.5 -107.5t-190 -265.5t-63.5 -326q0 -193 86 -307t270 -114q133 0 229 82l76 370h-278l26 131h422l-117 -581q-164 -137 -381 -138q-238 0 -367.5 146.5t-129.5 396.5z M639 1671h90q-4 -57 26.5 -95t94.5 -38q115 0 168 133h96q-31 -96 -100 -160.5t-180 -64.5q-104 0 -153.5 66.5t-41.5 158.5z" />
<glyph unicode="&#x11f;" horiz-adv-x="1087" d="M-4 -322l74 109q137 -119 280 -119q242 0 314 297l49 205h-6q-166 -160 -338 -160q-131 0 -210 91.5t-79 258.5q0 268 160.5 464t365.5 196q78 0 140.5 -40t99.5 -110h6l39 125h129l-209 -1042q-41 -199 -161 -305.5t-306 -106.5q-182 0 -348 137zM242 383 q0 -119 47 -180.5t131 -61.5q74 0 156.5 45t150.5 129l88 426q-86 147 -203 148q-143 0 -256.5 -155.5t-113.5 -350.5zM467 1434h92q-14 -162 115 -162q66 0 114 45t72 117h96q-33 -109 -106.5 -182.5t-190.5 -73.5q-115 0 -161.5 75.5t-30.5 180.5z" />
<glyph unicode="&#x120;" horiz-adv-x="1204" d="M117 518q0 217 85 408.5t252 316.5t377 125q221 0 338 -199l-112 -84q-86 145 -234 146q-162 0 -288.5 -107.5t-190 -265.5t-63.5 -326q0 -193 86 -307t270 -114q133 0 229 82l76 370h-278l26 131h422l-117 -581q-164 -137 -381 -138q-238 0 -367.5 146.5t-129.5 396.5z M748 1559q0 49 35.5 83.5t82.5 34.5q41 0 71 -25.5t30 -68.5q0 -49 -35 -83t-84 -34q-43 0 -71.5 25t-28.5 68z" />
<glyph unicode="&#x121;" horiz-adv-x="1087" d="M-4 -322l74 109q137 -119 280 -119q242 0 314 297l49 205h-6q-166 -160 -338 -160q-131 0 -210 91.5t-79 258.5q0 268 160.5 464t365.5 196q78 0 140.5 -40t99.5 -110h6l39 125h129l-209 -1042q-41 -199 -161 -305.5t-306 -106.5q-182 0 -348 137zM242 383 q0 -119 47 -180.5t131 -61.5q74 0 156.5 45t150.5 129l88 426q-86 147 -203 148q-143 0 -256.5 -155.5t-113.5 -350.5zM573 1294q0 49 35 84t84 35q41 0 71 -25.5t30 -68.5q0 -49 -35 -83t-84 -34q-43 0 -72 24.5t-29 67.5z" />
<glyph unicode="&#x122;" horiz-adv-x="1204" d="M117 518q0 217 85 408.5t252 316.5t377 125q221 0 338 -199l-112 -84q-86 145 -234 146q-162 0 -288.5 -107.5t-190 -265.5t-63.5 -326q0 -193 86 -307t270 -114q133 0 229 82l76 370h-278l26 131h422l-117 -581q-164 -137 -381 -138q-238 0 -367.5 146.5t-129.5 396.5z M383 -354q199 31 199 116q0 51 -80 76l45 70q152 -35 151 -133q0 -172 -307 -203z" />
<glyph unicode="&#x123;" horiz-adv-x="1087" d="M-4 -322l74 109q137 -119 280 -119q242 0 314 297l49 205h-6q-166 -160 -338 -160q-131 0 -210 91.5t-79 258.5q0 268 160.5 464t365.5 196q78 0 140.5 -40t99.5 -110h6l39 125h129l-209 -1042q-41 -199 -161 -305.5t-306 -106.5q-182 0 -348 137zM242 383 q0 -119 47 -180.5t131 -61.5q74 0 156.5 45t150.5 129l88 426q-86 147 -203 148q-143 0 -256.5 -155.5t-113.5 -350.5zM551 1245q0 172 305 203l8 -74q-197 -31 -196 -117q0 -50 80 -75l-46 -70q-152 35 -151 133z" />
<glyph unicode="&#x124;" horiz-adv-x="1273" d="M72 0l268 1343h160l-115 -567h606l115 567h158l-269 -1343h-159l129 639h-607l-127 -639h-159zM528 1446l232 223h149l146 -223h-123l-103 143h-6l-161 -143h-134z" />
<glyph unicode="&#x125;" horiz-adv-x="1062" d="M63 0l291 1458h158l-98 -481l-33 -125h8q197 168 342 168q236 0 236 -248q0 -63 -17 -137l-127 -635h-155l123 614q16 86 16 117q0 154 -148 154q-119 0 -299 -180l-141 -705h-156zM176 1542l232 223h149l143 -223h-120l-103 144h-8l-160 -144h-133z" />
<glyph unicode="&#x126;" horiz-adv-x="1316" d="M90 0l201 1010h-135l18 84l135 6l49 243h160l-49 -243h604l49 243h160l-49 -243h172l-19 -90h-172l-200 -1010h-160l129 639h-606l-127 -639h-160zM401 776h609l47 234h-608z" />
<glyph unicode="&#x127;" horiz-adv-x="1062" d="M63 0l234 1171h-143l14 82l147 11l39 194h158l-39 -194h358l-20 -93h-358l-47 -235l-33 -125h8q197 168 342 168q236 0 235 -248q0 -63 -16 -137l-119 -594h-155l114 573q16 86 17 117q0 154 -148 154q-119 0 -299 -180l-133 -664h-156z" />
<glyph unicode="&#x128;" horiz-adv-x="516" d="M72 0l268 1343h160l-269 -1343h-159zM139 1456q23 92 79 153.5t122 61.5q55 0 115.5 -56t99.5 -56q61 0 100 108h90q-23 -92 -79 -153.5t-123 -61.5q-53 0 -114.5 57.5t-98.5 57.5q-60 0 -101 -111h-90z" />
<glyph unicode="&#x129;" horiz-adv-x="485" d="M63 0l199 995h158l-201 -995h-156zM104 1188q27 94 78 151.5t114.5 57.5t123 -54.5t98.5 -54.5q49 0 92 105h90q-27 -94 -78 -151.5t-114 -57.5q-61 0 -121.5 54t-99.5 54q-49 0 -92 -104h-91z" />
<glyph unicode="&#x12a;" horiz-adv-x="516" d="M72 0l268 1343h160l-269 -1343h-159zM188 1493l23 111h483l-22 -111h-484z" />
<glyph unicode="&#x12b;" horiz-adv-x="485" d="M63 0l199 995h158l-201 -995h-156zM145 1231l21 110h481l-20 -110h-482z" />
<glyph unicode="&#x12e;" horiz-adv-x="516" d="M-80 -291q0 80 57.5 160t124.5 131h-30l268 1343h160l-269 -1343q-78 -47 -128 -116t-50 -128q0 -35 20.5 -56.5t53.5 -21.5q37 0 72 23l37 -82q-72 -51 -160 -51q-70 0 -113 37t-43 104z" />
<glyph unicode="&#x12f;" horiz-adv-x="485" d="M-86 -285q0 80 57.5 158t128.5 127h-37l199 995h158l-201 -995q-180 -117 -180 -242q0 -35 21.5 -55t54.5 -20q39 0 75 24l33 -78q-80 -51 -155 -51q-68 0 -111 36t-43 101zM295 1294q0 49 35 84t84 35q41 0 70.5 -25.5t29.5 -68.5q0 -49 -35 -83t-84 -34 q-43 0 -71.5 24.5t-28.5 67.5z" />
<glyph unicode="&#x130;" horiz-adv-x="516" d="M72 0l268 1343h160l-269 -1343h-159zM336 1559q0 49 36 83.5t83 34.5q41 0 70.5 -25.5t29.5 -68.5q0 -49 -35 -83t-84 -34q-43 0 -71.5 25t-28.5 68z" />
<glyph unicode="&#x131;" horiz-adv-x="485" d="M63 0l199 995h158l-201 -995h-156z" />
<glyph unicode="&#x134;" horiz-adv-x="933" d="M-4 182l104 88q61 -158 230 -157q100 0 164.5 74.5t91.5 211.5l188 944h160l-193 -966q-35 -182 -141 -292t-274 -110q-236 0 -330 207zM590 1446l233 223h148l145 -223h-121l-104 143h-6l-160 -143h-135z" />
<glyph unicode="&#x135;" horiz-adv-x="487" d="M-254 -406l51 117q43 -27 94 -26q102 0 146 188l227 1122h158l-227 -1120q-66 -319 -295 -319q-82 0 -154 38zM115 1169l250 289h118l133 -289h-106l-96 189h-8l-173 -189h-118z" />
<glyph unicode="&#x136;" horiz-adv-x="1144" d="M72 0l268 1343h160l-133 -663h6l674 663h180l-504 -516l305 -827h-166l-258 725l-280 -274l-93 -451h-159zM334 -354q199 31 198 116q1 51 -79 76l45 70q152 -35 151 -133q0 -172 -307 -203z" />
<glyph unicode="&#x137;" horiz-adv-x="974" d="M63 0l291 1458h158l-197 -989h4l510 526h181l-398 -415l240 -580h-160l-190 485l-230 -233l-53 -252h-156zM221 -354q197 31 197 116q0 51 -80 76l45 70q152 -35 152 -133q0 -172 -306 -203z" />
<glyph unicode="&#x138;" horiz-adv-x="974" d="M63 0l197 995h158l-103 -526h4l510 526h181l-398 -415l240 -580h-160l-190 485l-230 -233l-53 -252h-156z" />
<glyph unicode="&#x139;" horiz-adv-x="946" d="M72 0l268 1343h160l-242 -1208h565l-26 -135h-725zM334 1446l217 225h180l-264 -225h-133z" />
<glyph unicode="&#x13a;" horiz-adv-x="507" d="M90 104q0 34 12 86l252 1268h158l-256 -1276q-4 -20 -4 -39q0 -37 35 -37q14 0 32 7l3 -121q-43 -16 -99 -17q-133 0 -133 129zM346 1554l217 224h180l-262 -224h-135z" />
<glyph unicode="&#x13b;" horiz-adv-x="946" d="M72 0l268 1343h160l-242 -1208h565l-26 -135h-725zM233 -354q197 31 197 116q0 53 -80 76l47 70q152 -35 152 -133q0 -172 -307 -203z" />
<glyph unicode="&#x13c;" horiz-adv-x="507" d="M-84 -354q197 31 197 116q0 53 -80 76l47 70q152 -35 151 -133q0 -172 -307 -203zM90 104q0 34 12 86l252 1268h158l-256 -1276q-4 -20 -4 -39q0 -37 35 -37q14 0 32 7l3 -121q-43 -16 -99 -17q-133 0 -133 129z" />
<glyph unicode="&#x13d;" horiz-adv-x="946" d="M72 0l268 1343h160l-242 -1208h565l-26 -135h-725zM758 1049l82 434h110l-22 -117l-92 -317h-78z" />
<glyph unicode="&#x13e;" horiz-adv-x="495" d="M90 104q0 34 12 86l252 1268h158l-256 -1276q-4 -20 -4 -39q0 -37 35 -37q14 0 32 7l3 -121q-43 -16 -99 -17q-133 0 -133 129zM543 1122l82 434h112l-22 -116l-92 -318h-80z" />
<glyph unicode="&#x13f;" horiz-adv-x="946" d="M72 0l268 1343h160l-242 -1208h565l-26 -135h-725zM653 651q0 55 40 100.5t98 45.5q43 0 68.5 -30t25.5 -77q0 -55 -39 -98t-96 -43q-43 0 -70 28.5t-27 73.5z" />
<glyph unicode="&#x140;" horiz-adv-x="677" d="M90 104q0 34 12 86l252 1268h158l-256 -1276q-4 -20 -4 -39q0 -37 35 -37q14 0 32 7l3 -121q-43 -16 -99 -17q-133 0 -133 129zM500 657q0 53 40 98.5t97 45.5q43 0 68.5 -30t25.5 -75q0 -55 -39 -98t-96 -43q-43 0 -69.5 28.5t-26.5 73.5z" />
<glyph unicode="&#x141;" horiz-adv-x="946" d="M-8 395l26 142l179 86l143 720h160l-129 -641l409 201l-26 -141l-410 -199l-86 -428h565l-26 -135h-725l96 481z" />
<glyph unicode="&#x142;" horiz-adv-x="516" d="M66 604l28 139l144 80l127 635h155l-108 -549l157 97l-24 -140l-162 -94l-117 -590q-4 -20 -4 -39q0 -37 33 -37q16 0 35 7v-121q-43 -16 -99 -17q-131 0 -131 129q0 29 11 86l98 496z" />
<glyph unicode="&#x143;" horiz-adv-x="1267" d="M72 0l268 1343h160l307 -860l86 -280h8q39 322 62 428l141 712h153l-268 -1343h-158l-303 858l-88 289h-8q-29 -252 -63 -424l-144 -723h-153zM711 1446l217 225h178l-262 -225h-133z" />
<glyph unicode="&#x144;" horiz-adv-x="1075" d="M63 0l197 995h129l-14 -149h8q199 174 348 174q236 0 236 -248q0 -63 -17 -137l-127 -635h-155l123 614q16 86 16 117q0 154 -148 154q-119 0 -299 -180l-141 -705h-156zM565 1169l238 289h168l-279 -289h-127z" />
<glyph unicode="&#x145;" horiz-adv-x="1267" d="M72 0l268 1343h160l307 -860l86 -280h8q39 322 62 428l141 712h153l-268 -1343h-158l-303 858l-88 289h-8q-29 -252 -63 -424l-144 -723h-153zM334 -371q197 31 196 117q1 53 -79 76l47 69q152 -35 151 -133q0 -172 -307 -202z" />
<glyph unicode="&#x146;" horiz-adv-x="1075" d="M63 0l197 995h129l-14 -149h8q199 174 348 174q236 0 236 -248q0 -63 -17 -137l-127 -635h-155l123 614q16 86 16 117q0 154 -148 154q-119 0 -299 -180l-141 -705h-156zM236 -354q197 31 196 116q0 53 -80 76l45 70q154 -35 154 -133q0 -172 -307 -203z" />
<glyph unicode="&#x147;" horiz-adv-x="1267" d="M72 0l268 1343h160l307 -860l86 -280h8q39 322 62 428l141 712h153l-268 -1343h-158l-303 858l-88 289h-8q-29 -252 -63 -424l-144 -723h-153zM594 1671h121l104 -143h6l160 143h135l-233 -225h-148z" />
<glyph unicode="&#x148;" horiz-adv-x="1075" d="M63 0l197 995h129l-14 -149h8q199 174 348 174q236 0 236 -248q0 -63 -17 -137l-127 -635h-155l123 614q16 86 16 117q0 154 -148 154q-119 0 -299 -180l-141 -705h-156zM508 1458h108l97 -186h8l172 186h119l-250 -289h-119z" />
<glyph unicode="&#x149;" horiz-adv-x="1513" d="M227 983q90 45 142.5 113.5t54.5 128.5h-10q-45 0 -74 24.5t-29 67.5q0 47 32 82t81 35t78.5 -37t29.5 -103q0 -135 -74.5 -235.5t-197.5 -151.5zM506 0l199 995h129l-17 -149h8q199 174 349 174q238 0 237 -248q0 -49 -16 -137l-127 -635h-158l123 614q16 72 16 117 q0 154 -147 154q-119 0 -299 -180l-139 -705h-158z" />
<glyph unicode="&#x14c;" horiz-adv-x="1296" d="M123 539q0 207 81 395t233.5 311t338.5 123q221 0 343 -151.5t122 -409.5q0 -207 -81 -396.5t-233.5 -312.5t-338.5 -123q-221 0 -343 152t-122 412zM285 551q0 -205 77.5 -321.5t233.5 -116.5q137 0 251 105.5t173 260t59 314.5q0 205 -77.5 321.5t-233.5 116.5 q-137 0 -251 -105.5t-173 -260t-59 -314.5zM594 1493l22 111h482l-23 -111h-481z" />
<glyph unicode="&#x14d;" horiz-adv-x="1054" d="M80 375q0 274 163 459.5t373 185.5q162 0 259.5 -107.5t97.5 -291.5q0 -274 -164 -460t-375 -186q-162 0 -258 107.5t-96 292.5zM238 385q0 -135 55 -207t158 -72q141 0 251.5 150t110.5 354q0 135 -55.5 208t-157.5 73q-139 0 -250.5 -150.5t-111.5 -355.5zM444 1231 l21 110h481l-20 -110h-482z" />
<glyph unicode="&#x150;" horiz-adv-x="1296" d="M123 539q0 207 81 395t233.5 311t338.5 123q221 0 343 -151.5t122 -409.5q0 -207 -81 -396.5t-233.5 -312.5t-338.5 -123q-221 0 -343 152t-122 412zM285 551q0 -205 77.5 -321.5t233.5 -116.5q137 0 251 105.5t173 260t59 314.5q0 205 -77.5 321.5t-233.5 116.5 q-137 0 -251 -105.5t-173 -260t-59 -314.5zM612 1446l181 227h145l-213 -227h-113zM918 1446l180 227h143l-211 -227h-112z" />
<glyph unicode="&#x151;" horiz-adv-x="1054" d="M80 375q0 274 163 459.5t373 185.5q162 0 259.5 -107.5t97.5 -291.5q0 -274 -164 -460t-375 -186q-162 0 -258 107.5t-96 292.5zM238 385q0 -135 55 -207t158 -72q141 0 251.5 150t110.5 354q0 135 -55.5 208t-157.5 73q-139 0 -250.5 -150.5t-111.5 -355.5zM469 1169 l211 291h143l-243 -291h-111zM760 1169l209 291h145l-244 -291h-110z" />
<glyph unicode="&#x152;" horiz-adv-x="1671" d="M123 524q0 371 194.5 595t532.5 224h872l-28 -133h-543l-88 -436h457l-29 -135h-453l-104 -504h565l-29 -135h-778q-276 0 -422.5 137t-146.5 387zM285 535q0 -193 106.5 -298.5t306.5 -105.5h80l217 1083h-145q-258 0 -411.5 -187t-153.5 -492z" />
<glyph unicode="&#x153;" horiz-adv-x="1662" d="M80 375q0 274 160.5 459.5t367.5 185.5q246 0 307 -258q66 121 166.5 189.5t204.5 68.5q160 0 234.5 -97.5t74.5 -263.5q0 -100 -36 -194h-615q-23 -182 47 -273.5t193 -91.5q106 0 223 86l59 -104q-145 -106 -321 -107q-119 0 -201 70t-110 203q-70 -127 -178.5 -200 t-229.5 -73q-158 0 -252 107.5t-94 292.5zM238 385q0 -135 55 -207t158 -72q137 0 246.5 150t109.5 354q0 135 -55.5 208t-157.5 73q-135 0 -245.5 -150.5t-110.5 -355.5zM961 571h489q12 49 12 103q0 94 -46 157.5t-146.5 63.5t-187 -89.5t-121.5 -234.5z" />
<glyph unicode="&#x154;" horiz-adv-x="1136" d="M72 0l268 1343h369q420 0 419 -313q0 -180 -108.5 -296t-286.5 -150l236 -584h-170l-221 569h-234l-113 -569h-159zM371 698h202q190 0 294 83t104 229q0 207 -301 207h-197zM641 1446l219 225h178l-262 -225h-135z" />
<glyph unicode="&#x155;" horiz-adv-x="700" d="M63 0l197 995h129l-22 -190h8q141 215 309 215q51 0 94 -19l-55 -139q-33 16 -86 17q-76 0 -153.5 -65.5t-139.5 -184.5l-125 -629h-156zM399 1169l238 289h168l-279 -289h-127z" />
<glyph unicode="&#x156;" horiz-adv-x="1136" d="M72 0l268 1343h369q420 0 419 -313q0 -180 -108.5 -296t-286.5 -150l236 -584h-170l-221 569h-234l-113 -569h-159zM301 -371q197 31 197 117q0 53 -80 76l47 69q152 -35 151 -133q0 -172 -307 -202zM371 698h202q190 0 294 83t104 229q0 207 -301 207h-197z" />
<glyph unicode="&#x157;" horiz-adv-x="700" d="M-76 -354q197 31 197 116q0 51 -80 76l45 70q152 -35 152 -133q0 -172 -306 -203zM63 0l197 995h129l-22 -190h8q141 215 309 215q51 0 94 -19l-55 -139q-33 16 -86 17q-76 0 -153.5 -65.5t-139.5 -184.5l-125 -629h-156z" />
<glyph unicode="&#x158;" horiz-adv-x="1136" d="M72 0l268 1343h369q420 0 419 -313q0 -180 -108.5 -296t-286.5 -150l236 -584h-170l-221 569h-234l-113 -569h-159zM371 698h202q190 0 294 83t104 229q0 207 -301 207h-197zM526 1671h121l105 -143h6l160 143h135l-234 -225h-149z" />
<glyph unicode="&#x159;" horiz-adv-x="700" d="M63 0l197 995h129l-22 -190h8q141 215 309 215q51 0 94 -19l-55 -139q-33 16 -86 17q-76 0 -153.5 -65.5t-139.5 -184.5l-125 -629h-156zM342 1458h109l96 -186h8l172 186h119l-250 -289h-119z" />
<glyph unicode="&#x15a;" horiz-adv-x="1036" d="M25 213l116 88q129 -190 346 -190q125 0 207 70.5t82 183.5q0 70 -42 120t-126 101l-155 94q-207 125 -207 315q0 154 119.5 263.5t298.5 109.5q115 0 215 -51t165 -137l-104 -95q-123 145 -289 146q-109 0 -176 -65.5t-67 -151.5q0 -72 43 -119t131 -100l155 -93 q102 -59 152.5 -132.5t50.5 -182.5q0 -180 -131 -296t-336 -116q-286 0 -448 238zM608 1450l217 223h181l-265 -223h-133z" />
<glyph unicode="&#x15b;" horiz-adv-x="823" d="M-8 164l98 78q104 -145 256 -146q86 0 148.5 49.5t62.5 116.5q0 53 -38 92t-144 97q-119 66 -173.5 128t-54.5 144q0 129 99.5 213t242.5 84q166 0 293 -133l-90 -88q-94 98 -207 98q-80 0 -134 -46t-54 -110q0 -31 12.5 -54t45 -48t51 -36t67.5 -38q131 -72 182.5 -135 t51.5 -147q0 -137 -104.5 -222.5t-268.5 -85.5q-98 0 -194.5 54.5t-147.5 134.5zM410 1169l237 289h168l-278 -289h-127z" />
<glyph unicode="&#x15c;" horiz-adv-x="1036" d="M25 213l116 88q129 -190 346 -190q125 0 207 70.5t82 183.5q0 70 -42 120t-126 101l-155 94q-207 125 -207 315q0 154 119.5 263.5t298.5 109.5q115 0 215 -51t165 -137l-104 -95q-123 145 -289 146q-109 0 -176 -65.5t-67 -151.5q0 -72 43 -119t131 -100l155 -93 q102 -59 152.5 -132.5t50.5 -182.5q0 -180 -131 -296t-336 -116q-286 0 -448 238zM446 1450l232 223h149l144 -223h-121l-102 143h-9l-159 -143h-134z" />
<glyph unicode="&#x15d;" horiz-adv-x="823" d="M-8 164l98 78q104 -145 256 -146q86 0 148.5 49.5t62.5 116.5q0 53 -38 92t-144 97q-119 66 -173.5 128t-54.5 144q0 129 99.5 213t242.5 84q166 0 293 -133l-90 -88q-94 98 -207 98q-80 0 -134 -46t-54 -110q0 -31 12.5 -54t45 -48t51 -36t67.5 -38q131 -72 182.5 -135 t51.5 -147q0 -137 -104.5 -222.5t-268.5 -85.5q-98 0 -194.5 54.5t-147.5 134.5zM293 1169l250 289h119l135 -289h-109l-96 189h-8l-172 -189h-119z" />
<glyph unicode="&#x15e;" horiz-adv-x="1036" d="M25 213l116 88q129 -190 346 -190q125 0 207 70.5t82 183.5q0 70 -42 120t-126 101l-155 94q-207 125 -207 315q0 154 119.5 263.5t298.5 109.5q115 0 214.5 -51t165.5 -137l-104 -95q-123 145 -289 146q-109 0 -176 -65.5t-67 -151.5q0 -72 43 -119t131 -100l155 -93 q102 -59 152.5 -132.5t50.5 -182.5q0 -172 -121 -286.5t-311 -125.5l-57 -84q92 -35 92 -116q0 -92 -87 -144.5t-220 -66.5l-9 71q193 33 193 123q0 33 -24.5 52.5t-84.5 35.5l92 134q-238 25 -378 233z" />
<glyph unicode="&#x15f;" horiz-adv-x="823" d="M-8 164l98 78q104 -145 256 -146q86 0 148.5 49.5t62.5 116.5q0 53 -38 92t-144 97q-119 66 -173.5 128t-54.5 144q0 129 99.5 213t242.5 84q166 0 293 -133l-90 -88q-94 98 -207 98q-80 0 -134 -46t-54 -110q0 -31 12.5 -54t45 -48t51 -36t67.5 -38q131 -72 182.5 -135 t51.5 -147q0 -125 -87.5 -207t-226.5 -96l-59 -89q92 -33 92 -116q0 -92 -87 -144.5t-220 -66.5l-8 71q193 33 192 123q0 33 -24.5 52.5t-83.5 35.5l92 134q-88 12 -169 63t-126 121z" />
<glyph unicode="&#x160;" horiz-adv-x="1036" d="M25 213l116 88q129 -190 346 -190q125 0 207 70.5t82 183.5q0 70 -42 120t-126 101l-155 94q-207 125 -207 315q0 154 119.5 263.5t298.5 109.5q115 0 215 -51t165 -137l-104 -95q-123 145 -289 146q-109 0 -176 -65.5t-67 -151.5q0 -72 43 -119t131 -100l155 -93 q102 -59 152.5 -132.5t50.5 -182.5q0 -180 -131 -296t-336 -116q-286 0 -448 238zM494 1673h120l103 -143h8l160 143h133l-232 -223h-149z" />
<glyph unicode="&#x161;" horiz-adv-x="823" d="M-8 164l98 78q104 -145 256 -146q86 0 148.5 49.5t62.5 116.5q0 53 -38 92t-144 97q-119 66 -173.5 128t-54.5 144q0 129 99.5 213t242.5 84q166 0 293 -133l-90 -88q-94 98 -207 98q-80 0 -134 -46t-54 -110q0 -31 12.5 -54t45 -48t51 -36t67.5 -38q131 -72 182.5 -135 t51.5 -147q0 -137 -104.5 -222.5t-268.5 -85.5q-98 0 -194.5 54.5t-147.5 134.5zM354 1458h107l98 -186h8l170 186h119l-250 -289h-119z" />
<glyph unicode="&#x162;" horiz-adv-x="1044" d="M166 -365q193 33 192 123q0 33 -24.5 52.5t-83.5 35.5l106 154h-16l240 1206h-390l27 137h940l-27 -137h-391l-239 -1206h-37l-74 -109q92 -33 92 -116q0 -92 -87 -144.5t-220 -66.5z" />
<glyph unicode="&#x163;" horiz-adv-x="665" d="M113 -365q193 33 192 123q0 33 -24.5 52.5t-83.5 35.5l96 140q-152 37 -152 211q0 18 11 110l116 561h-145l22 117l156 10l74 275h133l-55 -275h252l-25 -127h-256l-117 -569q-6 -37 -6 -74q0 -63 28.5 -93t98.5 -30q39 0 104 31l35 -113q-100 -43 -174 -45l-57 -84 q92 -35 92 -116q0 -92 -87 -144.5t-220 -66.5z" />
<glyph unicode="&#x164;" horiz-adv-x="1044" d="M190 1206l27 137h940l-27 -137h-391l-239 -1206h-160l240 1206h-390zM467 1671h121l104 -143h6l160 143h135l-233 -225h-148z" />
<glyph unicode="&#x165;" horiz-adv-x="665" d="M123 868l22 117l156 10l74 275h133l-55 -275h252l-25 -127h-256l-117 -569q-6 -37 -6 -74q0 -63 28.5 -93t98.5 -30q39 0 104 31l35 -113q-98 -45 -188 -45q-123 0 -180.5 60.5t-57.5 161.5q1 18 11 110l116 561h-145zM643 1122l82 434h111l-23 -116l-90 -318h-80z" />
<glyph unicode="&#x168;" horiz-adv-x="1261" d="M162 399q0 78 20 191l152 753h160l-154 -768q-18 -92 -18 -161q0 -301 272 -301q123 0 212 98t130 309l166 823h155l-167 -829q-104 -539 -504 -539q-205 0 -314.5 109t-109.5 315zM522 1456q23 92 79 153.5t124 61.5q53 0 114.5 -56t98.5 -56q61 0 100 108h90 q-23 -92 -79 -153.5t-121 -61.5q-55 0 -115.5 57.5t-99.5 57.5q-60 0 -101 -111h-90z" />
<glyph unicode="&#x169;" horiz-adv-x="1081" d="M115 223q0 66 16 137l127 635h158l-125 -614q-16 -86 -17 -117q0 -154 148 -153q121 0 295 180l141 704h156l-199 -995h-129l16 152h-8q-199 -176 -344 -177q-236 0 -235 248zM389 1188q27 94 78 151.5t114.5 57.5t123 -54.5t100.5 -54.5q47 0 90 105h90 q-27 -94 -78 -151.5t-114 -57.5q-61 0 -122 54t-100 54q-49 0 -92 -104h-90z" />
<glyph unicode="&#x16a;" horiz-adv-x="1261" d="M162 399q0 78 20 191l152 753h160l-154 -768q-18 -92 -18 -161q0 -301 272 -301q123 0 212 98t130 309l166 823h155l-167 -829q-104 -539 -504 -539q-205 0 -314.5 109t-109.5 315zM573 1493l23 111h483l-22 -111h-484z" />
<glyph unicode="&#x16b;" horiz-adv-x="1081" d="M115 223q0 66 16 137l127 635h158l-125 -614q-16 -86 -17 -117q0 -154 148 -153q121 0 295 180l141 704h156l-199 -995h-129l16 152h-8q-199 -176 -344 -177q-236 0 -235 248zM430 1231l21 110h481l-21 -110h-481z" />
<glyph unicode="&#x16c;" horiz-adv-x="1261" d="M162 399q0 78 20 191l152 753h160l-154 -768q-18 -92 -18 -161q0 -301 272 -301q123 0 212 98t130 309l166 823h155l-167 -829q-104 -539 -504 -539q-205 0 -314.5 109t-109.5 315zM610 1671h92q-4 -57 26 -95t93 -38q119 0 168 133h96q-29 -96 -99 -160.5t-181 -64.5 q-104 0 -153.5 66.5t-41.5 158.5z" />
<glyph unicode="&#x16d;" horiz-adv-x="1081" d="M115 223q0 66 16 137l127 635h158l-125 -614q-16 -86 -17 -117q0 -154 148 -153q121 0 295 180l141 704h156l-199 -995h-129l16 152h-8q-199 -176 -344 -177q-236 0 -235 248zM467 1434h92q-14 -162 117 -162q63 0 111.5 45t72.5 117h98q-31 -106 -106.5 -181t-192.5 -75 q-115 0 -160.5 74.5t-31.5 181.5z" />
<glyph unicode="&#x16e;" horiz-adv-x="1261" d="M162 399q0 78 20 191l152 753h160l-154 -768q-18 -92 -18 -161q0 -301 272 -301q123 0 212 98t130 309l166 823h155l-167 -829q-104 -539 -504 -539q-205 0 -314.5 109t-109.5 315zM649 1589q0 84 59.5 143.5t141.5 59.5q76 0 124 -41t48 -121q0 -84 -59.5 -143.5 t-141.5 -59.5q-76 0 -124 41t-48 121zM737 1597q0 -43 23.5 -69.5t64.5 -26.5q43 0 76 36t33 87q0 43 -23.5 68.5t-64.5 25.5q-45 0 -77 -34.5t-32 -86.5z" />
<glyph unicode="&#x16f;" horiz-adv-x="1081" d="M115 223q0 66 16 137l127 635h158l-125 -614q-16 -86 -17 -117q0 -154 148 -153q121 0 295 180l141 704h156l-199 -995h-129l16 152h-8q-199 -176 -344 -177q-236 0 -235 248zM500 1274q0 86 58 147.5t140 61.5q76 0 124 -44t48 -124q0 -86 -59 -147.5t-141 -61.5 q-76 0 -123 44t-47 124zM588 1280q0 -45 22.5 -72.5t63.5 -27.5q43 0 74.5 38.5t31.5 90.5q0 45 -22.5 72.5t-63.5 27.5q-43 0 -74.5 -39t-31.5 -90z" />
<glyph unicode="&#x170;" horiz-adv-x="1261" d="M162 399q0 78 20 191l152 753h160l-154 -768q-18 -92 -18 -161q0 -301 272 -301q123 0 212 98t130 309l166 823h155l-167 -829q-104 -539 -504 -539q-205 0 -314.5 109t-109.5 315zM592 1446l180 227h146l-211 -227h-115zM897 1446l180 227h146l-211 -227h-115z" />
<glyph unicode="&#x171;" horiz-adv-x="1081" d="M115 223q0 66 16 137l127 635h158l-125 -614q-16 -86 -17 -117q0 -154 148 -153q121 0 295 180l141 704h156l-199 -995h-129l16 152h-8q-199 -176 -344 -177q-236 0 -235 248zM455 1169l211 291h143l-244 -291h-110zM745 1169l209 291h146l-244 -291h-111z" />
<glyph unicode="&#x172;" horiz-adv-x="1261" d="M162 399q0 78 20 191l152 753h160l-154 -768q-18 -92 -18 -161q0 -301 272 -301q123 0 212 98t130 309l166 823h155l-167 -829q-45 -236 -138.5 -353.5t-257.5 -174.5q-109 -37 -166 -102.5t-57 -127.5q0 -35 20.5 -56.5t53.5 -21.5q37 0 73 23l35 -86q-78 -47 -155 -47 q-72 0 -116 37t-44 104q0 70 51 144.5t121 126.5q-348 45 -348 419z" />
<glyph unicode="&#x173;" horiz-adv-x="1081" d="M115 223q0 66 16 137l127 635h158l-125 -614q-16 -86 -17 -117q0 -154 148 -153q121 0 295 180l141 704h156l-199 -995q-104 -49 -164.5 -112.5t-60.5 -129.5q0 -35 21.5 -55t54.5 -20q39 0 75 24l33 -78q-80 -51 -156 -51q-68 0 -110.5 36t-42.5 101q0 86 67.5 166 t157.5 131l12 140h-8q-199 -176 -344 -177q-236 0 -235 248z" />
<glyph unicode="&#x174;" horiz-adv-x="1548" d="M195 0l18 1343h164l-21 -739q-4 -59 -9 -207.5t-11 -228.5h8q20 49 60 138t72 162t59 136l335 739h146l18 -739q2 -141 2 -436h8q31 84 91.5 235.5t78.5 200.5l291 739h158l-553 -1343h-203l-14 821q0 156 6 316h-8q-14 -41 -131 -316l-367 -821h-198zM676 1446l231 225 h150l143 -225h-121l-102 143h-8l-160 -143h-133z" />
<glyph unicode="&#x175;" horiz-adv-x="1447" d="M143 995h156l33 -585q2 -94 6 -279h8q18 41 57 134t62 145l262 585h154l34 -585q2 -47 5.5 -139.5t5.5 -139.5h8q12 29 51 127t64 152l260 585h147l-452 -995h-195l-29 545q-2 47 -6 293h-8q-12 -29 -54 -133.5t-67 -159.5l-242 -545h-188zM598 1169l250 289h117 l135 -289h-109l-96 189h-8l-170 -189h-119z" />
<glyph unicode="&#x176;" horiz-adv-x="944" d="M170 1343h164l92 -387q14 -53 35.5 -150t32.5 -140h8q123 201 184 292l254 385h170l-561 -819l-107 -524h-157l104 524zM367 1446l231 225h150l143 -225h-121l-102 143h-9l-159 -143h-133z" />
<glyph unicode="&#x177;" horiz-adv-x="917" d="M-127 -399l51 116q37 -18 74 -18q147 0 260 227l37 72l-170 997h156l77 -559q14 -96 33 -297h8q10 23 64.5 132.5t83.5 164.5l287 559h155l-586 -1079q-88 -166 -185 -255t-230 -89q-59 0 -115 29zM311 1169l250 289h119l135 -289h-108l-97 189h-8l-172 -189h-119z" />
<glyph unicode="&#x178;" horiz-adv-x="944" d="M170 1343h164l92 -387q14 -53 35.5 -150t32.5 -140h8q123 201 184 292l254 385h170l-561 -819l-107 -524h-157l104 524zM391 1546q0 45 30 79t73 34q37 0 59 -22.5t22 -61.5q0 -43 -29.5 -77t-72.5 -34q-37 0 -59.5 21.5t-22.5 60.5zM731 1546q0 45 30 79t73 34 q37 0 59 -22.5t22 -61.5q0 -43 -30.5 -77t-71.5 -34q-37 0 -59.5 21.5t-22.5 60.5z" />
<glyph unicode="&#x179;" horiz-adv-x="1048" d="M-2 0l20 96l871 1114h-615l29 133h805l-21 -94l-864 -1114h678l-31 -135h-872zM604 1446l219 225h178l-262 -225h-135z" />
<glyph unicode="&#x17a;" horiz-adv-x="843" d="M-39 0l16 90l662 778h-451l25 127h649l-14 -92l-664 -776h523l-27 -127h-719zM420 1169l237 289h168l-278 -289h-127z" />
<glyph unicode="&#x17b;" horiz-adv-x="1048" d="M-2 0l20 96l871 1114h-615l29 133h805l-21 -94l-864 -1114h678l-31 -135h-872zM621 1559q0 49 35.5 83.5t82.5 34.5q41 0 71 -25.5t30 -68.5q0 -49 -35 -83t-84 -34q-43 0 -71.5 25t-28.5 68z" />
<glyph unicode="&#x17c;" horiz-adv-x="843" d="M-39 0l16 90l662 778h-451l25 127h649l-14 -92l-664 -776h523l-27 -127h-719zM469 1294q0 49 35 84t84 35q41 0 70.5 -25.5t29.5 -68.5q0 -49 -35 -83t-84 -34q-43 0 -71.5 24.5t-28.5 67.5z" />
<glyph unicode="&#x17d;" horiz-adv-x="1048" d="M-2 0l20 96l871 1114h-615l29 133h805l-21 -94l-864 -1114h678l-31 -135h-872zM489 1671h121l105 -143h6l160 143h133l-232 -225h-149z" />
<glyph unicode="&#x17e;" horiz-adv-x="843" d="M-39 0l16 90l662 778h-451l25 127h649l-14 -92l-664 -776h523l-27 -127h-719zM362 1458h109l96 -186h8l170 186h121l-250 -289h-118z" />
<glyph unicode="&#x18f;" horiz-adv-x="1302" d="M129 479q0 100 33 228h925q4 61 5 92q0 442 -310 442q-163 0 -317 -135l-72 108q176 162 406 162q223 0 336.5 -148.5t113.5 -410.5q0 -362 -198.5 -602t-481.5 -240q-205 0 -322.5 138.5t-117.5 365.5zM285 586q-31 -219 52 -347t243 -128q170 0 304 131t183 344h-782z " />
<glyph unicode="&#x192;" horiz-adv-x="983" d="M-98 -154l51 115q51 -31 104 -31q147 0 240 308l145 475h-174l25 112l137 6h47l47 152q117 391 379 391q82 0 166 -45l-51 -119q-59 35 -117 35q-74 0 -131 -75.5t-92 -190.5l-45 -148h244l-25 -118h-256l-162 -525q-57 -184 -144 -285.5t-227 -101.5q-94 0 -161 45z" />
<glyph unicode="&#x1a0;" horiz-adv-x="1296" d="M123 539q0 207 81 395t233.5 311t338.5 123q139 0 242 -63q88 6 144.5 48t56.5 105q-1 33 -11 68l121 41q23 -47 23 -97q0 -88 -67.5 -151.5t-180.5 -83.5q137 -150 137 -428q0 -207 -81 -396.5t-233.5 -312.5t-338.5 -123q-221 0 -343 152t-122 412zM285 551 q0 -205 77.5 -321.5t233.5 -116.5q137 0 251 105.5t173 260t59 314.5q0 205 -77.5 321.5t-233.5 116.5q-137 0 -251 -105.5t-173 -260t-59 -314.5z" />
<glyph unicode="&#x1a1;" horiz-adv-x="1058" d="M80 375q0 274 163 459.5t373 185.5q102 0 183 -45q84 8 137 48t53 103q0 35 -12 68l123 43q20 -43 20 -96q0 -86 -60.5 -148.5t-176.5 -87.5q90 -106 90 -284q0 -274 -164 -460t-375 -186q-162 0 -258 107.5t-96 292.5zM238 385q0 -135 55.5 -207t157.5 -72 q141 0 251.5 150t110.5 354q0 135 -55.5 208t-157.5 73q-139 0 -250.5 -150.5t-111.5 -355.5z" />
<glyph unicode="&#x1af;" horiz-adv-x="1288" d="M162 399q0 78 20 191l152 753h160l-154 -768q-18 -92 -18 -161q0 -301 272 -301q123 0 212 98t130 309l166 823h72q86 4 142 47.5t56 104.5q0 35 -10 68l123 43q20 -49 20 -97q0 -88 -67.5 -154.5t-194.5 -84.5l-153 -756q-104 -539 -504 -539q-205 0 -314.5 109 t-109.5 315z" />
<glyph unicode="&#x1b0;" horiz-adv-x="1112" d="M115 223q0 66 16 137l127 635h158l-125 -614q-16 -86 -17 -117q0 -154 148 -153q121 0 295 180l141 704h55q76 10 128.5 51t52.5 101q-1 34 -11 67l123 43q20 -49 21 -96q0 -84 -62.5 -148.5t-165.5 -86.5l-184 -926h-129l16 152h-8q-199 -176 -344 -177q-236 0 -235 248 z" />
<glyph unicode="&#x1cd;" horiz-adv-x="1044" d="M-109 0l730 1343h184l156 -1343h-166l-37 420h-475l-215 -420h-177zM346 543h399l-20 229q-33 377 -37 438h-8q-88 -190 -215 -438zM487 1671h121l105 -143h6l160 143h135l-234 -225h-147z" />
<glyph unicode="&#x1ce;" horiz-adv-x="1099" d="M80 336q0 283 164 483.5t374 200.5q162 0 240 -150h8l39 125h127l-198 -995h-129l16 147h-8q-162 -172 -346 -172q-133 0 -210 94.5t-77 266.5zM242 360q0 -125 48 -189.5t134 -64.5q168 0 313 191l90 444q-82 147 -202 148q-150 0 -266.5 -162t-116.5 -367zM477 1458 h107l98 -186h8l170 186h119l-250 -289h-117z" />
<glyph unicode="&#x1cf;" horiz-adv-x="516" d="M72 0l268 1343h160l-269 -1343h-159zM205 1671h121l104 -143h6l160 143h133l-231 -225h-150z" />
<glyph unicode="&#x1d0;" horiz-adv-x="485" d="M63 0l199 995h158l-201 -995h-156zM182 1458h109l96 -186h8l172 186h119l-250 -289h-119z" />
<glyph unicode="&#x1d1;" horiz-adv-x="1296" d="M123 539q0 207 81 395t233.5 311t338.5 123q221 0 343 -151.5t122 -409.5q0 -207 -81 -396.5t-233.5 -312.5t-338.5 -123q-221 0 -343 152t-122 412zM285 551q0 -205 77.5 -321.5t233.5 -116.5q137 0 251 105.5t173 260t59 314.5q0 205 -77.5 321.5t-233.5 116.5 q-137 0 -251 -105.5t-173 -260t-59 -314.5zM608 1671h121l105 -143h6l161 143h134l-234 -225h-147z" />
<glyph unicode="&#x1d2;" horiz-adv-x="1054" d="M80 375q0 274 163 459.5t373 185.5q162 0 259.5 -107.5t97.5 -291.5q0 -274 -164 -460t-375 -186q-162 0 -258 107.5t-96 292.5zM238 385q0 -135 55 -207t158 -72q141 0 251.5 150t110.5 354q0 135 -55.5 208t-157.5 73q-139 0 -250.5 -150.5t-111.5 -355.5zM481 1458 h109l96 -186h8l172 186h119l-250 -289h-119z" />
<glyph unicode="&#x1d3;" horiz-adv-x="1261" d="M162 399q0 78 20 191l152 753h160l-154 -768q-18 -92 -18 -161q0 -301 272 -301q123 0 212 98t130 309l166 823h155l-167 -829q-104 -539 -504 -539q-205 0 -314.5 109t-109.5 315zM588 1671h123l102 -143h8l160 143h133l-231 -225h-150z" />
<glyph unicode="&#x1d4;" horiz-adv-x="1081" d="M115 223q0 66 16 137l127 635h158l-125 -614q-16 -86 -17 -117q0 -154 148 -153q121 0 295 180l141 704h156l-199 -995h-129l16 152h-8q-199 -176 -344 -177q-236 0 -235 248zM467 1458h108l97 -186h8l172 186h119l-250 -289h-119z" />
<glyph unicode="&#x1d5;" horiz-adv-x="1261" d="M162 399q0 78 20 191l152 753h160l-154 -768q-18 -92 -18 -161q0 -301 272 -301q123 0 212 98t130 309l166 823h155l-167 -829q-104 -539 -504 -539q-205 0 -314.5 109t-109.5 315zM584 1542q0 41 28.5 74t69.5 33q33 0 54.5 -22.5t21.5 -57.5q0 -41 -29 -73t-70 -32 q-35 0 -55 20.5t-20 57.5zM633 1759l18 90h486l-21 -90h-483zM920 1542q0 41 29.5 74t70.5 33q33 0 54.5 -22.5t21.5 -57.5q0 -41 -30 -73t-71 -32q-33 0 -54 20.5t-21 57.5z" />
<glyph unicode="&#x1d6;" horiz-adv-x="1081" d="M115 223q0 66 16 137l127 635h158l-125 -614q-16 -86 -17 -117q0 -154 148 -153q121 0 295 180l141 704h156l-199 -995h-129l16 152h-8q-199 -176 -344 -177q-236 0 -235 248zM430 1280q0 45 28.5 75.5t69.5 30.5q35 0 55.5 -20t20.5 -55q0 -43 -28.5 -74t-69.5 -31 q-33 0 -54.5 20.5t-21.5 53.5zM496 1532l20 90h477l-18 -90h-479zM768 1280q0 45 28.5 75.5t69.5 30.5q35 0 54.5 -20t19.5 -55q0 -43 -28.5 -74t-67.5 -31q-33 0 -54.5 20.5t-21.5 53.5z" />
<glyph unicode="&#x1d7;" horiz-adv-x="1261" d="M162 399q0 78 20 191l152 753h160l-154 -768q-18 -92 -18 -161q0 -301 272 -301q123 0 212 98t130 309l166 823h155l-167 -829q-104 -539 -504 -539q-205 0 -314.5 109t-109.5 315zM575 1542q0 39 31 73t72 34q31 0 53.5 -22.5t22.5 -57.5q0 -41 -29 -73t-74 -32 q-33 0 -54.5 21.5t-21.5 56.5zM766 1714l217 223h174l-260 -223h-131zM913 1542q0 41 29 74t74 33q31 0 53.5 -22.5t22.5 -57.5q0 -41 -30 -73t-73 -32q-35 0 -55.5 20.5t-20.5 57.5z" />
<glyph unicode="&#x1d8;" horiz-adv-x="1081" d="M115 223q0 66 16 137l127 635h158l-125 -614q-16 -86 -17 -117q0 -154 148 -153q121 0 295 180l141 704h156l-199 -995h-129l16 152h-8q-199 -176 -344 -177q-236 0 -235 248zM430 1280q0 45 28.5 75.5t69.5 30.5q35 0 55.5 -20t20.5 -55q0 -43 -28.5 -74t-69.5 -31 q-33 0 -54.5 20.5t-21.5 53.5zM623 1473l192 204h156l-232 -204h-116zM768 1280q0 45 28.5 75.5t69.5 30.5q35 0 54.5 -20t19.5 -55q0 -43 -28.5 -74t-67.5 -31q-33 0 -54.5 20.5t-21.5 53.5z" />
<glyph unicode="&#x1d9;" horiz-adv-x="1261" d="M162 399q0 78 20 191l152 753h160l-154 -768q-18 -92 -18 -161q0 -301 272 -301q123 0 212 98t130 309l166 823h155l-167 -829q-104 -539 -504 -539q-205 0 -314.5 109t-109.5 315zM575 1542q0 39 31 73t72 34q31 0 53.5 -22.5t22.5 -57.5q0 -41 -29 -73t-74 -32 q-33 0 -54.5 21.5t-21.5 56.5zM645 1937h125l102 -143h7l161 143h129l-231 -223h-150zM913 1542q0 41 29 74t74 33q31 0 53.5 -22.5t22.5 -57.5q0 -41 -30 -73t-73 -32q-35 0 -55.5 20.5t-20.5 57.5z" />
<glyph unicode="&#x1da;" horiz-adv-x="1081" d="M115 223q0 66 16 137l127 635h158l-125 -614q-16 -86 -17 -117q0 -154 148 -153q121 0 295 180l141 704h156l-199 -995h-129l16 152h-8q-199 -176 -344 -177q-236 0 -235 248zM430 1280q0 45 28.5 75.5t69.5 30.5q35 0 55.5 -20t20.5 -55q0 -43 -28.5 -74t-69.5 -31 q-33 0 -54.5 20.5t-21.5 53.5zM518 1677h109l106 -127h8l148 127h115l-211 -204h-134zM768 1280q0 45 28.5 75.5t69.5 30.5q35 0 54.5 -20t19.5 -55q0 -43 -28.5 -74t-67.5 -31q-33 0 -54.5 20.5t-21.5 53.5z" />
<glyph unicode="&#x1db;" horiz-adv-x="1261" d="M162 399q0 78 20 191l152 753h160l-154 -768q-18 -92 -18 -161q0 -301 272 -301q123 0 212 98t130 309l166 823h155l-167 -829q-104 -539 -504 -539q-205 0 -314.5 109t-109.5 315zM575 1542q0 39 31 73t72 34q31 0 53.5 -22.5t22.5 -57.5q0 -41 -29 -73t-74 -32 q-33 0 -54.5 21.5t-21.5 56.5zM657 1937h168l142 -223h-129zM913 1542q0 41 29 74t74 33q31 0 53.5 -22.5t22.5 -57.5q0 -41 -30 -73t-73 -32q-35 0 -55.5 20.5t-20.5 57.5z" />
<glyph unicode="&#x1dc;" horiz-adv-x="1081" d="M115 223q0 66 16 137l127 635h158l-125 -614q-16 -86 -17 -117q0 -154 148 -153q121 0 295 180l141 704h156l-199 -995h-129l16 152h-8q-199 -176 -344 -177q-236 0 -235 248zM430 1280q0 45 28.5 75.5t69.5 30.5q35 0 55.5 -20t20.5 -55q0 -43 -28.5 -74t-69.5 -31 q-33 0 -54.5 20.5t-21.5 53.5zM545 1677h145l125 -204h-108zM768 1280q0 45 28.5 75.5t69.5 30.5q35 0 54.5 -20t19.5 -55q0 -43 -28.5 -74t-67.5 -31q-33 0 -54.5 20.5t-21.5 53.5z" />
<glyph unicode="&#x1e6;" horiz-adv-x="1204" d="M117 518q0 217 85 408.5t252 316.5t377 125q221 0 338 -199l-112 -84q-86 145 -234 146q-162 0 -288.5 -107.5t-190 -265.5t-63.5 -326q0 -193 86 -307t270 -114q133 0 229 82l76 370h-278l26 131h422l-117 -581q-164 -137 -381 -138q-238 0 -367.5 146.5t-129.5 396.5z M616 1671h121l105 -143h6l160 143h135l-234 -225h-149z" />
<glyph unicode="&#x1e7;" horiz-adv-x="1087" d="M-4 -322l74 109q137 -119 280 -119q242 0 314 297l49 205h-6q-166 -160 -338 -160q-131 0 -210 91.5t-79 258.5q0 268 160.5 464t365.5 196q78 0 140.5 -40t99.5 -110h6l39 125h129l-209 -1042q-41 -199 -161 -305.5t-306 -106.5q-182 0 -348 137zM242 383 q0 -119 47 -180.5t131 -61.5q74 0 156.5 45t150.5 129l88 426q-86 147 -203 148q-143 0 -256.5 -155.5t-113.5 -350.5zM467 1458h108l97 -186h8l170 186h119l-250 -289h-117z" />
<glyph unicode="&#x1ea;" horiz-adv-x="1296" d="M123 539q0 207 81 395t233.5 311t338.5 123q221 0 343 -151.5t122 -409.5q0 -274 -136 -500.5t-374 -312.5q-115 -43 -173 -107.5t-58 -130.5q0 -35 20.5 -56.5t52.5 -21.5q37 0 74 23l35 -86q-78 -47 -156 -47q-72 0 -115.5 37t-43.5 104q0 76 54 152t118 116 q-199 18 -307.5 167t-108.5 395zM285 551q0 -205 77.5 -321.5t233.5 -116.5q137 0 251 105.5t173 260t59 314.5q0 205 -77.5 321.5t-233.5 116.5q-137 0 -251 -105.5t-173 -260t-59 -314.5z" />
<glyph unicode="&#x1eb;" horiz-adv-x="1054" d="M80 375q0 274 163 459.5t373 185.5q160 0 258.5 -106.5t98.5 -292.5q0 -231 -110.5 -390t-301.5 -241q-98 -43 -154.5 -108.5t-56.5 -123.5q0 -35 21.5 -55t52.5 -20q39 0 78 24l33 -78q-84 -51 -156 -51q-68 0 -111 35.5t-43 101.5q0 80 56.5 156t113.5 109 q-147 16 -231 117.5t-84 277.5zM238 385q0 -135 55 -207t158 -72q141 0 251.5 150t110.5 354q0 135 -55.5 208t-157.5 73q-139 0 -250.5 -150.5t-111.5 -355.5z" />
<glyph unicode="&#x218;" horiz-adv-x="1036" d="M25 213l116 88q129 -190 346 -190q125 0 207 70.5t82 183.5q0 70 -42 120t-126 101l-155 94q-207 125 -207 315q0 154 119.5 263.5t298.5 109.5q115 0 215 -51t165 -137l-104 -95q-123 145 -289 146q-109 0 -176 -65.5t-67 -151.5q0 -72 43 -119t131 -100l155 -93 q102 -59 152.5 -132.5t50.5 -182.5q0 -180 -131 -296t-336 -116q-286 0 -448 238zM229 -371q197 31 197 117q0 53 -80 76l47 69q152 -35 152 -133q0 -172 -307 -202z" />
<glyph unicode="&#x219;" horiz-adv-x="823" d="M-8 164l98 78q104 -145 256 -146q86 0 148.5 49.5t62.5 116.5q0 53 -38 92t-144 97q-119 66 -173.5 128t-54.5 144q0 129 99.5 213t242.5 84q166 0 293 -133l-90 -88q-94 98 -207 98q-80 0 -134 -46t-54 -110q0 -31 12.5 -54t45 -48t51 -36t67.5 -38q131 -72 182.5 -135 t51.5 -147q0 -137 -104.5 -222.5t-268.5 -85.5q-98 0 -194.5 54.5t-147.5 134.5zM125 -354q197 31 197 116q0 53 -80 76l45 70q154 -35 153 -133q0 -172 -307 -203z" />
<glyph unicode="&#x21a;" horiz-adv-x="1044" d="M190 1206l27 137h940l-27 -137h-391l-239 -1206h-160l240 1206h-390zM197 -354q197 31 196 116q0 51 -80 76l45 70q152 -35 152 -133q0 -172 -305 -203z" />
<glyph unicode="&#x21b;" horiz-adv-x="665" d="M100 -354q197 31 197 116q0 53 -80 76l45 70q154 -35 154 -133q0 -172 -307 -203zM123 868l22 117l156 10l74 275h133l-55 -275h252l-25 -127h-256l-117 -569q-6 -37 -6 -74q0 -63 28.5 -93t98.5 -30q39 0 104 31l35 -113q-98 -45 -188 -45q-123 0 -180.5 60.5 t-57.5 161.5q1 18 11 110l116 561h-145z" />
<glyph unicode="&#x237;" horiz-adv-x="487" d="M-254 -406l51 117q43 -27 94 -26q102 0 146 188l227 1122h158l-227 -1120q-66 -319 -295 -319q-82 0 -154 38z" />
<glyph unicode="&#x251;" horiz-adv-x="1099" d="M80 336q0 283 164 483.5t374 200.5q162 0 240 -150h8l39 125h127l-198 -995h-129l16 147h-8q-162 -172 -346 -172q-133 0 -210 94.5t-77 266.5zM242 360q0 -125 48 -189.5t134 -64.5q168 0 313 191l90 444q-82 147 -202 148q-150 0 -266.5 -162t-116.5 -367z" />
<glyph unicode="&#x259;" horiz-adv-x="978" d="M57 336q0 102 39 207h645q18 164 -45 259t-184 95q-90 0 -233 -74l-50 109q172 88 316 88q162 0 257 -108.5t95 -307.5q0 -270 -164 -449.5t-368 -179.5q-160 0 -234 98.5t-74 262.5zM190 322q0 -96 45.5 -159t147.5 -63q113 0 208 90t134 246h-520q-14 -49 -15 -114z " />
<glyph unicode="&#x261;" horiz-adv-x="1087" d="M-4 -322l74 109q137 -119 280 -119q242 0 314 297l49 205h-6q-166 -160 -338 -160q-131 0 -210 91.5t-79 258.5q0 268 160.5 464t365.5 196q78 0 140.5 -40t99.5 -110h6l39 125h129l-209 -1042q-41 -199 -161 -305.5t-306 -106.5q-182 0 -348 137zM242 383 q0 -119 47 -180.5t131 -61.5q74 0 156.5 45t150.5 129l88 426q-86 147 -203 148q-143 0 -256.5 -155.5t-113.5 -350.5z" />
<glyph unicode="&#x2b0;" horiz-adv-x="722" d="M111 532l192 961h117l-47 -244l-35 -147h6q125 106 225 106q156 0 156 -168q0 -33 -12 -90l-82 -418h-119l80 404q12 49 12 72q0 98 -84 98t-201 -117l-90 -457h-118z" />
<glyph unicode="&#x2b2;" horiz-adv-x="335" d="M-104 266l38 84q41 -18 66 -18q70 0 96 121l146 739h118l-147 -748q-41 -209 -207 -208q-55 0 -110 30zM262 1389q0 35 25.5 59.5t60.5 24.5q31 0 51.5 -18.5t20.5 -49.5q0 -35 -24.5 -59.5t-61.5 -24.5q-29 0 -50.5 18.5t-21.5 49.5z" />
<glyph unicode="&#x2b3;" horiz-adv-x="458" d="M111 532l131 660h96l-12 -105h8q86 121 194 121q25 0 54 -12l-41 -106q-16 8 -43 8q-98 0 -183 -135l-86 -431h-118z" />
<glyph unicode="&#x2b7;" horiz-adv-x="980" d="M162 1192h117l22 -373l6 -190h6l78 190l174 373h109l31 -373l10 -190h6l78 190l168 373h110l-303 -660h-147l-27 345l-4 184h-6l-76 -189l-158 -340h-141z" />
<glyph unicode="&#x2b8;" horiz-adv-x="628" d="M-18 262l38 84q33 -14 60 -14q92 0 174 149l18 41l-122 670h114l58 -371l22 -192h6l90 192l189 371h116l-378 -715q-63 -115 -127 -178t-160 -63q-47 0 -98 26z" />
<glyph unicode="&#x2bb;" horiz-adv-x="495" d="M225 1028q0 135 75 235.5t196 151.5l32 -78q-88 -45 -140 -112.5t-54 -128.5h10q45 0 72.5 -24.5t27.5 -65.5q0 -49 -30.5 -83t-79.5 -34t-79 37t-30 102z" />
<glyph unicode="&#x2bc;" horiz-adv-x="495" d="M227 983q90 45 142.5 113.5t54.5 128.5h-10q-45 0 -74 24.5t-29 67.5q0 47 32 82t81 35t78.5 -37t29.5 -103q0 -135 -74.5 -235.5t-197.5 -151.5z" />
<glyph unicode="&#x2be;" horiz-adv-x="309" d="M201 1110l14 70q72 2 112 39.5t40 93.5q0 98 -107 98l16 70q90 4 136.5 -39t46.5 -115q0 -96 -68.5 -156.5t-189.5 -60.5z" />
<glyph unicode="&#x2bf;" horiz-adv-x="333" d="M190 1270q0 94 68.5 155.5t187.5 61.5l-14 -72q-72 -2 -111.5 -39t-39.5 -92q0 -100 106 -100l-16 -70q-88 -2 -134.5 41t-46.5 115z" />
<glyph unicode="&#x2c6;" horiz-adv-x="1058" d="M422 1169l250 289h119l133 -289h-107l-98 189h-8l-170 -189h-119z" />
<glyph unicode="&#x2c7;" horiz-adv-x="1058" d="M481 1458h109l96 -186h8l172 186h119l-250 -289h-119z" />
<glyph unicode="&#x2c8;" horiz-adv-x="221" d="M184 1155l60 373h135l-88 -373h-107z" />
<glyph unicode="&#x2c9;" horiz-adv-x="536" d="M170 1231l20 110h482l-21 -110h-481z" />
<glyph unicode="&#x2ca;" horiz-adv-x="436" d="M211 1169l238 289h167l-278 -289h-127z" />
<glyph unicode="&#x2cb;" horiz-adv-x="436" d="M193 1458h153l121 -289h-115z" />
<glyph unicode="&#x2cc;" horiz-adv-x="221" d="M-154 -520l88 375h107l-59 -375h-136z" />
<glyph unicode="&#x2d8;" horiz-adv-x="1058" d="M481 1434h92q-6 -74 23 -118t94 -44q63 0 111.5 45t72.5 117h99q-31 -106 -106.5 -181t-192.5 -75q-115 0 -161 74.5t-32 181.5z" />
<glyph unicode="&#x2d9;" horiz-adv-x="1058" d="M590 1294q0 51 34.5 85t84.5 34q41 0 69.5 -25.5t28.5 -68.5q0 -49 -35 -83t-84 -34q-41 0 -69.5 24.5t-28.5 67.5z" />
<glyph unicode="&#x2da;" horiz-adv-x="1058" d="M514 1272q0 86 58.5 147.5t140.5 61.5q78 0 125 -44t47 -124q0 -86 -59.5 -147.5t-141.5 -61.5q-76 0 -123 44t-47 124zM602 1278q0 -45 22.5 -72.5t63.5 -27.5q43 0 76 38.5t33 92.5q0 43 -23.5 70.5t-64.5 27.5q-43 0 -75 -39t-32 -90z" />
<glyph unicode="&#x2db;" horiz-adv-x="1058" d="M225 -285q0 82 59.5 160t137.5 131h110q-182 -123 -182 -248q0 -35 21.5 -55t52.5 -20q39 0 78 24l33 -78q-84 -51 -156 -51q-68 0 -111 35.5t-43 101.5z" />
<glyph unicode="&#x2dc;" horiz-adv-x="1058" d="M403 1188q27 94 78 151.5t114.5 57.5t123 -54.5t100.5 -54.5q49 0 90 105h90q-27 -94 -78 -151.5t-114 -57.5q-61 0 -121.5 54t-99.5 54q-49 0 -92 -104h-91z" />
<glyph unicode="&#x2dd;" horiz-adv-x="1058" d="M469 1169l211 291h143l-243 -291h-111zM760 1169l209 291h145l-244 -291h-110z" />
<glyph unicode="&#x2e1;" horiz-adv-x="337" d="M133 614q0 35 8 68l162 811h117l-164 -823q-4 -14 -4 -29q0 -27 27 -27q12 0 24 7l2 -93q-37 -12 -76 -12q-96 0 -96 98z" />
<glyph unicode="&#x2e2;" horiz-adv-x="555" d="M55 629l72 67q86 -90 180 -90q57 0 93 29t36 74q0 29 -27.5 55.5t-95.5 62.5q-147 80 -147 179q0 88 66.5 145t162.5 57q111 0 211 -86l-61 -75q-76 72 -152 71q-51 0 -82.5 -28.5t-31.5 -69.5q0 -33 28.5 -57.5t87.5 -55.5q152 -74 152 -186q0 -94 -69.5 -149.5 t-184.5 -55.5q-136 0 -238 113z" />
<glyph unicode="&#x2e3;" horiz-adv-x="604" d="M8 532l301 349l-129 311h119l53 -133l45 -113h9l73 98l111 148h133l-272 -334l135 -326h-119l-59 144l-50 119h-6l-84 -107l-127 -156h-133z" />
<glyph unicode="&#x300;" d="M78 1458h153l121 -289h-114z" />
<glyph unicode="&#x301;" d="M96 1169l238 289h168l-279 -289h-127z" />
<glyph unicode="&#x302;" d="M-20 1169l249 289h117l135 -289h-108l-97 189h-8l-170 -189h-118z" />
<glyph unicode="&#x303;" d="M-39 1188q27 94 78 151.5t115 57.5q61 0 121.5 -54.5t99.5 -54.5q49 0 92 105h90q-27 -94 -78 -151.5t-114.5 -57.5t-123 54t-100.5 54q-47 0 -90 -104h-90z" />
<glyph unicode="&#x304;" d="M2 1231l21 110h479l-19 -110h-481z" />
<glyph unicode="&#x306;" d="M39 1434h92q-14 -162 115 -162q131 0 186 162h98q-31 -106 -106.5 -181t-192.5 -75q-115 0 -160.5 74.5t-31.5 181.5z" />
<glyph unicode="&#x307;" d="M145 1294q0 49 35 84t84 35q41 0 71 -25.5t30 -68.5q0 -49 -35 -83t-84 -34q-43 0 -72 24.5t-29 67.5z" />
<glyph unicode="&#x308;" d="M-6 1288q0 47 30.5 80t73.5 33q37 0 60.5 -23.5t23.5 -62.5q0 -45 -31.5 -77t-74.5 -32q-37 0 -59.5 22.5t-22.5 59.5zM334 1288q0 47 30.5 80t73.5 33q37 0 59.5 -23.5t22.5 -62.5q0 -45 -30.5 -77t-73.5 -32q-37 0 -59.5 22.5t-22.5 59.5z" />
<glyph unicode="&#x309;" d="M170 1397l29 86q242 -8 241 -140q0 -158 -250 -213l-12 74q72 23 105.5 47.5t33.5 63.5q0 37 -31.5 55.5t-115.5 26.5z" />
<glyph unicode="&#x30a;" d="M70 1272q0 86 59 147.5t141 61.5q76 0 123 -44t47 -124q0 -86 -58 -147.5t-140 -61.5q-76 0 -124 44t-48 124zM160 1278q0 -45 22.5 -72.5t63.5 -27.5q43 0 74.5 38.5t31.5 92.5q0 45 -22.5 71.5t-63.5 26.5q-43 0 -74.5 -39t-31.5 -90z" />
<glyph unicode="&#x30b;" d="M27 1169l209 291h145l-244 -291h-110zM317 1169l209 291h144l-244 -291h-109z" />
<glyph unicode="&#x30c;" d="M39 1458h108l97 -186h8l170 186h121l-250 -289h-119z" />
<glyph unicode="&#x30f;" d="M-102 1460h137l86 -291h-105zM184 1460h135l89 -291h-105z" />
<glyph unicode="&#x312;" d="M127 1225q0 190 223 268l19 -66q-121 -47 -150 -141q8 2 21 2q31 0 53 -22.5t22 -55.5q0 -47 -27.5 -72.5t-72.5 -25.5q-39 0 -63.5 32t-24.5 81z" />
<glyph unicode="&#x313;" d="M141 1178q121 47 150 141q-8 -2 -21 -2q-31 0 -53 22.5t-22 55.5q0 45 28.5 71.5t71.5 26.5q39 0 63.5 -33t24.5 -82q0 -188 -221 -266z" />
<glyph unicode="&#x31b;" d="M164 975q84 4 142.5 46t58.5 105q-1 35 -11 68l121 43q23 -47 23 -96q0 -102 -86 -171t-246 -75z" />
<glyph unicode="&#x323;" d="M-178 -344q0 49 34.5 84t84.5 35q41 0 70.5 -25.5t29.5 -68.5q0 -49 -35 -83t-84 -34q-43 0 -71.5 24.5t-28.5 67.5z" />
<glyph unicode="&#x324;" d="M-326 -326q0 43 29 77t74 34q35 0 58.5 -23.5t23.5 -60.5q0 -43 -29 -77t-74 -34q-37 0 -59.5 24t-22.5 60zM14 -326q0 43 30 77t75 34q35 0 58.5 -23.5t23.5 -60.5q0 -43 -30 -77t-75 -34q-35 0 -58.5 24t-23.5 60z" />
<glyph unicode="&#x326;" d="M-242 -371q197 31 197 117q0 53 -80 76l47 69q152 -35 152 -133q0 -172 -307 -202z" />
<glyph unicode="&#x327;" d="M-244 -365q193 33 193 123q0 33 -25 52.5t-84 35.5l111 160h106l-77 -115q92 -35 92 -116q0 -92 -87 -144.5t-221 -66.5z" />
<glyph unicode="&#x328;" d="M-217 -285q0 82 59.5 160t137.5 131h108q-180 -125 -180 -248q0 -35 21.5 -55t52.5 -20q39 0 77 24l33 -78q-84 -51 -155 -51q-70 0 -112 35.5t-42 101.5z" />
<glyph unicode="&#x32e;" d="M-289 -184h92q-14 -162 115 -162q131 0 186 162h99q-31 -106 -106.5 -181t-192.5 -75q-115 0 -161 74.5t-32 181.5z" />
<glyph unicode="&#x331;" d="M-313 -352l20 108h481l-20 -108h-481z" />
<glyph unicode="&#x3c0;" horiz-adv-x="1105" d="M119 0l172 866h-168l20 119l138 8h858l-27 -127h-147l-131 -661q-20 -102 38 -103q20 0 52 11l10 -115q-51 -23 -113 -23q-96 0 -131 67t-12 167l129 657h-361l-174 -866h-153z" />
<glyph unicode="&#x1d43;" horiz-adv-x="724" d="M119 758q0 184 110.5 317t251.5 133q102 0 152 -96h8l29 80h92l-129 -660h-96l12 99h-8q-109 -115 -230 -115q-88 0 -140 62.5t-52 179.5zM240 774q0 -80 30.5 -120t79.5 -40q111 0 207 129l53 273q-49 94 -125 94q-92 0 -168.5 -102.5t-76.5 -233.5z" />
<glyph unicode="&#x1d47;" horiz-adv-x="737" d="M111 532l192 961h117l-47 -244l-35 -133h6q106 92 219 92q88 0 140.5 -63.5t52.5 -177.5q0 -186 -109.5 -318.5t-253.5 -132.5q-106 0 -151 96h-9l-28 -80h-94zM264 709q47 -94 125 -95q92 0 169 102.5t77 233.5q0 78 -31 119t-80 41q-104 0 -202 -109z" />
<glyph unicode="&#x1d48;" horiz-adv-x="747" d="M119 758q0 184 110.5 317t251.5 133q102 0 150 -94h8l16 133l47 238h119l-188 -953h-96l12 99h-8q-109 -115 -230 -115q-88 0 -140 62.5t-52 179.5zM240 774q0 -80 30.5 -120t79.5 -40q111 0 207 129l53 273q-49 94 -125 94q-92 0 -168.5 -102.5t-76.5 -233.5z" />
<glyph unicode="&#x1d49;" horiz-adv-x="661" d="M119 795q0 176 109.5 294.5t246.5 118.5q113 0 163 -68.5t50 -172.5q0 -72 -26 -133h-429q-12 -104 35 -165t140 -61q61 0 151 54l39 -80q-113 -66 -217 -66q-121 0 -191.5 73t-70.5 206zM248 915h334q6 23 6 58q0 61 -31 101t-94 40q-68 0 -129 -55.5t-86 -143.5z" />
<glyph unicode="&#x1d4d;" horiz-adv-x="724" d="M66 315l55 82q98 -76 194 -75q152 0 201 196l29 113h-8q-115 -90 -224 -90q-88 0 -140 61.5t-52 169.5q0 176 109.5 306t250.5 130q102 0 152 -96h8l29 80h92l-133 -676q-29 -137 -112 -214t-208 -77q-129 0 -243 90zM242 786q0 -72 30.5 -109.5t79.5 -37.5 q106 0 205 102l53 275q-49 94 -125 94q-94 0 -168.5 -99.5t-74.5 -224.5z" />
<glyph unicode="&#x1d4f;" horiz-adv-x="665" d="M111 532l192 961h117l-127 -631h8l324 330h131l-262 -277l161 -383h-118l-127 316l-148 -143l-33 -173h-118z" />
<glyph unicode="&#x1d50;" horiz-adv-x="1097" d="M113 532l129 660h96l-8 -96h8q121 113 221 112q125 0 152 -123q141 123 233 123q158 0 158 -170q0 -35 -12 -88l-82 -418h-117l78 402q10 39 10 76q0 96 -84 96q-80 0 -186 -117l-91 -457h-114l80 402q10 51 10 74q0 98 -86 98q-76 0 -189 -117l-90 -457h-116z" />
<glyph unicode="&#x1d52;" horiz-adv-x="712" d="M119 782q0 186 110.5 306t253.5 120q111 0 177.5 -70.5t66.5 -195.5q0 -186 -112 -306t-255 -120q-111 0 -176 70.5t-65 195.5zM236 786q0 -172 135 -172q96 0 166.5 95.5t70.5 226.5q0 174 -135 174q-96 0 -166.5 -96t-70.5 -228z" />
<glyph unicode="&#x1d56;" horiz-adv-x="733" d="M55 252l187 940h96l-2 -80h8q111 96 219 96q88 0 140.5 -63.5t52.5 -177.5q0 -186 -109.5 -318.5t-253.5 -132.5q-106 0 -151 96h-9l-16 -145l-43 -215h-119zM264 709q47 -94 123 -95q94 0 171 102.5t77 233.5q0 78 -31 119t-80 41q-104 0 -202 -109z" />
<glyph unicode="&#x1d57;" horiz-adv-x="454" d="M143 1096l19 90l102 6l49 182h97l-35 -182h174l-17 -96h-176l-69 -348q-6 -29 -6 -52q0 -84 75 -84q29 0 70 17l20 -88q-66 -25 -122 -25q-162 0 -162 160q0 21 8 74l72 346h-99z" />
<glyph unicode="&#x1d58;" horiz-adv-x="727" d="M141 684q0 20 13 90l84 418h116l-80 -404q-10 -41 -10 -71q0 -98 84 -99q82 0 199 117l90 457h117l-129 -660h-97l9 97h-9q-127 -113 -229 -113q-158 0 -158 168z" />
<glyph unicode="&#x1d5b;" horiz-adv-x="628" d="M147 1192h119l43 -369l21 -198h8l98 198l191 369h116l-354 -660h-143z" />
<glyph unicode="&#x1d9c;" horiz-adv-x="598" d="M119 778q0 166 107.5 298t265.5 132q104 0 180 -80l-72 -73q-49 55 -117 55q-100 0 -172.5 -100.5t-72.5 -214.5q0 -88 44 -135.5t111 -47.5q63 0 137 50l43 -78q-88 -68 -200.5 -68t-183 70.5t-70.5 191.5z" />
<glyph unicode="&#x1da0;" horiz-adv-x="397" d="M125 532l113 564h-86l16 88l90 8l21 102q20 104 77.5 161.5t145.5 57.5q64 1 121 -30l-41 -86q-41 23 -74 22q-86 0 -113 -123l-20 -104h139l-18 -96h-142l-112 -564h-117z" />
<glyph unicode="&#x1dbb;" horiz-adv-x="571" d="M47 532l10 68l426 496h-288l16 96h444l-12 -68l-428 -495h336l-16 -97h-488z" />
<glyph unicode="&#x1e0c;" horiz-adv-x="1212" d="M72 0l268 1343h250q276 0 422.5 -137t146.5 -387q0 -371 -194.5 -595t-532.5 -224h-360zM256 131h176q258 0 411.5 187.5t153.5 490.5q0 193 -106.5 299t-306.5 106h-111zM371 -328q0 49 34.5 84t83.5 35q41 0 71 -25.5t30 -68.5q0 -49 -35 -83t-84 -34q-43 0 -71.5 24.5 t-28.5 67.5z" />
<glyph unicode="&#x1e0d;" horiz-adv-x="1095" d="M80 336q0 283 164 483.5t374 200.5q154 0 236 -146h6l33 195l78 389h157l-294 -1458h-129l16 147h-8q-162 -172 -346 -172q-133 0 -210 94.5t-77 266.5zM242 360q0 -125 48 -189.5t134 -64.5q166 0 313 191l90 444q-82 147 -202 148q-150 0 -266.5 -162t-116.5 -367z M305 -328q0 51 35 85t84 34q41 0 69.5 -25.5t28.5 -68.5q0 -49 -35 -83t-84 -34q-41 0 -69.5 24.5t-28.5 67.5z" />
<glyph unicode="&#x1e0e;" horiz-adv-x="1212" d="M72 0l268 1343h250q276 0 422.5 -137t146.5 -387q0 -371 -194.5 -595t-532.5 -224h-360zM236 -336l20 109h481l-20 -109h-481zM256 131h176q258 0 411.5 187.5t153.5 490.5q0 193 -106.5 299t-306.5 106h-111z" />
<glyph unicode="&#x1e0f;" horiz-adv-x="1095" d="M80 336q0 283 164 483.5t374 200.5q154 0 236 -146h6l33 195l78 389h157l-294 -1458h-129l16 147h-8q-162 -172 -346 -172q-133 0 -210 94.5t-77 266.5zM168 -336l20 109h482l-21 -109h-481zM242 360q0 -125 48 -189.5t134 -64.5q166 0 313 191l90 444q-82 147 -202 148 q-150 0 -266.5 -162t-116.5 -367z" />
<glyph unicode="&#x1e20;" horiz-adv-x="1204" d="M117 518q0 217 85 408.5t252 316.5t377 125q221 0 338 -199l-112 -84q-86 145 -234 146q-162 0 -288.5 -107.5t-190 -265.5t-63.5 -326q0 -193 86 -307t270 -114q133 0 229 82l76 370h-278l26 131h422l-117 -581q-164 -137 -381 -138q-238 0 -367.5 146.5t-129.5 396.5z M600 1493l23 111h483l-23 -111h-483z" />
<glyph unicode="&#x1e21;" horiz-adv-x="1087" d="M-4 -322l74 109q137 -119 280 -119q242 0 314 297l49 205h-6q-166 -160 -338 -160q-131 0 -210 91.5t-79 258.5q0 268 160.5 464t365.5 196q78 0 140.5 -40t99.5 -110h6l39 125h129l-209 -1042q-41 -199 -161 -305.5t-306 -106.5q-182 0 -348 137zM242 383 q0 -119 47 -180.5t131 -61.5q74 0 156.5 45t150.5 129l88 426q-86 147 -203 148q-143 0 -256.5 -155.5t-113.5 -350.5zM428 1231l21 110h481l-21 -110h-481z" />
<glyph unicode="&#x1e24;" horiz-adv-x="1273" d="M72 0l268 1343h160l-115 -567h606l115 567h158l-269 -1343h-159l129 639h-607l-127 -639h-159zM397 -328q0 49 35 84t84 35q41 0 70.5 -25.5t29.5 -68.5q0 -49 -34.5 -83t-83.5 -34q-43 0 -72 24.5t-29 67.5z" />
<glyph unicode="&#x1e25;" horiz-adv-x="1062" d="M63 0l291 1458h158l-98 -481l-33 -125h8q197 168 342 168q236 0 236 -248q0 -63 -17 -137l-127 -635h-155l123 614q16 86 16 117q0 154 -148 154q-119 0 -299 -180l-141 -705h-156zM299 -328q0 49 35 84t84 35q41 0 69.5 -25.5t28.5 -68.5q0 -49 -35 -83t-84 -34 q-41 0 -69.5 24.5t-28.5 67.5z" />
<glyph unicode="&#x1e2a;" horiz-adv-x="1273" d="M72 0l268 1343h160l-115 -567h606l115 567h158l-269 -1343h-159l129 639h-607l-127 -639h-159zM287 -168h92q-14 -162 115 -162q66 0 113.5 45t72.5 117h96q-33 -109 -106.5 -182.5t-190.5 -73.5q-115 0 -161 75t-31 181z" />
<glyph unicode="&#x1e2b;" horiz-adv-x="1062" d="M63 0l291 1458h158l-98 -481l-33 -125h8q197 168 342 168q236 0 236 -248q0 -63 -17 -137l-127 -635h-155l123 614q16 86 16 117q0 154 -148 154q-119 0 -299 -180l-141 -705h-156zM188 -168h93q-14 -162 114 -162q66 0 114 45t73 117h96q-33 -109 -106.5 -182.5 t-190.5 -73.5q-115 0 -162 76t-31 180z" />
<glyph unicode="&#x1e36;" horiz-adv-x="946" d="M72 0l268 1343h160l-242 -1208h565l-26 -135h-725zM297 -328q0 49 35 84t84 35q41 0 70.5 -25.5t29.5 -68.5q0 -49 -35 -83t-84 -34q-43 0 -71.5 24.5t-28.5 67.5z" />
<glyph unicode="&#x1e37;" horiz-adv-x="507" d="M-20 -328q0 49 34.5 84t83.5 35q41 0 71 -25.5t30 -68.5q0 -49 -35 -83t-84 -34q-43 0 -71.5 24.5t-28.5 67.5zM90 104q0 34 12 86l252 1268h158l-256 -1276q-4 -20 -4 -39q0 -37 35 -37q14 0 32 7l3 -121q-43 -16 -99 -17q-133 0 -133 129z" />
<glyph unicode="&#x1e38;" horiz-adv-x="946" d="M72 0l268 1343h160l-242 -1208h565l-26 -135h-725zM203 1493l22 111h484l-23 -111h-483zM297 -328q0 49 35 84t84 35q41 0 70.5 -25.5t29.5 -68.5q0 -49 -35 -83t-84 -34q-43 0 -71.5 24.5t-28.5 67.5z" />
<glyph unicode="&#x1e39;" horiz-adv-x="507" d="M-20 -328q0 49 34.5 84t83.5 35q41 0 71 -25.5t30 -68.5q0 -49 -35 -83t-84 -34q-43 0 -71.5 24.5t-28.5 67.5zM90 104q0 34 12 86l252 1268h158l-256 -1276q-4 -20 -4 -39q0 -37 35 -37q14 0 32 7l3 -121q-43 -16 -99 -17q-133 0 -133 129zM229 1683l19 109h481 l-20 -109h-480z" />
<glyph unicode="&#x1e3a;" horiz-adv-x="946" d="M72 0l268 1343h160l-242 -1208h565l-26 -135h-725zM162 -336l20 109h482l-21 -109h-481z" />
<glyph unicode="&#x1e3b;" horiz-adv-x="507" d="M-156 -336l21 109h481l-20 -109h-482zM90 104q0 34 12 86l252 1268h158l-256 -1276q-4 -20 -4 -39q0 -37 35 -37q14 0 32 7l3 -121q-43 -16 -99 -17q-133 0 -133 129z" />
<glyph unicode="&#x1e42;" horiz-adv-x="1443" d="M72 0l268 1343h190l117 -725l45 -278h8l144 278l399 725h191l-269 -1343h-153l155 758q39 190 97 395h-9l-161 -299l-396 -713h-90l-125 713l-45 299h-8q-43 -322 -57 -395l-152 -758h-149zM471 -344q0 49 36 84t85 35q41 0 69.5 -25.5t28.5 -68.5q0 -49 -35 -83t-84 -34 q-43 0 -71.5 24.5t-28.5 67.5z" />
<glyph unicode="&#x1e43;" horiz-adv-x="1636" d="M63 0l197 995h129l-14 -149h8q184 174 328 174q203 0 229 -195q205 195 352 195q236 0 236 -248q0 -49 -17 -137l-127 -635h-157l125 614q16 86 16 117q0 154 -145 154q-109 0 -281 -180l-141 -705h-156l123 614q16 86 16 117q0 154 -143 154q-113 0 -281 -180l-141 -705 h-156zM575 -328q0 49 35 84t84 35q41 0 70 -25.5t29 -68.5q0 -49 -35 -83t-84 -34q-41 0 -70 24.5t-29 67.5z" />
<glyph unicode="&#x1e44;" horiz-adv-x="1267" d="M72 0l268 1343h160l307 -860l86 -280h8q39 322 62 428l141 712h153l-268 -1343h-158l-303 858l-88 289h-8q-29 -252 -63 -424l-144 -723h-153zM727 1559q0 49 35 83.5t84 34.5q41 0 69.5 -25.5t28.5 -68.5q0 -49 -35 -83t-84 -34q-41 0 -69.5 25t-28.5 68z" />
<glyph unicode="&#x1e45;" horiz-adv-x="1075" d="M63 0l197 995h129l-14 -149h8q199 174 348 174q236 0 236 -248q0 -63 -17 -137l-127 -635h-155l123 614q16 86 16 117q0 154 -148 154q-119 0 -299 -180l-141 -705h-156zM616 1294q0 51 35 85t84 34q41 0 70 -25.5t29 -68.5q0 -49 -35 -83t-84 -34q-41 0 -70 24.5 t-29 67.5z" />
<glyph unicode="&#x1e46;" horiz-adv-x="1267" d="M72 0l268 1343h160l307 -860l86 -280h8q39 322 62 428l141 712h153l-268 -1343h-158l-303 858l-88 289h-8q-29 -252 -63 -424l-144 -723h-153zM397 -344q0 49 35 84t84 35q41 0 70.5 -25.5t29.5 -68.5q0 -49 -34.5 -83t-83.5 -34q-43 0 -72 24.5t-29 67.5z" />
<glyph unicode="&#x1e47;" horiz-adv-x="1075" d="M63 0l197 995h129l-14 -149h8q199 174 348 174q236 0 236 -248q0 -63 -17 -137l-127 -635h-155l123 614q16 86 16 117q0 154 -148 154q-119 0 -299 -180l-141 -705h-156zM299 -328q0 49 35 84t84 35q41 0 70.5 -25.5t29.5 -68.5q0 -49 -35 -83t-84 -34q-43 0 -71.5 24.5 t-28.5 67.5z" />
<glyph unicode="&#x1e48;" horiz-adv-x="1267" d="M72 0l268 1343h160l307 -860l86 -280h8q39 322 62 428l141 712h153l-268 -1343h-158l-303 858l-88 289h-8q-29 -252 -63 -424l-144 -723h-153zM262 -352l21 108h481l-21 -108h-481z" />
<glyph unicode="&#x1e49;" horiz-adv-x="1075" d="M63 0l197 995h129l-14 -149h8q199 174 348 174q236 0 236 -248q0 -63 -17 -137l-127 -635h-155l123 614q16 86 16 117q0 154 -148 154q-119 0 -299 -180l-141 -705h-156zM164 -336l20 109h482l-21 -109h-481z" />
<glyph unicode="&#x1e5a;" horiz-adv-x="1136" d="M72 0l268 1343h369q420 0 419 -313q0 -180 -108.5 -296t-286.5 -150l236 -584h-170l-221 569h-234l-113 -569h-159zM365 -344q0 49 34.5 84t83.5 35q41 0 71 -25.5t30 -68.5q0 -49 -35 -83t-84 -34q-43 0 -71.5 24.5t-28.5 67.5zM371 698h202q190 0 294 83t104 229 q0 207 -301 207h-197z" />
<glyph unicode="&#x1e5b;" horiz-adv-x="700" d="M-14 -328q0 49 35.5 84t84.5 35q41 0 70 -25.5t29 -68.5q0 -49 -35 -83t-84 -34q-41 0 -70.5 24.5t-29.5 67.5zM63 0l197 995h129l-22 -190h8q141 215 309 215q51 0 94 -19l-55 -139q-33 16 -86 17q-76 0 -153.5 -65.5t-139.5 -184.5l-125 -629h-156z" />
<glyph unicode="&#x1e5c;" horiz-adv-x="1136" d="M72 0l268 1343h369q420 0 419 -313q0 -180 -108.5 -296t-286.5 -150l236 -584h-170l-221 569h-234l-113 -569h-159zM365 -344q0 49 34.5 84t83.5 35q41 0 71 -25.5t30 -68.5q0 -49 -35 -83t-84 -34q-43 0 -71.5 24.5t-28.5 67.5zM371 698h202q190 0 294 83t104 229 q0 207 -301 207h-197zM510 1493l22 111h484l-23 -111h-483z" />
<glyph unicode="&#x1e5d;" horiz-adv-x="700" d="M-14 -328q0 49 35.5 84t84.5 35q41 0 70 -25.5t29 -68.5q0 -49 -35 -83t-84 -34q-41 0 -70.5 24.5t-29.5 67.5zM63 0l197 995h129l-22 -190h8q141 215 309 215q51 0 94 -19l-55 -139q-33 16 -86 17q-76 0 -153.5 -65.5t-139.5 -184.5l-125 -629h-156zM305 1231l21 110 h481l-21 -110h-481z" />
<glyph unicode="&#x1e5e;" horiz-adv-x="1136" d="M72 0l268 1343h369q420 0 419 -313q0 -180 -108.5 -296t-286.5 -150l236 -584h-170l-221 569h-234l-113 -569h-159zM229 -352l21 108h481l-20 -108h-482zM371 698h202q190 0 294 83t104 229q0 207 -301 207h-197z" />
<glyph unicode="&#x1e5f;" horiz-adv-x="700" d="M-150 -336l21 109h481l-20 -109h-482zM63 0l197 995h129l-22 -190h8q141 215 309 215q51 0 94 -19l-55 -139q-33 16 -86 17q-76 0 -153.5 -65.5t-139.5 -184.5l-125 -629h-156z" />
<glyph unicode="&#x1e60;" horiz-adv-x="1036" d="M25 213l116 88q129 -190 346 -190q125 0 207 70.5t82 183.5q0 70 -42 120t-126 101l-155 94q-207 125 -207 315q0 154 119.5 263.5t298.5 109.5q115 0 215 -51t165 -137l-104 -95q-123 145 -289 146q-109 0 -176 -65.5t-67 -151.5q0 -72 43 -119t131 -100l155 -93 q102 -59 152.5 -132.5t50.5 -182.5q0 -180 -131 -296t-336 -116q-286 0 -448 238zM625 1561q0 49 35.5 84.5t82.5 35.5q41 0 71 -25.5t30 -68.5q0 -51 -35 -85t-84 -34q-41 0 -70.5 26t-29.5 67z" />
<glyph unicode="&#x1e61;" horiz-adv-x="823" d="M-8 164l98 78q104 -145 256 -146q86 0 148.5 49.5t62.5 116.5q0 53 -38 92t-144 97q-119 66 -173.5 128t-54.5 144q0 129 99.5 213t242.5 84q166 0 293 -133l-90 -88q-94 98 -207 98q-80 0 -134 -46t-54 -110q0 -31 12.5 -54t45 -48t51 -36t67.5 -38q131 -72 182.5 -135 t51.5 -147q0 -137 -104.5 -222.5t-268.5 -85.5q-98 0 -194.5 54.5t-147.5 134.5zM461 1294q0 49 34.5 84t84.5 35q41 0 70.5 -25.5t29.5 -68.5q0 -49 -35 -83t-84 -34q-43 0 -71.5 24.5t-28.5 67.5z" />
<glyph unicode="&#x1e62;" horiz-adv-x="1036" d="M25 213l116 88q129 -190 346 -190q125 0 207 70.5t82 183.5q0 70 -42 120t-126 101l-155 94q-207 125 -207 315q0 154 119.5 263.5t298.5 109.5q115 0 215 -51t165 -137l-104 -95q-123 145 -289 146q-109 0 -176 -65.5t-67 -151.5q0 -72 43 -119t131 -100l155 -93 q102 -59 152.5 -132.5t50.5 -182.5q0 -180 -131 -296t-336 -116q-286 0 -448 238zM293 -344q0 49 34.5 84t84.5 35q41 0 70.5 -25.5t29.5 -68.5q0 -49 -35 -83t-84 -34q-43 0 -71.5 24.5t-28.5 67.5z" />
<glyph unicode="&#x1e63;" horiz-adv-x="823" d="M-8 164l98 78q104 -145 256 -146q86 0 148.5 49.5t62.5 116.5q0 53 -38 92t-144 97q-119 66 -173.5 128t-54.5 144q0 129 99.5 213t242.5 84q166 0 293 -133l-90 -88q-94 98 -207 98q-80 0 -134 -46t-54 -110q0 -31 12.5 -54t45 -48t51 -36t67.5 -38q131 -72 182.5 -135 t51.5 -147q0 -137 -104.5 -222.5t-268.5 -85.5q-98 0 -194.5 54.5t-147.5 134.5zM188 -328q0 49 35 84t84 35q41 0 70 -25.5t29 -68.5q0 -49 -35 -83t-84 -34q-41 0 -70 24.5t-29 67.5z" />
<glyph unicode="&#x1e6c;" horiz-adv-x="1044" d="M190 1206l27 137h940l-27 -137h-391l-239 -1206h-160l240 1206h-390zM260 -328q0 51 35 85t84 34q41 0 69.5 -25.5t28.5 -68.5q0 -49 -35 -83t-84 -34q-41 0 -69.5 24.5t-28.5 67.5z" />
<glyph unicode="&#x1e6d;" horiz-adv-x="665" d="M123 868l22 117l156 10l74 275h133l-55 -275h252l-25 -127h-256l-117 -569q-6 -37 -6 -74q0 -63 28.5 -93t98.5 -30q39 0 104 31l35 -113q-98 -45 -188 -45q-123 0 -180.5 60.5t-57.5 161.5q1 18 11 110l116 561h-145zM164 -328q0 49 34.5 84t84.5 35q41 0 70.5 -25.5 t29.5 -68.5q0 -49 -35 -83t-84 -34q-43 0 -71.5 24.5t-28.5 67.5z" />
<glyph unicode="&#x1e6e;" horiz-adv-x="1044" d="M123 -336l20 109h482l-21 -109h-481zM190 1206l27 137h940l-27 -137h-391l-239 -1206h-160l240 1206h-390z" />
<glyph unicode="&#x1e6f;" horiz-adv-x="665" d="M29 -336l20 109h481l-20 -109h-481zM123 868l22 117l156 10l74 275h133l-55 -275h252l-25 -127h-256l-117 -569q-6 -37 -6 -74q0 -63 28.5 -93t98.5 -30q39 0 104 31l35 -113q-98 -45 -188 -45q-123 0 -180.5 60.5t-57.5 161.5q1 18 11 110l116 561h-145z" />
<glyph unicode="&#x1e80;" horiz-adv-x="1548" d="M195 0l18 1343h164l-21 -739q-4 -59 -9 -207.5t-11 -228.5h8q20 49 60 138t72 162t59 136l335 739h146l18 -739q2 -141 2 -436h8q31 84 91.5 235.5t78.5 200.5l291 739h158l-553 -1343h-203l-14 821q0 156 6 316h-8q-14 -41 -131 -316l-367 -821h-198zM729 1671h166 l139 -225h-123z" />
<glyph unicode="&#x1e81;" horiz-adv-x="1447" d="M143 995h156l33 -585q2 -94 6 -279h8q18 41 57 134t62 145l262 585h154l34 -585q2 -47 5.5 -139.5t5.5 -139.5h8q12 29 51 127t64 152l260 585h147l-452 -995h-195l-29 545q-2 47 -6 293h-8q-12 -29 -54 -133.5t-67 -159.5l-242 -545h-188zM696 1458h154l121 -289h-115z " />
<glyph unicode="&#x1e82;" horiz-adv-x="1548" d="M195 0l18 1343h164l-21 -739q-4 -59 -9 -207.5t-11 -228.5h8q20 49 60 138t72 162t59 136l335 739h146l18 -739q2 -141 2 -436h8q31 84 91.5 235.5t78.5 200.5l291 739h158l-553 -1343h-203l-14 821q0 156 6 316h-8q-14 -41 -131 -316l-367 -821h-198zM838 1446l217 225 h178l-262 -225h-133z" />
<glyph unicode="&#x1e83;" horiz-adv-x="1447" d="M143 995h156l33 -585q2 -94 6 -279h8q18 41 57 134t62 145l262 585h154l34 -585q2 -47 5.5 -139.5t5.5 -139.5h8q12 29 51 127t64 152l260 585h147l-452 -995h-195l-29 545q-2 47 -6 293h-8q-12 -29 -54 -133.5t-67 -159.5l-242 -545h-188zM715 1169l237 289h168 l-278 -289h-127z" />
<glyph unicode="&#x1e84;" horiz-adv-x="1548" d="M195 0l18 1343h164l-21 -739q-4 -59 -9 -207.5t-11 -228.5h8q20 49 60 138t72 162t59 136l335 739h146l18 -739q2 -141 2 -436h8q31 84 91.5 235.5t78.5 200.5l291 739h158l-553 -1343h-203l-14 821q0 156 6 316h-8q-14 -41 -131 -316l-367 -821h-198zM700 1546 q0 45 30 79t73 34q37 0 59.5 -22.5t22.5 -61.5q0 -43 -31 -77t-72 -34q-37 0 -59.5 21.5t-22.5 60.5zM1040 1546q0 45 30 79t73 34q37 0 59.5 -22.5t22.5 -61.5q0 -43 -31 -77t-72 -34q-37 0 -59.5 21.5t-22.5 60.5z" />
<glyph unicode="&#x1e85;" horiz-adv-x="1447" d="M143 995h156l33 -585q2 -94 6 -279h8q18 41 57 134t62 145l262 585h154l34 -585q2 -47 5.5 -139.5t5.5 -139.5h8q12 29 51 127t64 152l260 585h147l-452 -995h-195l-29 545q-2 47 -6 293h-8q-12 -29 -54 -133.5t-67 -159.5l-242 -545h-188zM612 1288q0 47 31 80t74 33 q37 0 60.5 -23.5t23.5 -62.5q0 -45 -32 -77t-75 -32q-37 0 -59.5 22.5t-22.5 59.5zM952 1288q0 47 31 80t74 33q37 0 59.5 -23.5t22.5 -62.5q0 -45 -31 -77t-74 -32q-37 0 -59.5 22.5t-22.5 59.5z" />
<glyph unicode="&#x1e8e;" horiz-adv-x="944" d="M170 1343h164l92 -387q14 -53 35.5 -150t32.5 -140h8q123 201 184 292l254 385h170l-561 -819l-107 -524h-157l104 524zM545 1559q0 49 35.5 83.5t83.5 34.5q41 0 70.5 -25.5t29.5 -68.5q0 -49 -35 -83t-84 -34q-43 0 -71.5 25t-28.5 68z" />
<glyph unicode="&#x1e8f;" horiz-adv-x="917" d="M-127 -399l51 116q37 -18 74 -18q147 0 260 227l37 72l-170 997h156l77 -559q14 -96 33 -297h8q10 23 64.5 132.5t83.5 164.5l287 559h155l-586 -1079q-88 -166 -185 -255t-230 -89q-59 0 -115 29zM479 1294q0 49 35 84t84 35q41 0 69.5 -25.5t28.5 -68.5 q0 -49 -34.5 -83t-83.5 -34q-41 0 -70 24.5t-29 67.5z" />
<glyph unicode="&#x1e92;" horiz-adv-x="1048" d="M-2 0l20 96l871 1114h-615l29 133h805l-21 -94l-864 -1114h678l-31 -135h-872zM266 -344q0 51 35 85t84 34q41 0 69.5 -25.5t28.5 -68.5q0 -49 -34.5 -83t-83.5 -34q-41 0 -70 24.5t-29 67.5z" />
<glyph unicode="&#x1e93;" horiz-adv-x="843" d="M-39 0l16 90l662 778h-451l25 127h649l-14 -92l-664 -776h523l-27 -127h-719zM172 -328q0 49 35 84t84 35q41 0 70.5 -25.5t29.5 -68.5q0 -49 -35 -83t-84 -34q-43 0 -71.5 24.5t-28.5 67.5z" />
<glyph unicode="&#x1e97;" horiz-adv-x="665" d="M123 868l22 117l156 10l74 275h133l-55 -275h252l-25 -127h-256l-117 -569q-6 -37 -6 -74q0 -63 28.5 -93t98.5 -30q39 0 104 31l35 -113q-98 -45 -188 -45q-123 0 -180.5 60.5t-57.5 161.5q1 18 11 110l116 561h-145zM219 1567q0 45 31 77.5t74 32.5q37 0 59.5 -22.5 t22.5 -63.5q0 -45 -31 -76.5t-74 -31.5q-37 0 -59.5 22.5t-22.5 61.5zM559 1567q0 45 31 77.5t74 32.5q37 0 59 -22.5t22 -63.5q0 -45 -30.5 -76.5t-73.5 -31.5q-37 0 -59.5 22.5t-22.5 61.5z" />
<glyph unicode="&#x1e9e;" horiz-adv-x="1296" d="M72 0l178 893q43 219 180 351t356 132q362 0 428 -350l-337 -293q158 -51 242.5 -145t84.5 -209q0 -172 -112.5 -288t-290.5 -116q-231 0 -363 179l99 96q96 -143 258 -144q102 0 174.5 76t72.5 183q0 88 -80.5 164.5t-256.5 121.5l12 101l338 299q-63 195 -279 194 q-139 0 -239.5 -101.5t-139.5 -295.5l-166 -848h-159z" />
<glyph unicode="&#x1ea0;" horiz-adv-x="1044" d="M-109 0l730 1343h184l156 -1343h-166l-37 420h-475l-215 -420h-177zM291 -328q0 49 35 84t84 35q41 0 70.5 -25.5t29.5 -68.5q0 -49 -35 -83t-84 -34q-43 0 -71.5 24.5t-28.5 67.5zM346 543h399l-20 229q-33 377 -37 438h-8q-88 -190 -215 -438z" />
<glyph unicode="&#x1ea1;" horiz-adv-x="1099" d="M80 336q0 283 164 483.5t374 200.5q162 0 240 -150h8l39 125h127l-198 -995h-129l16 147h-8q-162 -172 -346 -172q-133 0 -210 94.5t-77 266.5zM242 360q0 -125 48 -189.5t134 -64.5q168 0 313 191l90 444q-82 147 -202 148q-150 0 -266.5 -162t-116.5 -367zM313 -328 q0 49 35 84t84 35q41 0 69.5 -25.5t28.5 -68.5q0 -49 -34.5 -83t-83.5 -34q-41 0 -70 24.5t-29 67.5z" />
<glyph unicode="&#x1ea2;" horiz-adv-x="1044" d="M-109 0l730 1343h184l156 -1343h-166l-37 420h-475l-215 -420h-177zM346 543h399l-20 229q-33 377 -37 438h-8q-88 -190 -215 -438zM606 1692l31 88q242 -12 242 -142q0 -160 -252 -211l-15 72q141 41 142 111q0 37 -32 55t-116 27z" />
<glyph unicode="&#x1ea3;" horiz-adv-x="1099" d="M80 336q0 283 164 483.5t374 200.5q162 0 240 -150h8l39 125h127l-198 -995h-129l16 147h-8q-162 -172 -346 -172q-133 0 -210 94.5t-77 266.5zM242 360q0 -125 48 -189.5t134 -64.5q168 0 313 191l90 444q-82 147 -202 148q-150 0 -266.5 -162t-116.5 -367zM608 1397 l29 86q242 -8 242 -140q0 -158 -250 -213l-15 74q141 41 142 111q0 37 -32 55.5t-116 26.5z" />
<glyph unicode="&#x1ea4;" horiz-adv-x="1044" d="M-109 0l730 1343h184l156 -1343h-166l-37 420h-475l-215 -420h-177zM346 543h399l-20 229q-33 377 -37 438h-8q-88 -190 -215 -438zM461 1446l223 213h135l142 -213h-117l-101 131h-8l-151 -131h-123zM924 1573l172 227h131l-203 -227h-100z" />
<glyph unicode="&#x1ea5;" horiz-adv-x="1099" d="M80 336q0 283 164 483.5t374 200.5q162 0 240 -150h8l39 125h127l-198 -995h-129l16 147h-8q-162 -172 -346 -172q-133 0 -210 94.5t-77 266.5zM242 360q0 -125 48 -189.5t134 -64.5q168 0 313 191l90 444q-82 147 -202 148q-150 0 -266.5 -162t-116.5 -367zM440 1169 l215 244h119l115 -244h-101l-83 150h-9l-143 -150h-113zM877 1307l186 233h135l-219 -233h-102z" />
<glyph unicode="&#x1ea6;" horiz-adv-x="1044" d="M-109 0l730 1343h184l156 -1343h-166l-37 420h-475l-215 -420h-177zM346 543h399l-20 229q-33 377 -37 438h-8q-88 -190 -215 -438zM461 1446l223 213h135l142 -213h-117l-101 131h-8l-151 -131h-123zM877 1800h129l94 -227h-96z" />
<glyph unicode="&#x1ea7;" horiz-adv-x="1099" d="M80 336q0 283 164 483.5t374 200.5q162 0 240 -150h8l39 125h127l-198 -995h-129l16 147h-8q-162 -172 -346 -172q-133 0 -210 94.5t-77 266.5zM242 360q0 -125 48 -189.5t134 -64.5q168 0 313 191l90 444q-82 147 -202 148q-150 0 -266.5 -162t-116.5 -367zM440 1169 l215 244h119l115 -244h-101l-83 150h-9l-143 -150h-113zM854 1540h129l98 -233h-98z" />
<glyph unicode="&#x1ea8;" horiz-adv-x="1044" d="M-109 0l730 1343h184l156 -1343h-166l-37 420h-475l-215 -420h-177zM346 543h399l-20 229q-33 377 -37 438h-8q-88 -190 -215 -438zM461 1446l223 213h135l142 -213h-117l-101 131h-8l-151 -131h-123zM938 1776l27 75q109 -2 160 -34.5t51 -85.5q0 -147 -215 -189l-13 64 q117 31 117 102q0 60 -127 68z" />
<glyph unicode="&#x1ea9;" horiz-adv-x="1099" d="M80 336q0 283 164 483.5t374 200.5q162 0 240 -150h8l39 125h127l-198 -995h-129l16 147h-8q-162 -172 -346 -172q-133 0 -210 94.5t-77 266.5zM242 360q0 -125 48 -189.5t134 -64.5q168 0 313 191l90 444q-82 147 -202 148q-150 0 -266.5 -162t-116.5 -367zM440 1169 l215 244h119l115 -244h-101l-83 150h-9l-143 -150h-113zM897 1530l27 78q213 -12 213 -129q0 -82 -56.5 -126t-162.5 -69l-11 66q115 31 115 102q0 35 -27.5 52.5t-97.5 25.5z" />
<glyph unicode="&#x1eaa;" horiz-adv-x="1044" d="M-109 0l730 1343h184l156 -1343h-166l-37 420h-475l-215 -420h-177zM346 543h399l-20 229q-33 377 -37 438h-8q-88 -190 -215 -438zM461 1446l223 213h135l142 -213h-117l-101 131h-8l-151 -131h-123zM504 1729q23 86 73 139t111 53q49 0 108.5 -51t92.5 -51q61 0 96 100 h80q-23 -86 -73 -139.5t-111 -53.5q-49 0 -107.5 51.5t-91.5 51.5q-63 0 -96 -100h-82z" />
<glyph unicode="&#x1eab;" horiz-adv-x="1099" d="M80 336q0 283 164 483.5t374 200.5q162 0 240 -150h8l39 125h127l-198 -995h-129l16 147h-8q-162 -172 -346 -172q-133 0 -210 94.5t-77 266.5zM242 360q0 -125 48 -189.5t134 -64.5q168 0 313 191l90 444q-82 147 -202 148q-150 0 -266.5 -162t-116.5 -367zM420 1169 l217 207h141l133 -207h-106l-105 127h-8l-151 -127h-121zM469 1452q25 82 74 132t102 50q55 0 110.5 -46t86.5 -46q25 0 50.5 25.5t39.5 64.5h80q-25 -82 -74 -132t-102 -50q-57 0 -110.5 46t-86.5 46q-25 0 -49.5 -25.5t-38.5 -64.5h-82z" />
<glyph unicode="&#x1eac;" horiz-adv-x="1044" d="M-109 0l730 1343h184l156 -1343h-166l-37 420h-475l-215 -420h-177zM291 -328q0 49 35 84t84 35q41 0 70.5 -25.5t29.5 -68.5q0 -49 -35 -83t-84 -34q-43 0 -71.5 24.5t-28.5 67.5zM346 543h399l-20 229q-33 377 -37 438h-8q-88 -190 -215 -438zM440 1446l234 223h149 l144 -223h-121l-105 143h-6l-160 -143h-135z" />
<glyph unicode="&#x1ead;" horiz-adv-x="1099" d="M80 336q0 283 164 483.5t374 200.5q162 0 240 -150h8l39 125h127l-198 -995h-129l16 147h-8q-162 -172 -346 -172q-133 0 -210 94.5t-77 266.5zM242 360q0 -125 48 -189.5t134 -64.5q168 0 313 191l90 444q-82 147 -202 148q-150 0 -266.5 -162t-116.5 -367zM313 -328 q0 49 35 84t84 35q41 0 69.5 -25.5t28.5 -68.5q0 -49 -34.5 -83t-83.5 -34q-41 0 -70 24.5t-29 67.5zM416 1169l250 289h118l136 -289h-109l-96 189h-8l-172 -189h-119z" />
<glyph unicode="&#x1eae;" horiz-adv-x="1044" d="M-109 0l730 1343h184l156 -1343h-166l-37 420h-475l-215 -420h-177zM346 543h399l-20 229q-33 377 -37 438h-8q-88 -190 -215 -438zM514 1665h84q-4 -61 27.5 -98t95 -37t112 38t68.5 97h88q-29 -94 -100.5 -156.5t-181.5 -62.5q-104 0 -152.5 63.5t-40.5 155.5z M664 1638l190 213h135l-231 -213h-94z" />
<glyph unicode="&#x1eaf;" horiz-adv-x="1099" d="M80 336q0 283 164 483.5t374 200.5q162 0 240 -150h8l39 125h127l-198 -995h-129l16 147h-8q-162 -172 -346 -172q-133 0 -210 94.5t-77 266.5zM242 360q0 -125 48 -189.5t134 -64.5q168 0 313 191l90 444q-82 147 -202 148q-150 0 -266.5 -162t-116.5 -367zM475 1434h80 q-8 -78 24.5 -122t102.5 -44q68 0 121 46t78 120h86q-31 -106 -106.5 -181t-192.5 -75q-115 0 -161 74.5t-32 181.5zM633 1382l176 230h131l-213 -230h-94z" />
<glyph unicode="&#x1eb0;" horiz-adv-x="1044" d="M-109 0l730 1343h184l156 -1343h-166l-37 420h-475l-215 -420h-177zM346 543h399l-20 229q-33 377 -37 438h-8q-88 -190 -215 -438zM514 1665h84q-4 -61 27.5 -98t95 -37t112 38t68.5 97h88q-29 -94 -100.5 -156.5t-181.5 -62.5q-104 0 -152.5 63.5t-40.5 155.5z M610 1851h125l86 -213h-90z" />
<glyph unicode="&#x1eb1;" horiz-adv-x="1099" d="M80 336q0 283 164 483.5t374 200.5q162 0 240 -150h8l39 125h127l-198 -995h-129l16 147h-8q-162 -172 -346 -172q-133 0 -210 94.5t-77 266.5zM242 360q0 -125 48 -189.5t134 -64.5q168 0 313 191l90 444q-82 147 -202 148q-150 0 -266.5 -162t-116.5 -367zM475 1434h80 q-8 -78 24.5 -122t102.5 -44q68 0 121 46t78 120h86q-31 -106 -106.5 -181t-192.5 -75q-115 0 -161 74.5t-32 181.5zM573 1612h123l86 -230h-90z" />
<glyph unicode="&#x1eb2;" horiz-adv-x="1044" d="M-109 0l730 1343h184l156 -1343h-166l-37 420h-475l-215 -420h-177zM346 543h399l-20 229q-33 377 -37 438h-8q-88 -190 -215 -438zM514 1665h84q-4 -61 27.5 -98t95 -37t112 38t68.5 97h88q-29 -94 -100.5 -156.5t-181.5 -62.5q-104 0 -152.5 63.5t-40.5 155.5z M668 1866l24 76q106 -2 158.5 -35t52.5 -84q0 -150 -215 -191l-10 64q115 29 115 102q0 59 -125 68z" />
<glyph unicode="&#x1eb3;" horiz-adv-x="1099" d="M80 336q0 283 164 483.5t374 200.5q162 0 240 -150h8l39 125h127l-198 -995h-129l16 147h-8q-162 -172 -346 -172q-133 0 -210 94.5t-77 266.5zM242 360q0 -125 48 -189.5t134 -64.5q168 0 313 191l90 444q-82 147 -202 148q-150 0 -266.5 -162t-116.5 -367zM475 1434h80 q-8 -78 24.5 -122t102.5 -44q68 0 121 46t78 120h86q-31 -106 -106.5 -181t-192.5 -75q-115 0 -161 74.5t-32 181.5zM645 1638l27 78q205 -8 205 -125q0 -80 -53.5 -124t-155.5 -68l-11 65q57 18 82 41t25 60q0 35 -25.5 50t-93.5 23z" />
<glyph unicode="&#x1eb4;" horiz-adv-x="1044" d="M-109 0l730 1343h184l156 -1343h-166l-37 420h-475l-215 -420h-177zM346 543h399l-20 229q-33 377 -37 438h-8q-88 -190 -215 -438zM504 1729q23 86 73 139t111 53q49 0 108.5 -51t92.5 -51q61 0 96 100h80q-23 -86 -73 -139.5t-111 -53.5q-49 0 -107.5 51.5t-91.5 51.5 q-63 0 -96 -100h-82zM514 1665h84q-4 -61 27.5 -98t95 -37t112 38t68.5 97h88q-29 -94 -100.5 -156.5t-181.5 -62.5q-104 0 -152.5 63.5t-40.5 155.5z" />
<glyph unicode="&#x1eb5;" horiz-adv-x="1099" d="M80 336q0 283 164 483.5t374 200.5q162 0 240 -150h8l39 125h127l-198 -995h-129l16 147h-8q-162 -172 -346 -172q-133 0 -210 94.5t-77 266.5zM242 360q0 -125 48 -189.5t134 -64.5q168 0 313 191l90 444q-82 147 -202 148q-150 0 -266.5 -162t-116.5 -367zM469 1452 q25 82 74 132t102 50q55 0 110.5 -46t86.5 -46q25 0 50.5 25.5t39.5 64.5h80q-25 -82 -74 -132t-102 -50q-57 0 -110.5 46t-86.5 46q-25 0 -49.5 -25.5t-38.5 -64.5h-82zM471 1397h80q0 -59 32.5 -95t98.5 -36t118 37.5t77 93.5h84q-33 -90 -107 -154.5t-186.5 -64.5 t-159.5 64.5t-37 154.5z" />
<glyph unicode="&#x1eb6;" horiz-adv-x="1044" d="M-109 0l730 1343h184l156 -1343h-166l-37 420h-475l-215 -420h-177zM291 -328q0 49 35 84t84 35q41 0 70.5 -25.5t29.5 -68.5q0 -49 -35 -83t-84 -34q-43 0 -71.5 24.5t-28.5 67.5zM346 543h399l-20 229q-33 377 -37 438h-8q-88 -190 -215 -438zM510 1671h92 q-4 -57 25.5 -95t93.5 -38q59 0 103.5 39t64.5 94h96q-31 -96 -100.5 -160.5t-179.5 -64.5q-104 0 -153.5 66.5t-41.5 158.5z" />
<glyph unicode="&#x1eb7;" horiz-adv-x="1099" d="M80 336q0 283 164 483.5t374 200.5q162 0 240 -150h8l39 125h127l-198 -995h-129l16 147h-8q-162 -172 -346 -172q-133 0 -210 94.5t-77 266.5zM242 360q0 -125 48 -189.5t134 -64.5q168 0 313 191l90 444q-82 147 -202 148q-150 0 -266.5 -162t-116.5 -367zM313 -328 q0 49 35 84t84 35q41 0 69.5 -25.5t28.5 -68.5q0 -49 -34.5 -83t-83.5 -34q-41 0 -70 24.5t-29 67.5zM477 1434h92q-14 -162 115 -162q66 0 114 45t72 117h97q-33 -109 -106.5 -182.5t-190.5 -73.5q-115 0 -162 75.5t-31 180.5z" />
<glyph unicode="&#x1eb8;" horiz-adv-x="1030" d="M72 0l268 1343h741l-26 -133h-584l-86 -436h494l-29 -135h-490l-104 -504h602l-29 -135h-757zM326 -328q0 49 34.5 84t83.5 35q41 0 71 -25.5t30 -68.5q0 -49 -35 -83t-84 -34q-43 0 -71.5 24.5t-28.5 67.5z" />
<glyph unicode="&#x1eb9;" horiz-adv-x="985" d="M76 391q0 270 163.5 449.5t368.5 179.5q160 0 233.5 -98.5t73.5 -262.5q0 -90 -34 -194h-648q-27 -182 51 -273.5t220 -91.5q106 0 223 86l61 -104q-147 -106 -321 -107q-180 0 -285.5 109.5t-105.5 306.5zM250 571h522q10 55 10 103q0 94 -46 157.5t-146 63.5 q-111 0 -207 -89.5t-133 -234.5zM279 -328q0 51 34.5 85t83.5 34q41 0 70 -25.5t29 -68.5q0 -49 -35 -83t-84 -34q-41 0 -69.5 24.5t-28.5 67.5z" />
<glyph unicode="&#x1eba;" horiz-adv-x="1030" d="M72 0l268 1343h741l-26 -133h-584l-86 -436h494l-29 -135h-490l-104 -504h602l-29 -135h-757zM631 1692l31 88q240 -12 239 -142q0 -160 -252 -211l-12 72q141 41 141 111q0 37 -31.5 55.5t-115.5 26.5z" />
<glyph unicode="&#x1ebb;" horiz-adv-x="985" d="M76 391q0 270 163.5 449.5t368.5 179.5q160 0 233.5 -98.5t73.5 -262.5q0 -90 -34 -194h-648q-27 -182 51 -273.5t220 -91.5q106 0 223 86l61 -104q-147 -106 -321 -107q-180 0 -285.5 109.5t-105.5 306.5zM250 571h522q10 55 10 103q0 94 -46 157.5t-146 63.5 q-111 0 -207 -89.5t-133 -234.5zM586 1397l28 86q242 -8 242 -140q0 -158 -250 -213l-12 74q72 23 106.5 47.5t34.5 63.5q0 37 -32.5 55.5t-116.5 26.5z" />
<glyph unicode="&#x1ebc;" horiz-adv-x="1030" d="M72 0l268 1343h741l-26 -133h-584l-86 -436h494l-29 -135h-490l-104 -504h602l-29 -135h-757zM444 1456q23 92 79.5 153.5t123.5 61.5q53 0 114.5 -56t98.5 -56q63 0 101 108h90q-23 -92 -79.5 -153.5t-121.5 -61.5q-55 0 -115.5 57.5t-99.5 57.5q-59 0 -100 -111h-91z " />
<glyph unicode="&#x1ebd;" horiz-adv-x="985" d="M76 391q0 270 163.5 449.5t368.5 179.5q160 0 233.5 -98.5t73.5 -262.5q0 -90 -34 -194h-648q-27 -182 51 -273.5t220 -91.5q106 0 223 86l61 -104q-147 -106 -321 -107q-180 0 -285.5 109.5t-105.5 306.5zM250 571h522q10 55 10 103q0 94 -46 157.5t-146 63.5 q-111 0 -207 -89.5t-133 -234.5zM367 1188q27 94 78 151.5t114.5 57.5t122.5 -54.5t98 -54.5q49 0 92 105h91q-27 -94 -78 -151.5t-115 -57.5q-61 0 -121.5 54t-99.5 54q-49 0 -92 -104h-90z" />
<glyph unicode="&#x1ebe;" horiz-adv-x="1030" d="M72 0l268 1343h741l-26 -133h-584l-86 -436h494l-29 -135h-490l-104 -504h602l-29 -135h-757zM485 1446l222 213h135l143 -213h-119l-100 131h-8l-150 -131h-123zM946 1573l172 227h133l-204 -227h-101z" />
<glyph unicode="&#x1ebf;" horiz-adv-x="985" d="M76 391q0 270 163.5 449.5t368.5 179.5q160 0 233.5 -98.5t73.5 -262.5q0 -90 -34 -194h-648q-27 -182 51 -273.5t220 -91.5q106 0 223 86l61 -104q-147 -106 -321 -107q-180 0 -285.5 109.5t-105.5 306.5zM250 571h522q10 55 10 103q0 94 -46 157.5t-146 63.5 q-111 0 -207 -89.5t-133 -234.5zM406 1169l215 244h118l115 -244h-100l-84 150h-8l-144 -150h-112zM842 1307l186 233h135l-219 -233h-102z" />
<glyph unicode="&#x1ec0;" horiz-adv-x="1030" d="M72 0l268 1343h741l-26 -133h-584l-86 -436h494l-29 -135h-490l-104 -504h602l-29 -135h-757zM485 1446l222 213h135l143 -213h-119l-100 131h-8l-150 -131h-123zM899 1800h129l94 -227h-96z" />
<glyph unicode="&#x1ec1;" horiz-adv-x="985" d="M76 391q0 270 163.5 449.5t368.5 179.5q160 0 233.5 -98.5t73.5 -262.5q0 -90 -34 -194h-648q-27 -182 51 -273.5t220 -91.5q106 0 223 86l61 -104q-147 -106 -321 -107q-180 0 -285.5 109.5t-105.5 306.5zM250 571h522q10 55 10 103q0 94 -46 157.5t-146 63.5 q-111 0 -207 -89.5t-133 -234.5zM406 1169l215 244h118l115 -244h-100l-84 150h-8l-144 -150h-112zM821 1540h129l97 -233h-97z" />
<glyph unicode="&#x1ec2;" horiz-adv-x="1030" d="M72 0l268 1343h741l-26 -133h-584l-86 -436h494l-29 -135h-490l-104 -504h602l-29 -135h-757zM485 1446l222 213h135l143 -213h-119l-100 131h-8l-150 -131h-123zM963 1776l24 75q109 -2 160 -34.5t51 -85.5q0 -147 -215 -189l-10 64q115 29 114 102q1 60 -124 68z" />
<glyph unicode="&#x1ec3;" horiz-adv-x="985" d="M76 391q0 270 163.5 449.5t368.5 179.5q160 0 233.5 -98.5t73.5 -262.5q0 -90 -34 -194h-648q-27 -182 51 -273.5t220 -91.5q106 0 223 86l61 -104q-147 -106 -321 -107q-180 0 -285.5 109.5t-105.5 306.5zM250 571h522q10 55 10 103q0 94 -46 157.5t-146 63.5 q-111 0 -207 -89.5t-133 -234.5zM406 1169l215 244h118l115 -244h-100l-84 150h-8l-144 -150h-112zM862 1530l27 78q213 -12 213 -129q0 -82 -56.5 -126t-162.5 -69l-11 66q115 31 115 102q0 35 -27.5 52.5t-97.5 25.5z" />
<glyph unicode="&#x1ec4;" horiz-adv-x="1030" d="M72 0l268 1343h741l-26 -133h-584l-86 -436h494l-29 -135h-490l-104 -504h602l-29 -135h-757zM485 1446l222 213h135l143 -213h-119l-100 131h-8l-150 -131h-123zM526 1729q23 86 74 139t113 53q49 0 107.5 -51t90.5 -51q59 0 99 100h77q-23 -86 -72.5 -139.5 t-111.5 -53.5q-49 0 -107.5 51.5t-90.5 51.5q-61 0 -97 -100h-82z" />
<glyph unicode="&#x1ec5;" horiz-adv-x="985" d="M76 391q0 270 163.5 449.5t368.5 179.5q160 0 233.5 -98.5t73.5 -262.5q0 -90 -34 -194h-648q-27 -182 51 -273.5t220 -91.5q106 0 223 86l61 -104q-147 -106 -321 -107q-180 0 -285.5 109.5t-105.5 306.5zM250 571h522q10 55 10 103q0 94 -46 157.5t-146 63.5 q-111 0 -207 -89.5t-133 -234.5zM387 1169l215 207h141l134 -207h-105l-106 127h-9l-151 -127h-119zM434 1452q25 82 74 132t104.5 50t108.5 -46t86 -46q25 0 50.5 25.5t39.5 64.5h80q-25 -82 -73 -132t-103.5 -50t-109.5 46t-87 46q-23 0 -48.5 -25.5t-39.5 -64.5h-82z" />
<glyph unicode="&#x1ec6;" horiz-adv-x="1030" d="M72 0l268 1343h741l-26 -133h-584l-86 -436h494l-29 -135h-490l-104 -504h602l-29 -135h-757zM326 -328q0 49 34.5 84t83.5 35q41 0 71 -25.5t30 -68.5q0 -49 -35 -83t-84 -34q-43 0 -71.5 24.5t-28.5 67.5zM465 1446l231 223h150l143 -223h-121l-102 143h-8l-160 -143 h-133z" />
<glyph unicode="&#x1ec7;" horiz-adv-x="985" d="M76 391q0 270 163.5 449.5t368.5 179.5q160 0 233.5 -98.5t73.5 -262.5q0 -90 -34 -194h-648q-27 -182 51 -273.5t220 -91.5q106 0 223 86l61 -104q-147 -106 -321 -107q-180 0 -285.5 109.5t-105.5 306.5zM250 571h522q10 55 10 103q0 94 -46 157.5t-146 63.5 q-111 0 -207 -89.5t-133 -234.5zM279 -328q0 51 34.5 85t83.5 34q41 0 70 -25.5t29 -68.5q0 -49 -35 -83t-84 -34q-41 0 -69.5 24.5t-28.5 67.5zM385 1169l250 289h117l135 -289h-107l-98 189h-8l-170 -189h-119z" />
<glyph unicode="&#x1ec8;" horiz-adv-x="516" d="M72 0l268 1343h160l-269 -1343h-159zM324 1692l30 88q240 -12 240 -142q0 -160 -250 -211l-14 72q141 41 141 111q0 37 -31.5 55.5t-115.5 26.5z" />
<glyph unicode="&#x1ec9;" horiz-adv-x="485" d="M63 0l199 995h158l-201 -995h-156zM324 1397l28 86q242 -8 242 -140q0 -158 -250 -213l-12 74q72 23 106.5 47.5t34.5 63.5q0 37 -32.5 55.5t-116.5 26.5z" />
<glyph unicode="&#x1eca;" horiz-adv-x="516" d="M-2 -338q0 49 36 84t83 35q41 0 70.5 -25.5t29.5 -68.5q0 -49 -36 -83t-85 -34q-41 0 -69.5 24.5t-28.5 67.5zM72 0l268 1343h160l-269 -1343h-159z" />
<glyph unicode="&#x1ecb;" horiz-adv-x="485" d="M-14 -328q0 49 34.5 84t83.5 35q41 0 71 -25.5t30 -68.5q0 -49 -35 -83t-84 -34q-43 0 -71.5 24.5t-28.5 67.5zM63 0l199 995h158l-201 -995h-156zM295 1294q0 49 35 84t84 35q41 0 70.5 -25.5t29.5 -68.5q0 -49 -35 -83t-84 -34q-43 0 -71.5 24.5t-28.5 67.5z" />
<glyph unicode="&#x1ecc;" horiz-adv-x="1296" d="M123 539q0 207 81 395t233.5 311t338.5 123q221 0 343 -151.5t122 -409.5q0 -207 -81 -396.5t-233.5 -312.5t-338.5 -123q-221 0 -343 152t-122 412zM285 551q0 -205 77.5 -321.5t233.5 -116.5q137 0 251 105.5t173 260t59 314.5q0 205 -77.5 321.5t-233.5 116.5 q-137 0 -251 -105.5t-173 -260t-59 -314.5zM408 -328q0 49 35.5 84t84.5 35q41 0 70 -25.5t29 -68.5q0 -49 -35 -83t-84 -34q-41 0 -70.5 24.5t-29.5 67.5z" />
<glyph unicode="&#x1ecd;" horiz-adv-x="1054" d="M80 375q0 274 163 459.5t373 185.5q162 0 259.5 -107.5t97.5 -291.5q0 -274 -164 -460t-375 -186q-162 0 -258 107.5t-96 292.5zM229 -328q0 49 35 84t84 35q41 0 71 -25.5t30 -68.5q0 -49 -35 -83t-84 -34q-43 0 -72 24.5t-29 67.5zM238 385q0 -135 55 -207t158 -72 q141 0 251.5 150t110.5 354q0 135 -55.5 208t-157.5 73q-139 0 -250.5 -150.5t-111.5 -355.5z" />
<glyph unicode="&#x1ece;" horiz-adv-x="1296" d="M123 539q0 207 81 395t233.5 311t338.5 123q221 0 343 -151.5t122 -409.5q0 -207 -81 -396.5t-233.5 -312.5t-338.5 -123q-221 0 -343 152t-122 412zM285 551q0 -205 77.5 -321.5t233.5 -116.5q137 0 251 105.5t173 260t59 314.5q0 205 -77.5 321.5t-233.5 116.5 q-137 0 -251 -105.5t-173 -260t-59 -314.5zM727 1692l33 88q240 -12 239 -142q0 -160 -251 -211l-13 72q72 23 105.5 47.5t33.5 63.5q0 37 -31.5 55.5t-115.5 26.5z" />
<glyph unicode="&#x1ecf;" horiz-adv-x="1054" d="M80 375q0 274 163 459.5t373 185.5q162 0 259.5 -107.5t97.5 -291.5q0 -274 -164 -460t-375 -186q-162 0 -258 107.5t-96 292.5zM238 385q0 -135 55 -207t158 -72q141 0 251.5 150t110.5 354q0 135 -55.5 208t-157.5 73q-139 0 -250.5 -150.5t-111.5 -355.5zM612 1397 l29 86q244 -8 244 -140q0 -160 -252 -213l-12 74q141 41 141 111q0 37 -33 55.5t-117 26.5z" />
<glyph unicode="&#x1ed0;" horiz-adv-x="1296" d="M123 539q0 207 81 395t233.5 311t338.5 123q221 0 343 -151.5t122 -409.5q0 -207 -81 -396.5t-233.5 -312.5t-338.5 -123q-221 0 -343 152t-122 412zM285 551q0 -205 77.5 -321.5t233.5 -116.5q137 0 251 105.5t173 260t59 314.5q0 205 -77.5 321.5t-233.5 116.5 q-137 0 -251 -105.5t-173 -260t-59 -314.5zM582 1446l223 213h135l141 -213h-116l-101 131h-8l-151 -131h-123zM1044 1573l173 227h131l-203 -227h-101z" />
<glyph unicode="&#x1ed1;" horiz-adv-x="1054" d="M80 375q0 274 163 459.5t373 185.5q162 0 259.5 -107.5t97.5 -291.5q0 -274 -164 -460t-375 -186q-162 0 -258 107.5t-96 292.5zM238 385q0 -135 55 -207t158 -72q141 0 251.5 150t110.5 354q0 135 -55.5 208t-157.5 73q-139 0 -250.5 -150.5t-111.5 -355.5zM444 1169 l218 244h116l117 -244h-100l-86 150h-9l-141 -150h-115zM883 1307l186 233h133l-219 -233h-100z" />
<glyph unicode="&#x1ed2;" horiz-adv-x="1296" d="M123 539q0 207 81 395t233.5 311t338.5 123q221 0 343 -151.5t122 -409.5q0 -207 -81 -396.5t-233.5 -312.5t-338.5 -123q-221 0 -343 152t-122 412zM285 551q0 -205 77.5 -321.5t233.5 -116.5q137 0 251 105.5t173 260t59 314.5q0 205 -77.5 321.5t-233.5 116.5 q-137 0 -251 -105.5t-173 -260t-59 -314.5zM582 1446l223 213h135l141 -213h-116l-101 131h-8l-151 -131h-123zM997 1800h129l95 -227h-97z" />
<glyph unicode="&#x1ed3;" horiz-adv-x="1054" d="M80 375q0 274 163 459.5t373 185.5q162 0 259.5 -107.5t97.5 -291.5q0 -274 -164 -460t-375 -186q-162 0 -258 107.5t-96 292.5zM238 385q0 -135 55 -207t158 -72q141 0 251.5 150t110.5 354q0 135 -55.5 208t-157.5 73q-139 0 -250.5 -150.5t-111.5 -355.5zM444 1169 l218 244h116l117 -244h-100l-86 150h-9l-141 -150h-115zM860 1540h129l96 -233h-96z" />
<glyph unicode="&#x1ed4;" horiz-adv-x="1296" d="M123 539q0 207 81 395t233.5 311t338.5 123q221 0 343 -151.5t122 -409.5q0 -207 -81 -396.5t-233.5 -312.5t-338.5 -123q-221 0 -343 152t-122 412zM285 551q0 -205 77.5 -321.5t233.5 -116.5q137 0 251 105.5t173 260t59 314.5q0 205 -77.5 321.5t-233.5 116.5 q-137 0 -251 -105.5t-173 -260t-59 -314.5zM582 1446l223 213h135l141 -213h-116l-101 131h-8l-151 -131h-123zM1059 1776l26 75q109 -2 160 -34.5t51 -85.5q0 -147 -215 -189l-12 64q117 31 117 102q0 60 -127 68z" />
<glyph unicode="&#x1ed5;" horiz-adv-x="1054" d="M80 375q0 274 163 459.5t373 185.5q162 0 259.5 -107.5t97.5 -291.5q0 -274 -164 -460t-375 -186q-162 0 -258 107.5t-96 292.5zM238 385q0 -135 55 -207t158 -72q141 0 251.5 150t110.5 354q0 135 -55.5 208t-157.5 73q-139 0 -250.5 -150.5t-111.5 -355.5zM444 1169 l218 244h116l117 -244h-100l-86 150h-9l-141 -150h-115zM901 1530l27 78q215 -12 215 -129q0 -82 -57.5 -126t-163.5 -69l-11 66q115 31 115 102q0 35 -27.5 52.5t-97.5 25.5z" />
<glyph unicode="&#x1ed6;" horiz-adv-x="1296" d="M123 539q0 207 81 395t233.5 311t338.5 123q221 0 343 -151.5t122 -409.5q0 -207 -81 -396.5t-233.5 -312.5t-338.5 -123q-221 0 -343 152t-122 412zM285 551q0 -205 77.5 -321.5t233.5 -116.5q137 0 251 105.5t173 260t59 314.5q0 205 -77.5 321.5t-233.5 116.5 q-137 0 -251 -105.5t-173 -260t-59 -314.5zM582 1446l223 213h135l141 -213h-116l-101 131h-8l-151 -131h-123zM625 1729q23 86 73 139t111 53q51 0 110.5 -51t90.5 -51q61 0 96 100h80q-23 -86 -73 -139.5t-112 -53.5q-49 0 -107 51.5t-91 51.5q-63 0 -96 -100h-82z" />
<glyph unicode="&#x1ed7;" horiz-adv-x="1054" d="M80 375q0 274 163 459.5t373 185.5q162 0 259.5 -107.5t97.5 -291.5q0 -274 -164 -460t-375 -186q-162 0 -258 107.5t-96 292.5zM238 385q0 -135 55 -207t158 -72q141 0 251.5 150t110.5 354q0 135 -55.5 208t-157.5 73q-139 0 -250.5 -150.5t-111.5 -355.5zM426 1169 l217 207h139l133 -207h-104l-106 127h-9l-149 -127h-121zM475 1452q25 82 73 132t103.5 50t109.5 -46t87 -46q25 0 50.5 25.5t37.5 64.5h80q-23 -82 -72 -132t-104.5 -50t-109.5 46t-87 46q-25 0 -49.5 -25.5t-38.5 -64.5h-80z" />
<glyph unicode="&#x1ed8;" horiz-adv-x="1296" d="M123 539q0 207 81 395t233.5 311t338.5 123q221 0 343 -151.5t122 -409.5q0 -207 -81 -396.5t-233.5 -312.5t-338.5 -123q-221 0 -343 152t-122 412zM285 551q0 -205 77.5 -321.5t233.5 -116.5q137 0 251 105.5t173 260t59 314.5q0 205 -77.5 321.5t-233.5 116.5 q-137 0 -251 -105.5t-173 -260t-59 -314.5zM408 -328q0 49 35.5 84t84.5 35q41 0 70 -25.5t29 -68.5q0 -49 -35 -83t-84 -34q-41 0 -70.5 24.5t-29.5 67.5zM563 1446l232 223h149l143 -223h-120l-105 143h-6l-160 -143h-133z" />
<glyph unicode="&#x1ed9;" horiz-adv-x="1054" d="M80 375q0 274 163 459.5t373 185.5q162 0 259.5 -107.5t97.5 -291.5q0 -274 -164 -460t-375 -186q-162 0 -258 107.5t-96 292.5zM229 -328q0 49 35 84t84 35q41 0 71 -25.5t30 -68.5q0 -49 -35 -83t-84 -34q-43 0 -72 24.5t-29 67.5zM238 385q0 -135 55 -207t158 -72 q141 0 251.5 150t110.5 354q0 135 -55.5 208t-157.5 73q-139 0 -250.5 -150.5t-111.5 -355.5zM422 1169l250 289h119l133 -289h-107l-98 189h-8l-170 -189h-119z" />
<glyph unicode="&#x1eda;" horiz-adv-x="1296" d="M123 539q0 207 81 395t233.5 311t338.5 123q139 0 242 -63q88 6 144.5 48t56.5 105q-1 33 -11 68l121 41q23 -47 23 -97q0 -88 -67.5 -151.5t-180.5 -83.5q137 -150 137 -428q0 -207 -81 -396.5t-233.5 -312.5t-338.5 -123q-221 0 -343 152t-122 412zM285 551 q0 -205 77.5 -321.5t233.5 -116.5q137 0 251 105.5t173 260t59 314.5q0 205 -77.5 321.5t-233.5 116.5q-137 0 -251 -105.5t-173 -260t-59 -314.5zM705 1446l219 225h178l-262 -225h-135z" />
<glyph unicode="&#x1edb;" horiz-adv-x="1058" d="M80 375q0 274 163 459.5t373 185.5q102 0 183 -45q84 8 137 48t53 103q0 35 -12 68l123 43q20 -43 20 -96q0 -86 -60.5 -148.5t-176.5 -87.5q90 -106 90 -284q0 -274 -164 -460t-375 -186q-162 0 -258 107.5t-96 292.5zM238 385q0 -135 55.5 -207t157.5 -72 q141 0 251.5 150t110.5 354q0 135 -55.5 208t-157.5 73q-139 0 -250.5 -150.5t-111.5 -355.5zM516 1169l238 289h170l-281 -289h-127z" />
<glyph unicode="&#x1edc;" horiz-adv-x="1296" d="M123 539q0 207 81 395t233.5 311t338.5 123q139 0 242 -63q88 6 144.5 48t56.5 105q-1 33 -11 68l121 41q23 -47 23 -97q0 -88 -67.5 -151.5t-180.5 -83.5q137 -150 137 -428q0 -207 -81 -396.5t-233.5 -312.5t-338.5 -123q-221 0 -343 152t-122 412zM285 551 q0 -205 77.5 -321.5t233.5 -116.5q137 0 251 105.5t173 260t59 314.5q0 205 -77.5 321.5t-233.5 116.5q-137 0 -251 -105.5t-173 -260t-59 -314.5zM596 1671h166l141 -225h-125z" />
<glyph unicode="&#x1edd;" horiz-adv-x="1058" d="M80 375q0 274 163 459.5t373 185.5q102 0 183 -45q84 8 137 48t53 103q0 35 -12 68l123 43q20 -43 20 -96q0 -86 -60.5 -148.5t-176.5 -87.5q90 -106 90 -284q0 -274 -164 -460t-375 -186q-162 0 -258 107.5t-96 292.5zM238 385q0 -135 55.5 -207t157.5 -72 q141 0 251.5 150t110.5 354q0 135 -55.5 208t-157.5 73q-139 0 -250.5 -150.5t-111.5 -355.5zM500 1458h153l119 -289h-113z" />
<glyph unicode="&#x1ede;" horiz-adv-x="1296" d="M123 539q0 207 81 395t233.5 311t338.5 123q139 0 242 -63q88 6 144.5 48t56.5 105q-1 33 -11 68l121 41q23 -47 23 -97q0 -88 -67.5 -151.5t-180.5 -83.5q137 -150 137 -428q0 -207 -81 -396.5t-233.5 -312.5t-338.5 -123q-221 0 -343 152t-122 412zM285 551 q0 -205 77.5 -321.5t233.5 -116.5q137 0 251 105.5t173 260t59 314.5q0 205 -77.5 321.5t-233.5 116.5q-137 0 -251 -105.5t-173 -260t-59 -314.5zM709 1692l30 88q240 -12 240 -142q0 -160 -250 -211l-14 72q141 41 141 111q0 37 -31.5 55t-115.5 27z" />
<glyph unicode="&#x1edf;" horiz-adv-x="1058" d="M80 375q0 274 163 459.5t373 185.5q102 0 183 -45q84 8 137 48t53 103q0 35 -12 68l123 43q20 -43 20 -96q0 -86 -60.5 -148.5t-176.5 -87.5q90 -106 90 -284q0 -274 -164 -460t-375 -186q-162 0 -258 107.5t-96 292.5zM238 385q0 -135 55.5 -207t157.5 -72 q141 0 251.5 150t110.5 354q0 135 -55.5 208t-157.5 73q-139 0 -250.5 -150.5t-111.5 -355.5zM592 1397l29 86q242 -8 241 -140q0 -158 -250 -213l-14 74q141 41 141 111q0 37 -31.5 55.5t-115.5 26.5z" />
<glyph unicode="&#x1ee0;" horiz-adv-x="1296" d="M123 539q0 207 81 395t233.5 311t338.5 123q139 0 242 -63q88 6 144.5 48t56.5 105q-1 33 -11 68l121 41q23 -47 23 -97q0 -88 -67.5 -151.5t-180.5 -83.5q137 -150 137 -428q0 -207 -81 -396.5t-233.5 -312.5t-338.5 -123q-221 0 -343 152t-122 412zM285 551 q0 -205 77.5 -321.5t233.5 -116.5q137 0 251 105.5t173 260t59 314.5q0 205 -77.5 321.5t-233.5 116.5q-137 0 -251 -105.5t-173 -260t-59 -314.5zM524 1456q23 92 79 153.5t122 61.5q55 0 115.5 -56t99.5 -56q61 -1 100 108h90q-23 -92 -79 -153.5t-123 -61.5 q-53 0 -114.5 57.5t-98.5 57.5q-59 0 -101 -111h-90z" />
<glyph unicode="&#x1ee1;" horiz-adv-x="1058" d="M80 375q0 274 163 459.5t373 185.5q102 0 183 -45q84 8 137 48t53 103q0 35 -12 68l123 43q20 -43 20 -96q0 -86 -60.5 -148.5t-176.5 -87.5q90 -106 90 -284q0 -274 -164 -460t-375 -186q-162 0 -258 107.5t-96 292.5zM238 385q0 -135 55.5 -207t157.5 -72 q141 0 251.5 150t110.5 354q0 135 -55.5 208t-157.5 73q-139 0 -250.5 -150.5t-111.5 -355.5zM383 1188q27 94 77 151.5t113.5 57.5t124 -54.5t99.5 -54.5q49 1 90 105h90q-27 -94 -77 -151.5t-113.5 -57.5t-123 54t-100.5 54q-49 0 -90 -104h-90z" />
<glyph unicode="&#x1ee2;" horiz-adv-x="1296" d="M123 539q0 207 81 395t233.5 311t338.5 123q139 0 242 -63q88 6 144.5 48t56.5 105q-1 33 -11 68l121 41q23 -47 23 -97q0 -88 -67.5 -151.5t-180.5 -83.5q137 -150 137 -428q0 -207 -81 -396.5t-233.5 -312.5t-338.5 -123q-221 0 -343 152t-122 412zM285 551 q0 -205 77.5 -321.5t233.5 -116.5q137 0 251 105.5t173 260t59 314.5q0 205 -77.5 321.5t-233.5 116.5q-137 0 -251 -105.5t-173 -260t-59 -314.5zM401 -328q0 49 35 84t84 35q41 0 71 -25.5t30 -68.5q0 -49 -35 -83t-84 -34q-43 0 -72 24.5t-29 67.5z" />
<glyph unicode="&#x1ee3;" horiz-adv-x="1058" d="M80 375q0 274 163 459.5t373 185.5q102 0 183 -45q84 8 137 48t53 103q0 35 -12 68l123 43q20 -43 20 -96q0 -86 -60.5 -148.5t-176.5 -87.5q90 -106 90 -284q0 -274 -164 -460t-375 -186q-162 0 -258 107.5t-96 292.5zM223 -328q0 49 35 84t84 35q41 0 70.5 -25.5 t29.5 -68.5q0 -49 -34.5 -83t-83.5 -34q-43 0 -72 24.5t-29 67.5zM238 385q0 -135 55.5 -207t157.5 -72q141 0 251.5 150t110.5 354q0 135 -55.5 208t-157.5 73q-139 0 -250.5 -150.5t-111.5 -355.5z" />
<glyph unicode="&#x1ee4;" horiz-adv-x="1261" d="M162 399q0 78 20 191l152 753h160l-154 -768q-18 -92 -18 -161q0 -301 272 -301q123 0 212 98t130 309l166 823h155l-167 -829q-104 -539 -504 -539q-205 0 -314.5 109t-109.5 315zM375 -328q0 51 34.5 85t84.5 34q41 0 69.5 -25.5t28.5 -68.5q0 -49 -35 -83t-84 -34 q-41 0 -69.5 24.5t-28.5 67.5z" />
<glyph unicode="&#x1ee5;" horiz-adv-x="1081" d="M115 223q0 66 16 137l127 635h158l-125 -614q-16 -86 -17 -117q0 -154 148 -153q121 0 295 180l141 704h156l-199 -995h-129l16 152h-8q-199 -176 -344 -177q-236 0 -235 248zM334 -334q0 49 34.5 84t84.5 35q41 0 70.5 -25.5t29.5 -68.5q0 -49 -36 -83t-85 -34 q-41 0 -69.5 24.5t-28.5 67.5z" />
<glyph unicode="&#x1ee6;" horiz-adv-x="1261" d="M162 399q0 78 20 191l152 753h160l-154 -768q-18 -92 -18 -161q0 -301 272 -301q123 0 212 98t130 309l166 823h155l-167 -829q-104 -539 -504 -539q-205 0 -314.5 109t-109.5 315zM709 1692l30 88q240 -12 240 -142q0 -160 -252 -211l-12 72q72 23 105.5 47.5t33.5 63.5 q0 37 -30.5 55.5t-114.5 26.5z" />
<glyph unicode="&#x1ee7;" horiz-adv-x="1081" d="M115 223q0 66 16 137l127 635h158l-125 -614q-16 -86 -17 -117q0 -154 148 -153q121 0 295 180l141 704h156l-199 -995h-129l16 152h-8q-199 -176 -344 -177q-236 0 -235 248zM598 1397l29 86q242 -8 241 -140q0 -158 -250 -213l-12 74q141 41 142 111q0 37 -33 55.5 t-117 26.5z" />
<glyph unicode="&#x1ee8;" horiz-adv-x="1288" d="M162 399q0 78 20 191l152 753h160l-154 -768q-18 -92 -18 -161q0 -301 272 -301q123 0 212 98t130 309l166 823h72q86 4 142 47.5t56 104.5q0 35 -10 68l123 43q20 -49 20 -97q0 -88 -67.5 -154.5t-194.5 -84.5l-153 -756q-104 -539 -504 -539q-205 0 -314.5 109 t-109.5 315zM698 1446l217 225h179l-263 -225h-133z" />
<glyph unicode="&#x1ee9;" horiz-adv-x="1112" d="M115 223q0 66 16 137l127 635h158l-125 -614q-16 -86 -17 -117q0 -154 148 -153q121 0 295 180l141 704h55q76 10 128.5 51t52.5 101q-1 34 -11 67l123 43q20 -49 21 -96q0 -84 -62.5 -148.5t-165.5 -86.5l-184 -926h-129l16 152h-8q-199 -176 -344 -177q-236 0 -235 248 zM524 1169l238 289h168l-279 -289h-127z" />
<glyph unicode="&#x1eea;" horiz-adv-x="1288" d="M162 399q0 78 20 191l152 753h160l-154 -768q-18 -92 -18 -161q0 -301 272 -301q123 0 212 98t130 309l166 823h72q86 4 142 47.5t56 104.5q0 35 -10 68l123 43q20 -49 20 -97q0 -88 -67.5 -154.5t-194.5 -84.5l-153 -756q-104 -539 -504 -539q-205 0 -314.5 109 t-109.5 315zM590 1671h166l139 -225h-123z" />
<glyph unicode="&#x1eeb;" horiz-adv-x="1112" d="M115 223q0 66 16 137l127 635h158l-125 -614q-16 -86 -17 -117q0 -154 148 -153q121 0 295 180l141 704h55q76 10 128.5 51t52.5 101q-1 34 -11 67l123 43q20 -49 21 -96q0 -84 -62.5 -148.5t-165.5 -86.5l-184 -926h-129l16 152h-8q-199 -176 -344 -177q-236 0 -235 248 zM506 1458h153l121 -289h-114z" />
<glyph unicode="&#x1eec;" horiz-adv-x="1288" d="M162 399q0 78 20 191l152 753h160l-154 -768q-18 -92 -18 -161q0 -301 272 -301q123 0 212 98t130 309l166 823h72q86 4 142 47.5t56 104.5q0 35 -10 68l123 43q20 -49 20 -97q0 -88 -67.5 -154.5t-194.5 -84.5l-153 -756q-104 -539 -504 -539q-205 0 -314.5 109 t-109.5 315zM702 1692l31 88q240 -12 240 -142q0 -160 -252 -211l-12 72q72 23 105.5 47.5t33.5 63.5q0 37 -31 55t-115 27z" />
<glyph unicode="&#x1eed;" horiz-adv-x="1112" d="M115 223q0 66 16 137l127 635h158l-125 -614q-16 -86 -17 -117q0 -154 148 -153q121 0 295 180l141 704h55q76 10 128.5 51t52.5 101q-1 34 -11 67l123 43q20 -49 21 -96q0 -84 -62.5 -148.5t-165.5 -86.5l-184 -926h-129l16 152h-8q-199 -176 -344 -177q-236 0 -235 248 zM598 1397l29 86q242 -8 241 -140q0 -158 -250 -213l-12 74q141 41 142 111q0 37 -33 55.5t-117 26.5z" />
<glyph unicode="&#x1eee;" horiz-adv-x="1288" d="M162 399q0 78 20 191l152 753h160l-154 -768q-18 -92 -18 -161q0 -301 272 -301q123 0 212 98t130 309l166 823h72q86 4 142 47.5t56 104.5q0 35 -10 68l123 43q20 -49 20 -97q0 -88 -67.5 -154.5t-194.5 -84.5l-153 -756q-104 -539 -504 -539q-205 0 -314.5 109 t-109.5 315zM516 1456q23 92 79 153.5t124 61.5q53 0 114.5 -56t98.5 -56q61 -1 100 108h90q-23 -92 -79 -153.5t-123 -61.5q-53 0 -115 57.5t-98 57.5q-59 0 -101 -111h-90z" />
<glyph unicode="&#x1eef;" horiz-adv-x="1112" d="M115 223q0 66 16 137l127 635h158l-125 -614q-16 -86 -17 -117q0 -154 148 -153q121 0 295 180l141 704h55q76 10 128.5 51t52.5 101q-1 34 -11 67l123 43q20 -49 21 -96q0 -84 -62.5 -148.5t-165.5 -86.5l-184 -926h-129l16 152h-8q-199 -176 -344 -177q-236 0 -235 248 zM389 1188q27 94 78 151.5t114.5 57.5t123 -54.5t100.5 -54.5q47 1 90 105h90q-27 -94 -78 -151.5t-114 -57.5q-61 0 -122 54t-100 54q-49 0 -92 -104h-90z" />
<glyph unicode="&#x1ef0;" horiz-adv-x="1288" d="M162 399q0 78 20 191l152 753h160l-154 -768q-18 -92 -18 -161q0 -301 272 -301q123 0 212 98t130 309l166 823h72q86 4 142 47.5t56 104.5q0 35 -10 68l123 43q20 -49 20 -97q0 -88 -67.5 -154.5t-194.5 -84.5l-153 -756q-104 -539 -504 -539q-205 0 -314.5 109 t-109.5 315zM377 -328q0 49 35 84t84 35q41 0 70.5 -25.5t29.5 -68.5q0 -49 -35 -83t-84 -34q-43 0 -71.5 24.5t-28.5 67.5z" />
<glyph unicode="&#x1ef1;" horiz-adv-x="1112" d="M115 223q0 66 16 137l127 635h158l-125 -614q-16 -86 -17 -117q0 -154 148 -153q121 0 295 180l141 704h55q76 10 128.5 51t52.5 101q-1 34 -11 67l123 43q20 -49 21 -96q0 -84 -62.5 -148.5t-165.5 -86.5l-184 -926h-129l16 152h-8q-199 -176 -344 -177q-236 0 -235 248 zM334 -334q0 49 35 84t84 35q41 0 70.5 -25.5t29.5 -68.5q0 -49 -36 -83t-85 -34q-41 0 -69.5 24.5t-28.5 67.5z" />
<glyph unicode="&#x1ef2;" horiz-adv-x="944" d="M170 1343h164l92 -387q14 -53 35.5 -150t32.5 -140h8q123 201 184 292l254 385h170l-561 -819l-107 -524h-157l104 524zM420 1671h166l141 -225h-125z" />
<glyph unicode="&#x1ef3;" horiz-adv-x="917" d="M-127 -399l51 116q37 -18 74 -18q147 0 260 227l37 72l-170 997h156l77 -559q14 -96 33 -297h8q10 23 64.5 132.5t83.5 164.5l287 559h155l-586 -1079q-88 -166 -185 -255t-230 -89q-59 0 -115 29zM410 1458h155l119 -289h-113z" />
<glyph unicode="&#x1ef4;" horiz-adv-x="944" d="M170 1343h164l92 -387q14 -53 35.5 -150t32.5 -140h8q123 201 184 292l254 385h170l-561 -819l-107 -524h-157l104 524zM211 -344q0 49 35 84t84 35q41 0 70.5 -25.5t29.5 -68.5q0 -49 -36 -83t-85 -34q-41 0 -69.5 24.5t-28.5 67.5z" />
<glyph unicode="&#x1ef5;" horiz-adv-x="917" d="M-127 -399l51 116q37 -18 74 -18q147 0 260 227l37 72l-170 997h156l77 -559q14 -96 33 -297h8q10 23 64.5 132.5t83.5 164.5l287 559h155l-586 -1079q-88 -166 -185 -255t-230 -89q-59 0 -115 29zM473 -344q0 49 35 84t84 35q41 0 70.5 -25.5t29.5 -68.5q0 -49 -35 -83 t-84 -34q-43 0 -71.5 24.5t-28.5 67.5z" />
<glyph unicode="&#x1ef6;" horiz-adv-x="944" d="M170 1343h164l92 -387q14 -53 35.5 -150t32.5 -140h8q123 201 184 292l254 385h170l-561 -819l-107 -524h-157l104 524zM532 1692l31 88q240 -12 240 -142q0 -160 -252 -211l-12 72q141 41 141 111q0 37 -32 55.5t-116 26.5z" />
<glyph unicode="&#x1ef7;" horiz-adv-x="917" d="M-127 -399l51 116q37 -18 74 -18q147 0 260 227l37 72l-170 997h156l77 -559q14 -96 33 -297h8q10 23 64.5 132.5t83.5 164.5l287 559h155l-586 -1079q-88 -166 -185 -255t-230 -89q-59 0 -115 29zM502 1397l30 86q242 -8 242 -140q0 -158 -250 -213l-14 74 q141 41 141 111q0 37 -32.5 55.5t-116.5 26.5z" />
<glyph unicode="&#x1ef8;" horiz-adv-x="944" d="M170 1343h164l92 -387q14 -53 35.5 -150t32.5 -140h8q123 201 184 292l254 385h170l-561 -819l-107 -524h-157l104 524zM346 1456q23 92 79 153.5t124 61.5q53 0 114.5 -56t98.5 -56q63 0 100 108h90q-23 -92 -79 -153.5t-121 -61.5q-55 0 -116 57.5t-99 57.5 q-60 0 -101 -111h-90z" />
<glyph unicode="&#x1ef9;" horiz-adv-x="917" d="M-127 -399l51 116q37 -18 74 -18q147 0 260 227l37 72l-170 997h156l77 -559q14 -96 33 -297h8q10 23 64.5 132.5t83.5 164.5l287 559h155l-586 -1079q-88 -166 -185 -255t-230 -89q-59 0 -115 29zM293 1188q29 94 79 151.5t113.5 57.5t123 -54.5t100.5 -54.5 q49 0 90 105h90q-27 -94 -77 -151.5t-113.5 -57.5t-124 54t-99.5 54q-49 0 -90 -104h-92z" />
<glyph unicode="&#x2000;" horiz-adv-x="971" />
<glyph unicode="&#x2001;" horiz-adv-x="1942" />
<glyph unicode="&#x2002;" horiz-adv-x="971" />
<glyph unicode="&#x2003;" horiz-adv-x="1942" />
<glyph unicode="&#x2004;" horiz-adv-x="647" />
<glyph unicode="&#x2005;" horiz-adv-x="485" />
<glyph unicode="&#x2006;" horiz-adv-x="323" />
<glyph unicode="&#x2007;" horiz-adv-x="983" />
<glyph unicode="&#x2008;" horiz-adv-x="242" />
<glyph unicode="&#x2009;" horiz-adv-x="388" />
<glyph unicode="&#x200a;" horiz-adv-x="107" />
<glyph unicode="&#x2010;" horiz-adv-x="612" d="M72 455l24 120h449l-27 -120h-446z" />
<glyph unicode="&#x2011;" horiz-adv-x="612" d="M72 455l24 120h449l-27 -120h-446z" />
<glyph unicode="&#x2012;" horiz-adv-x="983" d="M72 461l22 110h815l-24 -110h-813z" />
<glyph unicode="&#x2013;" horiz-adv-x="948" d="M72 461l22 110h780l-24 -110h-778z" />
<glyph unicode="&#x2014;" horiz-adv-x="1574" d="M72 461l22 110h1409l-22 -110h-1409z" />
<glyph unicode="&#x2015;" horiz-adv-x="1574" d="M72 461l22 110h1409l-22 -110h-1409z" />
<glyph unicode="&#x2018;" horiz-adv-x="495" d="M225 1028q0 135 75 235.5t196 151.5l32 -78q-88 -45 -140 -112.5t-54 -128.5h10q45 0 72.5 -24.5t27.5 -65.5q0 -49 -30.5 -83t-79.5 -34t-79 37t-30 102z" />
<glyph unicode="&#x2019;" horiz-adv-x="495" d="M227 983q90 45 142.5 113.5t54.5 128.5h-10q-45 0 -74 24.5t-29 67.5q0 47 32 82t81 35t78.5 -37t29.5 -103q0 -135 -74.5 -235.5t-197.5 -151.5z" />
<glyph unicode="&#x201a;" horiz-adv-x="495" d="M-18 -225q90 45 141 111.5t53 129.5h-8q-45 0 -73.5 23.5t-28.5 66.5q0 49 31.5 83t80.5 34t79 -36.5t30 -102.5q0 -135 -75 -235.5t-198 -151.5z" />
<glyph unicode="&#x201c;" horiz-adv-x="833" d="M225 1028q0 135 75 235.5t196 151.5l32 -78q-88 -45 -140 -112.5t-54 -128.5h10q45 0 72.5 -24.5t27.5 -65.5q0 -49 -30.5 -83t-79.5 -34t-79 37t-30 102zM563 1028q0 135 75 235.5t198 151.5l32 -78q-90 -45 -142 -112.5t-54 -128.5h10q45 0 73.5 -23.5t28.5 -66.5 q0 -49 -31.5 -83t-80.5 -34t-79 37t-30 102z" />
<glyph unicode="&#x201d;" horiz-adv-x="833" d="M227 983q90 45 142.5 113.5t54.5 128.5h-10q-45 0 -74 24.5t-29 67.5q0 47 32 82t81 35t78.5 -37t29.5 -103q0 -135 -74.5 -235.5t-197.5 -151.5zM565 983q90 45 142.5 113.5t54.5 128.5h-10q-45 0 -73 24.5t-28 67.5q0 47 32 82t79 35q49 0 78.5 -37t29.5 -103 q0 -135 -74.5 -235.5t-195.5 -151.5z" />
<glyph unicode="&#x201e;" horiz-adv-x="587" d="M-18 -225q90 45 141 111.5t53 129.5h-8q-45 0 -73.5 23.5t-28.5 66.5q0 49 31.5 83t80.5 34t79 -36.5t30 -102.5q0 -135 -75 -235.5t-198 -151.5zM319 -225q90 45 142.5 112.5t54.5 128.5h-10q-45 0 -74 23.5t-29 66.5q0 49 32 83t81 34t79 -36.5t30 -102.5 q0 -135 -75 -235.5t-196 -151.5z" />
<glyph unicode="&#x2020;" horiz-adv-x="890" d="M207 1006l26 135l275 -11l57 328h135l-73 -328l280 11l-26 -135l-277 10l-227 -1180h-135l247 1180z" />
<glyph unicode="&#x2021;" horiz-adv-x="890" d="M37 152l26 135l277 -13l63 373l86 373l-282 -14l24 135l277 -11l57 328h133l-71 -328l280 11l-26 -135l-277 14l-65 -373l-84 -373l282 13l-26 -135l-277 10l-55 -326h-135l71 326z" />
<glyph unicode="&#x2022;" horiz-adv-x="604" d="M84 512q0 104 68.5 188t177.5 84q84 0 141 -61t57 -154q0 -106 -68.5 -189t-174.5 -83q-88 0 -144.5 60.5t-56.5 154.5z" />
<glyph unicode="&#x2026;" horiz-adv-x="1964" d="M170 78q0 53 40 98t97 45q43 0 68.5 -29.5t25.5 -74.5q0 -55 -39 -98.5t-96 -43.5q-43 0 -69.5 29t-26.5 74zM844 78q0 55 40 99t97 44q43 0 67.5 -29.5t24.5 -74.5q0 -55 -38 -98.5t-95 -43.5q-43 0 -69.5 29t-26.5 74zM1516 78q0 53 39.5 98t97.5 45q43 0 68.5 -29.5 t25.5 -74.5q0 -55 -39 -98.5t-96 -43.5q-43 0 -69.5 29t-26.5 74z" />
<glyph unicode="&#x202f;" horiz-adv-x="388" />
<glyph unicode="&#x2030;" horiz-adv-x="2342" d="M125 840q0 207 102.5 372.5t270.5 165.5q117 0 184.5 -87t67.5 -224q0 -209 -102.5 -374t-270.5 -165q-117 0 -184.5 87t-67.5 225zM246 848q0 -217 141 -217q109 0 175.5 133t66.5 293q0 100 -35 159.5t-105 59.5q-74 0 -131 -66.5t-84.5 -163t-27.5 -198.5zM276 -25 l992 1401h106l-991 -1401h-107zM915 287q0 207 102.5 372.5t270.5 165.5q117 0 184.5 -87t67.5 -224q0 -209 -102.5 -374t-270.5 -165q-117 0 -184.5 87.5t-67.5 224.5zM1036 295q0 -217 142 -217q109 0 175 133t66 293q0 219 -141 219q-109 0 -175.5 -133t-66.5 -295z M1640 287q0 207 102.5 372.5t270.5 165.5q115 0 182.5 -87t67.5 -224q0 -209 -102.5 -374t-270.5 -165q-115 0 -182.5 87.5t-67.5 224.5zM1761 295q0 -217 140 -217q109 0 175 133t66 293q0 219 -139 219q-109 0 -175.5 -133t-66.5 -295z" />
<glyph unicode="&#x2032;" horiz-adv-x="495" d="M229 889l154 524h154l-68 -199l-135 -325h-105z" />
<glyph unicode="&#x2033;" horiz-adv-x="835" d="M229 889l154 524h154l-68 -199l-135 -325h-105zM567 889l154 524h153l-65 -199l-137 -325h-105z" />
<glyph unicode="&#x2039;" horiz-adv-x="516" d="M82 461l22 127l320 303l57 -60l-291 -319l175 -330l-72 -45z" />
<glyph unicode="&#x203a;" horiz-adv-x="516" d="M47 197l289 319l-174 330l74 45l210 -324l-22 -127l-320 -303z" />
<glyph unicode="&#x2044;" horiz-adv-x="172" d="M-432 -25l991 1401h107l-992 -1401h-106z" />
<glyph unicode="&#x205f;" horiz-adv-x="485" />
<glyph unicode="&#x2070;" horiz-adv-x="731" d="M207 1188q0 207 102.5 372.5t270.5 165.5q117 0 184 -87t67 -224q0 -209 -102 -373.5t-270 -164.5q-117 0 -184.5 87t-67.5 224zM328 1196q0 -217 141 -217q109 0 175.5 133t66.5 293q0 100 -35 159.5t-105 59.5q-74 0 -131 -66.5t-84.5 -163t-27.5 -198.5z" />
<glyph unicode="&#x2071;" horiz-adv-x="333" d="M111 532l131 660h118l-131 -660h-118zM262 1389q0 35 25.5 59.5t60.5 24.5q31 0 51.5 -18.5t20.5 -49.5q0 -35 -24.5 -59.5t-61.5 -24.5q-29 0 -50.5 18.5t-21.5 49.5z" />
<glyph unicode="&#x2074;" horiz-adv-x="724" d="M197 1118l14 68l436 514h133l-98 -494h119l-21 -88h-114l-43 -217h-109l43 217h-360zM338 1206h237l31 156l51 221h-8l-137 -172z" />
<glyph unicode="&#x2075;" horiz-adv-x="718" d="M176 1040l84 60q70 -123 199 -123q70 0 125 55t55 142q0 74 -39 114.5t-104 40.5q-70 0 -152 -59l-47 47l109 383h421l-20 -105h-322l-59 -206q47 31 111 30q100 0 162.5 -63.5t62.5 -169.5q0 -135 -92 -222t-217 -87q-185 -1 -277 163z" />
<glyph unicode="&#x2076;" horiz-adv-x="722" d="M225 1188q0 250 121 393t291 143q121 1 199 -77l-70 -78q-59 55 -139 55q-102 0 -178 -84t-97 -235q80 92 197 92q100 0 158.5 -60.5t58.5 -156.5q0 -135 -84 -219t-197 -84q-111 0 -185.5 86t-74.5 225zM344 1194q0 -111 43 -164t109 -53q61 0 108 54t47 138 q0 63 -34 100.5t-95 37.5q-102 0 -178 -101v-12z" />
<glyph unicode="&#x2077;" horiz-adv-x="722" d="M311 1595l21 105h536l-10 -70q-176 -172 -264 -342t-137 -387h-131q98 393 381 694h-396z" />
<glyph unicode="&#x2078;" horiz-adv-x="722" d="M203 1087q0 80 57 145.5t139 102.5v8q-80 72 -80 156q0 98 76 161.5t185 63.5q98 0 159.5 -55t61.5 -143q0 -137 -156 -221v-9q100 -72 100 -176q0 -106 -85 -174.5t-207 -68.5q-109 0 -179.5 58t-70.5 152zM322 1104q0 -61 39.5 -99t99.5 -38q70 0 120 41t50 106 q0 59 -35 91t-110 69q-11 6 -17 8q-147 -69 -147 -178zM430 1505q0 -102 137 -153q123 72 123 159q0 55 -32.5 88t-86.5 33q-59 0 -100 -35.5t-41 -91.5z" />
<glyph unicode="&#x2079;" horiz-adv-x="722" d="M188 954l72 78q55 -55 139 -55q102 0 178 84t97 235q-80 -92 -197 -92q-100 0 -158.5 60.5t-58.5 156.5q0 135 84 219t197 84q111 0 184.5 -86t73.5 -225q0 -250 -120 -393t-290 -143q-123 -1 -201 77zM375 1432q0 -63 34 -100.5t95 -37.5q102 0 178 101v12 q0 111 -43 164t-109 53q-61 0 -108 -54t-47 -138z" />
<glyph unicode="&#x207d;" horiz-adv-x="464" d="M258 1133q0 205 70.5 369.5t232.5 352.5l80 -45q-268 -328 -268 -680q0 -217 61 -350l-90 -41q-86 182 -86 394z" />
<glyph unicode="&#x207e;" horiz-adv-x="462" d="M129 782q266 330 266 680q0 215 -59 350l90 43q86 -182 86 -393q0 -205 -70.5 -370t-234.5 -353z" />
<glyph unicode="&#x207f;" horiz-adv-x="727" d="M111 532l131 660h96l-8 -96h8q127 113 231 112q156 0 156 -168q0 -37 -12 -90l-82 -418h-119l80 404q12 47 12 72q0 98 -84 98t-201 -117l-90 -457h-118z" />
<glyph unicode="&#x2080;" horiz-adv-x="731" d="M-39 -61q0 207 102.5 372.5t270.5 165.5q117 0 184.5 -87t67.5 -224q0 -209 -102.5 -374t-270.5 -165q-117 0 -184.5 87t-67.5 225zM82 -53q0 -217 141 -217q109 0 175.5 133t66.5 293q0 100 -34.5 159.5t-104.5 59.5q-74 0 -131.5 -66.5t-85 -163t-27.5 -198.5z" />
<glyph unicode="&#x2081;" horiz-adv-x="729" d="M121 291l14 80q137 20 225 80h97l-158 -799h-123l127 639h-182z" />
<glyph unicode="&#x2082;" horiz-adv-x="722" d="M-68 -348l15 78q264 184 369.5 294.5t105.5 217.5q0 127 -133 127q-76 0 -166 -97l-72 74q133 129 256 129q111 0 174.5 -57.5t63.5 -157.5q0 -121 -93.5 -232.5t-306.5 -271.5h336l-20 -104h-529z" />
<glyph unicode="&#x2083;" horiz-adv-x="718" d="M-70 -209l84 59q70 -123 187 -122q74 0 123 38.5t49 108.5q0 63 -54.5 104t-164.5 41l18 84q127 0 186.5 47.5t59.5 112.5q0 51 -34 82t-91 31q-80 0 -170 -68l-53 84q115 82 245 82q100 0 164 -52t64 -142q0 -76 -50.5 -136.5t-138.5 -87.5q68 -23 104 -74t36 -106 q0 -115 -84 -182.5t-205 -67.5q-183 0 -275 164z" />
<glyph unicode="&#x2084;" horiz-adv-x="724" d="M-49 -131l14 68l436 514h134l-99 -494h119l-20 -88h-115l-43 -217h-109l43 217h-360zM92 -43h238l30 156l52 221h-9l-137 -172z" />
<glyph unicode="&#x2085;" horiz-adv-x="718" d="M-70 -209l84 59q70 -123 199 -122q70 0 125 55t55 141q0 74 -39 115t-104 41q-70 0 -152 -60l-47 48l109 383h422l-21 -105h-321l-60 -207q47 31 111 31q100 0 162.5 -63.5t62.5 -169.5q0 -135 -92 -222.5t-217 -87.5q-185 0 -277 164z" />
<glyph unicode="&#x2086;" horiz-adv-x="722" d="M-20 -61q0 250 120.5 393t290.5 143q121 0 199 -78l-70 -78q-57 55 -139 56q-102 0 -178 -84t-97 -236q80 92 197 92q100 0 158.5 -60t58.5 -157q0 -135 -84 -219t-196 -84q-111 0 -185.5 86t-74.5 226zM98 -43v-12q0 -111 43 -164t109 -53q61 0 108.5 54t47.5 138 q0 63 -34.5 100t-95.5 37q-102 0 -178 -100z" />
<glyph unicode="&#x2087;" horiz-adv-x="722" d="M66 346l20 105h537l-11 -70q-176 -172 -264 -342t-137 -387h-131q98 393 381 694h-395z" />
<glyph unicode="&#x2088;" horiz-adv-x="722" d="M-43 -162q0 80 57.5 145.5t139.5 102.5v8q-80 72 -80 156q0 98 75.5 161.5t184.5 63.5q98 0 159.5 -55t61.5 -144q0 -137 -156 -221v-8q100 -72 101 -176q0 -106 -85 -175t-208 -69q-109 0 -179.5 58.5t-70.5 152.5zM76 -145q0 -61 40 -99.5t99 -38.5q70 0 120 41t50 107 q0 59 -35 91t-110 68q-11 6 -17 9q-147 -69 -147 -178zM184 256q1 -103 138 -154q123 72 122 160q0 55 -32.5 88t-85.5 33q-59 0 -100.5 -36t-41.5 -91z" />
<glyph unicode="&#x2089;" horiz-adv-x="722" d="M-57 -295l71 78q55 -55 140 -55q102 0 178 84t96 235q-80 -92 -197 -92q-100 0 -158.5 60.5t-58.5 156.5q0 135 84 219t197 84q111 0 184.5 -86t73.5 -225q0 -250 -120 -393.5t-290 -143.5q-122 0 -200 78zM129 182q0 -63 34 -100t95 -37q102 0 178 100v13q0 111 -43 164 t-108 53q-61 0 -108.5 -54.5t-47.5 -138.5z" />
<glyph unicode="&#x208d;" horiz-adv-x="464" d="M12 -117q0 205 70.5 370t232.5 353l80 -45q-268 -328 -268 -680q0 -217 61 -350l-90 -41q-86 182 -86 393z" />
<glyph unicode="&#x208e;" horiz-adv-x="462" d="M-117 -467q266 330 267 680q0 215 -60 350l90 43q86 -182 86 -393q0 -205 -70.5 -370t-234.5 -353z" />
<glyph unicode="&#x2094;" horiz-adv-x="655" d="M109 756q0 76 26 141h430q8 109 -34 163t-121 54q-66 0 -152 -47l-37 80q113 61 215 61q113 0 178.5 -72.5t65.5 -205.5q0 -176 -110.5 -295t-243.5 -119q-111 0 -164 67.5t-53 172.5zM209 748q0 -137 129 -138q68 0 129 56.5t84 150.5h-334q-8 -45 -8 -69z" />
<glyph unicode="&#x20a1;" horiz-adv-x="983" d="M127 469q0 354 158.5 594t390.5 270l63 205h72l-63 -201q57 -2 110 -22l70 223h73l-79 -256q76 -54 133 -160l-115 -71q-29 55 -61 90l-324 -1035q123 6 238 117l77 -96q-168 -152 -356 -152l-63 -200h-72l63 207q-57 10 -104 34l-76 -241h-74l88 282q-150 131 -149 412z M279 485q0 -156 53 -252l301 961q-154 -49 -254 -245.5t-100 -463.5zM383 166q43 -41 100 -53l336 1075q-47 20 -98 20h-12z" />
<glyph unicode="&#x20a4;" horiz-adv-x="983" d="M8 0l19 94q125 61 199.5 164.5t90.5 230.5h-221l21 82l198 11h7q-4 92 -9 129h-172l21 82l143 8q-4 61 -4 86q0 205 117 327.5t301 122.5q180 0 287 -170l-107 -84q-76 125 -188 125q-115 0 -188.5 -90t-73.5 -241q0 -20 4 -74h338l-21 -92h-309q0 -4 3 -53.5t3 -71.5v-4 h276l-18 -93h-264q-23 -199 -174 -346l-2 -8h530l-24 -135h-783z" />
<glyph unicode="&#x20a6;" horiz-adv-x="983" d="M18 500l19 69l147 9l27 133h-150l17 67l149 10l105 525h147l78 -525h178l103 525h125l-107 -525h143l-18 -77h-141l-27 -133h143l-16 -78h-143l-101 -500h-147l-72 500h-184l-98 -500h-125l100 500h-152zM309 578h158l-18 133h-117l-4 -35zM344 788h94l-39 357h-4z M569 711l21 -133h106l9 53l16 80h-152zM598 500l33 -336h8l47 336h-88z" />
<glyph unicode="&#x20a7;" horiz-adv-x="983" d="M61 0l177 870h-148l19 99l149 8l68 336h235q166 0 263.5 -76t97.5 -229v-31h120l-20 -107h-115q-41 -172 -179 -262t-329 -90h-84l-102 -518h-152zM340 627h61q141 0 233.5 62.5t125.5 180.5h-371zM410 977h364v14q0 213 -260 213h-59z" />
<glyph unicode="&#x20ab;" horiz-adv-x="983" d="M66 0l18 92h704l-20 -92h-702zM152 498q0 205 130 341t289 136q111 0 181 -98l30 174l19 92h-273l19 94h274l29 145h135l-29 -145h152l-18 -84l-154 -10l-182 -897h-113l10 92h-4q-127 -113 -258 -113q-111 0 -174 74t-63 199zM289 520q0 -84 36.5 -133t106.5 -49 q107 0 232 113l61 315q-53 98 -147 98q-106 0 -197.5 -100t-91.5 -244z" />
<glyph unicode="&#x20ac;" horiz-adv-x="983" d="M41 492l20 81l111 9q6 82 21 145h-105l18 82l109 6q70 236 222.5 379t334.5 143q189 1 293 -196l-119 -76q-70 143 -188 143q-125 0 -227.5 -107.5t-157.5 -283.5h512l-19 -90h-516q-14 -59 -20 -143h430l-21 -92h-413q0 -184 68.5 -285t189.5 -101q123 0 243 117l78 -96 q-162 -152 -350 -152q-180 0 -283.5 134.5t-103.5 382.5h-127z" />
<glyph unicode="&#x20b1;" horiz-adv-x="983" d="M61 0l158 782h-145l14 68l145 10l27 125h-147l14 70l147 8l52 250h235q150 0 244 -61.5t113 -188.5h143l-19 -78h-120q-2 -59 -17 -125h113l-17 -78h-122q-59 -133 -187.5 -202.5t-294.5 -69.5h-82l-102 -510h-152zM338 618h63q233 0 326 164h-356zM387 860h371 q16 59 16 125h-362zM426 1063h340q-37 141 -252 141h-59z" />
<glyph unicode="&#x20b2;" horiz-adv-x="983" d="M98 469q0 350 169 590.5t409 273.5l43 205h112l-40 -205q156 -20 243 -192l-116 -76q-70 143 -189 143q-195 0 -334 -210t-139 -513q0 -176 66.5 -277.5t187.5 -101.5q117 0 190 82l72 355h-199l29 131h338l-109 -545q-135 -139 -307 -152l-41 -202h-114l39 207 q-145 29 -227.5 156.5t-82.5 330.5z" />
<glyph unicode="&#x20b5;" horiz-adv-x="983" d="M127 469q0 369 171 611.5t413 256.5l39 193h100l-41 -201q141 -31 229 -199l-112 -73q-61 119 -142 143l-219 -1091q111 10 219 114l80 -96q-154 -139 -323 -152l-41 -200h-103l41 207q-147 27 -229 155.5t-82 331.5zM283 485q0 -147 48 -243t136 -125l217 1089 q-170 -23 -285.5 -227.5t-115.5 -493.5z" />
<glyph unicode="&#x20b9;" horiz-adv-x="983" d="M143 526l27 129h109q166 0 275.5 69t131.5 200h-465l19 84l139 10h311q-18 166 -284 166h-132l27 129h743l-22 -92h-285q104 -68 111 -203h137l-18 -94h-125q-20 -139 -113.5 -232.5t-228.5 -134.5l223 -557h-168l-201 528q-20 -2 -61 -2h-150z" />
<glyph unicode="&#x20ba;" horiz-adv-x="983" d="M82 487l20 103l203 82l31 151l-203 -82l21 103l202 82l76 381h158l-66 -328l365 147l-21 -102l-366 -147l-29 -152l365 147l-23 -102l-364 -147l-97 -498q195 8 328 124t135 308l139 35q2 -160 -59 -281t-173 -192.5t-253 -107.5t-307 -36l119 594z" />
<glyph unicode="&#x2113;" horiz-adv-x="806" d="M14 360q96 49 191 115l110 553q45 225 144.5 336t224.5 111q96 0 152.5 -66t56.5 -174q0 -186 -141.5 -396.5t-397.5 -396.5l-8 -41q-33 -154 3 -223t120 -69q88 0 219 92l45 -99q-162 -127 -303 -127q-131 0 -204.5 91.5t-49.5 255.5q-70 -41 -123 -70zM389 618 q170 150 269.5 308.5t99.5 287.5q0 139 -88 140q-53 0 -108.5 -76t-84.5 -219z" />
<glyph unicode="&#x2117;" horiz-adv-x="1361" d="M74 545q0 203 91 383t263 294.5t387 114.5q238 0 388.5 -157.5t150.5 -407.5q0 -203 -91.5 -384t-264.5 -296t-388 -115q-238 0 -387 159t-149 409zM162 555q0 -221 122 -357.5t332 -136.5q276 0 463 214t187 487q0 221 -123 357t-334 136q-184 0 -335.5 -103 t-231.5 -263t-80 -334zM401 281l148 743h256q113 0 183.5 -51t70.5 -148q0 -145 -103.5 -226t-253.5 -81h-133l-45 -237h-123zM590 610h119q106 0 167.5 51.5t61.5 141.5q0 59 -42 92t-120 33h-125z" />
<glyph unicode="&#x2120;" horiz-adv-x="1230" d="M88 838l78 63q57 -84 145 -84q53 0 89 28.5t36 69.5q0 47 -61 84l-84 50q-90 57 -90 147q0 88 66.5 145.5t166.5 57.5q92 0 182 -86l-73 -70q-61 66 -119 66q-49 0 -82 -28t-33 -60q0 -55 66 -88l80 -48q92 -49 92 -147q0 -88 -68.5 -150.5t-175.5 -62.5q-137 0 -215 113 zM635 750l127 634h139l47 -235l23 -166h8l82 166l145 235h142l-125 -634h-113l57 286l66 230h-8l-242 -418h-72l-77 418h-9l-22 -230l-60 -286h-108z" />
<glyph unicode="&#x2122;" horiz-adv-x="1251" d="M156 1282l22 102h510l-20 -102h-197l-106 -532h-113l106 532h-202zM655 750l127 634h140l47 -235l22 -166h8l82 166l146 235h141l-125 -634h-113l58 286l65 230h-8l-241 -418h-72l-78 418h-8l-23 -230l-59 -286h-109z" />
<glyph unicode="&#x2126;" horiz-adv-x="1347" d="M-14 0l24 131h269v8q-143 176 -144 434q0 342 202 568.5t501 226.5q213 0 334.5 -135t121.5 -361q0 -430 -364 -733l-4 -8h254l-23 -131h-465l23 104q184 127 298.5 313.5t114.5 430.5q0 174 -83.5 278.5t-231.5 104.5q-221 0 -370.5 -191.5t-149.5 -480.5 q0 -147 48 -265t128 -190l-20 -104h-463z" />
<glyph unicode="&#x212e;" horiz-adv-x="1638" d="M135 663.5q0 286.5 212 487.5t513 201t513 -201t212 -487v-17h-1175q-8 0 -9 -8v-377q1 -16 17 -41q178 -205 446 -205q135 0 257 61.5t210 168.5h107q-104 -125 -255 -198t-323 -73q-301 0 -513 201t-212 487.5zM401 696q1 -12 9 -12h901q12 0 12 12v377q0 25 -20 45 q-186 193 -439 193q-260 0 -446 -201q-16 -25 -17 -45v-369z" />
<glyph unicode="&#x2153;" horiz-adv-x="1593" d="M203 -25l991 1401h106l-991 -1401h-106zM236 1192l16 80q135 20 225 80h96l-159 -799h-123l129 639h-184zM872 139l84 60q68 -123 185 -123q76 0 125 40t49 107q0 63 -54.5 104.5t-164.5 41.5l18 84q127 0 186.5 47t59.5 112q0 51 -34 82t-93 31q-82 0 -168 -68l-55 84 q115 82 247 82q100 0 163 -52t63 -142q0 -76 -49.5 -136.5t-137.5 -86.5q66 -23 103 -74t37 -107q0 -115 -84 -182.5t-205 -67.5q-94 0 -165 46t-110 118z" />
<glyph unicode="&#x2154;" horiz-adv-x="1628" d="M104 553l15 78q262 184 367.5 294.5t105.5 217.5q0 127 -131 127q-76 0 -166 -96l-72 73q133 129 256 129q109 0 173.5 -57t64.5 -158q0 -121 -93.5 -232.5t-306.5 -271.5h334l-20 -104h-527zM305 -25l991 1401h107l-991 -1401h-107zM905 139l84 60q68 -123 187 -123 q74 0 123 39t49 108q0 63 -54.5 104.5t-165.5 41.5l19 84q127 0 186.5 47t59.5 112q0 51 -34 82t-91 31q-84 0 -170 -68l-56 84q117 82 248 82q100 0 163 -52t63 -142q0 -76 -49.5 -136.5t-137.5 -86.5q68 -23 103.5 -74t35.5 -107q0 -115 -84 -182.5t-204 -67.5 q-183 0 -275 164z" />
<glyph unicode="&#x215b;" horiz-adv-x="1583" d="M207 -25l991 1401h107l-992 -1401h-106zM236 1192l16 80q135 20 225 80h96l-159 -799h-123l129 639h-184zM885 186q0 80 57 145.5t139 102.5l2 8q-82 74 -82 156q0 98 76 161.5t185 63.5q98 0 160.5 -55t62.5 -143q0 -135 -158 -222v-8q102 -74 103 -176 q0 -106 -86.5 -175t-208.5 -69q-109 0 -179.5 58.5t-70.5 152.5zM1004 203q0 -61 39.5 -99t99.5 -38q70 0 121 40.5t51 106.5q0 14 -3 26.5t-5 22.5t-11.5 20.5t-13.5 17.5t-17.5 16.5t-18.5 13.5t-22.5 13t-22.5 12t-25.5 13.5t-24.5 12.5q-147 -69 -147 -178zM1112 604 q0 -102 137 -153q123 70 123 159q0 55 -32.5 88t-86.5 33q-59 0 -100 -36t-41 -91z" />
<glyph unicode="&#x215c;" horiz-adv-x="1611" d="M86 692l86 60q68 -123 184 -123q76 0 125 40t49 107q0 63 -55 104.5t-164 41.5l19 84q125 0 184 47t59 112q0 51 -32.5 82t-91.5 31q-80 0 -170 -68l-54 84q115 82 246 82q100 0 163.5 -52t63.5 -142q0 -76 -50 -136.5t-136 -87.5q66 -23 102.5 -73.5t36.5 -106.5 q0 -115 -84 -182.5t-205 -67.5q-184 0 -276 164zM289 -25l991 1401h106l-989 -1401h-108zM911 186q0 80 57.5 145.5t139.5 102.5v8q-80 72 -80 156q0 98 76 161.5t184 63.5q98 0 159.5 -55t61.5 -143q0 -137 -155 -222v-8q100 -72 100 -176q0 -106 -85 -175t-208 -69 q-109 0 -179.5 58.5t-70.5 152.5zM1028 203q0 -61 41 -99t100 -38q70 0 120 40.5t50 106.5q0 59 -34.5 91t-109.5 68q-11 6 -17 9q-150 -69 -150 -178zM1139 604q0 -102 137 -153q123 72 123 159q0 55 -33 88t-86 33q-59 0 -100 -36t-41 -91z" />
<glyph unicode="&#x215d;" horiz-adv-x="1611" d="M94 692l84 60q70 -123 199 -123q70 0 125 55t55 141q0 74 -39 115t-104 41q-70 0 -152 -59l-47 47l109 383h421l-20 -105h-322l-59 -207q47 31 111 31q100 0 162.5 -63.5t62.5 -169.5q0 -135 -92 -222.5t-217 -87.5q-185 0 -277 164zM289 -25l991 1401h106l-989 -1401 h-108zM911 186q0 80 57.5 145.5t139.5 102.5v8q-80 72 -80 156q0 98 76 161.5t184 63.5q98 0 159.5 -55t61.5 -143q0 -137 -155 -222v-8q100 -72 100 -176q0 -106 -85 -175t-208 -69q-109 0 -179.5 58.5t-70.5 152.5zM1028 203q0 -61 41 -99t100 -38q70 0 120 40.5t50 106.5 q0 59 -34.5 91t-109.5 68q-11 6 -17 9q-150 -69 -150 -178zM1139 604q0 -102 137 -153q123 72 123 159q0 55 -33 88t-86 33q-59 0 -100 -36t-41 -91z" />
<glyph unicode="&#x215e;" horiz-adv-x="1576" d="M195 -25l991 1401h106l-991 -1401h-106zM197 1247l20 105h535l-9 -70q-176 -172 -264 -342t-137 -387h-133q100 395 383 694h-395zM879 186q0 80 56 144.5t138 103.5l2 8q-82 74 -82 156q0 98 77 161.5t185 63.5q96 0 159 -55t63 -143q0 -137 -156 -222v-8 q100 -72 100 -176q0 -106 -86 -175t-209 -69q-109 0 -178 58.5t-69 152.5zM995 203q0 -61 40 -99t100 -38q70 0 121 40.5t51 106.5q0 33 -10.5 57.5t-42 47t-46 30.5t-65.5 33q-148 -69 -148 -178zM1106 604q0 -104 137 -153q121 70 121 159q0 55 -33 88t-84 33 q-59 0 -100 -36t-41 -91z" />
<glyph unicode="&#x2190;" horiz-adv-x="1214" d="M41 508v10l534 541l80 -86l-399 -395h920v-129h-920l399 -396l-80 -86z" />
<glyph unicode="&#x2191;" horiz-adv-x="1214" d="M61 545l541 534h10l541 -534l-86 -80l-395 399v-919h-129v919l-396 -399z" />
<glyph unicode="&#x2192;" horiz-adv-x="1214" d="M41 449v129h917l-399 395l80 86l537 -541v-10l-537 -541l-80 86l399 396h-917z" />
<glyph unicode="&#x2193;" horiz-adv-x="1214" d="M61 481l86 80l396 -399v917h129v-917l395 399l86 -80l-541 -536h-10z" />
<glyph unicode="&#x2202;" horiz-adv-x="1062" d="M47 299q0 203 133 365.5t336 162.5q195 0 311 -186q37 141 37 281q0 147 -58 232t-175 85q-99 0 -201 -84l-68 98q143 113 289 113q178 0 271.5 -113.5t93.5 -314.5q0 -231 -81 -450.5t-231.5 -365t-330.5 -145.5q-139 0 -232.5 88.5t-93.5 233.5zM195 317 q2 -86 56 -148.5t144 -62.5q121 2 224.5 115t168.5 291q-98 188 -270 188q-141 0 -232 -117.5t-91 -265.5z" />
<glyph unicode="&#x2206;" horiz-adv-x="1157" d="M-39 0l19 92l679 1251h185l157 -1251l-18 -92h-1022zM162 135h669l-69 637q-4 59 -16.5 206.5t-18.5 231.5h-8q-70 -151 -217 -438z" />
<glyph unicode="&#x220f;" horiz-adv-x="1323" d="M27 -246l309 1553h967l-310 -1553h-155l282 1413h-653l-285 -1413h-155z" />
<glyph unicode="&#x2211;" horiz-adv-x="993" d="M-106 -246l18 103l614 694l-319 651l18 105h862l-28 -136h-674v-8l299 -628l-563 -637v-9h741l-31 -135h-937z" />
<glyph unicode="&#x2212;" horiz-adv-x="983" d="M98 618v117h840v-117h-840z" />
<glyph unicode="&#x2215;" horiz-adv-x="172" d="M-432 -25l991 1401h107l-992 -1401h-106z" />
<glyph unicode="&#x2219;" horiz-adv-x="499" d="M162 651q0 55 40 100.5t97 45.5q43 0 68.5 -30t25.5 -77q0 -55 -39 -98t-96 -43q-43 0 -69.5 28.5t-26.5 73.5z" />
<glyph unicode="&#x221a;" horiz-adv-x="1099" d="M125 707l283 118l84 -721l6 -124h8l47 124l664 1575h118l-803 -1878h-116l-121 881l-158 -66z" />
<glyph unicode="&#x221e;" horiz-adv-x="1540" d="M66 674q0 145 89 238.5t228 93.5q182 0 342 -215h8q90 119 175 182t196 63q152 0 249 -98t97 -260q0 -158 -98.5 -262.5t-245.5 -104.5q-119 0 -211 61.5t-188 186.5h-9q-153 -213 -329 -213q-129 0 -216 93t-87 235zM188 668q0 -86 56.5 -144.5t138.5 -58.5 q139 0 264 197q-137 201 -266 200q-86 0 -139.5 -53t-53.5 -141zM784 690q86 -119 162 -176t164 -57q98 0 157.5 65.5t59.5 163.5q0 100 -63.5 166t-165.5 66q-156 -1 -314 -228z" />
<glyph unicode="&#x222b;" horiz-adv-x="657" d="M-53 -309l33 116q33 -8 67 -8q82 0 125 82t78 260q31 152 61.5 506t59.5 502q45 227 121.5 347t232.5 120q70 0 96 -12l-33 -119q-29 8 -73 8q-78 0 -123 -86t-78 -256q-31 -154 -61.5 -508t-59.5 -502q-47 -229 -125 -347t-231 -118q-63 0 -90 15z" />
<glyph unicode="&#x2248;" horiz-adv-x="983" d="M92 420q96 182 244 182q63 0 127.5 -44t120 -87t100.5 -43q88 0 152 123l88 -55q-96 -182 -244 -183q-63 0 -128 44t-120 87t-100 43q-89 1 -152 -122zM92 858q96 182 244 182q63 0 127.5 -44t120 -88t100.5 -44q88 0 152 125l88 -57q-96 -182 -244 -182q-63 0 -128 44 t-120 88t-100 44q-89 0 -152 -125z" />
<glyph unicode="&#x2260;" horiz-adv-x="983" d="M98 397v119h267l192 320h-459v118h520l160 258h113l-158 -258h205v-118h-266l-193 -320h459v-119h-520l-160 -258h-113l158 258h-205z" />
<glyph unicode="&#x2264;" horiz-adv-x="983" d="M94 631v133l844 313v-133l-414 -153l-258 -91v-8l258 -88l414 -151v-136zM98 0v119h840v-119h-840z" />
<glyph unicode="&#x2265;" horiz-adv-x="983" d="M98 0v119h840v-119h-840zM98 317v136l416 151l258 88v8l-258 91l-416 153v133l844 -313v-133z" />
<glyph unicode="&#x25a0;" horiz-adv-x="595" d="M102 334v409h392v-409h-392z" />
<glyph unicode="&#x25b2;" horiz-adv-x="1118" d="M45 80v4l512 1008h4l512 -1008v-4h-1028z" />
<glyph unicode="&#x25b3;" horiz-adv-x="1118" d="M45 82v4l512 1004h8l510 -1004v-4h-1030zM244 193h635l-318 661z" />
<glyph unicode="&#x25b6;" horiz-adv-x="1122" d="M113 43v1067h4l966 -528v-9l-966 -530h-4z" />
<glyph unicode="&#x25b7;" horiz-adv-x="1122" d="M113 43v1067h4l968 -528v-9l-968 -530h-4zM225 240l617 338l-617 335v-673z" />
<glyph unicode="&#x25bc;" horiz-adv-x="1118" d="M45 1067v4h1028v-4l-512 -1006h-4z" />
<glyph unicode="&#x25bd;" horiz-adv-x="1118" d="M45 1067v4h1030v-4l-510 -1006h-8zM244 961l317 -662l318 662h-635z" />
<glyph unicode="&#x25c0;" horiz-adv-x="1122" d="M37 573v9l967 528h4v-1067h-4z" />
<glyph unicode="&#x25c1;" horiz-adv-x="1122" d="M37 573v9l967 528h4v-1067h-4zM276 578l619 -338v673z" />
<glyph unicode="&#x25c6;" horiz-adv-x="595" d="M25 539l274 280l274 -280l-274 -279z" />
<glyph unicode="&#x25c9;" horiz-adv-x="864" d="M80 539q0 166 103.5 269t248.5 103q147 0 250.5 -103t103.5 -269t-103.5 -269.5t-250.5 -103.5q-145 0 -248.5 103.5t-103.5 269.5zM180 539q0 -127 74 -202t178.5 -75t179 75t74.5 202t-74.5 202.5t-179 75.5t-178.5 -75.5t-74 -202.5zM322 539q0 53 32.5 86.5 t77.5 33.5t79 -33.5t34 -86.5q0 -51 -33 -85t-80 -34q-45 0 -77.5 33.5t-32.5 85.5z" />
<glyph unicode="&#x25ca;" horiz-adv-x="1021" d="M143 676l324 696h145l324 -696l-324 -696h-145zM283 676l129 -293l123 -272h8l125 272l129 293l-129 289l-125 276h-8l-123 -276z" />
<glyph unicode="&#x2610;" horiz-adv-x="1566" d="M143 -20v1288l123 106h1157v-1272l-102 -122h-1178zM227 63h1051v1160h-1051v-1160z" />
<glyph unicode="&#x2611;" horiz-adv-x="1568" d="M143 -20v1288l125 106h1063q133 144 258 250l86 -92q-117 -96 -250 -229v-1199l-104 -124h-1178zM229 66h1049v1079q-375 -426 -598 -916l-164 -16q-43 309 -162 578l119 61q109 -274 137 -510h8q205 446 576 881h-965v-1157z" />
<glyph unicode="&#x266a;" horiz-adv-x="983" d="M68 102q0 98 88 169t221 71q78 0 123 -25v1104h92q12 -41 34.5 -66.5t98.5 -84.5q129 -96 179 -188.5t50 -219.5q0 -123 -65 -258l-62 25q27 88 27 182q0 106 -67.5 192.5t-182.5 124.5v-843q0 -158 -97 -246t-241 -88q-82 0 -140 41t-58 110z" />
<glyph unicode="&#x2713;" horiz-adv-x="1110" d="M-29 569l119 62q113 -262 150 -543h8q164 358 432 710.5t559 598.5l86 -92q-299 -242 -567.5 -586.5t-446.5 -741.5l-164 -18q-49 340 -176 610z" />
<glyph unicode="&#x2752;" horiz-adv-x="735" d="M109 252v453l114 100h410v-436l-98 -117h-426zM182 330h312v327h-312v-327z" />
<glyph unicode="&#xe000;" horiz-adv-x="995" d="M0 995h995v-995h-995v995z" />
<glyph unicode="&#xfb01;" horiz-adv-x="1062" d="M88 0l174 868h-129l23 117l133 10l33 166q31 154 111.5 238t203.5 84q92 0 176 -49l-55 -113q-53 35 -111 35q-131 0 -168 -191l-35 -170h201l-24 -127h-203l-174 -868h-156zM641 0l199 995h157l-200 -995h-156zM872 1294q0 49 35 84t84 35q41 0 71 -25.5t30 -68.5 q0 -49 -35 -83t-84 -34q-43 0 -72 24.5t-29 67.5z" />
<glyph unicode="&#xfb02;" horiz-adv-x="1085" d="M88 0l174 868h-129l23 117l133 10l33 166q31 154 111.5 238t203.5 84q92 0 176 -49l-55 -113q-53 35 -111 35q-131 0 -168 -191l-35 -170h201l-24 -127h-203l-174 -868h-156zM668 104q0 34 12 86l252 1268h158l-256 -1276q-4 -20 -5 -39q0 -37 35 -37q14 0 33 7l2 -121 q-43 -16 -98 -17q-133 0 -133 129z" />
<glyph horiz-adv-x="1204" d="M117 518q0 217 85 408.5t252 316.5t377 125q221 0 338 -199l-112 -84q-86 145 -234 146q-162 0 -288.5 -107.5t-190 -265.5t-63.5 -326q0 -193 86 -307t270 -114q133 0 229 82l76 370h-278l26 131h422l-117 -581q-164 -137 -381 -138q-238 0 -367.5 146.5t-129.5 396.5z M551 1456q23 92 79 153.5t122 61.5q55 0 115.5 -56t99.5 -56q61 0 100 108h90q-23 -92 -79 -153.5t-124 -61.5q-53 0 -114.5 57.5t-98.5 57.5q-59 0 -100 -111h-90z" />
<glyph horiz-adv-x="1087" d="M-4 -322l74 109q137 -119 280 -119q242 0 314 297l49 205h-6q-166 -160 -338 -160q-131 0 -210 91.5t-79 258.5q0 268 160.5 464t365.5 196q78 0 140.5 -40t99.5 -110h6l39 125h129l-209 -1042q-41 -199 -161 -305.5t-306 -106.5q-182 0 -348 137zM242 383 q0 -119 47 -180.5t131 -61.5q74 0 156.5 45t150.5 129l88 426q-86 147 -203 148q-143 0 -256.5 -155.5t-113.5 -350.5zM389 1188q27 94 77 151.5t113.5 57.5t124 -54.5t99.5 -54.5q49 0 90 105h90q-27 -94 -77 -151.5t-113.5 -57.5t-123 54t-100.5 54q-49 0 -90 -104h-90z " />
<glyph horiz-adv-x="485" d="M-86 -285q0 80 57.5 158t128.5 127h-37l199 995h158l-201 -995q-180 -117 -180 -242q0 -35 21.5 -55t54.5 -20q39 0 75 24l33 -78q-80 -51 -155 -51q-68 0 -111 36t-43 101z" />
<glyph horiz-adv-x="663" d="M-14 0l28 135h160l217 1075h-164l29 133h487l-28 -133h-166l-215 -1075h166l-29 -135h-485z" />
<glyph horiz-adv-x="663" d="M-14 0l28 135h160l217 1075h-164l29 133h487l-28 -133h-166l-215 -1075h166l-29 -135h-485zM283 1671h166l141 -225h-125z" />
<glyph horiz-adv-x="663" d="M-14 0l28 135h160l217 1075h-164l29 133h487l-28 -133h-166l-215 -1075h166l-29 -135h-485zM391 1446l217 225h180l-262 -225h-135z" />
<glyph horiz-adv-x="663" d="M-14 0l28 135h160l217 1075h-164l29 133h487l-28 -133h-166l-215 -1075h166l-29 -135h-485zM229 1446l232 225h149l144 -225h-121l-103 143h-8l-160 -143h-133z" />
<glyph horiz-adv-x="663" d="M-14 0l28 135h160l217 1075h-164l29 133h487l-28 -133h-166l-215 -1075h166l-29 -135h-485zM209 1456q23 92 79 153.5t124 61.5q53 0 114.5 -56t98.5 -56q63 0 100 108h90q-23 -92 -79 -153.5t-122 -61.5q-55 0 -115.5 57.5t-99.5 57.5q-61 0 -98 -111h-92z" />
<glyph horiz-adv-x="663" d="M-14 0l28 135h160l217 1075h-164l29 133h487l-28 -133h-166l-215 -1075h166l-29 -135h-485zM254 1546q0 45 30.5 79t71.5 34q37 0 59.5 -22.5t22.5 -61.5q0 -43 -29.5 -77t-72.5 -34q-37 0 -59.5 22.5t-22.5 59.5zM594 1546q0 45 29.5 79t72.5 34q37 0 59.5 -22.5 t22.5 -61.5q0 -43 -29.5 -77t-72.5 -34q-37 0 -59.5 21.5t-22.5 60.5z" />
<glyph horiz-adv-x="663" d="M-14 0l28 135h160l217 1075h-164l29 133h487l-28 -133h-166l-215 -1075h166l-29 -135h-485zM260 1493l23 111h483l-23 -111h-483z" />
<glyph horiz-adv-x="663" d="M-14 0l28 135h160l217 1075h-164l29 133h487l-28 -133h-166l-215 -1075h166l-29 -135h-485zM408 1559q0 49 35.5 83.5t82.5 34.5q41 0 71 -25.5t30 -68.5q0 -49 -35 -83t-84 -34q-43 0 -71.5 25t-28.5 68z" />
<glyph horiz-adv-x="663" d="M-14 0l28 135h160l217 1075h-164l29 133h487l-28 -133h-166l-215 -1075h166l-29 -135h-485zM276 1671h121l103 -143h8l160 143h133l-232 -225h-149z" />
<glyph horiz-adv-x="663" d="M-14 0l28 135h160l217 1075h-164l29 133h487l-28 -133h-166l-215 -1075h166l-29 -135h-485zM395 1692l31 88q240 -12 240 -142q0 -160 -252 -211l-13 72q141 41 142 111q0 37 -32 55.5t-116 26.5z" />
<glyph horiz-adv-x="663" d="M-14 0l28 135h160l217 1075h-164l29 133h487l-28 -133h-166l-215 -1075h166l-29 -135h-485zM70 -342q0 51 34.5 86t83.5 35q41 0 70 -25.5t29 -68.5q0 -49 -35 -84t-84 -35q-41 0 -69.5 25.5t-28.5 66.5z" />
<glyph horiz-adv-x="663" d="M-14 0l28 135h160l217 1075h-164l29 133h487l-28 -133h-166l-215 -1075h166l-29 -135h-164q-78 -47 -128 -115.5t-50 -128.5q0 -37 21.5 -57.5t54.5 -20.5q37 0 71 23l37 -82q-76 -51 -159 -51q-70 0 -113 37t-43 104q0 80 57.5 160t124.5 131h-194z" />
<glyph horiz-adv-x="1007" d="M66 217q0 383 661 399q12 47 12 93q0 98 -44 141t-136 43q-119 0 -276 -90l-52 115q186 102 357 102q307 0 307 -297q0 -68 -16 -137l-117 -586h-127l8 117h-6q-156 -141 -324 -142q-104 0 -175.5 64.5t-71.5 177.5zM219 250q0 -74 44 -112t116 -38q121 0 274 136l56 276 q-236 -6 -363 -72.5t-127 -189.5z" />
<glyph horiz-adv-x="1007" d="M66 217q0 383 661 399q12 47 12 93q0 98 -44 141t-136 43q-119 0 -276 -90l-52 115q186 102 357 102q307 0 307 -297q0 -68 -16 -137l-117 -586h-127l8 117h-6q-156 -141 -324 -142q-104 0 -175.5 64.5t-71.5 177.5zM219 250q0 -74 44 -112t116 -38q121 0 274 136l56 276 q-236 -6 -363 -72.5t-127 -189.5zM471 1458h156l118 -289h-112z" />
<glyph horiz-adv-x="1007" d="M66 217q0 383 661 399q12 47 12 93q0 98 -44 141t-136 43q-119 0 -276 -90l-52 115q186 102 357 102q307 0 307 -297q0 -68 -16 -137l-117 -586h-127l8 117h-6q-156 -141 -324 -142q-104 0 -175.5 64.5t-71.5 177.5zM219 250q0 -74 44 -112t116 -38q121 0 274 136l56 276 q-236 -6 -363 -72.5t-127 -189.5zM489 1169l238 289h168l-279 -289h-127z" />
<glyph horiz-adv-x="1007" d="M66 217q0 383 661 399q12 47 12 93q0 98 -44 141t-136 43q-119 0 -276 -90l-52 115q186 102 357 102q307 0 307 -297q0 -68 -16 -137l-117 -586h-127l8 117h-6q-156 -141 -324 -142q-104 0 -175.5 64.5t-71.5 177.5zM219 250q0 -74 44 -112t116 -38q121 0 274 136l56 276 q-236 -6 -363 -72.5t-127 -189.5zM373 1169l250 289h118l136 -289h-109l-96 189h-8l-172 -189h-119z" />
<glyph horiz-adv-x="1007" d="M66 217q0 383 661 399q12 47 12 93q0 98 -44 141t-136 43q-119 0 -276 -90l-52 115q186 102 357 102q307 0 307 -297q0 -68 -16 -137l-117 -586h-127l8 117h-6q-156 -141 -324 -142q-104 0 -175.5 64.5t-71.5 177.5zM219 250q0 -74 44 -112t116 -38q121 0 274 136l56 276 q-236 -6 -363 -72.5t-127 -189.5zM354 1188q29 94 79 151.5t113.5 57.5t123 -54.5t100.5 -54.5q49 0 90 105h90q-27 -94 -77 -151.5t-113.5 -57.5t-124 54t-98.5 54q-50 0 -91 -104h-92z" />
<glyph horiz-adv-x="1007" d="M66 217q0 383 661 399q12 47 12 93q0 98 -44 141t-136 43q-119 0 -276 -90l-52 115q186 102 357 102q307 0 307 -297q0 -68 -16 -137l-117 -586h-127l8 117h-6q-156 -141 -324 -142q-104 0 -175.5 64.5t-71.5 177.5zM219 250q0 -74 44 -112t116 -38q121 0 274 136l56 276 q-236 -6 -363 -72.5t-127 -189.5zM387 1288q0 45 32 79t73 34q37 0 60 -23.5t23 -62.5q0 -45 -30.5 -77t-73.5 -32q-37 0 -60.5 22.5t-23.5 59.5zM727 1288q0 47 30.5 80t73.5 33q37 0 60.5 -23.5t23.5 -62.5q0 -45 -30.5 -77t-73.5 -32q-37 0 -60.5 22.5t-23.5 59.5z" />
<glyph horiz-adv-x="1007" d="M66 217q0 383 661 399q12 47 12 93q0 98 -44 141t-136 43q-119 0 -276 -90l-52 115q186 102 357 102q307 0 307 -297q0 -68 -16 -137l-117 -586h-127l8 117h-6q-156 -141 -324 -142q-104 0 -175.5 64.5t-71.5 177.5zM219 250q0 -74 44 -112t116 -38q121 0 274 136l56 276 q-236 -6 -363 -72.5t-127 -189.5zM395 1231l21 110h481l-20 -110h-482z" />
<glyph horiz-adv-x="1007" d="M66 217q0 383 661 399q12 47 12 93q0 98 -44 141t-136 43q-119 0 -276 -90l-52 115q186 102 357 102q307 0 307 -297q0 -68 -16 -137l-117 -586h-127l8 117h-6q-156 -141 -324 -142q-104 0 -175.5 64.5t-71.5 177.5zM219 250q0 -74 44 -112t116 -38q121 0 274 136l56 276 q-236 -6 -363 -72.5t-127 -189.5zM434 1434h90q-6 -74 22.5 -118t94.5 -44q63 0 111.5 45t72.5 117h99q-33 -109 -106.5 -182.5t-190.5 -73.5q-115 0 -162 75.5t-31 180.5z" />
<glyph horiz-adv-x="1007" d="M66 217q0 383 661 399q12 47 12 93q0 98 -44 141t-136 43q-119 0 -276 -90l-52 115q186 102 357 102q307 0 307 -297q0 -68 -16 -137l-117 -586h-127l8 117h-6q-156 -141 -324 -142q-104 0 -175.5 64.5t-71.5 177.5zM219 250q0 -74 44 -112t116 -38q121 0 274 136l56 276 q-236 -6 -363 -72.5t-127 -189.5zM465 1274q0 86 59.5 147.5t141.5 61.5q76 0 123 -44t47 -124q0 -86 -59.5 -147.5t-141.5 -61.5q-76 0 -123 44t-47 124zM553 1280q0 -45 22.5 -72.5t63.5 -27.5q43 0 76 38.5t33 90.5q0 45 -22.5 72.5t-63.5 27.5q-45 0 -77 -38t-32 -91z " />
<glyph horiz-adv-x="1007" d="M66 217q0 383 661 399q12 47 12 93q0 98 -44 141t-136 43q-119 0 -276 -90l-52 115q186 102 357 102q307 0 307 -297q0 -68 -16 -137l-117 -586h-127l8 117h-6q-156 -141 -324 -142q-104 0 -175.5 64.5t-71.5 177.5zM219 250q0 -74 44 -112t116 -38q121 0 274 136l56 276 q-236 -6 -363 -72.5t-127 -189.5zM432 1458h109l96 -186h8l172 186h119l-250 -289h-119z" />
<glyph horiz-adv-x="1007" d="M66 217q0 383 661 399q12 47 12 93q0 98 -44 141t-136 43q-119 0 -276 -90l-52 115q186 102 357 102q307 0 307 -297q0 -68 -16 -137l-117 -586h-127l8 117h-6q-156 -141 -324 -142q-104 0 -175.5 64.5t-71.5 177.5zM219 250q0 -74 44 -112t116 -38q121 0 274 136l56 276 q-236 -6 -363 -72.5t-127 -189.5zM254 -328q0 49 36 84t85 35q41 0 69.5 -25.5t28.5 -68.5q0 -49 -35 -83t-84 -34q-43 0 -71.5 24.5t-28.5 67.5z" />
<glyph horiz-adv-x="1007" d="M66 217q0 383 661 399q12 47 12 93q0 98 -44 141t-136 43q-119 0 -276 -90l-52 115q186 102 357 102q307 0 307 -297q0 -68 -16 -137l-117 -586h-127l8 117h-6q-156 -141 -324 -142q-104 0 -175.5 64.5t-71.5 177.5zM219 250q0 -74 44 -112t116 -38q121 0 274 136l56 276 q-236 -6 -363 -72.5t-127 -189.5zM573 1397l31 86q242 -8 242 -140q0 -158 -250 -213l-14 74q141 41 141 111q0 37 -33 55.5t-117 26.5z" />
<glyph horiz-adv-x="1007" d="M66 217q0 383 661 399q12 47 12 93q0 98 -44 141t-136 43q-119 0 -276 -90l-52 115q186 102 357 102q307 0 307 -297q0 -68 -16 -137l-117 -586h-127l8 117h-6q-156 -141 -324 -142q-104 0 -175.5 64.5t-71.5 177.5zM219 250q0 -74 44 -112t116 -38q121 0 274 136l56 276 q-236 -6 -363 -72.5t-127 -189.5zM393 1169l215 244h119l117 -244h-101l-86 150h-8l-143 -150h-113zM831 1307l187 233h133l-219 -233h-101z" />
<glyph horiz-adv-x="1007" d="M66 217q0 383 661 399q12 47 12 93q0 98 -44 141t-136 43q-119 0 -276 -90l-52 115q186 102 357 102q307 0 307 -297q0 -68 -16 -137l-117 -586h-127l8 117h-6q-156 -141 -324 -142q-104 0 -175.5 64.5t-71.5 177.5zM219 250q0 -74 44 -112t116 -38q121 0 274 136l56 276 q-236 -6 -363 -72.5t-127 -189.5zM393 1169l215 244h119l117 -244h-101l-86 150h-8l-143 -150h-113zM809 1540h129l96 -233h-96z" />
<glyph horiz-adv-x="1007" d="M66 217q0 383 661 399q12 47 12 93q0 98 -44 141t-136 43q-119 0 -276 -90l-52 115q186 102 357 102q307 0 307 -297q0 -68 -16 -137l-117 -586h-127l8 117h-6q-156 -141 -324 -142q-104 0 -175.5 64.5t-71.5 177.5zM219 250q0 -74 44 -112t116 -38q121 0 274 136l56 276 q-236 -6 -363 -72.5t-127 -189.5zM393 1169l215 244h119l117 -244h-101l-86 150h-8l-143 -150h-113zM850 1530l27 78q213 -12 213 -129q0 -82 -56.5 -126t-163.5 -69l-10 66q115 31 115 102q0 35 -27.5 52.5t-97.5 25.5z" />
<glyph horiz-adv-x="1007" d="M66 217q0 383 661 399q12 47 12 93q0 98 -44 141t-136 43q-119 0 -276 -90l-52 115q186 102 357 102q307 0 307 -297q0 -68 -16 -137l-117 -586h-127l8 117h-6q-156 -141 -324 -142q-104 0 -175.5 64.5t-71.5 177.5zM219 250q0 -74 44 -112t116 -38q121 0 274 136l56 276 q-236 -6 -363 -72.5t-127 -189.5zM375 1169l217 207h139l133 -207h-104l-107 127h-8l-149 -127h-121zM424 1452q25 82 73 132t103 50t109.5 -46t87.5 -46q25 0 50 25.5t38 64.5h80q-25 -82 -73 -132t-103.5 -50t-109.5 46t-87 46q-23 0 -48.5 -25.5t-39.5 -64.5h-80z" />
<glyph horiz-adv-x="1007" d="M66 217q0 383 661 399q12 47 12 93q0 98 -44 141t-136 43q-119 0 -276 -90l-52 115q186 102 357 102q307 0 307 -297q0 -68 -16 -137l-117 -586h-127l8 117h-6q-156 -141 -324 -142q-104 0 -175.5 64.5t-71.5 177.5zM219 250q0 -74 44 -112t116 -38q121 0 274 136l56 276 q-236 -6 -363 -72.5t-127 -189.5zM258 -328q0 49 35 84t84 35q41 0 69.5 -25.5t28.5 -68.5q0 -49 -35 -83t-84 -34q-41 0 -69.5 24.5t-28.5 67.5zM373 1169l250 289h118l136 -289h-109l-96 189h-8l-172 -189h-119z" />
<glyph horiz-adv-x="1007" d="M66 217q0 383 661 399q12 47 12 93q0 98 -44 141t-136 43q-119 0 -276 -90l-52 115q186 102 357 102q307 0 307 -297q0 -68 -16 -137l-117 -586h-127l8 117h-6q-156 -141 -324 -142q-104 0 -175.5 64.5t-71.5 177.5zM219 250q0 -74 44 -112t116 -38q121 0 274 136l56 276 q-236 -6 -363 -72.5t-127 -189.5zM430 1434h80q-14 -166 129 -166q68 0 120 45t77 121h86q-31 -106 -106.5 -181t-192.5 -75q-115 0 -161 74.5t-32 181.5zM588 1382l176 230h131l-213 -230h-94z" />
<glyph horiz-adv-x="1007" d="M66 217q0 383 661 399q12 47 12 93q0 98 -44 141t-136 43q-119 0 -276 -90l-52 115q186 102 357 102q307 0 307 -297q0 -68 -16 -137l-117 -586h-127l8 117h-6q-156 -141 -324 -142q-104 0 -175.5 64.5t-71.5 177.5zM219 250q0 -74 44 -112t116 -38q121 0 274 136l56 276 q-236 -6 -363 -72.5t-127 -189.5zM430 1434h80q-14 -166 129 -166q68 0 120 45t77 121h86q-31 -106 -106.5 -181t-192.5 -75q-115 0 -161 74.5t-32 181.5zM528 1612h123l86 -230h-90z" />
<glyph horiz-adv-x="1007" d="M66 217q0 383 661 399q12 47 12 93q0 98 -44 141t-136 43q-119 0 -276 -90l-52 115q186 102 357 102q307 0 307 -297q0 -68 -16 -137l-117 -586h-127l8 117h-6q-156 -141 -324 -142q-104 0 -175.5 64.5t-71.5 177.5zM219 250q0 -74 44 -112t116 -38q121 0 274 136l56 276 q-236 -6 -363 -72.5t-127 -189.5zM430 1434h80q-14 -166 129 -166q68 0 120 45t77 121h86q-31 -106 -106.5 -181t-192.5 -75q-115 0 -161 74.5t-32 181.5zM600 1638l27 78q205 -8 204 -125q0 -80 -53 -124t-155 -68l-11 65q57 18 82 41t25 60q0 35 -25.5 50t-93.5 23z" />
</font>
</defs>
</svg>
