<?xml version="1.0" standalone="no"?>
<!DOCTYPE svg PUBLIC "-//W3C//DTD SVG 1.1//EN" "http://www.w3.org/Graphics/SVG/1.1/DTD/svg11.dtd" >
<svg xmlns="http://www.w3.org/2000/svg">
<metadata>
This is a custom SVG webfont generated by Font Squirrel.
Copyright   : Copyright 2010 2012 Adobe Systems Incorporated All Rights Reserved
Designer    : Paul D Hunt
Foundry     : Adobe Systems Incorporated
Foundry URL : httpwwwadobecomtype
</metadata>
<defs>
<font id="SourceCodeProSemibold" horiz-adv-x="1228" >
<font-face units-per-em="2048" ascent="1536" descent="-512" />
<missing-glyph horiz-adv-x="500" />
<glyph unicode=" " />
<glyph unicode="!" d="M436 160q0 80 51.5 130t127 50t127 -50t51.5 -130q0 -82 -51.5 -133.5t-127 -51.5t-127 51.5t-51.5 133.5zM498 1372h233l-6 -233l-33 -639h-155l-33 639z" />
<glyph unicode="&#x22;" d="M217 1405h287l-6 -262l-62 -473h-151l-62 473zM725 1405h287l-6 -262l-62 -473h-151l-62 473z" />
<glyph unicode="#" d="M160 399v156h176l33 264h-168v156h186l47 356h139l-43 -356h242l45 356h141l-43 -356h162v-156h-180l-33 -264h172v-156h-190l-49 -399h-144l49 399h-241l-47 -399h-144l47 399h-157zM479 555h242l33 264h-242z" />
<glyph unicode="$" d="M152 233l106 162q201 -133 375 -133q96 0 147 36t51 99q0 57 -64.5 100.5t-155.5 77t-182 73.5t-155.5 114t-64.5 176q0 131 90 216t244 106v268h164v-266q184 -21 325 -162l-119 -137q-78 59 -142 84.5t-153 25.5q-84 0 -133 -34.5t-49 -96.5q0 -49 64.5 -88t157 -70.5 t183.5 -72.5t155.5 -117t64.5 -180q0 -131 -94.5 -222.5t-259.5 -115.5v-301h-164v297q-225 23 -391 161z" />
<glyph unicode="%" d="M47 182l379 371l86 -80l-338 -412zM51 991q0 156 82 246t213 90t213 -90t82 -246q0 -158 -83 -251t-212 -93t-212 93.5t-83 250.5zM219 991q0 -106 36 -159.5t91 -53.5t91 53.5t36 159.5q0 205 -127 205t-127 -205zM588 319q0 156 82 246t213 90t213 -90t82 -246 q0 -158 -83 -251t-212 -93t-212 93.5t-83 250.5zM719 866l338 412l127 -121l-379 -371zM756 319q0 -106 35.5 -159.5t91 -53.5t91.5 53.5t36 159.5q0 205 -127 205t-127 -205z" />
<glyph unicode="&#x26;" d="M66 352q0 123 62 210t171 165q-88 172 -88 303q0 141 87 237.5t226 96.5q135 0 213 -78t78 -207q0 -61 -21.5 -115.5t-66.5 -104.5t-82 -82t-102 -83q119 -166 284 -303q94 145 140 348h217q-72 -264 -201 -465q119 -79 209 -106l-59 -193q-135 37 -283 140 q-164 -139 -369 -140q-188 0 -301.5 107.5t-113.5 269.5zM291 367q0 -92 62.5 -150.5t156.5 -58.5q96 0 186 78q-176 154 -303 335q-102 -102 -102 -204zM408 1032q0 -88 51 -194q172 121 172 239q0 127 -105 127q-53 0 -85.5 -47t-32.5 -125z" />
<glyph unicode="'" d="M471 1405h287l-6 -262l-62 -473h-151l-62 473z" />
<glyph unicode="(" d="M397.5 569.5q-0.5 560.5 446.5 931.5l131 -108q-195 -176 -285 -375t-90 -449t90 -448.5t285 -374.5l-131 -108q-446 371 -446.5 931.5z" />
<glyph unicode=")" d="M254 -254q195 176 285 374.5t90 448.5t-90 449t-285 375l131 108q446 -371 446 -931.5t-446 -931.5z" />
<glyph unicode="*" d="M193 1094l38 120l293 -73l25 317h131l25 -315l292 71l39 -120l-276 -123l172 -287l-109 -76l-209 260l-208 -260l-109 76l172 287z" />
<glyph unicode="+" d="M160 549v172h364v387h181v-387h364v-172h-364v-387h-181v387h-364z" />
<glyph unicode="," d="M387 -299q260 104 262 315q-10 -2 -28 -2q-82 0 -137.5 48.5t-55.5 134.5q0 82 57.5 132t139.5 50q109 0 165 -81t56 -226q0 -186 -102 -317.5t-295 -194.5z" />
<glyph unicode="-" d="M264 508v188h701v-188h-701z" />
<glyph unicode="." d="M412 182q0 90 57 148.5t145 58.5t145.5 -58.5t57.5 -148.5t-57.5 -148.5t-145.5 -58.5t-145 58.5t-57 148.5z" />
<glyph unicode="/" d="M176 -328l674 1782h203l-674 -1782h-203z" />
<glyph unicode="0" d="M131 657.5q0 325.5 128 497.5t355.5 172t355.5 -172t128 -497.5t-129 -504t-354.5 -178.5t-354.5 178.5t-129 504zM344 657q0 -256 72.5 -376.5t197.5 -120.5t198 120.5t73 376.5q0 486 -270.5 486t-270.5 -486zM473 665.5q0 65.5 41 105.5t100.5 40t100.5 -40t41 -105.5 t-41 -105.5t-100.5 -40t-100.5 40t-41 105.5z" />
<glyph unicode="1" d="M184 0v193h353v856h-273v147q203 35 336 107h172v-1110h320v-193h-908z" />
<glyph unicode="2" d="M123 1126q197 201 446 201q201 0 323 -109.5t122 -289.5q0 -158 -135.5 -329t-403.5 -413q176 14 238 15h368v-201h-948v137q356 305 505.5 472t149.5 306q0 104 -64.5 165t-184.5 61q-141 0 -287 -146z" />
<glyph unicode="3" d="M102 160l111 151q154 -143 346 -143q123 0 201 53t78 144q0 221 -432 221v172q387 0 387 209q0 82 -62.5 128t-167.5 46q-154 0 -297 -123l-123 145q199 164 430 164q205 0 331 -91t126 -253q0 -207 -264 -299v-8q135 -33 222 -117t87 -207q0 -172 -143.5 -274.5 t-351.5 -102.5q-304 1 -478 185z" />
<glyph unicode="4" d="M76 336v160l598 809h272v-787h184v-182h-184v-336h-221v336h-649zM315 518h410v311q2 49 12 258h-10q-23 -37 -70 -106.5t-67 -99.5z" />
<glyph unicode="5" d="M104 156l109 151q166 -139 340 -139q127 0 208 67.5t81 182t-76 179.5t-203 65q-113 0 -241 -74l-113 71l41 644h768v-199h-563l-29 -316q109 43 205 43q197 0 322.5 -103t125.5 -304q0 -205 -146.5 -327t-350.5 -122q-283 1 -478 181z" />
<glyph unicode="6" d="M139 612q0 356 160 535.5t395 179.5q231 0 389 -147l-127 -144q-102 98 -243 99q-152 0 -249 -116t-106 -370q162 158 342 158q182 0 294 -103.5t112 -300.5q0 -190 -133 -309t-320 -119q-221 0 -367.5 163t-146.5 474zM367 483q20 -166 94.5 -246.5t189.5 -80.5 q100 0 168 66.5t68 181t-61.5 173t-174.5 58.5q-156 0 -284 -152z" />
<glyph unicode="7" d="M135 1104v199h963v-144q-168 -186 -258 -360t-125 -349.5t-47 -449.5h-240q18 350 108.5 596t301.5 508h-703z" />
<glyph unicode="8" d="M131 334q0 207 264 334v8q-195 125 -194 305q0 156 118.5 251t303.5 95q193 0 305 -96t112 -256q0 -170 -194 -297v-8q121 -59 186.5 -137t65.5 -203q0 -156 -128 -255.5t-354 -99.5q-221 0 -353 99.5t-132 259.5zM340 358q0 -96 78 -155.5t203 -59.5q119 0 186 52.5 t67 142.5q0 41 -16 73.5t-43 56.5t-70 45.5t-88 38.5t-106 37q-9 3 -12.5 5t-11 4t-13.5 4q-174 -103 -174 -244zM410 981q0 -90 74.5 -142.5t228.5 -103.5q129 104 129 226q0 88 -59.5 143t-164.5 55q-92 0 -150 -48t-58 -130z" />
<glyph unicode="9" d="M123 901q0 188 132 307t318 119q223 0 368.5 -161.5t145.5 -473.5q0 -356 -159.5 -536.5t-393 -180t-391.5 147.5l127 143q104 -98 246 -98q152 0 249 115.5t105 369.5q-166 -156 -342 -155q-184 0 -294.5 103.5t-110.5 299.5zM340 901q0 -115 61 -174t174 -59 q156 0 287 153q-20 164 -95 245t-189 81q-100 0 -169 -65.5t-69 -180.5z" />
<glyph unicode=":" d="M412 182q0 90 57 148.5t145 58.5t145.5 -58.5t57.5 -148.5t-57.5 -148.5t-145.5 -58.5t-145 58.5t-57 148.5zM412 881q0 88 57 147t145 59t145.5 -59t57.5 -147q0 -90 -57.5 -149.5t-145.5 -59.5t-145 59.5t-57 149.5z" />
<glyph unicode=";" d="M387 -299q260 104 262 315q-10 -2 -28 -2q-82 0 -137.5 48.5t-55.5 134.5q0 82 57.5 132t139.5 50q109 0 165 -81t56 -226q0 -186 -102 -317.5t-295 -194.5zM412 881q0 88 57 147t145 59t145.5 -59t57.5 -147q0 -90 -57.5 -149.5t-145.5 -59.5t-145 59.5t-57 149.5z" />
<glyph unicode="&#x3c;" d="M242 555v168l778 516v-219l-580 -377v-8l580 -377v-219z" />
<glyph unicode="=" d="M160 319v173h909v-173h-909zM160 778v172h909v-172h-909z" />
<glyph unicode="&#x3e;" d="M209 39v219l579 377v8l-579 377v219l778 -516v-168z" />
<glyph unicode="?" d="M213 1221q162 176 387 176q178 0 288.5 -87t110.5 -241q0 -74 -35.5 -136.5t-86 -108.5t-99.5 -91t-78.5 -104.5t-21.5 -128.5h-207q-12 78 13.5 145.5t72.5 115.5t95 91t84 91t36 97q0 74 -51 119t-137 45q-127 0 -238 -106zM408 160q0 80 51 130t127 50t127 -50 t51 -130q0 -82 -51 -133.5t-127 -51.5t-127 51.5t-51 133.5z" />
<glyph unicode="@" d="M82 516q0 387 171 591t437 204q213 0 322.5 -137.5t109.5 -358.5v-610h-131l-18 110h-8q-45 -59 -113 -97t-145 -38q-113 0 -188 79t-75 200q0 154 133.5 235.5t393.5 114.5v31q0 139 -74 231t-215 92q-180 0 -306 -168t-126 -487q0 -311 130 -484.5t325 -173.5 q156 0 278 84l74 -120q-178 -113 -361 -113q-260 0 -437 213t-177 602zM623 463q0 -57 35.5 -91t99.5 -34q92 0 190 102v224q-176 -27 -250.5 -73t-74.5 -128z" />
<glyph unicode="A" d="M41 0l434 1339h279l434 -1339h-252l-102 362h-447l-104 -362h-242zM440 549h340l-47 164q-49 178 -119 442h-8q-53 -217 -119 -442z" />
<glyph unicode="B" d="M190 0v1339h396q475 0 475 -329q0 -100 -60.5 -181t-173.5 -110v-8q301 -51 301 -318q0 -195 -139 -294t-371 -99h-428zM428 184h166q303 0 303 226q0 204 -300 204h-3h-166v-430zM428 784h135q264 0 264 197q0 174 -258 174h-141v-371z" />
<glyph unicode="C" d="M123 666q0 322 174 510t446 188q217 0 381 -168l-133 -147q-108 108 -245 108h-3q-170 0 -273 -131t-103 -354q0 -227 104 -358.5t279 -131.5q147 0 268 133l131 -145q-170 -195 -414 -195q-266 0 -439 183.5t-173 507.5z" />
<glyph unicode="D" d="M154 0v1339h346q301 0 465.5 -167.5t164.5 -495.5t-163.5 -502t-454.5 -174h-358zM391 193h94q401 0 402 483q0 471 -402 471h-94v-954z" />
<glyph unicode="E" d="M213 0v1339h856v-200h-618v-342h524v-201h-524v-395h639v-201h-877z" />
<glyph unicode="F" d="M248 0v1339h852v-200h-615v-379h523v-201h-523v-559h-237z" />
<glyph unicode="G" d="M98 665.5q0 323.5 170 511t439 187.5q219 0 378 -168l-131 -147q-103 108 -244 108h-3q-162 0 -262.5 -131t-100.5 -354q0 -231 95.5 -360.5t271.5 -129.5q121 0 180 60v288h-232v195h447v-590q-72 -70 -179.5 -115t-230.5 -45q-264 0 -431 183.5t-167 507z" />
<glyph unicode="H" d="M147 0v1339h238v-538h459v538h237v-1339h-237v594h-459v-594h-238z" />
<glyph unicode="I" d="M172 0v201h324v938h-324v200h885v-200h-324v-938h324v-201h-885z" />
<glyph unicode="J" d="M143 197l144 145q115 -162 268 -162q125 0 183.5 66.5t58.5 216.5v678h-543v198h780v-897q0 -211 -112.5 -339t-360.5 -128q-273 1 -418 222z" />
<glyph unicode="K" d="M170 0v1339h240v-608h6l477 608h264l-412 -522l457 -817h-264l-334 631l-194 -240v-391h-240z" />
<glyph unicode="L" d="M246 0v1339h235v-1138h629v-201h-864z" />
<glyph unicode="M" d="M150 0v1339h245l162 -520l57 -203h7l55 203l158 520h245v-1339h-194v594q0 154 28 510h-6l-96 -328l-141 -416h-115l-143 416l-95 328h-6q31 -381 31 -510v-594h-192z" />
<glyph unicode="N" d="M152 0v1339h241l359 -753l125 -285h6q-4 41 -13.5 137.5t-14.5 174t-5 145.5v581h227v-1339h-241l-359 756l-125 282h-6q4 -45 13.5 -138t14.5 -171t5 -143v-586h-227z" />
<glyph unicode="O" d="M88 676q0 319 144.5 503.5t382 184.5t382 -184.5t144.5 -503.5q0 -322 -145.5 -511.5t-381 -189.5t-381 189.5t-145.5 511.5zM332 676q0 -225 76.5 -359.5t205.5 -134.5t206 134.5t77 359.5q0 223 -77 352t-206 129t-205.5 -129t-76.5 -352z" />
<glyph unicode="P" d="M178 0v1339h451q510 0 510 -413q0 -213 -141.5 -323.5t-368.5 -110.5h-213v-492h-238zM416 682h194q295 0 295 244q0 123 -71.5 173t-223.5 50h-194v-467z" />
<glyph unicode="Q" d="M88 676q0 319 143.5 503.5t379 184.5t379 -184.5t143.5 -503.5q0 -270 -103.5 -450.5t-281.5 -231.5q68 -150 266 -150q51 0 104 25l43 -182q-76 -35 -174 -35q-180 0 -305 91t-184 245q-188 43 -299 225t-111 463zM330 676q0 -227 75.5 -361.5t204.5 -134.5t204 134.5 t75 361.5q0 223 -75 353t-204 130q-131 0 -205.5 -129t-74.5 -354z" />
<glyph unicode="R" d="M172 0v1339h446q494 0 494 -397q0 -291 -266 -383l319 -559h-268l-287 524h-200v-524h-238zM410 713h184q285 0 285 229q0 111 -71 159t-214 48h-184v-436z" />
<glyph unicode="S" d="M119 172l139 162q168 -152 365 -152q121 0 185 46t64 126q0 76 -51 113t-174 84l-182 80q-287 113 -287 356q0 162 131 269.5t334 107.5q250 0 430 -170l-123 -152q-143 115 -307 115q-104 0 -164.5 -42t-60.5 -116q0 -47 32.5 -82.5t69.5 -53t110 -45.5q11 -5 17 -7 l176 -76q139 -55 215 -140t76 -222q0 -168 -134 -283t-362 -115q-290 0 -499 197z" />
<glyph unicode="T" d="M74 1139v200h1081v-200h-422v-1139h-237v1139h-422z" />
<glyph unicode="U" d="M147 512v827h238v-845q0 -311 231 -312q238 0 238 312v845h227v-827q0 -270 -119.5 -403.5t-345 -133.5t-347.5 134.5t-122 402.5z" />
<glyph unicode="V" d="M57 1339h252l189 -673q18 -66 56 -209.5t62 -227.5h9q27 90 67.5 247t48.5 190l187 673h243l-415 -1339h-281z" />
<glyph unicode="W" d="M14 1339h240l74 -776q2 -57 10 -168.5t10 -167.5h6q12 63 41 180t37 156l117 434h151l115 -434q10 -49 37 -161.5t39 -174.5h8q4 61 11.5 175t9.5 161l69 776h225l-182 -1339h-252l-118 489q-27 121 -44 250h-6q-23 -150 -45 -250l-112 -489h-248z" />
<glyph unicode="X" d="M74 0l393 690l-369 649h264l158 -297q18 -35 55 -107.5t50 -96.5h8q55 127 94 204l152 297h251l-368 -659l393 -680h-262l-174 315q-55 104 -113 220h-8q-45 -102 -104 -220l-168 -315h-252z" />
<glyph unicode="Y" d="M55 1339h252l168 -360q53 -117 137 -309h9q6 16 60 133t81 178l166 358h246l-441 -874v-465h-237v465z" />
<glyph unicode="Z" d="M125 0v143l686 998h-625v198h918v-143l-688 -995h696v-201h-987z" />
<glyph unicode="[" d="M436 -311v1761h586v-129h-404v-1503h404v-129h-586z" />
<glyph unicode="\" d="M176 1454h203l674 -1782h-203z" />
<glyph unicode="]" d="M209 -182h401v1503h-401v129h586v-1761h-586v129z" />
<glyph unicode="^" d="M201 571l315 801h197l315 -801h-199l-114 310l-97 276h-8l-96 -276l-115 -310h-198z" />
<glyph unicode="_" d="M123 -127h983v-184h-983v184z" />
<glyph unicode="`" d="M336 1497h246l184 -323h-176z" />
<glyph unicode="a" d="M145 270q0 170 163 258t532 115q-14 197 -240 197q-135 0 -330 -107l-86 158q236 139 459 139q209 0 320.5 -111.5t111.5 -322.5v-596h-192l-19 125h-6q-195 -150 -377 -150q-147 0 -241.5 82t-94.5 213zM373 289q0 -63 50 -96t130 -33q133 0 287 123v213 q-258 -18 -362.5 -69.5t-104.5 -137.5z" />
<glyph unicode="b" d="M168 0v1446h238v-373l-9 -176q143 133 312 133q193 0 302 -138t109 -372q0 -248 -132 -396.5t-314 -148.5q-154 0 -293 136h-6l-21 -111h-186zM406 262q100 -92 221 -92q111 0 180.5 90t69.5 256q0 319 -234 320q-119 0 -237 -121v-453z" />
<glyph unicode="c" d="M150 501.5q0 243.5 164.5 386t406.5 142.5q223 0 373 -141l-113 -148q-119 96 -248 97q-152 0 -246 -92.5t-94 -243.5q0 -150 92.5 -242t241.5 -92q141 0 287 111l98 -152q-174 -152 -407 -152q-244 0 -399.5 141.5t-155.5 385z" />
<glyph unicode="d" d="M109 502q0 236 132 382t312 146q150 0 281 -119l-11 170v365h238v-1446h-195l-18 117h-6q-141 -141 -303 -142q-197 0 -313.5 140.5t-116.5 386.5zM352 504q0 -162 63.5 -248t180.5 -86q125 0 227 121v452q-98 92 -215 93q-109 0 -182.5 -89t-73.5 -243z" />
<glyph unicode="e" d="M127 502q0 238 154.5 383t361.5 145q219 0 343 -132t124 -345q0 -49 -10 -111h-731q16 -135 107 -209.5t231 -74.5q135 0 282 82l80 -148q-188 -117 -393 -117q-236 0 -392.5 142.5t-156.5 384.5zM367 592h526q0 121 -62.5 188.5t-181.5 67.5q-106 0 -185 -67.5 t-97 -188.5z" />
<glyph unicode="f" d="M188 819v176l279 11v55q0 186 106.5 297.5t319.5 111.5q156 0 299 -55l-49 -174q-111 43 -221 43q-221 0 -222 -219v-59h383v-187h-383v-819h-233v819h-279z" />
<glyph unicode="g" d="M127 -176q0 127 160 211v8q-102 59 -103 168q0 106 121 190v9q-129 88 -129 258q0 168 120 265t294 97q90 0 158 -24h411v-175h-235q68 -80 67 -172q0 -162 -112.5 -251t-288.5 -89q-76 0 -154 27q-61 -39 -61 -92q0 -96 190 -96h205q199 0 297 -58.5t98 -187.5 q0 -152 -159.5 -254t-419.5 -102q-213 0 -336 68.5t-123 199.5zM324 -145q0 -68 75.5 -107t214.5 -39q143 0 233.5 48t90.5 116q0 55 -48 76.5t-155 21.5h-160q-102 0 -153 17q-98 -59 -98 -133zM399 668q0 -92 54.5 -146.5t136.5 -54.5t137 54t55 147q0 90 -56 145t-136 55 t-135.5 -55t-55.5 -145z" />
<glyph unicode="h" d="M168 0v1446h238v-373l-15 -215q172 172 361 172q338 0 338 -407v-623h-238v592q0 123 -43 179t-145 56q-70 0 -127.5 -32.5t-130.5 -108.5v-686h-238z" />
<glyph unicode="i" d="M172 819v187h672v-1006h-236v819h-436zM541 1339.5q0 69.5 48 114.5t120 45q74 0 121 -45t47 -114.5t-47.5 -113.5t-121 -44t-120.5 44t-47 113.5z" />
<glyph unicode="j" d="M100 -354l72 170q111 -51 215 -52q123 0 172 58.5t49 183.5v813h-436v187h672v-988q0 -440 -445 -440q-158 0 -299 68zM541 1339.5q0 69.5 48 114.5t120 45q74 0 121 -45t47 -114.5t-47.5 -113.5t-121 -44t-120.5 44t-47 113.5z" />
<glyph unicode="k" d="M184 0v1446h238v-903l6 2l455 461h262l-389 -406l432 -600h-258l-316 444l-192 -186v-258h-238z" />
<glyph unicode="l" d="M145 1260v186h553v-1092q0 -186 181 -186q74 0 172 39l55 -174q-168 -57 -285 -58q-174 0 -266 101.5t-92 290.5v893h-318z" />
<glyph unicode="m" d="M98 0v1006h178l19 -129h6q77 153 219 153h2q147 0 185 -168q82 168 227 168q106 0 164.5 -83t58.5 -234v-713h-223v694q0 133 -84 133q-74 0 -131 -125v-702h-184v694q0 133 -86 133q-70 0 -127 -125v-702h-224z" />
<glyph unicode="n" d="M168 0v1006h194l19 -152h8q172 176 363 176q338 0 338 -407v-623h-238v592q0 123 -43 179t-145 56q-70 0 -127.5 -32.5t-130.5 -108.5v-686h-238z" />
<glyph unicode="o" d="M109 502q0 242 148.5 385t357 143t357 -143.5t148.5 -384.5q0 -240 -148.5 -383.5t-357 -143.5t-357 143.5t-148.5 383.5zM352 502q0 -152 71 -243t191.5 -91t191.5 91t71 243q0 154 -70 245t-192.5 91t-192.5 -91t-70 -245z" />
<glyph unicode="p" d="M168 -397v1403h194l19 -115h6q150 139 322 139q195 0 303 -138t108 -374q0 -248 -132 -395.5t-314 -147.5q-148 0 -277 119l9 -176v-315h-238zM406 262q100 -92 219 -92q113 0 182.5 90t69.5 256q0 319 -234 320q-119 0 -237 -121v-453z" />
<glyph unicode="q" d="M109 502q0 236 132 382t312 146q164 0 295 -131h6l20 107h187v-1403h-238v338l11 168q-137 -133 -295 -134q-197 0 -313.5 140.5t-116.5 386.5zM352 504q0 -162 63.5 -248t180.5 -86q125 0 227 121v452q-98 92 -215 93q-109 0 -182.5 -89t-73.5 -243z" />
<glyph unicode="r" d="M266 0v1006h195l20 -228h6q160 252 428 252q111 0 195 -41l-49 -198q-95 30 -177 30h-5q-236 0 -375 -266v-555h-238z" />
<glyph unicode="s" d="M127 131l111 150q184 -127 389 -127q115 0 172 32.5t57 87.5q0 51 -68.5 88t-228.5 78q-371 98 -371 289q0 135 118 218t327 83q217 0 418 -133l-109 -145q-152 100 -307 100q-211 0 -211 -111q0 -49 70.5 -81.5t212.5 -69.5q193 -51 289 -119t96 -184 q0 -135 -125 -223.5t-346 -88.5q-269 0 -494 156z" />
<glyph unicode="t" d="M121 819v176l278 11l31 274h195v-274h456v-187h-456v-413q0 -127 53 -184.5t178 -57.5q115 0 223 41l43 -172q-164 -57 -323 -58q-410 1 -410 431v413h-268z" />
<glyph unicode="u" d="M143 383v623h236v-592q0 -123 43 -179.5t145 -56.5q72 0 128.5 34t123.5 116v678h236v-1006h-193l-18 160h-8q-158 -184 -357 -185q-336 0 -336 408z" />
<glyph unicode="v" d="M84 1006h238l194 -523q27 -72 100 -303h9q74 231 100 303l195 523h225l-391 -1006h-269z" />
<glyph unicode="w" d="M10 1006h236l92 -523q10 -55 23.5 -159.5t17.5 -128.5h8q25 162 51 288l94 424h175l98 -424q25 -111 53 -288h8q10 55 23.5 155.5t17.5 132.5l92 523h220l-187 -1006h-278l-88 420q-8 47 -23.5 143t-26.5 150h-8q-4 -25 -11 -78t-15.5 -106.5t-18.5 -110.5l-84 -418h-272 z" />
<glyph unicode="x" d="M104 0l365 522l-340 484h256l131 -191q14 -25 32.5 -53.5t42 -64t36.5 -54.5h8q18 33 53 93.5t45 80.5l119 189h248l-342 -508l366 -498h-256l-145 199q-16 25 -58 86t-65 92h-8q-61 -98 -109 -180l-131 -197h-248z" />
<glyph unicode="y" d="M82 1006h235l207 -494q23 -53 111 -295h8q25 78 100 295l183 494h223l-420 -1051q-70 -182 -173 -275.5t-275 -93.5q-78 0 -144 21l45 184q47 -14 84 -14q172 0 242 172l24 63z" />
<glyph unicode="z" d="M145 0v127l605 692h-535v187h866v-125l-606 -693h625v-188h-955z" />
<glyph unicode="{" d="M231 498v143q289 2 289 154q0 63 -10 182t-10 190q0 158 90 220.5t291 62.5h141v-129h-94q-139 0 -185.5 -35t-46.5 -129q0 -55 5.5 -172t5.5 -180q0 -109 -44.5 -161t-150.5 -71v-8q106 -18 150.5 -70.5t44.5 -160.5q0 -68 -5.5 -181.5t-5.5 -170.5q0 -94 46 -129 t186 -35h94v-129h-141q-201 0 -291 62t-90 220q0 76 10 192t10 181q0 152 -289 154z" />
<glyph unicode="|" d="M535 -512v2048h159v-2048h-159z" />
<glyph unicode="}" d="M209 -182h94q139 0 185.5 34.5t46.5 129.5q0 57 -5.5 170.5t-5.5 181.5q0 109 43 161t152 70v8q-109 18 -152 70.5t-43 161.5q0 63 5.5 180t5.5 172q0 94 -46.5 129t-185.5 35h-94v129h141q201 0 290 -62.5t89 -220.5q0 -72 -10 -190.5t-10 -181.5q0 -152 288 -154v-143 q-289 -2 -288 -154q0 -66 10 -181.5t10 -191.5q0 -158 -89 -220t-290 -62h-141v129z" />
<glyph unicode="~" d="M131 524q106 279 307 279q70 0 135.5 -41t121 -82t100.5 -41q100 0 159 172l144 -68q-106 -276 -307 -276q-70 0 -135.5 41t-121 82t-100.5 41q-99 0 -160 -172z" />
<glyph unicode="&#xa0;" />
<glyph unicode="&#xa1;" d="M436 846q0 82 51.5 133t127 51t127 -51t51.5 -133q0 -80 -51.5 -130t-127 -50t-127 50t-51.5 130zM498 -367l6 234l33 639h155l33 -639l6 -234h-233z" />
<glyph unicode="&#xa2;" d="M213 631q0 209 118 340t308 162v206h137v-200q152 -8 260 -117l-110 -145q-72 63 -150 71v-631q86 10 180 84l99 -149q-121 -109 -279 -125v-203h-137v203q-197 25 -311.5 157t-114.5 347zM444 631q0 -238 195 -299v600q-94 -31 -144.5 -110t-50.5 -191z" />
<glyph unicode="&#xa3;" d="M150 0v145q115 49 180 138.5t65 201.5q0 37 -10 84h-233v142l184 10q-51 133 -51 209q0 182 123.5 289.5t326.5 107.5q227 0 371 -160l-131 -129q-96 96 -221 97q-117 0 -180.5 -57.5t-63.5 -159.5q0 -72 43 -197h367v-152h-326q8 -39 8 -86q0 -88 -31.5 -150.5 t-99.5 -123.5v-8h637v-201h-958z" />
<glyph unicode="&#xa4;" d="M96 272l168 170q-72 100 -71.5 231.5t69.5 233.5l-166 170l121 123l180 -184q98 63 217 63t217 -63l181 184l121 -123l-168 -170q72 -100 71 -233q0 -127 -73 -232l170 -170l-121 -122l-183 184q-94 -63 -214.5 -63.5t-217.5 63.5l-180 -184zM406 673.5q0 -104.5 60 -170 t148 -65.5t148.5 65.5t60.5 170t-60.5 171t-148.5 66.5t-148 -66.5t-60 -171z" />
<glyph unicode="&#xa5;" d="M86 1303h242l155 -310q25 -49 67 -140t62 -132h9q18 37 62 130t69 142l155 310h236l-357 -627h306v-121h-361v-121h361v-123h-361v-311h-235v311h-359v123h359v121h-359v121h303z" />
<glyph unicode="&#xa6;" d="M535 428h159v-940h-159v940zM535 618v918h159v-918h-159z" />
<glyph unicode="&#xa7;" d="M166 684q0 82 48 150.5t128 113.5q-61 68 -61 168q0 127 90 209t247 82q187 0 353 -125l-111 -149q-117 96 -229 96q-135 0 -135 -103q0 -49 58 -90t141 -75.5t167 -77.5t142.5 -120t58.5 -181q0 -168 -178 -271q53 -70 53 -161q0 -131 -97.5 -216.5t-262.5 -85.5 q-248 0 -385 160l139 123q111 -106 246 -106q70 0 108.5 31.5t38.5 82.5q0 45 -41 82t-103.5 61.5t-135 60.5t-135 75t-103.5 107.5t-41 158.5zM367 700q0 -53 41 -97t90 -67.5t132 -60.5t128 -61q104 53 104 149q0 55 -41 99.5t-88 68t-132 60t-128 59.5 q-106 -56 -106 -150z" />
<glyph unicode="&#xa8;" d="M268 1323q0 59 38 99t97.5 40t98.5 -40t39 -99t-39 -98t-98.5 -39t-97.5 39t-38 98zM688 1323q0 59 39 99t98.5 40t97.5 -40t38 -99t-38 -98t-97.5 -39t-98.5 39t-39 98z" />
<glyph unicode="&#xa9;" d="M49 664q0 309 162 492t403.5 183t403.5 -183t162 -492q0 -307 -162 -495.5t-403.5 -188.5t-403.5 188.5t-162 495.5zM164 663.5q0 -260.5 124 -419t326.5 -158.5t326.5 158.5t124 419t-124 416t-326.5 155.5t-326.5 -155.5t-124 -416zM291 662q0 174 102.5 282.5 t243.5 108.5q125 0 223 -99l-92 -102q-59 55 -117 55q-84 0 -133 -68.5t-49 -176.5q0 -119 47 -189t125 -70q63 0 145 60l78 -115q-113 -90 -229 -90q-150 0 -247 110t-97 294z" />
<glyph unicode="&#xaa;" d="M330 713q0 106 99 165.5t316 82.5q-8 119 -131 118q-84 0 -196 -65l-64 114q141 86 293 86q131 0 201 -74.5t70 -215.5v-392h-142l-12 72h-4q-115 -88 -219 -88q-92 0 -151.5 56.5t-59.5 140.5zM496 727q0 -78 98 -78q76 0 151 66v139q-249 -31 -249 -127z" />
<glyph unicode="&#xab;" d="M127 399v234l332 321l104 -94l-260 -344l260 -346l-104 -92zM635 399v234l332 321l104 -94l-260 -344l260 -346l-104 -92z" />
<glyph unicode="&#xac;" d="M160 549v172h909v-559h-178v387h-731z" />
<glyph unicode="&#xad;" d="M264 508v188h701v-188h-701z" />
<glyph unicode="&#xae;" d="M217 1053q0 178 114.5 293.5t280.5 115.5q168 0 283 -115.5t115 -293.5q0 -176 -116 -292t-282 -116t-280.5 116t-114.5 292zM313 1053q0 -141 84 -230.5t215 -89.5t215 89t84 231q0 143 -84 233t-215 90t-215 -90t-84 -233zM457 854v408h168q164 0 163 -134 q0 -80 -73 -112l90 -162h-111l-65 133h-72v-133h-100zM557 1061h47q76 0 76 61.5t-72 61.5h-51v-123z" />
<glyph unicode="&#xaf;" d="M348 1221v155h533v-155h-533z" />
<glyph unicode="&#xb0;" d="M338 1124q0 123 81 201t197.5 78t196.5 -78t80 -201t-80 -200.5t-196.5 -77.5t-197.5 77.5t-81 200.5zM469 1124.5q0 -69.5 40.5 -113.5t106.5 -44q63 0 104.5 44t41.5 113q0 72 -41 116t-105 44q-66 0 -106.5 -45t-40.5 -114.5z" />
<glyph unicode="&#xb1;" d="M160 0v170h909v-170h-909zM160 596v170h364v342h181v-342h364v-170h-364v-320h-181v320h-364z" />
<glyph unicode="&#xb2;" d="M340 1430q117 127 256 126q117 0 185.5 -57t68.5 -158q0 -70 -52.5 -137t-154.5 -160h234v-143h-512v94q160 113 237.5 187.5t77.5 130.5q0 47 -28.5 74.5t-80.5 27.5q-72 0 -129 -78z" />
<glyph unicode="&#xb3;" d="M344 975l76 108q80 -76 178 -75q104 0 104 77q0 88 -172 89v96q145 0 146 86q0 70 -96 69q-70 0 -144 -59l-74 102q94 88 254 88q100 0 166 -48t66 -128q0 -109 -113 -149q139 -35 139 -158q0 -88 -74.5 -142t-185.5 -54q-155 0 -270 98z" />
<glyph unicode="&#xb4;" d="M463 1174l184 323h246l-254 -323h-176z" />
<glyph unicode="&#xb5;" d="M152 -410v1416h235v-600q0 -123 43 -175.5t141 -52.5q70 0 123.5 33t116.5 108v687h236v-1006h-193l-18 152h-9q-104 -164 -270 -164q-125 0 -184 71l14 -190v-279h-235z" />
<glyph unicode="&#xb6;" d="M123 893q0 236 131 341t352 105h88v-905h-73q-219 0 -358.5 118t-139.5 341zM803 -164v1503h233v-1503h-233z" />
<glyph unicode="&#xb7;" d="M412 717q0 90 57 149.5t145 59.5t145.5 -59.5t57.5 -149.5t-57.5 -148.5t-145.5 -58.5t-145 58.5t-57 148.5z" />
<glyph unicode="&#xb8;" d="M430 -342q176 20 176 94q0 61 -125 94l82 160h144l-48 -100q121 -43 121 -150q0 -90 -93 -140t-236 -60z" />
<glyph unicode="&#xb9;" d="M414 1354v108q119 18 204 70h138v-631h-176v453h-166z" />
<glyph unicode="&#xba;" d="M281 864q0 162 97 256t236.5 94t236.5 -94t97 -256q0 -158 -97 -253t-236.5 -95t-236.5 95t-97 253zM459 864.5q0 -96.5 41 -153t114 -56.5q76 0 116 56.5t40 152.5q0 98 -40 155.5t-116 57.5q-74 0 -114.5 -58t-40.5 -154.5z" />
<glyph unicode="&#xbb;" d="M158 170l260 346l-260 344l104 94l332 -321v-234l-332 -321zM666 170l260 346l-260 344l104 94l332 -321v-234l-332 -321z" />
<glyph unicode="&#xbc;" d="M45 182l379 371l86 -80l-338 -412zM145 1124v109q117 16 205 70h137v-631h-174v452h-168zM608 137v84l275 410h211v-383h102v-111h-102v-137h-156v137h-330zM719 866l338 412l127 -121l-379 -371zM772 248h166v80l10 186h-8l-80 -129z" />
<glyph unicode="&#xbd;" d="M45 182l379 371l86 -80l-338 -412zM145 1124v109q117 16 205 70h137v-631h-174v452h-168zM606 528q121 127 258 127q117 0 184.5 -57t67.5 -158q0 -70 -52 -137t-155 -160h234v-143h-512v94q160 113 237.5 187.5t77.5 130.5q0 102 -106 102q-74 0 -129 -78zM719 866 l338 412l127 -121l-379 -371z" />
<glyph unicode="&#xbe;" d="M76 745l76 109q80 -76 178 -76q104 0 104 78q0 88 -172 88v96q145 0 146 86q0 70 -97 70q-69 0 -143 -59l-74 102q94 88 254 88q100 0 166 -48t66 -128q0 -109 -113 -150q139 -35 139 -157q0 -88 -74.5 -142.5t-185.5 -54.5q-156 0 -270 98zM78 182l379 371l86 -80 l-338 -412zM608 137v84l275 410h211v-383h104v-111h-104v-137h-156v137h-330zM752 866l338 412l127 -121l-379 -371zM772 248h166v80l10 186h-6l-80 -129z" />
<glyph unicode="&#xbf;" d="M231 -63q0 74 36 137t86 108t99.5 91t79 104.5t21.5 128.5h207q12 -78 -13.5 -145.5t-72.5 -115.5t-95.5 -91t-84 -91.5t-35.5 -97.5q0 -74 51 -119t137 -45q125 0 238 107l133 -123q-162 -176 -387 -176q-178 0 -289 87t-111 241zM467 846q0 82 51 133t127 51t127 -51 t51 -133q0 -80 -51 -130t-127 -50t-127 50t-51 130z" />
<glyph unicode="&#xc0;" d="M41 0l434 1339h279l434 -1339h-252l-102 362h-447l-104 -362h-242zM313 1679h258l172 -237h-190zM440 549h340l-47 164q-49 178 -119 442h-8q-53 -217 -119 -442z" />
<glyph unicode="&#xc1;" d="M41 0l434 1339h279l434 -1339h-252l-102 362h-447l-104 -362h-242zM440 549h340l-47 164q-49 178 -119 442h-8q-53 -217 -119 -442zM485 1442l172 237h258l-239 -237h-191z" />
<glyph unicode="&#xc2;" d="M41 0l434 1339h279l434 -1339h-252l-102 362h-447l-104 -362h-242zM303 1442l197 237h229l197 -237h-185l-123 131h-8l-123 -131h-184zM440 549h340l-47 164q-49 178 -119 442h-8q-53 -217 -119 -442z" />
<glyph unicode="&#xc3;" d="M41 0l434 1339h279l434 -1339h-252l-102 362h-447l-104 -362h-242zM291 1448q12 117 65.5 183.5t130.5 66.5q61 0 139.5 -49.5t106.5 -49.5q62 1 80 99h125q-12 -117 -65.5 -183.5t-131.5 -66.5q-61 0 -139 50t-106 50q-61 0 -80 -100h-125zM440 549h340l-47 164 q-49 178 -119 442h-8q-53 -217 -119 -442z" />
<glyph unicode="&#xc4;" d="M41 0l434 1339h279l434 -1339h-252l-102 362h-447l-104 -362h-242zM303 1571q0 53 34 88t87 35t88 -35t35 -88t-35 -87t-88 -34t-87 34t-34 87zM440 549h340l-47 164q-49 178 -119 442h-8q-53 -217 -119 -442zM682 1571q0 53 35 88t88 35t87 -35t34 -88t-34 -87t-87 -34 t-88 34t-35 87z" />
<glyph unicode="&#xc5;" d="M41 0l434 1339h279l434 -1339h-252l-102 362h-447l-104 -362h-242zM403 1620q0 86 58.5 138t152.5 52q92 0 151.5 -52t59.5 -138t-58 -138t-152.5 -52t-153 52t-58.5 138zM440 549h340l-47 164q-49 178 -119 442h-8q-53 -217 -119 -442zM524 1620q0 -45 25.5 -70.5 t64.5 -25.5t65 25.5t26 70.5q0 43 -26 69.5t-65 26.5t-64.5 -26.5t-25.5 -69.5z" />
<glyph unicode="&#xc6;" d="M-4 0l479 1339h721v-200h-340v-340h270v-201h-270v-397h358v-201h-571v348h-283l-118 -348h-246zM424 535h219v622h-6q-12 -41 -139 -407z" />
<glyph unicode="&#xc7;" d="M123 666q0 322 174 510t446 188q217 0 381 -168l-133 -147q-109 109 -248 108q-170 0 -273 -131t-103 -354q0 -227 104 -358.5t279 -131.5q147 0 268 133l131 -145q-156 -178 -375 -193l-33 -71q121 -43 121 -150q0 -90 -93 -140t-237 -60l-20 102q176 20 176 94 q0 61 -125 94l70 138q-227 33 -368.5 212t-141.5 470z" />
<glyph unicode="&#xc8;" d="M213 0v1339h856v-200h-618v-342h524v-201h-524v-395h639v-201h-877zM367 1679h258l172 -237h-191z" />
<glyph unicode="&#xc9;" d="M213 0v1339h856v-200h-618v-342h524v-201h-524v-395h639v-201h-877zM539 1442l172 237h258l-240 -237h-190z" />
<glyph unicode="&#xca;" d="M213 0v1339h856v-200h-618v-342h524v-201h-524v-395h639v-201h-877zM356 1442l197 237h229l197 -237h-184l-123 131h-8l-123 -131h-185z" />
<glyph unicode="&#xcb;" d="M213 0v1339h856v-200h-618v-342h524v-201h-524v-395h639v-201h-877zM356 1571q0 53 34 88t87 35t88 -35t35 -88t-35 -87t-88 -34t-87 34t-34 87zM735 1571q0 53 35 88t88 35t87 -35t34 -88t-34 -87t-87 -34t-88 34t-35 87z" />
<glyph unicode="&#xcc;" d="M172 0v201h324v938h-324v200h885v-200h-324v-938h324v-201h-885zM313 1679h258l172 -237h-190z" />
<glyph unicode="&#xcd;" d="M172 0v201h324v938h-324v200h885v-200h-324v-938h324v-201h-885zM485 1442l172 237h258l-239 -237h-191z" />
<glyph unicode="&#xce;" d="M172 0v201h324v938h-324v200h885v-200h-324v-938h324v-201h-885zM303 1442l197 237h229l197 -237h-185l-123 131h-8l-123 -131h-184z" />
<glyph unicode="&#xcf;" d="M172 0v201h324v938h-324v200h885v-200h-324v-938h324v-201h-885zM303 1571q0 53 34 88t87 35t88 -35t35 -88t-35 -87t-88 -34t-87 34t-34 87zM682 1571q0 53 35 88t88 35t87 -35t34 -88t-34 -87t-87 -34t-88 34t-35 87z" />
<glyph unicode="&#xd0;" d="M18 637v111l148 10v581h346q299 0 465 -169t166 -494q0 -328 -164 -502t-455 -174h-358v637h-148zM403 193h95q195 0 298 119.5t103 363.5q0 471 -401 471h-95v-389h256v-121h-256v-444z" />
<glyph unicode="&#xd1;" d="M152 0v1339h241l359 -753l125 -285h6q-4 41 -13.5 137.5t-14.5 174t-5 145.5v581h227v-1339h-241l-359 756l-125 282h-6q4 -45 13.5 -138t14.5 -171t5 -143v-586h-227zM303 1448q12 117 65.5 183.5t131.5 66.5q61 0 139 -49.5t106 -49.5q61 0 80 99h125 q-12 -117 -65 -183.5t-131 -66.5q-61 0 -139 50t-107 50q-61 0 -80 -100h-125z" />
<glyph unicode="&#xd2;" d="M88 676q0 319 144.5 503.5t382 184.5t382 -184.5t144.5 -503.5q0 -322 -145.5 -511.5t-381 -189.5t-381 189.5t-145.5 511.5zM313 1679h258l172 -237h-190zM332 676q0 -225 76.5 -359.5t205.5 -134.5t206 134.5t77 359.5q0 223 -77 352t-206 129t-205.5 -129t-76.5 -352z " />
<glyph unicode="&#xd3;" d="M88 676q0 319 144.5 503.5t382 184.5t382 -184.5t144.5 -503.5q0 -322 -145.5 -511.5t-381 -189.5t-381 189.5t-145.5 511.5zM332 676q0 -225 76.5 -359.5t205.5 -134.5t206 134.5t77 359.5q0 223 -77 352t-206 129t-205.5 -129t-76.5 -352zM485 1442l172 237h258 l-239 -237h-191z" />
<glyph unicode="&#xd4;" d="M88 676q0 319 144.5 503.5t382 184.5t382 -184.5t144.5 -503.5q0 -322 -145.5 -511.5t-381 -189.5t-381 189.5t-145.5 511.5zM303 1442l197 237h229l197 -237h-185l-123 131h-8l-123 -131h-184zM332 676q0 -225 76.5 -359.5t205.5 -134.5t206 134.5t77 359.5 q0 223 -77 352t-206 129t-205.5 -129t-76.5 -352z" />
<glyph unicode="&#xd5;" d="M88 676q0 319 144.5 503.5t382 184.5t382 -184.5t144.5 -503.5q0 -322 -145.5 -511.5t-381 -189.5t-381 189.5t-145.5 511.5zM291 1448q12 117 65.5 183.5t130.5 66.5q61 0 139.5 -49.5t106.5 -49.5q61 0 80 99h125q-12 -117 -65.5 -183.5t-131.5 -66.5q-61 0 -139 50 t-106 50q-61 0 -80 -100h-125zM332 676q0 -225 76.5 -359.5t205.5 -134.5t206 134.5t77 359.5q0 223 -77 352t-206 129t-205.5 -129t-76.5 -352z" />
<glyph unicode="&#xd6;" d="M88 676q0 319 144.5 503.5t382 184.5t382 -184.5t144.5 -503.5q0 -322 -145.5 -511.5t-381 -189.5t-381 189.5t-145.5 511.5zM303 1571q0 53 34 88t87 35t88 -35t35 -88t-35 -87t-88 -34t-87 34t-34 87zM332 676q0 -225 76.5 -359.5t205.5 -134.5t206 134.5t77 359.5 q0 223 -77 352t-206 129t-205.5 -129t-76.5 -352zM682 1571q0 53 35 88t88 35t87 -35t34 -88t-34 -87t-87 -34t-88 34t-35 87z" />
<glyph unicode="&#xd7;" d="M190 326l304 307l-304 309l121 123l303 -311l304 311l120 -123l-303 -309l303 -307l-120 -123l-304 309l-303 -309z" />
<glyph unicode="&#xd8;" d="M78 12l129 191q-119 182 -119 473q0 319 144.5 503.5t381.5 184.5q182 0 312 -111l108 160l129 -86l-133 -194q111 -182 111 -457q0 -322 -145.5 -511.5t-381.5 -189.5q-174 0 -303 107l-106 -156zM332 676q-1 -139 30 -248l435 637q-74 92 -183 92q-129 0 -205.5 -129 t-76.5 -352zM440 270q70 -88 174 -88q129 0 206 134.5t77 359.5q0 127 -25 225z" />
<glyph unicode="&#xd9;" d="M147 512v827h238v-845q0 -311 231 -312q238 0 238 312v845h227v-827q0 -270 -119.5 -403.5t-345 -133.5t-347.5 134.5t-122 402.5zM313 1679h258l172 -237h-190z" />
<glyph unicode="&#xda;" d="M147 512v827h238v-845q0 -311 231 -312q238 0 238 312v845h227v-827q0 -270 -119.5 -403.5t-345 -133.5t-347.5 134.5t-122 402.5zM485 1442l172 237h258l-239 -237h-191z" />
<glyph unicode="&#xdb;" d="M147 512v827h238v-845q0 -311 231 -312q238 0 238 312v845h227v-827q0 -270 -119.5 -403.5t-345 -133.5t-347.5 134.5t-122 402.5zM303 1442l197 237h229l197 -237h-185l-123 131h-8l-123 -131h-184z" />
<glyph unicode="&#xdc;" d="M147 512v827h238v-845q0 -311 231 -312q238 0 238 312v845h227v-827q0 -270 -119.5 -403.5t-345 -133.5t-347.5 134.5t-122 402.5zM303 1571q0 53 34 88t87 35t88 -35t35 -88t-35 -87t-88 -34t-87 34t-34 87zM682 1571q0 53 35 88t88 35t87 -35t34 -88t-34 -87t-87 -34 t-88 34t-35 87z" />
<glyph unicode="&#xdd;" d="M55 1339h252l168 -360q53 -117 137 -309h9q6 16 60 133t81 178l166 358h246l-441 -874v-465h-237v465zM485 1442l172 237h258l-239 -237h-191z" />
<glyph unicode="&#xde;" d="M178 0v1339h238v-213h213q510 0 510 -413q0 -215 -140.5 -324.5t-369.5 -109.5h-213v-279h-238zM416 469h192q295 0 295 244q0 121 -71.5 172t-223.5 51h-192v-467z" />
<glyph unicode="&#xdf;" d="M152 0v1038q0 195 114.5 313.5t323.5 118.5q172 0 267 -94t95 -229q0 -68 -23.5 -128.5t-53 -95t-53 -78.5t-23.5 -85q0 -45 37.5 -81t91 -65.5t106.5 -66.5t91 -101.5t38 -150.5q0 -137 -94 -228.5t-252 -91.5q-150 0 -289 84l84 162q96 -68 197 -67q61 0 97 34.5t36 88 t-38 94.5t-91 71.5t-106.5 64.5t-91 91t-37.5 133q0 88 76.5 204t76.5 198q0 66 -39 108.5t-104 42.5q-96 0 -148.5 -69.5t-52.5 -198.5v-1016h-235z" />
<glyph unicode="&#xe0;" d="M145 270q0 170 163 258t532 115q-14 197 -240 197q-135 0 -330 -107l-86 158q236 139 459 139q209 0 320.5 -111.5t111.5 -322.5v-596h-192l-19 125h-6q-195 -150 -377 -150q-147 0 -241.5 82t-94.5 213zM356 1497h248l182 -323h-174zM373 289q0 -63 50 -96t130 -33 q133 0 287 123v213q-258 -18 -362.5 -69.5t-104.5 -137.5z" />
<glyph unicode="&#xe1;" d="M145 270q0 170 163 258t532 115q-14 197 -240 197q-135 0 -330 -107l-86 158q236 139 459 139q209 0 320.5 -111.5t111.5 -322.5v-596h-192l-19 125h-6q-195 -150 -377 -150q-147 0 -241.5 82t-94.5 213zM373 289q0 -63 50 -96t130 -33q133 0 287 123v213 q-258 -18 -362.5 -69.5t-104.5 -137.5zM485 1174l185 323h245l-253 -323h-177z" />
<glyph unicode="&#xe2;" d="M145 270q0 170 163 258t532 115q-14 197 -240 197q-135 0 -330 -107l-86 158q236 139 459 139q209 0 320.5 -111.5t111.5 -322.5v-596h-192l-19 125h-6q-195 -150 -377 -150q-147 0 -241.5 82t-94.5 213zM334 1174l203 323h200l201 -323h-174l-123 198h-8l-123 -198h-176 zM373 289q0 -63 50 -96t130 -33q133 0 287 123v213q-258 -18 -362.5 -69.5t-104.5 -137.5z" />
<glyph unicode="&#xe3;" d="M145 270q0 170 163 258t532 115q-14 197 -240 197q-135 0 -330 -107l-86 158q236 139 459 139q209 0 320.5 -111.5t111.5 -322.5v-596h-192l-19 125h-6q-195 -150 -377 -150q-147 0 -241.5 82t-94.5 213zM315 1182q16 125 70.5 192.5t140.5 67.5q53 0 124 -55.5t95 -55.5 q63 0 86 111h125q-14 -123 -68 -191.5t-140 -68.5q-55 0 -125 55t-97 55q-63 0 -84 -110h-127zM373 289q0 -63 50 -96t130 -33q133 0 287 123v213q-258 -18 -362.5 -69.5t-104.5 -137.5z" />
<glyph unicode="&#xe4;" d="M145 270q0 170 163 258t532 115q-14 197 -240 197q-135 0 -330 -107l-86 158q236 139 459 139q209 0 320.5 -111.5t111.5 -322.5v-596h-192l-19 125h-6q-195 -150 -377 -150q-147 0 -241.5 82t-94.5 213zM291 1323q0 59 38 99t97 40t97 -40t38 -99t-38 -98t-97 -39 t-97 39t-38 98zM373 289q0 -63 50 -96t130 -33q133 0 287 123v213q-258 -18 -362.5 -69.5t-104.5 -137.5zM711 1323q0 59 37.5 99t99.5 40q59 0 97 -40t38 -99t-38 -98t-97 -39q-61 0 -99 39t-38 98z" />
<glyph unicode="&#xe5;" d="M145 270q0 170 163 258t532 115q-14 197 -240 197q-135 0 -330 -107l-86 158q236 139 459 139q209 0 320.5 -111.5t111.5 -322.5v-596h-192l-19 125h-6q-195 -150 -377 -150q-147 0 -241.5 82t-94.5 213zM373 289q0 -63 50 -96t130 -33q133 0 287 123v213 q-258 -18 -362.5 -69.5t-104.5 -137.5zM426 1315q0 90 58.5 145.5t152.5 55.5t152.5 -55.5t58.5 -145.5q0 -88 -58.5 -143.5t-152.5 -55.5t-152.5 55.5t-58.5 143.5zM545 1315q0 -45 26.5 -75t65.5 -30q37 0 63.5 30t26.5 75q0 47 -26.5 76.5t-63.5 29.5q-39 0 -65.5 -29.5 t-26.5 -76.5z" />
<glyph unicode="&#xe6;" d="M33 274q0 150 119.5 238t365.5 131q-10 199 -147 199q-98 0 -221 -78l-87 158q180 109 328 108q172 0 242 -174q104 174 276 174q147 0 228.5 -135t81.5 -338q0 -41 -11 -119h-497q12 -131 68.5 -203.5t150.5 -72.5q86 0 176 59l82 -153q-123 -92 -266 -93 q-201 0 -308 172q-166 -172 -307 -172q-127 0 -200.5 82t-73.5 217zM248 291q0 -63 31.5 -97t89.5 -34q92 0 180 106q-27 80 -31 183l-2 47q-268 -49 -268 -205zM709 588h319q0 260 -141 260q-74 0 -122 -67.5t-56 -192.5z" />
<glyph unicode="&#xe7;" d="M150 502q0 244 164.5 386t406.5 142q223 0 373 -141l-113 -148q-119 96 -248 97q-152 0 -246 -92.5t-94 -243.5q0 -150 92.5 -242t241.5 -92q141 0 287 111l98 -152q-145 -127 -342 -147l-35 -74q121 -43 121 -150q0 -90 -93 -140t-237 -60l-20 102q176 20 176 94 q0 61 -125 94l68 134q-213 25 -344 162t-131 360z" />
<glyph unicode="&#xe8;" d="M127 502q0 238 154.5 383t361.5 145q219 0 343 -132t124 -345q0 -49 -10 -111h-731q16 -135 107 -209.5t231 -74.5q135 0 282 82l80 -148q-188 -117 -393 -117q-236 0 -392.5 142.5t-156.5 384.5zM362 1497h248l183 -323h-175zM367 592h526q0 121 -62.5 188.5 t-181.5 67.5q-106 0 -185 -67.5t-97 -188.5z" />
<glyph unicode="&#xe9;" d="M127 502q0 238 154.5 383t361.5 145q219 0 343 -132t124 -345q0 -49 -10 -111h-731q16 -135 107 -209.5t231 -74.5q135 0 282 82l80 -148q-188 -117 -393 -117q-236 0 -392.5 142.5t-156.5 384.5zM367 592h526q0 121 -62.5 188.5t-181.5 67.5q-106 0 -185 -67.5 t-97 -188.5zM492 1174l184 323h246l-254 -323h-176z" />
<glyph unicode="&#xea;" d="M127 502q0 238 154.5 383t361.5 145q219 0 343 -132t124 -345q0 -49 -10 -111h-731q16 -135 107 -209.5t231 -74.5q135 0 282 82l80 -148q-188 -117 -393 -117q-236 0 -392.5 142.5t-156.5 384.5zM340 1174l203 323h198l203 -323h-174l-123 198h-8l-123 -198h-176z M367 592h526q0 121 -62.5 188.5t-181.5 67.5q-106 0 -185 -67.5t-97 -188.5z" />
<glyph unicode="&#xeb;" d="M127 502q0 238 154.5 383t361.5 145q219 0 343 -132t124 -345q0 -49 -10 -111h-731q16 -135 107 -209.5t231 -74.5q135 0 282 82l80 -148q-188 -117 -393 -117q-236 0 -392.5 142.5t-156.5 384.5zM295 1323q0 59 38 99t99 40q59 0 97 -40t38 -99t-38 -98t-97 -39 q-61 0 -99 39t-38 98zM367 592h526q0 121 -62.5 188.5t-181.5 67.5q-106 0 -185 -67.5t-97 -188.5zM717 1323q0 59 38 99t97 40t98 -40t39 -99t-39 -98t-98 -39t-97 39t-38 98z" />
<glyph unicode="&#xec;" d="M172 819v187h672v-1006h-236v819h-436zM430 1497h246l184 -323h-176z" />
<glyph unicode="&#xed;" d="M172 819v187h672v-1006h-236v819h-436zM559 1174l182 323h248l-256 -323h-174z" />
<glyph unicode="&#xee;" d="M172 819v187h672v-1006h-236v819h-436zM408 1174l202 323h199l203 -323h-176l-123 198h-8l-123 -198h-174z" />
<glyph unicode="&#xef;" d="M172 819v187h672v-1006h-236v819h-436zM362 1323q0 59 38 99t100 40q59 0 97 -40t38 -99t-38 -98t-97 -39q-61 0 -99.5 39t-38.5 98zM784 1323q0 59 38 99t97.5 40t98.5 -40t39 -99t-39 -98t-98.5 -39t-97.5 39t-38 98z" />
<glyph unicode="&#xf0;" d="M109 461q0 209 132 336t328 127q184 0 291 -138q-51 217 -221 367l-307 -156l-66 109l260 133q-92 61 -219 121l105 145q180 -84 299 -172l278 142l64 -111l-234 -119q293 -276 293 -708q0 -252 -136 -407t-370 -155q-207 0 -352 134.5t-145 351.5zM328 461 q0 -133 81.5 -213t204.5 -80q133 0 204 94t71 262q0 55 -2 82q-115 139 -275 139q-135 0 -209.5 -75.5t-74.5 -208.5z" />
<glyph unicode="&#xf1;" d="M168 0v1006h194l19 -152h8q172 176 363 176q338 0 338 -407v-623h-238v592q0 123 -43 179t-145 56q-70 0 -127.5 -32.5t-130.5 -108.5v-686h-238zM328 1182q14 123 68.5 191.5t140.5 68.5q55 0 124.5 -55.5t96.5 -55.5q63 0 86 111h125q-14 -125 -68.5 -192.5 t-142.5 -67.5q-55 0 -124 55t-95 55q-63 0 -86 -110h-125z" />
<glyph unicode="&#xf2;" d="M109 502q0 242 148.5 385t357 143t357 -143.5t148.5 -384.5q0 -240 -148.5 -383.5t-357 -143.5t-357 143.5t-148.5 383.5zM336 1497h246l184 -323h-176zM352 502q0 -152 71 -243t191.5 -91t191.5 91t71 243q0 154 -70 245t-192.5 91t-192.5 -91t-70 -245z" />
<glyph unicode="&#xf3;" d="M109 502q0 242 148.5 385t357 143t357 -143.5t148.5 -384.5q0 -240 -148.5 -383.5t-357 -143.5t-357 143.5t-148.5 383.5zM352 502q0 -152 71 -243t191.5 -91t191.5 91t71 243q0 154 -70 245t-192.5 91t-192.5 -91t-70 -245zM463 1174l184 323h246l-254 -323h-176z" />
<glyph unicode="&#xf4;" d="M109 502q0 242 148.5 385t357 143t357 -143.5t148.5 -384.5q0 -240 -148.5 -383.5t-357 -143.5t-357 143.5t-148.5 383.5zM311 1174l203 323h201l203 -323h-177l-123 198h-8l-123 -198h-176zM352 502q0 -152 71 -243t191.5 -91t191.5 91t71 243q0 154 -70 245t-192.5 91 t-192.5 -91t-70 -245z" />
<glyph unicode="&#xf5;" d="M109 502q0 242 148.5 385t357 143t357 -143.5t148.5 -384.5q0 -240 -148.5 -383.5t-357 -143.5t-357 143.5t-148.5 383.5zM295 1182q14 123 68.5 191.5t140.5 68.5q55 0 124.5 -55.5t96.5 -55.5q63 0 84 111h125q-14 -123 -68.5 -191.5t-140.5 -68.5q-55 0 -125 55 t-96 55q-63 0 -84 -110h-125zM352 502q0 -152 71 -243t191.5 -91t191.5 91t71 243q0 154 -70 245t-192.5 91t-192.5 -91t-70 -245z" />
<glyph unicode="&#xf6;" d="M109 502q0 242 148.5 385t357 143t357 -143.5t148.5 -384.5q0 -240 -148.5 -383.5t-357 -143.5t-357 143.5t-148.5 383.5zM268 1323q0 59 38 99t97.5 40t98.5 -40t39 -99t-39 -98t-98.5 -39t-97.5 39t-38 98zM352 502q0 -152 71 -243t191.5 -91t191.5 91t71 243 q0 154 -70 245t-192.5 91t-192.5 -91t-70 -245zM688 1323q0 59 39 99t98.5 40t97.5 -40t38 -99t-38 -98t-97.5 -39t-98.5 39t-39 98z" />
<glyph unicode="&#xf7;" d="M160 549v172h909v-172h-909zM475 266q0 57 40 95t99.5 38t99.5 -37.5t40 -95.5q0 -59 -40 -97t-99.5 -38t-99.5 38t-40 97zM475 1004q0 57 40 95t99.5 38t99.5 -38t40 -95q0 -59 -40 -97.5t-99.5 -38.5t-99.5 38t-40 98z" />
<glyph unicode="&#xf8;" d="M109 502q0 242 148.5 385t356.5 143q162 0 291 -88l99 115l94 -74l-103 -121q125 -145 125 -360q0 -240 -148.5 -383.5t-357.5 -143.5q-166 0 -292 91l-97 -115l-94 74l102 120q-125 141 -124 357zM352 502q0 -101 31 -178l391 462q-66 59 -160 60q-121 0 -191.5 -95.5 t-70.5 -248.5zM453 221q68 -61 161 -61q121 0 192 94t71 248q0 104 -33 182z" />
<glyph unicode="&#xf9;" d="M143 383v623h236v-592q0 -123 43 -179.5t145 -56.5q72 0 128.5 34t123.5 116v678h236v-1006h-193l-18 160h-8q-158 -184 -357 -185q-336 0 -336 408zM326 1497h245l185 -323h-176z" />
<glyph unicode="&#xfa;" d="M143 383v623h236v-592q0 -123 43 -179.5t145 -56.5q72 0 128.5 34t123.5 116v678h236v-1006h-193l-18 160h-8q-158 -184 -357 -185q-336 0 -336 408zM455 1174l182 323h248l-256 -323h-174z" />
<glyph unicode="&#xfb;" d="M143 383v623h236v-592q0 -123 43 -179.5t145 -56.5q72 0 128.5 34t123.5 116v678h236v-1006h-193l-18 160h-8q-158 -184 -357 -185q-336 0 -336 408zM303 1174l201 323h201l202 -323h-176l-123 198h-8l-123 -198h-174z" />
<glyph unicode="&#xfc;" d="M143 383v623h236v-592q0 -123 43 -179.5t145 -56.5q72 0 128.5 34t123.5 116v678h236v-1006h-193l-18 160h-8q-158 -184 -357 -185q-336 0 -336 408zM258 1323q0 59 38 99t97 40q61 0 99 -40t38 -99t-38 -98t-99 -39q-59 0 -97 39t-38 98zM680 1323q0 59 38 99t97 40 t97 -40t38 -99t-38 -98t-97 -39t-97 39t-38 98z" />
<glyph unicode="&#xfd;" d="M82 1006h235l207 -494q23 -53 111 -295h8q25 78 100 295l183 494h223l-420 -1051q-70 -182 -173 -275.5t-275 -93.5q-78 0 -144 21l45 184q47 -14 84 -14q172 0 242 172l24 63zM475 1174l184 323h246l-254 -323h-176z" />
<glyph unicode="&#xfe;" d="M168 -397v1843h238v-383l-9 -166q147 133 312 133q193 0 302 -138t109 -374q0 -246 -133 -394.5t-313 -148.5q-137 0 -275 119l7 -176v-315h-238zM406 262q100 -92 219 -92q109 0 180.5 91t71.5 255q0 319 -234 320q-119 0 -237 -121v-453z" />
<glyph unicode="&#xff;" d="M82 1006h235l207 -494q23 -53 111 -295h8q25 78 100 295l183 494h223l-420 -1051q-70 -182 -173 -275.5t-275 -93.5q-78 0 -144 21l45 184q47 -14 84 -14q172 0 242 172l24 63zM279 1323q0 59 38.5 99t98 40t97.5 -40t38 -99t-38 -98t-97.5 -39t-98 39t-38.5 98z M700 1323q0 59 38 99t98 40q61 0 99 -40t38 -99t-38 -98t-99 -39q-59 0 -97.5 39t-38.5 98z" />
<glyph unicode="&#x100;" d="M41 0l434 1339h279l434 -1339h-252l-102 362h-447l-104 -362h-242zM342 1483v155h545v-155h-545zM440 549h340l-47 164q-49 178 -119 442h-8q-53 -217 -119 -442z" />
<glyph unicode="&#x101;" d="M145 270q0 170 163 258t532 115q-14 197 -240 197q-135 0 -330 -107l-86 158q236 139 459 139q209 0 320.5 -111.5t111.5 -322.5v-596h-192l-19 125h-6q-195 -150 -377 -150q-147 0 -241.5 82t-94.5 213zM369 1221v155h534v-155h-534zM373 289q0 -63 50 -96t130 -33 q133 0 287 123v213q-258 -18 -362.5 -69.5t-104.5 -137.5z" />
<glyph unicode="&#x102;" d="M41 0l434 1339h279l434 -1339h-252l-102 362h-447l-104 -362h-242zM348 1679h135q23 -111 131 -111t131 111h136q-12 -106 -78 -170.5t-188.5 -64.5t-188.5 64.5t-78 170.5zM440 549h340l-47 164q-49 178 -119 442h-8q-53 -217 -119 -442z" />
<glyph unicode="&#x103;" d="M145 270q0 170 163 258t532 115q-14 197 -240 197q-135 0 -330 -107l-86 158q236 139 459 139q209 0 320.5 -111.5t111.5 -322.5v-596h-192l-19 125h-6q-195 -150 -377 -150q-147 0 -241.5 82t-94.5 213zM352 1475h137q8 -72 45 -118t103 -46q63 0 100 46t47 118h138 q-6 -123 -78 -210t-207 -87t-207 87t-78 210zM373 289q0 -63 50 -96t130 -33q133 0 287 123v213q-258 -18 -362.5 -69.5t-104.5 -137.5z" />
<glyph unicode="&#x104;" d="M41 0l434 1339h279l434 -1339q-76 -18 -125 -77.5t-49 -123.5q0 -41 24.5 -63.5t61.5 -22.5q49 0 84 29l57 -123q-80 -66 -188 -65q-94 0 -155.5 49t-61.5 137q0 82 50 151.5t111 108.5h-61l-102 362h-447l-104 -362h-242zM440 549h340l-47 164q-23 80 -119 442h-8 q-53 -217 -119 -442z" />
<glyph unicode="&#x105;" d="M145 270q0 170 163 258t532 115q-14 197 -240 197q-135 0 -330 -107l-86 158q236 139 459 139q209 0 320.5 -111.5t111.5 -322.5v-596q-88 -29 -133 -83t-45 -112q0 -41 26.5 -63.5t63.5 -22.5q45 0 78 27l53 -111q-76 -61 -184 -61q-88 0 -144.5 47t-56.5 133 q0 78 46 143.5t106 104.5l-21 123h-6q-195 -150 -377 -150q-147 0 -241.5 82t-94.5 213zM373 289q0 -63 50 -96t130 -33q133 0 287 123v213q-258 -18 -362.5 -69.5t-104.5 -137.5z" />
<glyph unicode="&#x106;" d="M123 666q0 322 174 510t446 188q217 0 381 -168l-133 -147q-109 109 -248 108q-170 0 -273 -131t-103 -354q0 -227 104 -358.5t279 -131.5q147 0 268 133l131 -145q-170 -195 -414 -195q-266 0 -439 183.5t-173 507.5zM588 1442l174 237h256l-238 -237h-192z" />
<glyph unicode="&#x107;" d="M150 501.5q0 243.5 164.5 386t406.5 142.5q223 0 373 -141l-113 -148q-119 96 -248 97q-152 0 -246 -92.5t-94 -243.5q0 -150 92.5 -242t241.5 -92q141 0 287 111l98 -152q-174 -152 -407 -152q-244 0 -399.5 141.5t-155.5 385zM549 1174l184 323h246l-254 -323h-176z " />
<glyph unicode="&#x108;" d="M123 666q0 322 174 510t446 188q217 0 381 -168l-133 -147q-109 109 -248 108q-170 0 -273 -131t-103 -354q0 -227 104 -358.5t279 -131.5q147 0 268 133l131 -145q-170 -195 -414 -195q-266 0 -439 183.5t-173 507.5zM406 1442l196 237h229l197 -237h-184l-123 131h-8 l-123 -131h-184z" />
<glyph unicode="&#x109;" d="M150 501.5q0 243.5 164.5 386t406.5 142.5q223 0 373 -141l-113 -148q-119 96 -248 97q-152 0 -246 -92.5t-94 -243.5q0 -150 92.5 -242t241.5 -92q141 0 287 111l98 -152q-174 -152 -407 -152q-244 0 -399.5 141.5t-155.5 385zM397 1174l203 323h201l203 -323h-177 l-122 198h-9l-123 -198h-176z" />
<glyph unicode="&#x10a;" d="M123 666q0 322 174 510t446 188q217 0 381 -168l-133 -147q-109 109 -248 108q-170 0 -273 -131t-103 -354q0 -227 104 -358.5t279 -131.5q147 0 268 133l131 -145q-170 -195 -414 -195q-266 0 -439 183.5t-173 507.5zM571 1583q0 57 42 95t104 38q63 0 105 -38t42 -95 q0 -59 -42 -97t-105 -38q-61 0 -103.5 38t-42.5 97z" />
<glyph unicode="&#x10b;" d="M150 501.5q0 243.5 164.5 386t406.5 142.5q223 0 373 -141l-113 -148q-119 96 -248 97q-152 0 -246 -92.5t-94 -243.5q0 -150 92.5 -242t241.5 -92q141 0 287 111l98 -152q-174 -152 -407 -152q-244 0 -399.5 141.5t-155.5 385zM532 1339.5q0 69.5 48.5 114.5t120 45 t119.5 -45t48 -114.5t-47 -113.5t-120.5 -44t-121 44t-47.5 113.5z" />
<glyph unicode="&#x10c;" d="M123 666q0 322 174 510t446 188q217 0 381 -168l-133 -147q-109 109 -248 108q-170 0 -273 -131t-103 -354q0 -227 104 -358.5t279 -131.5q147 0 268 133l131 -145q-170 -195 -414 -195q-266 0 -439 183.5t-173 507.5zM406 1679h184l123 -131h8l123 131h184l-197 -237 h-229z" />
<glyph unicode="&#x10d;" d="M150 501.5q0 243.5 164.5 386t406.5 142.5q223 0 373 -141l-113 -148q-119 96 -248 97q-152 0 -246 -92.5t-94 -243.5q0 -150 92.5 -242t241.5 -92q141 0 287 111l98 -152q-174 -152 -407 -152q-244 0 -399.5 141.5t-155.5 385zM397 1497h176l123 -199h9l122 199h177 l-203 -323h-201z" />
<glyph unicode="&#x10e;" d="M154 0v1339h346q301 0 465.5 -167.5t164.5 -495.5t-163.5 -502t-454.5 -174h-358zM299 1679h184l123 -131h8l123 131h185l-197 -237h-229zM391 193h94q401 0 402 483q0 471 -402 471h-94v-954z" />
<glyph unicode="&#x10f;" d="M76 502q0 236 132 382t312 146q150 0 281 -119l-10 170v365h235v-1446h-192l-19 117h-6q-141 -141 -303 -142q-197 0 -313.5 140.5t-116.5 386.5zM317 504q0 -162 64.5 -248t181.5 -86q125 0 228 121v452q-98 92 -216 93q-109 0 -183.5 -89t-74.5 -243zM1102 1567h155 l-2 -129l-38 -316h-107z" />
<glyph unicode="&#x110;" d="M18 637v111l148 10v581h346q299 0 465 -169t166 -494q0 -328 -164 -502t-455 -174h-358v637h-148zM403 193h95q195 0 298 119.5t103 363.5q0 471 -401 471h-95v-389h256v-121h-256v-444z" />
<glyph unicode="&#x111;" d="M109 481q0 227 132 367.5t312 140.5q150 0 281 -119l-11 170v115h-336v121h336v170h238v-170h139v-111l-139 -10v-1155h-195l-18 117h-6q-141 -141 -303 -142q-197 0 -313.5 134.5t-116.5 371.5zM352 483q0 -152 63.5 -232.5t180.5 -80.5q125 0 227 121v411 q-100 92 -210.5 92.5t-185.5 -83.5t-75 -228z" />
<glyph unicode="&#x112;" d="M213 0v1339h856v-200h-618v-342h524v-201h-524v-395h639v-201h-877zM395 1483v155h545v-155h-545z" />
<glyph unicode="&#x113;" d="M127 502q0 238 154.5 383t361.5 145q219 0 343 -132t124 -345q0 -49 -10 -111h-731q16 -135 107 -209.5t231 -74.5q135 0 282 82l80 -148q-188 -117 -393 -117q-236 0 -392.5 142.5t-156.5 384.5zM367 592h526q0 121 -62.5 188.5t-181.5 67.5q-106 0 -185 -67.5 t-97 -188.5zM375 1221v155h534v-155h-534z" />
<glyph unicode="&#x114;" d="M213 0v1339h856v-200h-618v-342h524v-201h-524v-395h639v-201h-877zM401 1679h136q23 -111 131 -110.5t131 110.5h135q-12 -106 -77.5 -170.5t-188.5 -64.5t-188.5 64.5t-78.5 170.5z" />
<glyph unicode="&#x115;" d="M127 502q0 238 154.5 383t361.5 145q219 0 343 -132t124 -345q0 -49 -10 -111h-731q16 -135 107 -209.5t231 -74.5q135 0 282 82l80 -148q-188 -117 -393 -117q-236 0 -392.5 142.5t-156.5 384.5zM358 1475h138q8 -72 45 -118t102 -46q63 0 100 46t48 118h135 q-4 -123 -77 -210t-206 -87q-135 0 -208 87t-77 210zM367 592h526q0 121 -62.5 188.5t-181.5 67.5q-106 0 -185 -67.5t-97 -188.5z" />
<glyph unicode="&#x116;" d="M213 0v1339h856v-200h-618v-342h524v-201h-524v-395h639v-201h-877zM522 1583q0 57 41 95t104.5 38t104.5 -38t41 -95q0 -59 -41 -97t-104.5 -38t-104.5 38t-41 97z" />
<glyph unicode="&#x117;" d="M127 502q0 238 154.5 383t361.5 145q219 0 343 -132t124 -345q0 -49 -10 -111h-731q16 -135 107 -209.5t231 -74.5q135 0 282 82l80 -148q-188 -117 -393 -117q-236 0 -392.5 142.5t-156.5 384.5zM367 592h526q0 121 -62.5 188.5t-181.5 67.5q-106 0 -185 -67.5 t-97 -188.5zM475 1339.5q0 69.5 47 114.5t121 45q72 0 120 -45t48 -114.5t-47 -113.5t-121 -44t-121 44t-47 113.5z" />
<glyph unicode="&#x118;" d="M213 0v1339h856v-200h-618v-342h524v-201h-524v-395h639v-201h-9q-72 -6 -127 -66.5t-55 -134.5q0 -41 26.5 -63.5t65.5 -22.5t78 29l57 -123q-80 -66 -188 -65q-94 0 -155.5 49t-61.5 137q0 82 47 151.5t111 108.5h-666z" />
<glyph unicode="&#x119;" d="M127 502q0 238 154.5 383t361.5 145q219 0 343 -132t124 -345q0 -49 -10 -111h-731q16 -135 107 -209.5t231 -74.5q135 0 282 82l80 -148q-133 -94 -182 -156.5t-49 -130.5q0 -41 25.5 -63.5t64.5 -22.5q41 0 78 27l53 -111q-78 -61 -185 -61q-88 0 -143 47t-55 133 q0 133 127 238q-61 -16 -127 -17q-236 0 -392.5 142.5t-156.5 384.5zM367 592h526q0 121 -62.5 188.5t-181.5 67.5q-106 0 -185 -67.5t-97 -188.5z" />
<glyph unicode="&#x11a;" d="M213 0v1339h856v-200h-618v-342h524v-201h-524v-395h639v-201h-877zM356 1679h185l123 -131h8l123 131h184l-197 -237h-229z" />
<glyph unicode="&#x11b;" d="M127 502q0 238 154.5 383t361.5 145q219 0 343 -132t124 -345q0 -49 -10 -111h-731q16 -135 107 -209.5t231 -74.5q135 0 282 82l80 -148q-188 -117 -393 -117q-236 0 -392.5 142.5t-156.5 384.5zM340 1497h176l123 -199h8l123 199h174l-203 -323h-198zM367 592h526 q0 121 -62.5 188.5t-181.5 67.5q-106 0 -185 -67.5t-97 -188.5z" />
<glyph unicode="&#x11c;" d="M98 665.5q0 323.5 170 511t439 187.5q219 0 378 -168l-131 -147q-104 109 -247 108q-162 0 -262.5 -131t-100.5 -354q0 -231 95.5 -360.5t271.5 -129.5q121 0 180 60v288h-232v195h447v-590q-72 -70 -179.5 -115t-230.5 -45q-264 0 -431 183.5t-167 507zM367 1442 l196 237h230l196 -237h-184l-123 131h-8l-123 -131h-184z" />
<glyph unicode="&#x11d;" d="M127 -176q0 127 160 211v8q-102 59 -103 168q0 106 121 190v9q-129 88 -129 258q0 168 120 265t294 97q90 0 158 -24h411v-175h-235q68 -80 67 -172q0 -162 -112.5 -251t-288.5 -89q-76 0 -154 27q-61 -39 -61 -92q0 -96 190 -96h205q199 0 297 -58.5t98 -187.5 q0 -152 -159.5 -254t-419.5 -102q-213 0 -336 68.5t-123 199.5zM324 -145q0 -68 75.5 -107t214.5 -39q143 0 233.5 48t90.5 116q0 55 -48 76.5t-155 21.5h-160q-102 0 -153 17q-98 -59 -98 -133zM324 1174l202 323h201l201 -323h-174l-123 198h-8l-123 -198h-176zM399 668 q0 -92 54.5 -146.5t136.5 -54.5t137 54t55 147q0 90 -56 145t-136 55t-135.5 -55t-55.5 -145z" />
<glyph unicode="&#x11e;" d="M98 665.5q0 323.5 170 511t439 187.5q219 0 378 -168l-131 -147q-104 109 -247 108q-162 0 -262.5 -131t-100.5 -354q0 -231 95.5 -360.5t271.5 -129.5q121 0 180 60v288h-232v195h447v-590q-72 -70 -179.5 -115t-230.5 -45q-264 0 -431 183.5t-167 507zM412 1679h133 q23 -111 133 -110q109 0 131 110h135q-12 -104 -78.5 -169.5t-187.5 -65.5q-123 0 -188.5 64.5t-77.5 170.5z" />
<glyph unicode="&#x11f;" d="M127 -176q0 127 160 211v8q-102 59 -103 168q0 106 121 190v9q-129 88 -129 258q0 168 120 265t294 97q90 0 158 -24h411v-175h-235q68 -80 67 -172q0 -162 -112.5 -251t-288.5 -89q-76 0 -154 27q-61 -39 -61 -92q0 -96 190 -96h205q199 0 297 -58.5t98 -187.5 q0 -152 -159.5 -254t-419.5 -102q-213 0 -336 68.5t-123 199.5zM324 -145q0 -68 75.5 -107t214.5 -39q143 0 233.5 48t90.5 116q0 55 -48 76.5t-155 21.5h-160q-102 0 -153 17q-98 -59 -98 -133zM342 1475h137q8 -72 45 -118t103 -46q63 0 100 46t47 118h137 q-6 -123 -77.5 -210t-206.5 -87t-207 87t-78 210zM399 668q0 -92 54.5 -146.5t136.5 -54.5t137 54t55 147q0 90 -56 145t-136 55t-135.5 -55t-55.5 -145z" />
<glyph unicode="&#x120;" d="M98 665.5q0 323.5 170 511t439 187.5q219 0 378 -168l-131 -147q-104 109 -247 108q-162 0 -262.5 -131t-100.5 -354q0 -231 95.5 -360.5t271.5 -129.5q121 0 180 60v288h-232v195h447v-590q-72 -70 -179.5 -115t-230.5 -45q-264 0 -431 183.5t-167 507zM532 1583 q0 57 41 95t104.5 38t104.5 -38t41 -95q0 -59 -41 -97t-104.5 -38t-104.5 38t-41 97z" />
<glyph unicode="&#x121;" d="M127 -176q0 127 160 211v8q-102 59 -103 168q0 106 121 190v9q-129 88 -129 258q0 168 120 265t294 97q90 0 158 -24h411v-175h-235q68 -80 67 -172q0 -162 -112.5 -251t-288.5 -89q-76 0 -154 27q-61 -39 -61 -92q0 -96 190 -96h205q199 0 297 -58.5t98 -187.5 q0 -152 -159.5 -254t-419.5 -102q-213 0 -336 68.5t-123 199.5zM324 -145q0 -68 75.5 -107t214.5 -39q143 0 233.5 48t90.5 116q0 55 -48 76.5t-155 21.5h-160q-102 0 -153 17q-98 -59 -98 -133zM399 668q0 -92 54.5 -146.5t136.5 -54.5t137 54t55 147q0 90 -56 145t-136 55 t-135.5 -55t-55.5 -145zM459 1339.5q0 69.5 48 114.5t119.5 45t120 -45t48.5 -114.5t-47.5 -113.5t-121 -44t-120.5 44t-47 113.5z" />
<glyph unicode="&#x122;" d="M98 665.5q0 323.5 170 511t439 187.5q219 0 378 -168l-131 -147q-104 109 -247 108q-162 0 -262.5 -131t-100.5 -354q0 -231 95.5 -360.5t271.5 -129.5q121 0 180 60v288h-232v195h447v-590q-72 -70 -179.5 -115t-230.5 -45q-264 0 -431 183.5t-167 507zM494 -354 q174 20 174 84q0 61 -97 84l47 94q121 -14 173.5 -52t52.5 -112q0 -90 -93.5 -140t-238.5 -61z" />
<glyph unicode="&#x123;" d="M127 -176q0 127 160 211v8q-102 59 -103 168q0 106 121 190v9q-129 88 -129 258q0 168 120 265t294 97q90 0 158 -24h411v-175h-235q68 -80 67 -172q0 -162 -112.5 -251t-288.5 -89q-76 0 -154 27q-61 -39 -61 -92q0 -96 190 -96h205q199 0 297 -58.5t98 -187.5 q0 -152 -159.5 -254t-419.5 -102q-213 0 -336 68.5t-123 199.5zM324 -145q0 -68 75.5 -107t214.5 -39q143 0 233.5 48t90.5 116q0 55 -48 76.5t-155 21.5h-160q-102 0 -153 17q-98 -59 -98 -133zM399 668q0 -92 54.5 -146.5t136.5 -54.5t137 54t55 147q0 90 -56 145t-136 55 t-135.5 -55t-55.5 -145zM467 1276q0 90 93 140t237 61l20 -103q-176 -20 -176 -84q0 -61 98 -84l-49 -94q-119 14 -171 53t-52 111z" />
<glyph unicode="&#x124;" d="M147 0v1339h238v-538h459v538h237v-1339h-237v594h-459v-594h-238zM301 1442l197 237h229l197 -237h-185l-123 131h-8l-123 -131h-184z" />
<glyph unicode="&#x125;" d="M-10 1534l196 238h230l196 -238h-184l-123 133h-8l-123 -133h-184zM168 0v1446h238v-373l-15 -215q172 172 361 172q338 0 338 -407v-623h-238v592q0 123 -43 179t-145 56q-70 0 -127.5 -32.5t-130.5 -108.5v-686h-238z" />
<glyph unicode="&#x126;" d="M12 1001v111l135 10v217h238v-217h459v217h237v-217h136v-121h-136v-1001h-237v594h-459v-594h-238v1001h-135zM385 801h459v200h-459v-200z" />
<glyph unicode="&#x127;" d="M27 1155v111l141 8v172h238v-170h401v-121h-401v-123l-15 -215q172 172 361 172q338 0 338 -407v-582h-238v551q0 123 -43 179t-145 56q-70 0 -127.5 -32.5t-130.5 -108.5v-645h-238v1155h-141z" />
<glyph unicode="&#x128;" d="M172 0v201h324v938h-324v200h885v-200h-324v-938h324v-201h-885zM291 1448q12 117 65.5 183.5t130.5 66.5q61 0 139.5 -49.5t106.5 -49.5q61 0 80 99h125q-12 -117 -65.5 -183.5t-131.5 -66.5q-61 0 -139 50t-106 50q-61 0 -80 -100h-125z" />
<glyph unicode="&#x129;" d="M172 819v187h672v-1006h-236v819h-436zM389 1182q14 123 68.5 191.5t140.5 68.5q55 0 125 -55.5t96 -55.5q63 0 86 111h125q-14 -125 -68.5 -192.5t-142.5 -67.5q-55 0 -123.5 55t-95.5 55q-63 0 -86 -110h-125z" />
<glyph unicode="&#x12a;" d="M172 0v201h324v938h-324v200h885v-200h-324v-938h324v-201h-885zM342 1483v155h545v-155h-545z" />
<glyph unicode="&#x12b;" d="M172 819v187h672v-1006h-236v819h-436zM442 1221v155h535v-155h-535z" />
<glyph unicode="&#x12c;" d="M172 0v201h324v938h-324v200h885v-200h-324v-938h324v-201h-885zM348 1679h135q23 -111 131.5 -110.5t130.5 110.5h136q-12 -106 -78 -170.5t-188.5 -64.5t-188.5 64.5t-78 170.5z" />
<glyph unicode="&#x12d;" d="M172 819v187h672v-1006h-236v819h-436zM426 1475h135q10 -72 47 -118t101 -46q66 0 102.5 46t44.5 118h137q-4 -123 -76.5 -210t-207.5 -87q-133 0 -206 87t-77 210z" />
<glyph unicode="&#x12e;" d="M172 0v201h324v938h-324v200h885v-200h-324v-938h324v-201h-324q-143 -80 -143 -201q0 -41 26.5 -63.5t63.5 -22.5q41 0 80 29l57 -123q-80 -66 -188 -65q-94 0 -154.5 49t-60.5 137q0 145 143 260h-385z" />
<glyph unicode="&#x12f;" d="M172 819v187h672v-1006q-139 -72 -139 -195q0 -41 26.5 -63.5t63.5 -22.5q35 0 77 27l54 -111q-78 -61 -185 -61q-88 0 -145 47t-57 133q0 127 133 246h-64v819h-436zM541 1339.5q0 69.5 48 114.5t120 45q74 0 121 -45t47 -114.5t-47.5 -113.5t-121 -44t-120.5 44 t-47 113.5z" />
<glyph unicode="&#x130;" d="M172 0v201h324v938h-324v200h885v-200h-324v-938h324v-201h-885zM469 1583q0 57 41 95t104.5 38t104.5 -38t41 -95q0 -59 -41 -97t-104.5 -38t-104.5 38t-41 97z" />
<glyph unicode="&#x131;" d="M172 819v187h672v-1006h-236v819h-436z" />
<glyph unicode="&#x134;" d="M143 197l144 145q115 -162 268 -162q125 0 183.5 66.5t58.5 216.5v678h-543v198h780v-897q0 -211 -112.5 -339t-360.5 -128q-273 1 -418 222zM346 1442l197 237h229l197 -237h-185l-122 131h-9l-123 -131h-184z" />
<glyph unicode="&#x135;" d="M100 -354l72 170q111 -51 215 -52q123 0 172 58.5t49 183.5v813h-436v187h672v-988q0 -440 -445 -440q-158 0 -299 68zM408 1174l202 323h199l203 -323h-176l-123 198h-8l-123 -198h-174z" />
<glyph unicode="&#x136;" d="M170 0v1339h240v-608h6l477 608h264l-412 -522l457 -817h-264l-334 631l-194 -240v-391h-240zM483 -354q176 20 176 84q0 61 -96 84l47 94q121 -14 172.5 -52t51.5 -112q0 -90 -93.5 -140t-236.5 -61z" />
<glyph unicode="&#x137;" d="M184 0v1446h238v-903l6 2l455 461h262l-389 -406l432 -600h-258l-316 444l-192 -186v-258h-238zM483 -354q174 20 174 84q0 61 -96 84l47 94q121 -14 172 -52t51 -112q0 -90 -93 -140t-236 -61z" />
<glyph unicode="&#x138;" d="M184 0v1006h238v-463l6 2l455 461h262l-389 -406l432 -600h-258l-316 444l-192 -186v-258h-238z" />
<glyph unicode="&#x139;" d="M246 0v1339h235v-1138h629v-201h-864zM264 1442l174 237h256l-237 -237h-193z" />
<glyph unicode="&#x13a;" d="M145 1260v186h553v-1092q0 -186 181 -186q74 0 172 39l55 -174q-168 -57 -285 -58q-174 0 -266 101.5t-92 290.5v893h-318zM424 1552l174 238h256l-238 -238h-192z" />
<glyph unicode="&#x13b;" d="M246 0v1339h235v-1138h629v-201h-864zM502 -354q174 20 174 84q0 61 -96 84l47 94q121 -14 173 -52t52 -112q0 -90 -93 -140t-239 -61z" />
<glyph unicode="&#x13c;" d="M145 1260v186h553v-1092q0 -186 181 -186q74 0 172 39l55 -174q-168 -57 -285 -58q-174 0 -266 101.5t-92 290.5v893h-318zM557 -354q176 20 176 84q0 61 -98 84l49 94q119 -14 171 -53t52 -111q0 -90 -93 -140t-236 -61z" />
<glyph unicode="&#x13d;" d="M246 0v1339h235v-1138h629v-201h-864zM784 1493h158l-2 -129l-39 -315h-106z" />
<glyph unicode="&#x13e;" d="M145 1260v186h553v-1092q0 -186 181 -186q74 0 172 39l55 -174q-168 -57 -285 -58q-174 0 -266 101.5t-92 290.5v893h-318zM827 1567h158l-4 -129l-39 -316h-106z" />
<glyph unicode="&#x13f;" d="M246 0v1339h235v-1138h629v-201h-864zM737 717q0 72 47 116t121 44t121 -44.5t47 -115.5q0 -70 -47 -113t-121 -43t-121 43t-47 113z" />
<glyph unicode="&#x140;" d="M55 1260v186h553v-1092q0 -186 180 -186q74 0 173 39l55 -174q-172 -57 -287 -58q-174 0 -265 101.5t-91 290.5v893h-318zM762 715q0 72 47 115.5t121 43.5t121 -44t47 -115q0 -70 -47 -114t-121 -44t-121 44t-47 114z" />
<glyph unicode="&#x141;" d="M88 348v187l158 88v716h235v-602l443 238v-187l-443 -237v-350h629v-201h-864v436z" />
<glyph unicode="&#x142;" d="M145 1260v186h553v-512l320 176v-195l-320 -176v-385q0 -186 181 -186q74 0 172 39l55 -174q-168 -57 -285 -58q-174 0 -266 101.5t-92 290.5v256l-242 -140v195l242 137v445h-318z" />
<glyph unicode="&#x143;" d="M152 0v1339h241l359 -753l125 -285h6q-4 41 -13.5 137.5t-14.5 174t-5 145.5v581h227v-1339h-241l-359 756l-125 282h-6q4 -45 13.5 -138t14.5 -171t5 -143v-586h-227zM498 1442l172 237h258l-240 -237h-190z" />
<glyph unicode="&#x144;" d="M168 0v1006h194l19 -152h8q172 176 363 176q338 0 338 -407v-623h-238v592q0 123 -43 179t-145 56q-70 0 -127.5 -32.5t-130.5 -108.5v-686h-238zM498 1174l182 323h248l-256 -323h-174z" />
<glyph unicode="&#x145;" d="M152 0v1339h241l359 -753l125 -285h6q-4 41 -13.5 137.5t-14.5 174t-5 145.5v581h227v-1339h-241l-359 756l-125 282h-6q4 -45 13.5 -138t14.5 -171t5 -143v-586h-227zM422 -354q176 20 176 84q0 61 -98 84l49 94q119 -14 171 -53t52 -111q0 -90 -93 -140t-237 -61z" />
<glyph unicode="&#x146;" d="M168 0v1006h194l19 -152h8q172 176 363 176q338 0 338 -407v-623h-238v592q0 123 -43 179t-145 56q-70 0 -127.5 -32.5t-130.5 -108.5v-686h-238zM442 -354q174 20 174 84q0 61 -96 84l47 94q121 -14 172.5 -52t51.5 -112q0 -90 -93.5 -140t-236.5 -61z" />
<glyph unicode="&#x147;" d="M152 0v1339h241l359 -753l125 -285h6q-4 41 -13.5 137.5t-14.5 174t-5 145.5v581h227v-1339h-241l-359 756l-125 282h-6q4 -45 13.5 -138t14.5 -171t5 -143v-586h-227zM315 1679h185l123 -131h8l123 131h184l-197 -237h-229z" />
<glyph unicode="&#x148;" d="M168 0v1006h194l19 -152h8q172 176 363 176q338 0 338 -407v-623h-238v592q0 123 -43 179t-145 56q-70 0 -127.5 -32.5t-130.5 -108.5v-686h-238zM346 1497h174l123 -199h8l123 199h176l-202 -323h-199z" />
<glyph unicode="&#x149;" d="M-70 782q207 109 220 305q-18 -8 -46 -8q-74 0 -119.5 46t-45.5 120q0 82 48 133.5t126 51.5q98 0 155.5 -77t57.5 -212q0 -160 -84 -286t-244 -202zM422 0v1006h194l19 -144h8q160 168 324 168q305 0 305 -399v-631h-236v600q0 119 -36.5 173t-118.5 54 q-61 0 -107.5 -30.5t-114.5 -102.5v-694h-237z" />
<glyph unicode="&#x14c;" d="M88 676q0 319 144.5 503.5t382 184.5t382 -184.5t144.5 -503.5q0 -322 -145.5 -511.5t-381 -189.5t-381 189.5t-145.5 511.5zM332 676q0 -225 76.5 -359.5t205.5 -134.5t206 134.5t77 359.5q0 223 -77 352t-206 129t-205.5 -129t-76.5 -352zM342 1483v155h545v-155h-545z " />
<glyph unicode="&#x14d;" d="M109 502q0 242 148.5 385t357 143t357 -143.5t148.5 -384.5q0 -240 -148.5 -383.5t-357 -143.5t-357 143.5t-148.5 383.5zM348 1221v155h533v-155h-533zM352 502q0 -152 71 -243t191.5 -91t191.5 91t71 243q0 154 -70 245t-192.5 91t-192.5 -91t-70 -245z" />
<glyph unicode="&#x14e;" d="M88 676q0 319 144.5 503.5t382 184.5t382 -184.5t144.5 -503.5q0 -322 -145.5 -511.5t-381 -189.5t-381 189.5t-145.5 511.5zM332 676q0 -225 76.5 -359.5t205.5 -134.5t206 134.5t77 359.5q0 223 -77 352t-206 129t-205.5 -129t-76.5 -352zM348 1679h135 q23 -111 131.5 -110.5t130.5 110.5h136q-12 -106 -78 -170.5t-188.5 -64.5t-188.5 64.5t-78 170.5z" />
<glyph unicode="&#x14f;" d="M109 502q0 242 148.5 385t357 143t357 -143.5t148.5 -384.5q0 -240 -148.5 -383.5t-357 -143.5t-357 143.5t-148.5 383.5zM330 1475h137q8 -72 45 -118t102.5 -46t102.5 46t45 118h137q-6 -123 -77.5 -210t-207 -87t-207 87t-77.5 210zM352 502q0 -152 71 -243t191.5 -91 t191.5 91t71 243q0 154 -70 245t-192.5 91t-192.5 -91t-70 -245z" />
<glyph unicode="&#x150;" d="M88 676q0 319 144.5 503.5t382 184.5t382 -184.5t144.5 -503.5q0 -322 -145.5 -511.5t-381 -189.5t-381 189.5t-145.5 511.5zM332 676q0 -225 76.5 -359.5t205.5 -134.5t206 134.5t77 359.5q0 223 -77 352t-206 129t-205.5 -129t-76.5 -352zM362 1442l132 237h208 l-178 -237h-162zM709 1442l131 237h209l-179 -237h-161z" />
<glyph unicode="&#x151;" d="M109 502q0 242 148.5 385t357 143t357 -143.5t148.5 -384.5q0 -240 -148.5 -383.5t-357 -143.5t-357 143.5t-148.5 383.5zM352 502q0 -152 71 -243t191.5 -91t191.5 91t71 243q0 154 -70 245t-192.5 91t-192.5 -91t-70 -245zM385 1171l143 302h193l-186 -302h-150z M711 1171l143 302h195l-189 -302h-149z" />
<glyph unicode="&#x152;" d="M53 676q0 324 149.5 493.5t405.5 169.5h586v-198h-363v-344h275v-201h-275v-395h383v-201h-616q-252 0 -398.5 175t-146.5 501zM297 676q0 -483 285 -483h36v954h-36q-285 0 -285 -471z" />
<glyph unicode="&#x153;" d="M23 504q0 244 106.5 385t265.5 141q180 0 262 -207q88 207 258 207q141 0 221.5 -135t80.5 -338q0 -61 -9 -119h-475q12 -131 66.5 -203.5t144.5 -72.5q76 0 162 59l82 -153q-119 -92 -254 -93q-186 0 -275 193q-92 -193 -268 -193q-160 0 -264 141.5t-104 387.5z M238 504q0 -156 43 -247t125 -91q74 0 115.5 92t41.5 246q0 152 -42 244t-115 92q-82 0 -125 -91t-43 -245zM731 588h297q0 260 -131 260q-143 0 -166 -260z" />
<glyph unicode="&#x154;" d="M172 0v1339h446q494 0 494 -397q0 -291 -266 -383l319 -559h-268l-287 524h-200v-524h-238zM410 713h184q285 0 285 229q0 111 -71 159t-214 48h-184v-436zM492 1442l174 237h256l-238 -237h-192z" />
<glyph unicode="&#x155;" d="M266 0v1006h195l20 -228h6q160 252 428 252q111 0 195 -41l-49 -198q-98 31 -182 30q-236 0 -375 -266v-555h-238zM547 1174l182 323h248l-256 -323h-174z" />
<glyph unicode="&#x156;" d="M172 0v1339h446q494 0 494 -397q0 -291 -266 -383l319 -559h-268l-287 524h-200v-524h-238zM410 713h184q285 0 285 229q0 111 -71 159t-214 48h-184v-436zM463 -354q176 20 176 84q0 61 -98 84l49 94q119 -14 171 -53t52 -111q0 -90 -93 -140t-237 -61z" />
<glyph unicode="&#x157;" d="M221 -354q174 20 174 84q0 61 -96 84l47 94q121 -14 172 -52t51 -112q0 -90 -93 -140t-236 -61zM266 0v1006h195l20 -228h6q160 252 428 252q111 0 195 -41l-49 -198q-98 31 -182 30q-236 0 -375 -266v-555h-238z" />
<glyph unicode="&#x158;" d="M172 0v1339h446q494 0 494 -397q0 -291 -266 -383l319 -559h-268l-287 524h-200v-524h-238zM311 1679h185l122 -131h9l123 131h184l-197 -237h-229zM410 713h184q285 0 285 229q0 111 -71 159t-214 48h-184v-436z" />
<glyph unicode="&#x159;" d="M266 0v1006h195l20 -228h6q160 252 428 252q111 0 195 -41l-49 -198q-98 31 -182 30q-236 0 -375 -266v-555h-238zM395 1497h174l123 -199h8l123 199h176l-202 -323h-199z" />
<glyph unicode="&#x15a;" d="M119 172l139 162q168 -152 365 -152q121 0 185 46t64 126q0 76 -51 113t-174 84l-182 80q-287 113 -287 356q0 162 131 269.5t334 107.5q250 0 430 -170l-123 -152q-143 115 -307 115q-104 0 -164.5 -42t-60.5 -116q0 -47 32.5 -82.5t69.5 -53t110 -45.5q11 -5 17 -7 l176 -76q139 -55 215 -140t76 -222q0 -168 -134 -283t-362 -115q-290 0 -499 197zM504 1442l172 237h258l-238 -237h-192z" />
<glyph unicode="&#x15b;" d="M127 131l111 150q184 -127 389 -127q115 0 172 32.5t57 87.5q0 51 -68.5 88t-228.5 78q-371 98 -371 289q0 135 118 218t327 83q217 0 418 -133l-109 -145q-152 100 -307 100q-211 0 -211 -111q0 -49 70.5 -81.5t212.5 -69.5q193 -51 289 -119t96 -184 q0 -135 -125 -223.5t-346 -88.5q-269 0 -494 156zM479 1174l185 323h245l-254 -323h-176z" />
<glyph unicode="&#x15c;" d="M119 172l139 162q168 -152 365 -152q121 0 185 46t64 126q0 76 -51 113t-174 84l-182 80q-287 113 -287 356q0 162 131 269.5t334 107.5q250 0 430 -170l-123 -152q-143 115 -307 115q-104 0 -164.5 -42t-60.5 -116q0 -47 32.5 -82.5t69.5 -53t110 -45.5q11 -5 17 -7 l176 -76q139 -55 215 -140t76 -222q0 -168 -134 -283t-362 -115q-290 0 -499 197zM322 1442l196 237h230l196 -237h-184l-123 131h-8l-123 -131h-184z" />
<glyph unicode="&#x15d;" d="M127 131l111 150q184 -127 389 -127q115 0 172 32.5t57 87.5q0 51 -68.5 88t-228.5 78q-371 98 -371 289q0 135 118 218t327 83q217 0 418 -133l-109 -145q-152 100 -307 100q-211 0 -211 -111q0 -49 70.5 -81.5t212.5 -69.5q193 -51 289 -119t96 -184 q0 -135 -125 -223.5t-346 -88.5q-269 0 -494 156zM328 1174l202 323h201l203 -323h-176l-123 198h-8l-123 -198h-176z" />
<glyph unicode="&#x15e;" d="M119 172l139 162q168 -152 365 -152q121 0 185 46t64 126q0 76 -51 113t-174 84l-182 80q-287 113 -287 356q0 162 131 269.5t334 107.5q250 0 430 -170l-123 -152q-143 115 -307 115q-104 0 -164.5 -42t-60.5 -116q0 -47 32.5 -82.5t69.5 -53t110 -45.5q11 -5 17 -7 l176 -76q139 -55 215 -140t76 -222q0 -154 -112.5 -263.5t-305.5 -129.5l-34 -74q121 -43 120 -150q0 -90 -93 -140t-238 -60l-19 102q174 20 174 94q0 61 -123 94l68 134q-252 23 -432 192z" />
<glyph unicode="&#x15f;" d="M127 131l111 150q184 -127 389 -127q115 0 172 32.5t57 87.5q0 51 -68.5 88t-228.5 78q-371 98 -371 289q0 135 118 218t327 83q217 0 418 -133l-109 -145q-152 100 -307 100q-211 0 -211 -111q0 -49 70.5 -81.5t212.5 -69.5q193 -51 289 -119t96 -184 q0 -119 -100.5 -204t-280.5 -103l-35 -74q121 -43 121 -150q0 -90 -93.5 -140t-236.5 -60l-21 102q176 20 177 94q0 61 -125 94l67 131q-242 18 -438 154z" />
<glyph unicode="&#x160;" d="M119 172l139 162q168 -152 365 -152q121 0 185 46t64 126q0 76 -51 113t-174 84l-182 80q-287 113 -287 356q0 162 131 269.5t334 107.5q250 0 430 -170l-123 -152q-143 115 -307 115q-104 0 -164.5 -42t-60.5 -116q0 -47 32.5 -82.5t69.5 -53t110 -45.5q11 -5 17 -7 l176 -76q139 -55 215 -140t76 -222q0 -168 -134 -283t-362 -115q-290 0 -499 197zM322 1679h184l123 -131h8l123 131h184l-196 -237h-230z" />
<glyph unicode="&#x161;" d="M127 131l111 150q184 -127 389 -127q115 0 172 32.5t57 87.5q0 51 -68.5 88t-228.5 78q-371 98 -371 289q0 135 118 218t327 83q217 0 418 -133l-109 -145q-152 100 -307 100q-211 0 -211 -111q0 -49 70.5 -81.5t212.5 -69.5q193 -51 289 -119t96 -184 q0 -135 -125 -223.5t-346 -88.5q-269 0 -494 156zM328 1497h176l123 -199h8l123 199h176l-203 -323h-201z" />
<glyph unicode="&#x162;" d="M74 1139v200h1081v-200h-422v-1139h-43l-45 -94q121 -43 121 -150q0 -90 -93 -140t-239 -60l-18 102q174 20 174 94q0 61 -123 94l78 154h-49v1139h-422z" />
<glyph unicode="&#x163;" d="M121 819v176l278 11l31 274h195v-274h456v-187h-456v-413q0 -127 53 -184.5t178 -57.5q115 0 223 41l43 -172q-147 -50 -286 -58l-33 -69q121 -43 121 -150q0 -90 -93.5 -140t-236.5 -60l-21 102q176 20 177 94q0 61 -125 94l69 138q-305 47 -305 422v413h-268z" />
<glyph unicode="&#x164;" d="M74 1139v200h1081v-200h-422v-1139h-237v1139h-422zM303 1679h184l123 -131h8l123 131h185l-197 -237h-229z" />
<glyph unicode="&#x165;" d="M121 819v176l278 11l31 274h195v-274h456v-187h-456v-413q0 -127 53 -184.5t178 -57.5q115 0 223 41l43 -172q-164 -57 -323 -58q-410 1 -410 431v413h-268zM795 1567h157l-2 -129l-39 -316h-106z" />
<glyph unicode="&#x168;" d="M147 512v827h238v-845q0 -311 231 -312q238 0 238 312v845h227v-827q0 -270 -119.5 -403.5t-345 -133.5t-347.5 134.5t-122 402.5zM291 1448q12 117 65.5 183.5t130.5 66.5q61 0 139.5 -49.5t106.5 -49.5q61 0 80 99h125q-12 -117 -65.5 -183.5t-131.5 -66.5 q-61 0 -139 50t-106 50q-61 0 -80 -100h-125z" />
<glyph unicode="&#x169;" d="M143 383v623h236v-592q0 -123 43 -179.5t145 -56.5q72 0 128.5 34t123.5 116v678h236v-1006h-193l-18 160h-8q-158 -184 -357 -185q-336 0 -336 408zM285 1182q14 123 68.5 191.5t140.5 68.5q55 0 124.5 -55.5t96.5 -55.5q63 0 84 111h127q-16 -125 -70.5 -192.5 t-140.5 -67.5q-55 0 -124 55t-95 55q-63 0 -86 -110h-125z" />
<glyph unicode="&#x16a;" d="M147 512v827h238v-845q0 -311 231 -312q238 0 238 312v845h227v-827q0 -270 -119.5 -403.5t-345 -133.5t-347.5 134.5t-122 402.5zM342 1483v155h545v-155h-545z" />
<glyph unicode="&#x16b;" d="M143 383v623h236v-592q0 -123 43 -179.5t145 -56.5q72 0 128.5 34t123.5 116v678h236v-1006h-193l-18 160h-8q-158 -184 -357 -185q-336 0 -336 408zM338 1221v155h534v-155h-534z" />
<glyph unicode="&#x16c;" d="M147 512v827h238v-845q0 -311 231 -312q238 0 238 312v845h227v-827q0 -270 -119.5 -403.5t-345 -133.5t-347.5 134.5t-122 402.5zM348 1679h135q23 -111 131.5 -110.5t130.5 110.5h136q-12 -106 -78 -170.5t-188.5 -64.5t-188.5 64.5t-78 170.5z" />
<glyph unicode="&#x16d;" d="M143 383v623h236v-592q0 -123 43 -179.5t145 -56.5q72 0 128.5 34t123.5 116v678h236v-1006h-193l-18 160h-8q-158 -184 -357 -185q-336 0 -336 408zM319 1475h138q10 -72 47 -118t100 -46q66 0 102.5 46t45.5 118h137q-6 -123 -78 -210t-207 -87t-206.5 87t-78.5 210z " />
<glyph unicode="&#x16e;" d="M147 512v827h238v-845q0 -311 231 -312q238 0 238 312v845h227v-827q0 -270 -119.5 -403.5t-345 -133.5t-347.5 134.5t-122 402.5zM403 1620q0 86 58.5 138t152.5 52q92 0 151.5 -52t59.5 -138t-58 -138t-152.5 -52t-153 52t-58.5 138zM524 1620q0 -45 25.5 -70.5 t64.5 -25.5t65 25.5t26 70.5q0 43 -26 69.5t-65 26.5t-64.5 -26.5t-25.5 -69.5z" />
<glyph unicode="&#x16f;" d="M143 383v623h236v-592q0 -123 43 -179.5t145 -56.5q72 0 128.5 34t123.5 116v678h236v-1006h-193l-18 160h-8q-158 -184 -357 -185q-336 0 -336 408zM393 1315q0 90 58.5 145.5t152.5 55.5t152.5 -55.5t58.5 -145.5q0 -88 -58.5 -143.5t-152.5 -55.5t-152.5 55.5 t-58.5 143.5zM514 1315q0 -45 26.5 -75t63.5 -30q39 0 65.5 30t26.5 75q0 47 -26.5 76.5t-65.5 29.5q-37 0 -63.5 -29.5t-26.5 -76.5z" />
<glyph unicode="&#x170;" d="M147 512v827h238v-845q0 -311 231 -312q238 0 238 312v845h227v-827q0 -270 -119.5 -403.5t-345 -133.5t-347.5 134.5t-122 402.5zM362 1442l132 237h208l-178 -237h-162zM709 1442l131 237h209l-179 -237h-161z" />
<glyph unicode="&#x171;" d="M143 383v623h236v-592q0 -123 43 -179.5t145 -56.5q72 0 128.5 34t123.5 116v678h236v-1006h-193l-18 160h-8q-158 -184 -357 -185q-336 0 -336 408zM375 1171l143 302h195l-189 -302h-149zM700 1171l144 302h194l-188 -302h-150z" />
<glyph unicode="&#x172;" d="M147 512v827h238v-845q0 -311 231 -312q238 0 238 312v845h227v-827q0 -381 -254 -498q-199 -96 -198 -215q0 -41 26.5 -63.5t65.5 -22.5t78 29l57 -123q-80 -66 -188 -65q-94 0 -155.5 49t-61.5 137q0 23 4 44t10 37.5t17.5 36t18.5 31t22.5 28.5t21.5 23.5t21.5 21.5 t17.5 18q-219 8 -328 144t-109 388z" />
<glyph unicode="&#x173;" d="M143 383v623h236v-592q0 -123 43 -179.5t145 -56.5q72 0 128.5 34t123.5 116v678h236v-1006q-178 -70 -178 -195q0 -41 26.5 -63.5t63.5 -22.5q45 0 77 27l54 -111q-76 -61 -185 -61q-88 0 -144 47t-56 133q0 137 151 248l-20 158h-8q-158 -184 -357 -185 q-336 0 -336 408z" />
<glyph unicode="&#x174;" d="M14 1339h240l74 -776q2 -57 10 -168.5t10 -167.5h6q12 63 41 180t37 156l117 434h151l115 -434q10 -49 37 -161.5t39 -174.5h8q4 61 11.5 175t9.5 161l69 776h225l-182 -1339h-252l-118 489q-27 121 -44 250h-6q-23 -150 -45 -250l-112 -489h-248zM303 1442l197 237h229 l197 -237h-185l-123 131h-8l-123 -131h-184z" />
<glyph unicode="&#x175;" d="M10 1006h236l92 -523q10 -55 23.5 -159.5t17.5 -128.5h8q25 162 51 288l94 424h175l98 -424q25 -111 53 -288h8q10 55 23.5 155.5t17.5 132.5l92 523h220l-187 -1006h-278l-88 420q-8 47 -23.5 143t-26.5 150h-8q-4 -25 -11 -78t-15.5 -106.5t-18.5 -110.5l-84 -418h-272 zM313 1174l203 323h199l203 -323h-175l-122 198h-9l-123 -198h-176z" />
<glyph unicode="&#x176;" d="M55 1339h252l168 -360q53 -117 137 -309h9q6 16 60 133t81 178l166 358h246l-441 -874v-465h-237v465zM303 1442l197 237h229l197 -237h-185l-123 131h-8l-123 -131h-184z" />
<glyph unicode="&#x177;" d="M82 1006h235l207 -494q23 -53 111 -295h8q25 78 100 295l183 494h223l-420 -1051q-70 -182 -173 -275.5t-275 -93.5q-78 0 -144 21l45 184q47 -14 84 -14q172 0 242 172l24 63zM324 1174l202 323h199l203 -323h-174l-123 198h-8l-123 -198h-176z" />
<glyph unicode="&#x178;" d="M55 1339h252l168 -360q53 -117 137 -309h9q6 16 60 133t81 178l166 358h246l-441 -874v-465h-237v465zM303 1571q0 53 34 88t87 35t88 -35t35 -88t-35 -87t-88 -34t-87 34t-34 87zM682 1571q0 53 35 88t88 35t87 -35t34 -88t-34 -87t-87 -34t-88 34t-35 87z" />
<glyph unicode="&#x179;" d="M125 0v143l686 998h-625v198h918v-143l-688 -995h696v-201h-987zM516 1442l172 237h258l-239 -237h-191z" />
<glyph unicode="&#x17a;" d="M145 0v127l605 692h-535v187h866v-125l-606 -693h625v-188h-955zM508 1174l184 323h246l-254 -323h-176z" />
<glyph unicode="&#x17b;" d="M125 0v143l686 998h-625v198h918v-143l-688 -995h696v-201h-987zM500 1583q0 57 41 95t104.5 38t104.5 -38t41 -95q0 -59 -41 -97t-104.5 -38t-104.5 38t-41 97z" />
<glyph unicode="&#x17c;" d="M145 0v127l605 692h-535v187h866v-125l-606 -693h625v-188h-955zM492 1339.5q0 69.5 47 114.5t120 45q72 0 120 -45t48 -114.5t-47 -113.5t-120.5 -44t-120.5 44t-47 113.5z" />
<glyph unicode="&#x17d;" d="M125 0v143l686 998h-625v198h918v-143l-688 -995h696v-201h-987zM334 1679h184l123 -131h8l123 131h184l-196 -237h-230z" />
<glyph unicode="&#x17e;" d="M145 0v127l605 692h-535v187h866v-125l-606 -693h625v-188h-955zM356 1497h176l123 -199h9l122 199h175l-203 -323h-199z" />
<glyph unicode="&#x180;" d="M27 1155v111l141 8v172h238v-170h401v-121h-401v-123l-9 -176q143 133 312 133q193 0 302 -132t109 -357q0 -240 -132 -382.5t-314 -142.5q-154 0 -293 136h-6l-21 -111h-186v1155h-141zM406 262q100 -92 221 -92q111 0 180.5 85t69.5 241q0 299 -234 299 q-118 0 -237 -121v-412z" />
<glyph unicode="&#x18f;" d="M123 664q0 23 4 71h772q-10 207 -84 316.5t-206.5 110t-241.5 -108.5l-105 161q150 150 371 150q231 0 367.5 -184.5t136.5 -507.5q0 -322 -140.5 -509.5t-371.5 -187.5q-227 0 -364.5 186.5t-137.5 502.5zM365 559q12 -182 80.5 -281.5t179 -99.5t182.5 100.5t90 282.5z " />
<glyph unicode="&#x192;" d="M98 -164l35 176q68 -23 117 -22q92 2 133 68.5t66 236.5l40 373h-194v163l147 11h68l10 100q31 221 122 321.5t278 100.5q114 0 192 -41l-49 -176q-61 27 -125 27q-160 0 -188 -211l-15 -121h262v-174h-282l-51 -437q-27 -207 -112 -318.5t-271 -111.5q-119 2 -183 35z " />
<glyph unicode="&#x1a0;" d="M88 676q0 319 144.5 503.5t381.5 184.5q135 0 246 -64q70 12 104.5 42t34.5 88q1 45 -30 90l164 73q53 -68 53 -147q0 -180 -217 -234q172 -188 172 -536q0 -322 -145.5 -511.5t-381 -189.5t-381 189.5t-145.5 511.5zM332 676q0 -225 76.5 -359.5t205.5 -134.5t206 134.5 t77 359.5q0 223 -77 352t-206 129t-205.5 -129t-76.5 -352z" />
<glyph unicode="&#x1a1;" d="M109 502q0 242 148.5 385t356.5 143q109 0 215 -45q78 12 115 42t37 89q0 43 -31 90l164 76q53 -68 53 -149q0 -176 -211 -232q164 -150 164 -399q0 -240 -148.5 -383.5t-357 -143.5t-357 143.5t-148.5 383.5zM352 502q0 -152 71 -243t191.5 -91t191.5 91t71 243 q0 154 -70 245t-192.5 91t-192.5 -91.5t-70 -244.5z" />
<glyph unicode="&#x1af;" d="M147 512v827h238v-845q0 -311 231 -312q238 0 238 312v845h109q82 6 127 35t45 96q0 46 -31 91l164 73q55 -66 55 -147q0 -190 -242 -240v-735q0 -270 -119.5 -403.5t-345 -133.5t-347.5 134.5t-122 402.5z" />
<glyph unicode="&#x1b0;" d="M143 383v623h236v-592q0 -123 43 -179.5t145 -56.5q72 0 128.5 34t123.5 116v678h76q168 12 168 131q0 43 -31 90l164 76q53 -68 53 -150q0 -170 -194 -227v-926h-193l-18 160h-8q-158 -184 -357 -185q-336 0 -336 408z" />
<glyph unicode="&#x1cd;" d="M41 0l434 1339h279l434 -1339h-252l-102 362h-447l-104 -362h-242zM303 1679h184l123 -131h8l123 131h185l-197 -237h-229zM440 549h340l-47 164q-49 178 -119 442h-8q-53 -217 -119 -442z" />
<glyph unicode="&#x1ce;" d="M145 270q0 170 163 258t532 115q-14 197 -240 197q-135 0 -330 -107l-86 158q236 139 459 139q209 0 320.5 -111.5t111.5 -322.5v-596h-192l-19 125h-6q-195 -150 -377 -150q-147 0 -241.5 82t-94.5 213zM334 1497h176l123 -199h8l123 199h174l-201 -323h-200zM373 289 q0 -63 50 -96t130 -33q133 0 287 123v213q-258 -18 -362.5 -69.5t-104.5 -137.5z" />
<glyph unicode="&#x1cf;" d="M172 0v201h324v938h-324v200h885v-200h-324v-938h324v-201h-885zM303 1679h184l123 -131h8l123 131h185l-197 -237h-229z" />
<glyph unicode="&#x1d0;" d="M172 819v187h672v-1006h-236v819h-436zM408 1497h174l123 -199h8l123 199h176l-203 -323h-199z" />
<glyph unicode="&#x1d1;" d="M88 676q0 319 144.5 503.5t382 184.5t382 -184.5t144.5 -503.5q0 -322 -145.5 -511.5t-381 -189.5t-381 189.5t-145.5 511.5zM303 1679h184l123 -131h8l123 131h185l-197 -237h-229zM332 676q0 -225 76.5 -359.5t205.5 -134.5t206 134.5t77 359.5q0 223 -77 352t-206 129 t-205.5 -129t-76.5 -352z" />
<glyph unicode="&#x1d2;" d="M109 502q0 242 148.5 385t357 143t357 -143.5t148.5 -384.5q0 -240 -148.5 -383.5t-357 -143.5t-357 143.5t-148.5 383.5zM311 1497h176l123 -199h8l123 199h177l-203 -323h-201zM352 502q0 -152 71 -243t191.5 -91t191.5 91t71 243q0 154 -70 245t-192.5 91t-192.5 -91 t-70 -245z" />
<glyph unicode="&#x1d3;" d="M147 512v827h238v-845q0 -311 231 -312q238 0 238 312v845h227v-827q0 -270 -119.5 -403.5t-345 -133.5t-347.5 134.5t-122 402.5zM303 1679h184l123 -131h8l123 131h185l-197 -237h-229z" />
<glyph unicode="&#x1d4;" d="M143 383v623h236v-592q0 -123 43 -179.5t145 -56.5q72 0 128.5 34t123.5 116v678h236v-1006h-193l-18 160h-8q-158 -184 -357 -185q-336 0 -336 408zM303 1497h174l123 -199h8l123 199h176l-202 -323h-201z" />
<glyph unicode="&#x1d5;" d="M147 512v827h238v-845q0 -311 231 -312q238 0 238 312v845h227v-827q0 -270 -119.5 -403.5t-345 -133.5t-347.5 134.5t-122 402.5zM315 1558.5q0 47.5 31 79t78 31.5t79 -31.5t32 -79t-32 -78t-79 -30.5t-78 30.5t-31 78zM342 1774v118h545v-118h-545zM694 1558.5 q0 47.5 32 79t79 31.5t77.5 -31.5t30.5 -79t-30.5 -78t-77.5 -30.5t-79 30.5t-32 78z" />
<glyph unicode="&#x1d6;" d="M143 383v623h236v-592q0 -123 43 -179.5t145 -56.5q72 0 128.5 34t123.5 116v678h236v-1006h-193l-18 160h-8q-158 -184 -357 -185q-336 0 -336 408zM305 1296q0 47 31 78t78 31q49 0 79.5 -31t30.5 -78t-30.5 -78.5t-79.5 -31.5q-47 0 -78 31.5t-31 78.5zM336 1542v119 h536v-119h-536zM684 1296q0 47 32 78t79 31t78.5 -31t31.5 -78t-31.5 -78.5t-78.5 -31.5t-79 31.5t-32 78.5z" />
<glyph unicode="&#x1d7;" d="M147 512v827h238v-845q0 -311 231 -312q238 0 238 312v845h227v-827q0 -270 -119.5 -403.5t-345 -133.5t-347.5 134.5t-122 402.5zM315 1558.5q0 47.5 31 79t78 31.5t79 -31.5t32 -79t-32 -78t-79 -30.5t-78 30.5t-31 78zM485 1733l174 237h252l-235 -237h-191z M694 1558.5q0 47.5 32 79t79 31.5t77.5 -31.5t30.5 -79t-30.5 -78t-77.5 -30.5t-79 30.5t-32 78z" />
<glyph unicode="&#x1d8;" d="M143 383v623h236v-592q0 -123 43 -179.5t145 -56.5q72 0 128.5 34t123.5 116v678h236v-1006h-193l-18 160h-8q-158 -184 -357 -185q-336 0 -336 408zM305 1296q0 47 31 78t78 31q49 0 79.5 -31t30.5 -78t-30.5 -78.5t-79.5 -31.5q-47 0 -78 31.5t-31 78.5zM481 1493 l168 219h211l-223 -219h-156zM684 1296q0 47 32 78t79 31t78.5 -31t31.5 -78t-31.5 -78.5t-78.5 -31.5t-79 31.5t-32 78.5z" />
<glyph unicode="&#x1d9;" d="M147 512v827h238v-845q0 -311 231 -312q238 0 238 312v845h227v-827q0 -270 -119.5 -403.5t-345 -133.5t-347.5 134.5t-122 402.5zM303 1970h184l123 -131h8l123 131h185l-197 -237h-229zM315 1558.5q0 47.5 31 79t78 31.5t79 -31.5t32 -79t-32 -78t-79 -30.5t-78 30.5 t-31 78zM694 1558.5q0 47.5 32 79t79 31.5t77.5 -31.5t30.5 -79t-30.5 -78t-77.5 -30.5t-79 30.5t-32 78z" />
<glyph unicode="&#x1da;" d="M143 383v623h236v-592q0 -123 43 -179.5t145 -56.5q72 0 128.5 34t123.5 116v678h236v-1006h-193l-18 160h-8q-158 -184 -357 -185q-336 0 -336 408zM305 1296q0 47 31 78t78 31q49 0 79.5 -31t30.5 -78t-30.5 -78.5t-79.5 -31.5q-47 0 -78 31.5t-31 78.5zM324 1712h165 l111 -125h8l113 125h164l-180 -219h-201zM684 1296q0 47 32 78t79 31t78.5 -31t31.5 -78t-31.5 -78.5t-78.5 -31.5t-79 31.5t-32 78.5z" />
<glyph unicode="&#x1db;" d="M147 512v827h238v-845q0 -311 231 -312q238 0 238 312v845h227v-827q0 -270 -119.5 -403.5t-345 -133.5t-347.5 134.5t-122 402.5zM315 1558.5q0 47.5 31 79t78 31.5t79 -31.5t32 -79t-32 -78t-79 -30.5t-78 30.5t-31 78zM317 1970h252l174 -237h-190zM694 1558.5 q0 47.5 32 79t79 31.5t77.5 -31.5t30.5 -79t-30.5 -78t-77.5 -30.5t-79 30.5t-32 78z" />
<glyph unicode="&#x1dc;" d="M143 383v623h236v-592q0 -123 43 -179.5t145 -56.5q72 0 128.5 34t123.5 116v678h236v-1006h-193l-18 160h-8q-158 -184 -357 -185q-336 0 -336 408zM305 1296q0 47 31 78t78 31q49 0 79.5 -31t30.5 -78t-30.5 -78.5t-79.5 -31.5q-47 0 -78 31.5t-31 78.5zM348 1712h211 l170 -219h-156zM684 1296q0 47 32 78t79 31t78.5 -31t31.5 -78t-31.5 -78.5t-78.5 -31.5t-79 31.5t-32 78.5z" />
<glyph unicode="&#x1e6;" d="M98 665.5q0 323.5 170 511t439 187.5q219 0 378 -168l-131 -147q-104 109 -247 108q-162 0 -262.5 -131t-100.5 -354q0 -231 95.5 -360.5t271.5 -129.5q121 0 180 60v288h-232v195h447v-590q-72 -70 -179.5 -115t-230.5 -45q-264 0 -431 183.5t-167 507zM367 1679h184 l123 -131h8l123 131h184l-196 -237h-230z" />
<glyph unicode="&#x1e7;" d="M127 -176q0 127 160 211v8q-102 59 -103 168q0 106 121 190v9q-129 88 -129 258q0 168 120 265t294 97q90 0 158 -24h411v-175h-235q68 -80 67 -172q0 -162 -112.5 -251t-288.5 -89q-76 0 -154 27q-61 -39 -61 -92q0 -96 190 -96h205q199 0 297 -58.5t98 -187.5 q0 -152 -159.5 -254t-419.5 -102q-213 0 -336 68.5t-123 199.5zM324 -145q0 -68 75.5 -107t214.5 -39q143 0 233.5 48t90.5 116q0 55 -48 76.5t-155 21.5h-160q-102 0 -153 17q-98 -59 -98 -133zM324 1497h176l123 -199h8l123 199h174l-201 -323h-201zM399 668 q0 -92 54.5 -146.5t136.5 -54.5t137 54t55 147q0 90 -56 145t-136 55t-135.5 -55t-55.5 -145z" />
<glyph unicode="&#x1ea;" d="M88 676q0 319 144.5 503.5t382 184.5t382 -184.5t144.5 -503.5q0 -516 -359 -672q-74 -33 -111.5 -90t-37.5 -115q0 -41 26.5 -63.5t65.5 -22.5t78 29l57 -123q-80 -66 -188 -65q-94 0 -155.5 49t-61.5 137q0 131 129 237q-244 18 -370 216t-126 483zM332 676 q0 -225 76.5 -359.5t205.5 -134.5t206 134.5t77 359.5q0 223 -77 352t-206 129t-205.5 -129t-76.5 -352z" />
<glyph unicode="&#x1eb;" d="M109 502q0 242 148.5 385t357 143t357 -143.5t148.5 -384.5q0 -195 -92 -314.5t-264 -191.5q-70 -33 -105.5 -85t-35.5 -106q0 -41 26.5 -63.5t63.5 -22.5q41 0 78 27l53 -111q-76 -61 -185 -61q-88 0 -144 47t-56 133q0 127 112 226q-197 14 -329.5 155t-132.5 367z M352 502q0 -152 71 -243t191.5 -91t191.5 91t71 243q0 154 -70 245t-192.5 91t-192.5 -91t-70 -245z" />
<glyph unicode="&#x218;" d="M119 172l139 162q168 -152 365 -152q121 0 185 46t64 126q0 76 -51 113t-174 84l-182 80q-287 113 -287 356q0 162 131 269.5t334 107.5q250 0 430 -170l-123 -152q-143 115 -307 115q-104 0 -164.5 -42t-60.5 -116q0 -47 32.5 -82.5t69.5 -53t110 -45.5q11 -5 17 -7 l176 -76q139 -55 215 -140t76 -222q0 -168 -134 -283t-362 -115q-290 0 -499 197zM442 -354q176 20 176 84q0 61 -98 84l49 94q119 -14 171.5 -53t52.5 -111q0 -90 -93.5 -140t-236.5 -61z" />
<glyph unicode="&#x219;" d="M127 131l111 150q184 -127 389 -127q115 0 172 32.5t57 87.5q0 51 -68.5 88t-228.5 78q-371 98 -371 289q0 135 118 218t327 83q217 0 418 -133l-109 -145q-152 100 -307 100q-211 0 -211 -111q0 -49 70.5 -81.5t212.5 -69.5q193 -51 289 -119t96 -184 q0 -135 -125 -223.5t-346 -88.5q-269 0 -494 156zM438 -354q176 20 176 84q0 61 -96 84l47 94q121 -14 172 -52t51 -112q0 -90 -93 -140t-236 -61z" />
<glyph unicode="&#x21a;" d="M74 1139v200h1081v-200h-422v-1139h-237v1139h-422zM422 -354q176 20 176 84q0 61 -96 84l47 94q121 -14 172 -52t51 -112q0 -90 -93 -140t-237 -61z" />
<glyph unicode="&#x21b;" d="M121 819v176l278 11l31 274h195v-274h456v-187h-456v-413q0 -127 53 -184.5t178 -57.5q115 0 223 41l43 -172q-164 -57 -323 -58q-410 1 -410 431v413h-268zM573 -354q174 20 175 84q0 61 -97 84l47 94q121 -14 172.5 -52t51.5 -112q0 -90 -93.5 -140t-236.5 -61z" />
<glyph unicode="&#x237;" d="M100 -354l72 170q111 -51 215 -52q123 0 172 58.5t49 183.5v813h-436v187h672v-988q0 -440 -445 -440q-158 0 -299 68z" />
<glyph unicode="&#x243;" d="M37 360v111l156 10v858h403q473 0 473 -323q0 -94 -58 -169t-171 -104v-8q299 -53 299 -329q0 -201 -138.5 -303.5t-369.5 -102.5h-438v360h-156zM430 172h176q147 0 226 63.5t79 186.5q0 229 -305 229h-176v-170h254v-121h-254v-188zM430 797h143q266 0 267 196 q0 90 -63.5 132t-196.5 42h-150v-370z" />
<glyph unicode="&#x251;" d="M109 502q0 238 132 383t316 145q160 0 291 -131h6l20 107h187v-1006h-195l-18 117h-6q-59 -61 -141.5 -101.5t-161.5 -40.5q-195 0 -312.5 140.5t-117.5 386.5zM352 504q0 -162 63.5 -248t180.5 -86q125 0 227 121v452q-98 92 -215 93q-109 0 -182.5 -89t-73.5 -243z" />
<glyph unicode="&#x259;" d="M127 461q0 49 10 110h731q-14 133 -93 205t-218 72q-141 0 -287 -78l-80 152q174 109 394 108q240 0 383 -140t143 -386q0 -240 -145.5 -384.5t-366.5 -144.5q-219 0 -345 133.5t-126 352.5zM344 422q0 -127 66.5 -195.5t183.5 -68.5q119 0 190.5 66.5t85.5 197.5h-526z " />
<glyph unicode="&#x261;" d="M109 520.5q0 227.5 132 368.5t316 141q164 0 291 -131h6l20 107h187v-1008q0 -199 -129 -309.5t-369 -110.5q-221 0 -387 107l82 163q139 -84 305 -84q125 0 193.5 57.5t74.5 158.5l5 163q-55 -55 -136.5 -90t-160.5 -35q-193 0 -311.5 137.5t-118.5 365zM348 522 q0 -145 67.5 -228t180.5 -83q127 0 227 123v409q-98 92 -217 93q-106 0 -182 -87t-76 -227z" />
<glyph unicode="&#x2b0;" d="M338 532v953h174v-242l-10 -133q109 104 229 104q219 0 219 -266v-416h-172v394q0 76 -26.5 109.5t-87.5 33.5q-66 0 -152 -80v-457h-174z" />
<glyph unicode="&#x2b2;" d="M279 303l53 123q68 -33 129 -33q78 0 109.5 37t31.5 117v516h-272v135h442v-643q0 -297 -303 -297q-92 0 -190 45zM565 1419q0 49 33 80t86 31t87 -31t34 -80t-34 -79.5t-87 -30.5t-86 29.5t-33 80.5z" />
<glyph unicode="&#x2b3;" d="M469 532v666h141l15 -149h4q94 166 256 165q76 0 129 -26l-33 -144q-63 20 -121 21q-141 0 -219 -174v-359h-172z" />
<glyph unicode="&#x2b7;" d="M170 1198h170l57 -332q4 -33 12.5 -97t12.5 -97h4q20 131 35 194l55 258h125l59 -258q16 -72 35 -194h6q4 33 13.5 97.5t13.5 96.5l53 332h160l-119 -666h-203l-51 259q-20 123 -30 194h-7q-2 -18 -11 -81.5t-17 -112.5l-49 -259h-199z" />
<glyph unicode="&#x2b8;" d="M274 1198h175l116 -311q4 -12 62 -189h6q8 31 25.5 94.5t27.5 94.5l100 311h166l-252 -686q-47 -127 -112.5 -187.5t-175.5 -60.5q-45 0 -93 15l31 129q2 0 20.5 -4.5t28.5 -4.5q98 0 138 105l12 41z" />
<glyph unicode="&#x2bb;" d="M401 942q0 160 84 286t244 202l68 -130q-207 -109 -219 -305q18 8 45 9q74 0 119.5 -46.5t45.5 -119.5q0 -82 -48 -133.5t-126 -51.5q-98 0 -155.5 77t-57.5 212z" />
<glyph unicode="&#x2bc;" d="M430 782q207 109 221 305q-23 -8 -49 -8q-72 0 -119 46t-47 120q0 82 49.5 133.5t124.5 51.5q98 0 155.5 -77t57.5 -212q0 -160 -83.5 -286t-241.5 -202z" />
<glyph unicode="&#x2be;" d="M489 1034v92q186 0 186.5 147.5t-186.5 147.5v95q150 4 229 -61.5t79 -180.5t-79 -179.5t-229 -60.5z" />
<glyph unicode="&#x2bf;" d="M438 1274q0 115 78.5 180.5t228.5 61.5v-95q-186 0 -186 -147.5t186 -147.5v-92q-150 -4 -228.5 60.5t-78.5 179.5z" />
<glyph unicode="&#x2c6;" d="M311 1174l203 323h201l203 -323h-177l-123 198h-8l-123 -198h-176z" />
<glyph unicode="&#x2c7;" d="M311 1497h176l123 -199h8l123 199h177l-203 -323h-201z" />
<glyph unicode="&#x2c8;" d="M483 1491h262l-55 -698h-151z" />
<glyph unicode="&#x2c9;" d="M348 1221v155h533v-155h-533z" />
<glyph unicode="&#x2ca;" d="M463 1174l182 323h248l-256 -323h-174z" />
<glyph unicode="&#x2cb;" d="M334 1497h246l184 -323h-176z" />
<glyph unicode="&#x2cc;" d="M483 -532l56 700h151l55 -700h-262z" />
<glyph unicode="&#x2d8;" d="M330 1475h137q8 -72 45 -118t102.5 -46t102.5 46t45 118h137q-6 -123 -77.5 -210t-207 -87t-207 87t-77.5 210z" />
<glyph unicode="&#x2d9;" d="M446 1339.5q0 69.5 48.5 114.5t120 45t119.5 -45t48 -114.5t-47 -113.5t-120.5 -44t-121 44t-47.5 113.5z" />
<glyph unicode="&#x2da;" d="M403 1315q0 90 58.5 145.5t153 55.5t152.5 -55.5t58 -145.5q0 -88 -58 -143.5t-152.5 -55.5t-153 55.5t-58.5 143.5zM524 1315q0 -45 25.5 -75t64.5 -30t65 30t26 75q0 47 -26 76.5t-65 29.5t-64.5 -29.5t-25.5 -76.5z" />
<glyph unicode="&#x2db;" d="M459 -246q0 143 143 252h146q-125 -96 -125 -201q0 -41 26.5 -63.5t63.5 -22.5q45 0 78 27l53 -111q-76 -61 -185 -61q-88 0 -144 47t-56 133z" />
<glyph unicode="&#x2dc;" d="M295 1182q14 123 68.5 191.5t140.5 68.5q55 0 124.5 -55.5t96.5 -55.5q63 0 84 111h125q-14 -123 -68.5 -191.5t-140.5 -68.5q-55 0 -125 55t-96 55q-63 0 -84 -110h-125z" />
<glyph unicode="&#x2dd;" d="M385 1171l143 302h193l-186 -302h-150zM711 1171l143 302h195l-189 -302h-149z" />
<glyph unicode="&#x2e1;" d="M387 1350v135h326v-717q0 -113 108 -113q39 0 94 21l31 -133q-106 -27 -170 -27q-236 0 -235 260v574h-154z" />
<glyph unicode="&#x2e2;" d="M313 610l80 109q115 -76 234 -76q135 0 135 74q0 33 -40 53.5t-115 41.5l-15 5q-70 23 -114 42.5t-84 60.5t-40 94q0 88 79 144t214 56t264 -81l-80 -103q-90 57 -184 57q-121 0 -121 -67q0 -16 11.5 -29.5t41 -26t47 -18.5t64.5 -18q55 -16 88 -29.5t74 -37t60.5 -57.5 t19.5 -77q0 -92 -82 -151.5t-227 -59.5q-169 0 -310 94z" />
<glyph unicode="&#x2e3;" d="M289 532l227 349l-211 317h184l76 -119q12 -23 68 -112h6q47 94 57 112l66 119h180l-213 -338l227 -328h-184l-84 123q-14 25 -42 67t-34 52h-4q-45 -78 -65 -119l-74 -123h-180z" />
<glyph unicode="&#x300;" d="M336 1497h246l184 -323h-176z" />
<glyph unicode="&#x301;" d="M463 1174l184 323h246l-254 -323h-176z" />
<glyph unicode="&#x302;" d="M311 1174l203 323h201l203 -323h-177l-123 198h-8l-123 -198h-176z" />
<glyph unicode="&#x303;" d="M295 1182q14 123 68.5 191.5t140.5 68.5q55 0 124.5 -55.5t96.5 -55.5q63 0 84 111h125q-14 -123 -68.5 -191.5t-140.5 -68.5q-55 0 -125 55t-96 55q-63 0 -84 -110h-125z" />
<glyph unicode="&#x304;" d="M348 1221v155h533v-155h-533z" />
<glyph unicode="&#x306;" d="M330 1475h137q8 -72 45 -118t102.5 -46t102.5 46t45 118h137q-6 -123 -77.5 -210t-207 -87t-207 87t-77.5 210z" />
<glyph unicode="&#x307;" d="M446 1339.5q0 69.5 48.5 114.5t120 45t119.5 -45t48 -114.5t-47 -113.5t-120.5 -44t-121 44t-47.5 113.5z" />
<glyph unicode="&#x308;" d="M268 1323q0 59 38 99t97.5 40t98.5 -40t39 -99t-39 -98t-98.5 -39t-97.5 39t-38 98zM688 1323q0 59 39 99t98.5 40t97.5 -40t38 -99t-38 -98t-97.5 -39t-98.5 39t-39 98z" />
<glyph unicode="&#x309;" d="M465 1391l27 125q315 -12 315 -179q0 -169 -258 -200l-21 98q102 27 103 78q0 70 -166 78z" />
<glyph unicode="&#x30a;" d="M403 1315q0 90 58.5 145.5t153 55.5t152.5 -55.5t58 -145.5q0 -88 -58 -143.5t-152.5 -55.5t-153 55.5t-58.5 143.5zM524 1315q0 -45 25.5 -75t64.5 -30t65 30t26 75q0 47 -26 76.5t-65 29.5t-64.5 -29.5t-25.5 -76.5z" />
<glyph unicode="&#x30b;" d="M385 1171l143 302h193l-186 -302h-150zM711 1171l143 302h195l-189 -302h-149z" />
<glyph unicode="&#x30c;" d="M311 1497h176l123 -199h8l123 199h177l-203 -323h-201z" />
<glyph unicode="&#x30f;" d="M180 1473h195l143 -302h-149zM508 1473h192l144 -302h-150z" />
<glyph unicode="&#x312;" d="M492 1272q0 176 184 252l41 -78q-117 -51 -125 -135q6 2 18 2q39 0 68 -24.5t29 -67.5q0 -49 -28 -77t-69 -28q-119 0 -118 156z" />
<glyph unicode="&#x313;" d="M508 1190q115 49 123 135q-6 -2 -17 -2q-39 0 -67.5 24.5t-28.5 67.5q0 49 27.5 77t68.5 28q119 0 119 -156q0 -176 -184 -254z" />
<glyph unicode="&#x31b;" d="M596 985q78 12 116 42t38 89q0 43 -31 90l164 76q53 -68 53 -149q0 -117 -88.5 -177.5t-233.5 -72.5z" />
<glyph unicode="&#x323;" d="M446 -334q0 70 48.5 115t120 45t119.5 -45t48 -115q0 -72 -47 -115t-120.5 -43t-121 43t-47.5 115z" />
<glyph unicode="&#x324;" d="M303 -305q0 53 34 88t87 35t88 -35t35 -88q0 -51 -35 -86t-88 -35t-87 35t-34 86zM682 -305q0 53 35 88t88 35t87 -35t34 -88q0 -51 -34 -86t-87 -35t-88 35t-35 86z" />
<glyph unicode="&#x326;" d="M422 -354q176 20 176 84q0 61 -98 84l49 94q119 -14 171 -53t52 -111q0 -90 -93 -140t-237 -61z" />
<glyph unicode="&#x327;" d="M422 -342q176 20 176 94q0 61 -125 94l82 160h143l-47 -100q121 -43 121 -150q0 -90 -93 -140t-237 -60z" />
<glyph unicode="&#x328;" d="M459 -246q0 143 143 252h146q-125 -96 -125 -201q0 -41 26.5 -63.5t63.5 -22.5q45 0 78 27l53 -111q-76 -61 -185 -61q-88 0 -144 47t-56 133z" />
<glyph unicode="&#x32e;" d="M342 -154h137q8 -59 42 -98t93.5 -39t93 39t42.5 98h137q-6 -113 -75 -192.5t-198 -79.5t-197.5 80t-74.5 192z" />
<glyph unicode="&#x331;" d="M346 -213h535v-156h-535v156z" />
<glyph unicode="&#x3c0;" d="M59 817v178l148 11h946v-189h-145v-551q0 -98 65 -98q20 0 45 8l31 -176q-51 -25 -135 -25q-242 0 -242 304v538h-303v-817h-233v817h-177z" />
<glyph unicode="&#x1d43;" d="M330 713q0 106 99 165.5t316 82.5q-8 119 -131 118q-84 0 -196 -65l-64 114q141 86 293 86q131 0 201 -74.5t70 -215.5v-392h-142l-12 72h-4q-115 -88 -219 -88q-92 0 -151.5 56.5t-59.5 140.5zM496 727q0 -78 98 -78q76 0 151 66v139q-249 -31 -249 -127z" />
<glyph unicode="&#x1d47;" d="M334 532v953h172v-242l-4 -108q94 80 196 79q129 0 202 -91t73 -246q0 -164 -87 -262.5t-208 -98.5q-100 0 -191 86h-4l-14 -70h-135zM506 707q59 -49 133 -50q70 0 113 55.5t43 161.5q0 201 -144 201q-74 0 -145 -69v-299z" />
<glyph unicode="&#x1d48;" d="M272 864q0 158 87 254t206 96q94 0 180 -71l-6 104v238h172v-953h-141l-12 70h-4q-94 -86 -197 -86q-131 0 -208 93t-77 255zM449 866q0 -209 151 -209q80 0 139 68v299q-63 51 -137 51q-66 0 -109.5 -55.5t-43.5 -153.5z" />
<glyph unicode="&#x1d49;" d="M315 864q0 156 98.5 253t231.5 97q143 0 221 -87t78 -230q0 -43 -8 -76h-453q12 -84 68.5 -129t140.5 -45t166 47l60 -104q-115 -74 -250 -74q-152 0 -252.5 94t-100.5 254zM481 928h316q0 156 -148 155q-63 0 -110.5 -39.5t-57.5 -115.5z" />
<glyph unicode="&#x1d4d;" d="M289 418q0 80 106 137v6q-68 37 -67 111q0 72 82 125v6q-88 59 -88 171.5t80.5 176t199.5 63.5q66 0 107 -16h276v-125h-151q39 -47 38 -104q0 -109 -74.5 -167.5t-195.5 -58.5q-41 0 -100 17q-37 -25 -37 -58q0 -57 121 -57h135q268 0 268 -166q0 -102 -108.5 -169.5 t-284.5 -67.5q-141 0 -224 45t-83 131zM432 442q0 -43 48 -67.5t136 -24.5q92 0 150.5 30t58.5 71q0 35 -31.5 47t-99.5 12h-102q-55 0 -100 10q-60 -35 -60 -78zM483 975q0 -57 33 -91t86 -34q49 0 83 34t34 91q0 55 -34 90t-83 35q-51 0 -85 -35t-34 -90z" />
<glyph unicode="&#x1d4f;" d="M356 532v953h172v-576h7l278 289h188l-253 -270l280 -396h-188l-193 283l-119 -113v-170h-172z" />
<glyph unicode="&#x1d50;" d="M252 532v666h129l14 -84h4q51 100 148 100q100 0 121 -110q53 111 153 110q72 0 111 -55t39 -155v-472h-164v459q0 78 -49 78q-43 0 -78 -78v-459h-137v459q0 78 -51 78q-41 0 -78 -78v-459h-162z" />
<glyph unicode="&#x1d52;" d="M281 864q0 162 97 256t236.5 94t236.5 -94t97 -256q0 -158 -97 -253t-236.5 -95t-236.5 95t-97 253zM459 864.5q0 -96.5 41 -153t114 -56.5q76 0 116 56.5t40 152.5q0 98 -40 155.5t-116 57.5q-74 0 -114.5 -58t-40.5 -154.5z" />
<glyph unicode="&#x1d56;" d="M334 274v924h141l12 -68h5q102 84 208 84q129 0 201 -91t72 -246q0 -164 -87 -262.5t-208 -98.5q-86 0 -178 72l6 -109v-205h-172zM506 707q63 -49 133 -49.5t113 55t43 161.5q0 201 -144 201q-70 0 -145 -69v-299z" />
<glyph unicode="&#x1d57;" d="M322 1063v129l157 6l21 180h145v-180h279v-135h-279v-258q0 -80 35 -117t115 -37q63 0 127 27l30 -125q-106 -37 -200 -37q-281 0 -281 287v260h-149z" />
<glyph unicode="&#x1d58;" d="M309 782v416h174v-395q0 -74 26 -106.5t85 -32.5q84 0 154 84v450h172v-666h-140l-14 99h-4q-104 -115 -232 -115q-221 0 -221 266z" />
<glyph unicode="&#x1d5b;" d="M272 1198h174l111 -334q10 -31 20.5 -64.5t22.5 -74.5t18 -63h5q6 23 18 63.5t22.5 74.5t20.5 64l111 334h166l-242 -666h-199z" />
<glyph unicode="&#x1d9c;" d="M358 864q0 162 106.5 256t260.5 94q125 0 211 -75l-82 -109q-57 47 -121 47q-88 0 -143 -59.5t-55 -153.5t54 -151.5t138 -57.5q72 0 152 56l71 -111q-106 -84 -239 -84q-154 0 -253.5 94t-99.5 254z" />
<glyph unicode="&#x1da0;" d="M389 1063v129l158 6v35q0 123 72.5 195.5t218.5 72.5q85 0 198 -35l-35 -127q-74 27 -143 27q-141 0 -141 -131v-37h246v-135h-246v-531h-170v531h-158z" />
<glyph unicode="&#x1dbb;" d="M305 532v93l387 438h-342v135h584v-90l-389 -440h401v-136h-641z" />
<glyph unicode="&#x1e0c;" d="M154 0v1339h346q301 0 465.5 -167.5t164.5 -495.5t-163.5 -502t-454.5 -174h-358zM391 193h94q401 0 402 483q0 471 -402 471h-94v-954zM426 -334q0 70 48 115t120 45t120 -45t48 -115q0 -72 -47 -115t-121 -43t-121 43t-47 115z" />
<glyph unicode="&#x1e0d;" d="M109 502q0 236 132 382t312 146q150 0 281 -119l-11 170v365h238v-1446h-195l-18 117h-6q-141 -141 -303 -142q-197 0 -313.5 140.5t-116.5 386.5zM352 504q0 -162 63.5 -248t180.5 -86q125 0 227 121v452q-98 92 -215 93q-109 0 -182.5 -89t-73.5 -243zM463 -334 q0 70 47 115t121 45q72 0 120 -45t48 -115q0 -72 -47 -115t-121 -43t-121 43t-47 115z" />
<glyph unicode="&#x1e0e;" d="M154 0v1339h346q301 0 465.5 -167.5t164.5 -495.5t-163.5 -502t-454.5 -174h-358zM326 -213h534v-156h-534v156zM391 193h94q401 0 402 483q0 471 -402 471h-94v-954z" />
<glyph unicode="&#x1e0f;" d="M109 502q0 236 132 382t312 146q150 0 281 -119l-11 170v365h238v-1446h-195l-18 117h-6q-141 -141 -303 -142q-197 0 -313.5 140.5t-116.5 386.5zM352 504q0 -162 63.5 -248t180.5 -86q125 0 227 121v452q-98 92 -215 93q-109 0 -182.5 -89t-73.5 -243zM360 -213h537 v-156h-537v156z" />
<glyph unicode="&#x1e20;" d="M98 665.5q0 323.5 170 511t439 187.5q219 0 378 -168l-131 -147q-104 109 -247 108q-162 0 -262.5 -131t-100.5 -354q0 -231 95.5 -360.5t271.5 -129.5q121 0 180 60v288h-232v195h447v-590q-72 -70 -179.5 -115t-230.5 -45q-264 0 -431 183.5t-167 507zM406 1483v155 h544v-155h-544z" />
<glyph unicode="&#x1e21;" d="M127 -176q0 127 160 211v8q-102 59 -103 168q0 106 121 190v9q-129 88 -129 258q0 168 120 265t294 97q90 0 158 -24h411v-175h-235q68 -80 67 -172q0 -162 -112.5 -251t-288.5 -89q-76 0 -154 27q-61 -39 -61 -92q0 -96 190 -96h205q199 0 297 -58.5t98 -187.5 q0 -152 -159.5 -254t-419.5 -102q-213 0 -336 68.5t-123 199.5zM324 -145q0 -68 75.5 -107t214.5 -39q143 0 233.5 48t90.5 116q0 55 -48 76.5t-155 21.5h-160q-102 0 -153 17q-98 -59 -98 -133zM358 1221v155h535v-155h-535zM399 668q0 -92 54.5 -146.5t136.5 -54.5t137 54 t55 147q0 90 -56 145t-136 55t-135.5 -55t-55.5 -145z" />
<glyph unicode="&#x1e24;" d="M147 0v1339h238v-538h459v538h237v-1339h-237v594h-459v-594h-238zM444 -334q0 70 48.5 115t119.5 45q74 0 121 -45t47 -115q0 -72 -47 -115t-120.5 -43t-121 43t-47.5 115z" />
<glyph unicode="&#x1e25;" d="M168 0v1446h238v-373l-15 -215q172 172 361 172q338 0 338 -407v-623h-238v592q0 123 -43 179t-145 56q-70 0 -127.5 -32.5t-130.5 -108.5v-686h-238zM469 -334q0 70 47 115t121 45q72 0 120 -45t48 -115q0 -72 -47 -115t-121 -43t-121 43t-47 115z" />
<glyph unicode="&#x1e2a;" d="M147 0v1339h238v-538h459v538h237v-1339h-237v594h-459v-594h-238zM342 -154h135q8 -59 42 -98t93.5 -39t94 39t41.5 98h137q-4 -113 -74 -192.5t-199 -79.5q-127 0 -196.5 80t-73.5 192z" />
<glyph unicode="&#x1e2b;" d="M168 0v1446h238v-373l-15 -215q172 172 361 172q338 0 338 -407v-623h-238v592q0 123 -43 179t-145 56q-70 0 -127.5 -32.5t-130.5 -108.5v-686h-238zM362 -154h138q8 -59 41.5 -98t93 -39t93.5 39t42 98h137q-6 -113 -74.5 -192.5t-197.5 -79.5q-127 0 -196.5 80 t-76.5 192z" />
<glyph unicode="&#x1e36;" d="M246 0v1339h235v-1138h629v-201h-864zM526 -334q0 70 48.5 115t120 45t119.5 -45t48 -115q0 -72 -47 -115t-120.5 -43t-121 43t-47.5 115z" />
<glyph unicode="&#x1e37;" d="M145 1260v186h553v-1092q0 -186 181 -186q74 0 172 39l55 -174q-168 -57 -285 -58q-174 0 -266 101.5t-92 290.5v893h-318zM582 -334q0 70 48 115t119.5 45t120 -45t48.5 -115q0 -72 -47.5 -115t-121 -43t-120.5 43t-47 115z" />
<glyph unicode="&#x1e38;" d="M123 1483v155h543v-155h-543zM246 0v1339h235v-1138h629v-201h-864zM526 -334q0 70 48.5 115t120 45t119.5 -45t48 -115q0 -72 -47 -115t-120.5 -43t-121 43t-47.5 115z" />
<glyph unicode="&#x1e39;" d="M145 1260v186h553v-1092q0 -186 181 -186q74 0 172 39l55 -174q-168 -57 -285 -58q-174 0 -266 101.5t-92 290.5v893h-318zM301 1665v156h535v-156h-535zM582 -334q0 70 48 115t119.5 45t120 -45t48.5 -115q0 -72 -47.5 -115t-121 -43t-120.5 43t-47 115z" />
<glyph unicode="&#x1e3a;" d="M246 0v1339h235v-1138h629v-201h-864zM426 -213h535v-156h-535v156z" />
<glyph unicode="&#x1e3b;" d="M145 1260v186h553v-1092q0 -186 181 -186q74 0 172 39l55 -174q-168 -57 -285 -58q-174 0 -266 101.5t-92 290.5v893h-318zM481 -213h535v-156h-535v156z" />
<glyph unicode="&#x1e42;" d="M150 0v1339h245l162 -520l57 -203h7l55 203l158 520h245v-1339h-194v594q0 154 28 510h-6l-96 -328l-141 -416h-115l-143 416l-95 328h-6q31 -381 31 -510v-594h-192zM446 -334q0 70 48.5 115t120 45t119.5 -45t48 -115q0 -72 -47 -115t-120.5 -43t-121 43t-47.5 115z " />
<glyph unicode="&#x1e43;" d="M98 0v1006h178l19 -129h6q78 154 221 153q147 0 185 -168q82 168 227 168q106 0 164.5 -83t58.5 -234v-713h-223v694q0 133 -84 133q-74 0 -131 -125v-702h-184v694q0 133 -86 133q-70 0 -127 -125v-702h-224zM455 -334q0 70 48 115t119.5 45t120 -45t48.5 -115 q0 -72 -47.5 -115t-121 -43t-120.5 43t-47 115z" />
<glyph unicode="&#x1e44;" d="M152 0v1339h241l359 -753l125 -285h6q-4 41 -13.5 137.5t-14.5 174t-5 145.5v581h227v-1339h-241l-359 756l-125 282h-6q4 -45 13.5 -138t14.5 -171t5 -143v-586h-227zM481 1583q0 57 41 95t104.5 38t104.5 -38t41 -95q0 -59 -41 -97t-104.5 -38t-104.5 38t-41 97z" />
<glyph unicode="&#x1e45;" d="M168 0v1006h194l19 -152h8q172 176 363 176q338 0 338 -407v-623h-238v592q0 123 -43 179t-145 56q-70 0 -127.5 -32.5t-130.5 -108.5v-686h-238zM479 1339.5q0 69.5 48 114.5t120 45q74 0 121 -45t47 -114.5t-47 -113.5t-121 -44t-121 44t-47 113.5z" />
<glyph unicode="&#x1e46;" d="M152 0v1339h241l359 -753l125 -285h6q-4 41 -13.5 137.5t-14.5 174t-5 145.5v581h227v-1339h-241l-359 756l-125 282h-6q4 -45 13.5 -138t14.5 -171t5 -143v-586h-227zM446 -334q0 70 48.5 115t120 45t119.5 -45t48 -115q0 -72 -47 -115t-120.5 -43t-121 43t-47.5 115z " />
<glyph unicode="&#x1e47;" d="M168 0v1006h194l19 -152h8q172 176 363 176q338 0 338 -407v-623h-238v592q0 123 -43 179t-145 56q-70 0 -127.5 -32.5t-130.5 -108.5v-686h-238zM467 -334q0 70 47 115t121 45q72 0 120 -45t48 -115q0 -72 -47 -115t-121 -43t-121 43t-47 115z" />
<glyph unicode="&#x1e48;" d="M152 0v1339h241l359 -753l125 -285h6q-4 41 -13.5 137.5t-14.5 174t-5 145.5v581h227v-1339h-241l-359 756l-125 282h-6q4 -45 13.5 -138t14.5 -171t5 -143v-586h-227zM346 -213h535v-156h-535v156z" />
<glyph unicode="&#x1e49;" d="M168 0v1006h194l19 -152h8q172 176 363 176q338 0 338 -407v-623h-238v592q0 123 -43 179t-145 56q-70 0 -127.5 -32.5t-130.5 -108.5v-686h-238zM365 -213h536v-156h-536v156z" />
<glyph unicode="&#x1e5a;" d="M172 0v1339h446q494 0 494 -397q0 -291 -266 -383l319 -559h-268l-287 524h-200v-524h-238zM410 713h184q285 0 285 229q0 111 -71 159t-214 48h-184v-436zM487 -334q0 70 48.5 115t120 45t119.5 -45t48 -115q0 -72 -47 -115t-120.5 -43t-121 43t-47.5 115z" />
<glyph unicode="&#x1e5b;" d="M246 -334q0 70 47 115t121 45q72 0 120 -45t48 -115q0 -72 -47.5 -115t-121 -43t-120.5 43t-47 115zM266 0v1006h195l20 -228h6q160 252 428 252q111 0 195 -41l-49 -198q-98 31 -182 30q-236 0 -375 -266v-555h-238z" />
<glyph unicode="&#x1e5c;" d="M172 0v1339h446q494 0 494 -397q0 -291 -266 -383l319 -559h-268l-287 524h-200v-524h-238zM350 1483v155h543v-155h-543zM410 713h184q285 0 285 229q0 111 -71 159t-214 48h-184v-436zM487 -334q0 70 48.5 115t120 45t119.5 -45t48 -115q0 -72 -47 -115t-120.5 -43 t-121 43t-47.5 115z" />
<glyph unicode="&#x1e5d;" d="M246 -334q0 70 47 115t121 45q72 0 120 -45t48 -115q0 -72 -47.5 -115t-121 -43t-120.5 43t-47 115zM266 0v1006h195l20 -228h6q160 252 428 252q111 0 195 -41l-49 -198q-98 31 -182 30q-236 0 -375 -266v-555h-238zM430 1221v155h535v-155h-535z" />
<glyph unicode="&#x1e5e;" d="M172 0v1339h446q494 0 494 -397q0 -291 -266 -383l319 -559h-268l-287 524h-200v-524h-238zM387 -213h535v-156h-535v156zM410 713h184q285 0 285 229q0 111 -71 159t-214 48h-184v-436z" />
<glyph unicode="&#x1e5f;" d="M143 -213h537v-156h-537v156zM266 0v1006h195l20 -228h6q160 252 428 252q111 0 195 -41l-49 -198q-98 31 -182 30q-236 0 -375 -266v-555h-238z" />
<glyph unicode="&#x1e60;" d="M119 172l139 162q168 -152 365 -152q121 0 185 46t64 126q0 76 -51 113t-174 84l-182 80q-287 113 -287 356q0 162 131 269.5t334 107.5q250 0 430 -170l-123 -152q-143 115 -307 115q-104 0 -164.5 -42t-60.5 -116q0 -47 32.5 -82.5t69.5 -53t110 -45.5q11 -5 17 -7 l176 -76q139 -55 215 -140t76 -222q0 -168 -134 -283t-362 -115q-290 0 -499 197zM487 1583q0 57 41 95t104.5 38t104.5 -38t41 -95q0 -59 -41 -97t-104.5 -38t-104.5 38t-41 97z" />
<glyph unicode="&#x1e61;" d="M127 131l111 150q184 -127 389 -127q115 0 172 32.5t57 87.5q0 51 -68.5 88t-228.5 78q-371 98 -371 289q0 135 118 218t327 83q217 0 418 -133l-109 -145q-152 100 -307 100q-211 0 -211 -111q0 -49 70.5 -81.5t212.5 -69.5q193 -51 289 -119t96 -184 q0 -135 -125 -223.5t-346 -88.5q-269 0 -494 156zM463 1339.5q0 69.5 48 114.5t119.5 45t120 -45t48.5 -114.5t-47 -113.5t-121 -44t-121 44t-47 113.5z" />
<glyph unicode="&#x1e62;" d="M119 172l139 162q168 -152 365 -152q121 0 185 46t64 126q0 76 -51 113t-174 84l-182 80q-287 113 -287 356q0 162 131 269.5t334 107.5q250 0 430 -170l-123 -152q-143 115 -307 115q-104 0 -164.5 -42t-60.5 -116q0 -47 32.5 -82.5t69.5 -53t110 -45.5q11 -5 17 -7 l176 -76q139 -55 215 -140t76 -222q0 -168 -134 -283t-362 -115q-290 0 -499 197zM467 -334q0 70 48 115t120 45t120 -45t48 -115q0 -72 -47 -115t-121 -43t-121 43t-47 115z" />
<glyph unicode="&#x1e63;" d="M127 131l111 150q184 -127 389 -127q115 0 172 32.5t57 87.5q0 51 -68.5 88t-228.5 78q-371 98 -371 289q0 135 118 218t327 83q217 0 418 -133l-109 -145q-152 100 -307 100q-211 0 -211 -111q0 -49 70.5 -81.5t212.5 -69.5q193 -51 289 -119t96 -184 q0 -135 -125 -223.5t-346 -88.5q-269 0 -494 156zM463 -334q0 70 48 115t120 45q74 0 121 -45t47 -115q0 -72 -47 -115t-121 -43t-121 43t-47 115z" />
<glyph unicode="&#x1e6c;" d="M74 1139v200h1081v-200h-422v-1139h-237v1139h-422zM446 -334q0 70 48.5 115t119.5 45q74 0 121 -45t47 -115q0 -72 -47 -115t-120.5 -43t-121 43t-47.5 115z" />
<glyph unicode="&#x1e6d;" d="M121 819v176l278 11l31 274h195v-274h456v-187h-456v-413q0 -127 53 -184.5t178 -57.5q115 0 223 41l43 -172q-164 -57 -323 -58q-410 1 -410 431v413h-268zM598 -334q0 70 47 115t121 45q72 0 120 -45t48 -115q0 -72 -47 -115t-121 -43t-121 43t-47 115z" />
<glyph unicode="&#x1e6e;" d="M74 1139v200h1081v-200h-422v-1139h-237v1139h-422zM346 -213h537v-156h-537v156z" />
<glyph unicode="&#x1e6f;" d="M121 819v176l278 11l31 274h195v-274h456v-187h-456v-413q0 -127 53 -184.5t178 -57.5q115 0 223 41l43 -172q-164 -57 -323 -58q-410 1 -410 431v413h-268zM496 -213h536v-156h-536v156z" />
<glyph unicode="&#x1e80;" d="M14 1339h240l74 -776q2 -57 10 -168.5t10 -167.5h6q12 63 41 180t37 156l117 434h151l115 -434q10 -49 37 -161.5t39 -174.5h8q4 61 11.5 175t9.5 161l69 776h225l-182 -1339h-252l-118 489q-27 121 -44 250h-6q-23 -150 -45 -250l-112 -489h-248zM313 1679h258l172 -237 h-190z" />
<glyph unicode="&#x1e81;" d="M10 1006h236l92 -523q10 -55 23.5 -159.5t17.5 -128.5h8q25 162 51 288l94 424h175l98 -424q25 -111 53 -288h8q10 55 23.5 155.5t17.5 132.5l92 523h220l-187 -1006h-278l-88 420q-8 47 -23.5 143t-26.5 150h-8q-4 -25 -11 -78t-15.5 -106.5t-18.5 -110.5l-84 -418h-272 zM336 1497h248l182 -323h-174z" />
<glyph unicode="&#x1e82;" d="M14 1339h240l74 -776q2 -57 10 -168.5t10 -167.5h6q12 63 41 180t37 156l117 434h151l115 -434q10 -49 37 -161.5t39 -174.5h8q4 61 11.5 175t9.5 161l69 776h225l-182 -1339h-252l-118 489q-27 121 -44 250h-6q-23 -150 -45 -250l-112 -489h-248zM485 1442l172 237h258 l-239 -237h-191z" />
<glyph unicode="&#x1e83;" d="M10 1006h236l92 -523q10 -55 23.5 -159.5t17.5 -128.5h8q25 162 51 288l94 424h175l98 -424q25 -111 53 -288h8q10 55 23.5 155.5t17.5 132.5l92 523h220l-187 -1006h-278l-88 420q-8 47 -23.5 143t-26.5 150h-8q-4 -25 -11 -78t-15.5 -106.5t-18.5 -110.5l-84 -418h-272 zM465 1174l184 323h246l-254 -323h-176z" />
<glyph unicode="&#x1e84;" d="M14 1339h240l74 -776q2 -57 10 -168.5t10 -167.5h6q12 63 41 180t37 156l117 434h151l115 -434q10 -49 37 -161.5t39 -174.5h8q4 61 11.5 175t9.5 161l69 776h225l-182 -1339h-252l-118 489q-27 121 -44 250h-6q-23 -150 -45 -250l-112 -489h-248zM303 1571q0 53 34 88 t87 35t88 -35t35 -88t-35 -87t-88 -34t-87 34t-34 87zM682 1571q0 53 35 88t88 35t87 -35t34 -88t-34 -87t-87 -34t-88 34t-35 87z" />
<glyph unicode="&#x1e85;" d="M10 1006h236l92 -523q10 -55 23.5 -159.5t17.5 -128.5h8q25 162 51 288l94 424h175l98 -424q25 -111 53 -288h8q10 55 23.5 155.5t17.5 132.5l92 523h220l-187 -1006h-278l-88 420q-8 47 -23.5 143t-26.5 150h-8q-4 -25 -11 -78t-15.5 -106.5t-18.5 -110.5l-84 -418h-272 zM268 1323q0 59 39 99t98.5 40t97.5 -40t38 -99t-38 -98t-97.5 -39t-98.5 39t-39 98zM690 1323q0 59 38 99t97 40q61 0 99.5 -40t38.5 -99t-38.5 -98t-99.5 -39q-59 0 -97 39t-38 98z" />
<glyph unicode="&#x1e8e;" d="M55 1339h252l168 -360q53 -117 137 -309h9q6 16 60 133t81 178l166 358h246l-441 -874v-465h-237v465zM469 1583q0 57 41 95t104.5 38t104.5 -38t41 -95q0 -59 -41 -97t-104.5 -38t-104.5 38t-41 97z" />
<glyph unicode="&#x1e8f;" d="M82 1006h235l207 -494q23 -53 111 -295h8q25 78 100 295l183 494h223l-420 -1051q-70 -182 -173 -275.5t-275 -93.5q-78 0 -144 21l45 184q47 -14 84 -14q172 0 242 172l24 63zM459 1339.5q0 69.5 47 114.5t121 45q72 0 120 -45t48 -114.5t-47.5 -113.5t-121 -44 t-120.5 44t-47 113.5z" />
<glyph unicode="&#x1e92;" d="M125 0v143l686 998h-625v198h918v-143l-688 -995h696v-201h-987zM469 -334q0 70 48 115t120 45t120 -45t48 -115q0 -72 -47 -115t-121 -43t-121 43t-47 115z" />
<glyph unicode="&#x1e93;" d="M145 0v127l605 692h-535v187h866v-125l-606 -693h625v-188h-955zM481 -334q0 70 48.5 115t120 45t119.5 -45t48 -115q0 -72 -47 -115t-121 -43t-121 43t-47 115z" />
<glyph unicode="&#x1e97;" d="M121 819v176l278 11l31 274h195v-274h456v-187h-456v-413q0 -127 53 -184.5t178 -57.5q115 0 223 41l43 -172q-164 -57 -323 -58q-410 1 -410 431v413h-268zM195 1605.5q0 59.5 37.5 98.5t99.5 39q59 0 97 -39t38 -98.5t-38 -99.5t-97 -40q-61 0 -99 40t-38 99.5z M616 1605.5q0 59.5 38 98.5t97.5 39t98.5 -39t39 -98.5t-39 -99.5t-98.5 -40t-97.5 40t-38 99.5z" />
<glyph unicode="&#x1e9e;" d="M145 0v895q0 209 122 339t362 130q164 0 274.5 -93t151.5 -253l-193 -281q293 -98 293 -381q0 -168 -93 -274.5t-259 -106.5q-205 0 -322 140l127 147q80 -92 168 -92q59 0 95 52t36 136q0 178 -274 240l-15 143l197 285q-57 143 -192 143q-233 0 -234 -311v-858h-244z " />
<glyph unicode="&#x1ea0;" d="M41 0l434 1339h279l434 -1339h-252l-102 362h-447l-104 -362h-242zM440 549h340l-47 164q-49 178 -119 442h-8q-53 -217 -119 -442zM446 -334q0 70 48.5 115t120 45t119.5 -45t48 -115q0 -72 -47 -115t-120.5 -43t-121 43t-47.5 115z" />
<glyph unicode="&#x1ea1;" d="M145 270q0 170 163 258t532 115q-14 197 -240 197q-135 0 -330 -107l-86 158q236 139 459 139q209 0 320.5 -111.5t111.5 -322.5v-596h-192l-19 125h-6q-195 -150 -377 -150q-147 0 -241.5 82t-94.5 213zM373 289q0 -63 50 -96t130 -33q133 0 287 123v213 q-258 -18 -362.5 -69.5t-104.5 -137.5zM459 -334q0 70 48 115t120 45q74 0 121 -45t47 -115q0 -72 -47.5 -115t-121 -43t-120.5 43t-47 115z" />
<glyph unicode="&#x1ea2;" d="M41 0l434 1339h279l434 -1339h-252l-102 362h-447l-104 -362h-242zM440 549h340l-47 164q-49 178 -119 442h-8q-53 -217 -119 -442zM465 1675l27 125q315 -8 315 -176q0 -172 -258 -203l-21 101q102 23 103 75q0 70 -166 78z" />
<glyph unicode="&#x1ea3;" d="M145 270q0 170 163 258t532 115q-14 197 -240 197q-135 0 -330 -107l-86 158q236 139 459 139q209 0 320.5 -111.5t111.5 -322.5v-596h-192l-19 125h-6q-195 -150 -377 -150q-147 0 -241.5 82t-94.5 213zM373 289q0 -63 50 -96t130 -33q133 0 287 123v213 q-258 -18 -362.5 -69.5t-104.5 -137.5zM487 1391l27 125q313 -12 313 -179q0 -169 -256 -200l-20 98q102 27 102 78q0 70 -166 78z" />
<glyph unicode="&#x1ea4;" d="M41 0l434 1339h279l434 -1339h-252l-102 362h-447l-104 -362h-242zM319 1442l193 225h205l192 -225h-172l-119 119h-8l-118 -119h-173zM440 549h340l-47 164q-49 178 -119 442h-8q-53 -217 -119 -442zM823 1577l144 238h190l-194 -238h-140z" />
<glyph unicode="&#x1ea5;" d="M145 270q0 170 163 258t532 115q-14 197 -240 197q-135 0 -330 -107l-86 158q236 139 459 139q209 0 320.5 -111.5t111.5 -322.5v-596h-192l-19 125h-6q-195 -150 -377 -150q-147 0 -241.5 82t-94.5 213zM373 289q0 -63 50 -96t130 -33q133 0 287 123v213 q-258 -18 -362.5 -69.5t-104.5 -137.5zM375 1174l166 253h190l168 -253h-151l-107 141h-8l-109 -141h-149zM838 1317l145 237h182l-190 -237h-137z" />
<glyph unicode="&#x1ea6;" d="M41 0l434 1339h279l434 -1339h-252l-102 362h-447l-104 -362h-242zM319 1442l193 225h205l192 -225h-172l-119 119h-8l-118 -119h-173zM440 549h340l-47 164q-49 178 -119 442h-8q-53 -217 -119 -442zM715 1815h190l142 -238h-140z" />
<glyph unicode="&#x1ea7;" d="M145 270q0 170 163 258t532 115q-14 197 -240 197q-135 0 -330 -107l-86 158q236 139 459 139q209 0 320.5 -111.5t111.5 -322.5v-596h-192l-19 125h-6q-195 -150 -377 -150q-147 0 -241.5 82t-94.5 213zM373 289q0 -63 50 -96t130 -33q133 0 287 123v213 q-258 -18 -362.5 -69.5t-104.5 -137.5zM375 1174l166 253h190l168 -253h-151l-107 141h-8l-109 -141h-149zM770 1554h184l144 -237h-135z" />
<glyph unicode="&#x1ea8;" d="M41 0l434 1339h279l434 -1339h-252l-102 362h-447l-104 -362h-242zM319 1442l193 225h205l192 -225h-172l-119 119h-8l-118 -119h-173zM440 549h340l-47 164q-49 178 -119 442h-8q-53 -217 -119 -442zM791 1761l22 107q272 -12 272 -158q0 -147 -213 -170l-22 84 q80 18 80 66q0 63 -139 71z" />
<glyph unicode="&#x1ea9;" d="M145 270q0 170 163 258t532 115q-14 197 -240 197q-135 0 -330 -107l-86 158q236 139 459 139q209 0 320.5 -111.5t111.5 -322.5v-596h-192l-19 125h-6q-195 -150 -377 -150q-147 0 -241.5 82t-94.5 213zM373 289q0 -63 50 -96t130 -33q133 0 287 123v213 q-258 -18 -362.5 -69.5t-104.5 -137.5zM375 1174l166 253h190l168 -253h-151l-107 141h-8l-109 -141h-149zM815 1518l21 106q276 -8 276 -158q0 -82 -57.5 -122t-157.5 -58l-20 86q76 20 75 70q0 68 -137 76z" />
<glyph unicode="&#x1eaa;" d="M41 0l434 1339h279l434 -1339h-252l-102 362h-447l-104 -362h-242zM319 1442l193 225h205l192 -225h-172l-119 119h-8l-118 -119h-173zM326 1741q10 100 57 154.5t117 54.5q59 0 126.5 -41t92.5 -41q62 0 76 82h108q-10 -100 -57 -154.5t-117 -54.5q-59 0 -126.5 41 t-92.5 41q-61 0 -76 -82h-108zM440 549h340l-47 164q-49 178 -119 442h-8q-53 -217 -119 -442z" />
<glyph unicode="&#x1eab;" d="M145 270q0 170 163 258t532 115q-14 197 -240 197q-135 0 -330 -107l-86 158q236 139 459 139q209 0 320.5 -111.5t111.5 -322.5v-596h-192l-19 125h-6q-195 -150 -377 -150q-147 0 -241.5 82t-94.5 213zM352 1466q10 100 57.5 154.5t116.5 54.5q59 0 122 -41t87 -41 q61 0 76 82h109q-10 -100 -56.5 -154.5t-118.5 -54.5q-57 0 -120.5 41t-87.5 41q-62 0 -76 -82h-109zM358 1171l170 222h215l172 -222h-157l-117 127h-8l-117 -127h-158zM373 289q0 -63 50 -96t130 -33q133 0 287 123v213q-258 -18 -362.5 -69.5t-104.5 -137.5z" />
<glyph unicode="&#x1eac;" d="M41 0l434 1339h279l434 -1339h-252l-102 362h-447l-104 -362h-242zM303 1442l197 237h229l197 -237h-185l-123 131h-8l-123 -131h-184zM440 549h340l-47 164q-49 178 -119 442h-8q-53 -217 -119 -442zM446 -334q0 70 48.5 115t120 45t119.5 -45t48 -115q0 -72 -47 -115 t-120.5 -43t-121 43t-47.5 115z" />
<glyph unicode="&#x1ead;" d="M145 270q0 170 163 258t532 115q-14 197 -240 197q-135 0 -330 -107l-86 158q236 139 459 139q209 0 320.5 -111.5t111.5 -322.5v-596h-192l-19 125h-6q-195 -150 -377 -150q-147 0 -241.5 82t-94.5 213zM334 1174l203 323h200l201 -323h-174l-123 198h-8l-123 -198h-176 zM373 289q0 -63 50 -96t130 -33q133 0 287 123v213q-258 -18 -362.5 -69.5t-104.5 -137.5zM459 -334q0 70 48 115t120 45q74 0 121 -45t47 -115q0 -72 -47.5 -115t-121 -43t-120.5 43t-47 115z" />
<glyph unicode="&#x1eae;" d="M41 0l434 1339h279l434 -1339h-252l-102 362h-447l-104 -362h-242zM350 1675h115q31 -119 149.5 -119t149.5 119h115q-12 -102 -78 -166.5t-186.5 -64.5t-186.5 64.5t-78 166.5zM440 549h340l-47 164q-49 178 -119 442h-8q-53 -217 -119 -442zM528 1649l142 229h188 l-203 -229h-127z" />
<glyph unicode="&#x1eaf;" d="M145 270q0 170 163 258t532 115q-14 197 -240 197q-135 0 -330 -107l-86 158q236 139 459 139q209 0 320.5 -111.5t111.5 -322.5v-596h-192l-19 125h-6q-195 -150 -377 -150q-147 0 -241.5 82t-94.5 213zM365 1450h112q10 -68 50 -110t110 -42t109.5 42t50.5 110h112 q-6 -113 -75.5 -192.5t-196.5 -79.5q-129 0 -197.5 79.5t-74.5 192.5zM373 289q0 -63 50 -96t130 -33q133 0 287 123v213q-258 -18 -362.5 -69.5t-104.5 -137.5zM551 1401l129 237h178l-182 -237h-125z" />
<glyph unicode="&#x1eb0;" d="M41 0l434 1339h279l434 -1339h-252l-102 362h-447l-104 -362h-242zM350 1675h115q31 -119 149.5 -119t149.5 119h115q-12 -102 -78 -166.5t-186.5 -64.5t-186.5 64.5t-78 166.5zM371 1878h188l141 -229h-127zM440 549h340l-47 164q-49 178 -119 442h-8 q-53 -217 -119 -442z" />
<glyph unicode="&#x1eb1;" d="M145 270q0 170 163 258t532 115q-14 197 -240 197q-135 0 -330 -107l-86 158q236 139 459 139q209 0 320.5 -111.5t111.5 -322.5v-596h-192l-19 125h-6q-195 -150 -377 -150q-147 0 -241.5 82t-94.5 213zM365 1450h112q10 -68 50 -110t110 -42t109.5 42t50.5 110h112 q-6 -113 -75.5 -192.5t-196.5 -79.5q-129 0 -197.5 79.5t-74.5 192.5zM373 289q0 -63 50 -96t130 -33q133 0 287 123v213q-258 -18 -362.5 -69.5t-104.5 -137.5zM416 1638h178l129 -237h-127z" />
<glyph unicode="&#x1eb2;" d="M41 0l434 1339h279l434 -1339h-252l-102 362h-447l-104 -362h-242zM350 1675h115q31 -119 149.5 -119t149.5 119h115q-12 -102 -78 -166.5t-186.5 -64.5t-186.5 64.5t-78 166.5zM440 549h340l-47 164q-49 178 -119 442h-8q-53 -217 -119 -442zM475 1868l23 104 q272 -8 272 -157q0 -143 -213 -170l-22 84q80 18 79 65q0 33 -31.5 50.5t-107.5 23.5z" />
<glyph unicode="&#x1eb3;" d="M145 270q0 170 163 258t532 115q-14 197 -240 197q-135 0 -330 -107l-86 158q236 139 459 139q209 0 320.5 -111.5t111.5 -322.5v-596h-192l-19 125h-6q-195 -150 -377 -150q-147 0 -241.5 82t-94.5 213zM365 1450h112q10 -68 50 -110t110 -42t109.5 42t50.5 110h112 q-6 -113 -75.5 -192.5t-196.5 -79.5q-129 0 -197.5 79.5t-74.5 192.5zM373 289q0 -63 50 -96t130 -33q133 0 287 123v213q-258 -18 -362.5 -69.5t-104.5 -137.5zM492 1647l20 104q276 -8 276 -156q0 -84 -57.5 -124t-157.5 -56l-18 86q74 20 74 70q0 68 -137 76z" />
<glyph unicode="&#x1eb4;" d="M41 0l434 1339h279l434 -1339h-252l-102 362h-447l-104 -362h-242zM322 1739q10 100 58 156.5t118 56.5q49 0 117.5 -43t95.5 -43q62 0 80 86h110q-10 -100 -58 -156.5t-118 -56.5q-53 0 -120.5 43t-94.5 43q-29 0 -50.5 -22.5t-27.5 -63.5h-110zM350 1675h115 q31 -119 149.5 -119t149.5 119h115q-12 -102 -78 -166.5t-186.5 -64.5t-186.5 64.5t-78 166.5zM440 549h340l-47 164q-49 178 -119 442h-8q-53 -217 -119 -442z" />
<glyph unicode="&#x1eb5;" d="M145 270q0 170 163 258t532 115q-14 197 -240 197q-135 0 -330 -107l-86 158q236 139 459 139q209 0 320.5 -111.5t111.5 -322.5v-596h-192l-19 125h-6q-195 -150 -377 -150q-147 0 -241.5 82t-94.5 213zM352 1466q10 100 57.5 154.5t116.5 54.5q59 0 122 -41t87 -41 q61 0 76 82h109q-10 -100 -56.5 -154.5t-118.5 -54.5q-57 0 -120.5 41t-87.5 41q-61 0 -76 -82h-109zM367 1409h116q25 -115 154 -115t154 115h116q-6 -100 -73.5 -165.5t-196.5 -65.5t-197.5 66.5t-72.5 164.5zM373 289q0 -63 50 -96t130 -33q133 0 287 123v213 q-258 -18 -362.5 -69.5t-104.5 -137.5z" />
<glyph unicode="&#x1eb6;" d="M41 0l434 1339h279l434 -1339h-252l-102 362h-447l-104 -362h-242zM348 1679h135q23 -111 131 -111t131 111h136q-12 -106 -78 -170.5t-188.5 -64.5t-188.5 64.5t-78 170.5zM440 549h340l-47 164q-49 178 -119 442h-8q-53 -217 -119 -442zM446 -334q0 70 48.5 115t120 45 t119.5 -45t48 -115q0 -72 -47 -115t-120.5 -43t-121 43t-47.5 115z" />
<glyph unicode="&#x1eb7;" d="M145 270q0 170 163 258t532 115q-14 197 -240 197q-135 0 -330 -107l-86 158q236 139 459 139q209 0 320.5 -111.5t111.5 -322.5v-596h-192l-19 125h-6q-195 -150 -377 -150q-147 0 -241.5 82t-94.5 213zM352 1475h137q8 -72 45 -118t103 -46q63 0 100 46t47 118h138 q-6 -123 -78 -210t-207 -87t-207 87t-78 210zM373 289q0 -63 50 -96t130 -33q133 0 287 123v213q-258 -18 -362.5 -69.5t-104.5 -137.5zM459 -334q0 70 48 115t120 45q74 0 121 -45t47 -115q0 -72 -47.5 -115t-121 -43t-120.5 43t-47 115z" />
<glyph unicode="&#x1eb8;" d="M213 0v1339h856v-200h-618v-342h524v-201h-524v-395h639v-201h-877zM500 -334q0 70 48 115t120 45q74 0 121 -45t47 -115q0 -72 -47.5 -115t-121 -43t-120.5 43t-47 115z" />
<glyph unicode="&#x1eb9;" d="M127 502q0 238 154.5 383t361.5 145q219 0 343 -132t124 -345q0 -49 -10 -111h-731q16 -135 107 -209.5t231 -74.5q135 0 282 82l80 -148q-188 -117 -393 -117q-236 0 -392.5 142.5t-156.5 384.5zM367 592h526q0 121 -62.5 188.5t-181.5 67.5q-106 0 -185 -67.5 t-97 -188.5zM475 -334q0 70 47 115t121 45q72 0 120 -45t48 -115q0 -72 -47 -115t-121 -43t-121 43t-47 115z" />
<glyph unicode="&#x1eba;" d="M213 0v1339h856v-200h-618v-342h524v-201h-524v-395h639v-201h-877zM518 1675l27 125q315 -8 315 -176q0 -172 -258 -203l-20 101q102 23 102 75q0 70 -166 78z" />
<glyph unicode="&#x1ebb;" d="M127 502q0 238 154.5 383t361.5 145q219 0 343 -132t124 -345q0 -49 -10 -111h-731q16 -135 107 -209.5t231 -74.5q135 0 282 82l80 -148q-188 -117 -393 -117q-236 0 -392.5 142.5t-156.5 384.5zM367 592h526q0 121 -62.5 188.5t-181.5 67.5q-106 0 -185 -67.5 t-97 -188.5zM494 1391l26 125q313 -12 314 -179q0 -169 -256 -200l-21 98q102 27 102 78q0 70 -165 78z" />
<glyph unicode="&#x1ebc;" d="M213 0v1339h856v-200h-618v-342h524v-201h-524v-395h639v-201h-877zM344 1448q12 117 65.5 183.5t131.5 66.5q61 0 139 -49.5t106 -49.5q61 0 80 99h125q-12 -117 -65 -183.5t-131 -66.5q-61 0 -139 50t-107 50q-61 0 -80 -100h-125z" />
<glyph unicode="&#x1ebd;" d="M127 502q0 238 154.5 383t361.5 145q219 0 343 -132t124 -345q0 -49 -10 -111h-731q16 -135 107 -209.5t231 -74.5q135 0 282 82l80 -148q-188 -117 -393 -117q-236 0 -392.5 142.5t-156.5 384.5zM322 1182q14 125 68 192.5t142 67.5q53 0 124 -55.5t96 -55.5 q63 0 86 111h125q-14 -123 -68.5 -191.5t-140.5 -68.5q-57 0 -127 55t-95 55q-63 0 -86 -110h-124zM367 592h526q0 121 -62.5 188.5t-181.5 67.5q-106 0 -185 -67.5t-97 -188.5z" />
<glyph unicode="&#x1ebe;" d="M213 0v1339h856v-200h-618v-342h524v-201h-524v-395h639v-201h-877zM373 1442l192 225h205l193 -225h-172l-119 119h-8l-119 -119h-172zM877 1577l143 238h190l-194 -238h-139z" />
<glyph unicode="&#x1ebf;" d="M127 502q0 238 154.5 383t361.5 145q219 0 343 -132t124 -345q0 -49 -10 -111h-731q16 -135 107 -209.5t231 -74.5q135 0 282 82l80 -148q-188 -117 -393 -117q-236 0 -392.5 142.5t-156.5 384.5zM367 592h526q0 121 -62.5 188.5t-181.5 67.5q-106 0 -185 -67.5 t-97 -188.5zM381 1174l166 253h190l168 -253h-151l-107 141h-8l-109 -141h-149zM844 1317l143 237h184l-192 -237h-135z" />
<glyph unicode="&#x1ec0;" d="M213 0v1339h856v-200h-618v-342h524v-201h-524v-395h639v-201h-877zM373 1442l192 225h205l193 -225h-172l-119 119h-8l-119 -119h-172zM768 1815h190l142 -238h-139z" />
<glyph unicode="&#x1ec1;" d="M127 502q0 238 154.5 383t361.5 145q219 0 343 -132t124 -345q0 -49 -10 -111h-731q16 -135 107 -209.5t231 -74.5q135 0 282 82l80 -148q-188 -117 -393 -117q-236 0 -392.5 142.5t-156.5 384.5zM367 592h526q0 121 -62.5 188.5t-181.5 67.5q-106 0 -185 -67.5 t-97 -188.5zM381 1174l166 253h190l168 -253h-151l-107 141h-8l-109 -141h-149zM776 1554h182l146 -237h-137z" />
<glyph unicode="&#x1ec2;" d="M213 0v1339h856v-200h-618v-342h524v-201h-524v-395h639v-201h-877zM373 1442l192 225h205l193 -225h-172l-119 119h-8l-119 -119h-172zM844 1761l22 107q272 -12 273 -158q0 -147 -213 -170l-23 84q80 18 80 66q0 63 -139 71z" />
<glyph unicode="&#x1ec3;" d="M127 502q0 238 154.5 383t361.5 145q219 0 343 -132t124 -345q0 -49 -10 -111h-731q16 -135 107 -209.5t231 -74.5q135 0 282 82l80 -148q-188 -117 -393 -117q-236 0 -392.5 142.5t-156.5 384.5zM367 592h526q0 121 -62.5 188.5t-181.5 67.5q-106 0 -185 -67.5 t-97 -188.5zM381 1174l166 253h190l168 -253h-151l-107 141h-8l-109 -141h-149zM819 1518l23 106q276 -8 276 -158q0 -82 -57.5 -122t-159.5 -58l-18 86q76 20 75 70q0 68 -139 76z" />
<glyph unicode="&#x1ec4;" d="M213 0v1339h856v-200h-618v-342h524v-201h-524v-395h639v-201h-877zM373 1442l192 225h205l193 -225h-172l-119 119h-8l-119 -119h-172zM379 1741q10 100 57 154.5t117 54.5q59 0 127 -41t92 -41q61 0 76 82h108q-10 -100 -57 -154.5t-117 -54.5q-59 0 -126.5 41 t-92.5 41q-62 0 -76 -82h-108z" />
<glyph unicode="&#x1ec5;" d="M127 502q0 238 154.5 383t361.5 145q219 0 343 -132t124 -345q0 -49 -10 -111h-731q16 -135 107 -209.5t231 -74.5q135 0 282 82l80 -148q-188 -117 -393 -117q-236 0 -392.5 142.5t-156.5 384.5zM358 1466q10 100 57.5 154.5t116.5 54.5q59 0 122 -41t87 -41q61 0 76 82 h109q-10 -100 -57.5 -154.5t-116.5 -54.5q-57 0 -121 41t-88 41q-62 0 -76 -82h-109zM365 1171l170 222h215l172 -222h-160l-115 127h-8l-117 -127h-157zM367 592h526q0 121 -62.5 188.5t-181.5 67.5q-106 0 -185 -67.5t-97 -188.5z" />
<glyph unicode="&#x1ec6;" d="M213 0v1339h856v-200h-618v-342h524v-201h-524v-395h639v-201h-877zM356 1442l197 237h229l197 -237h-184l-123 131h-8l-123 -131h-185zM500 -334q0 70 48 115t120 45q74 0 121 -45t47 -115q0 -72 -47.5 -115t-121 -43t-120.5 43t-47 115z" />
<glyph unicode="&#x1ec7;" d="M127 502q0 238 154.5 383t361.5 145q219 0 343 -132t124 -345q0 -49 -10 -111h-731q16 -135 107 -209.5t231 -74.5q135 0 282 82l80 -148q-188 -117 -393 -117q-236 0 -392.5 142.5t-156.5 384.5zM340 1174l203 323h198l203 -323h-174l-123 198h-8l-123 -198h-176z M367 592h526q0 121 -62.5 188.5t-181.5 67.5q-106 0 -185 -67.5t-97 -188.5zM475 -334q0 70 47 115t121 45q72 0 120 -45t48 -115q0 -72 -47 -115t-121 -43t-121 43t-47 115z" />
<glyph unicode="&#x1ec8;" d="M172 0v201h324v938h-324v200h885v-200h-324v-938h324v-201h-885zM465 1675l27 125q315 -8 315 -176q0 -172 -258 -203l-21 101q102 23 103 75q0 70 -166 78z" />
<glyph unicode="&#x1ec9;" d="M172 819v187h672v-1006h-236v819h-436zM561 1391l25 125q315 -12 315 -179q0 -169 -256 -200l-22 98q104 25 104 78q0 70 -166 78z" />
<glyph unicode="&#x1eca;" d="M172 0v201h324v938h-324v200h885v-200h-324v-938h324v-201h-885zM446 -334q0 70 48.5 115t119.5 45q74 0 121 -45t47 -115q0 -72 -47 -115t-120.5 -43t-121 43t-47.5 115z" />
<glyph unicode="&#x1ecb;" d="M172 819v187h672v-1006h-236v819h-436zM541 -334q0 70 48 115t120 45q74 0 121 -45t47 -115q0 -72 -47.5 -115t-121 -43t-120.5 43t-47 115zM541 1339.5q0 69.5 48 114.5t120 45q74 0 121 -45t47 -114.5t-47.5 -113.5t-121 -44t-120.5 44t-47 113.5z" />
<glyph unicode="&#x1ecc;" d="M88 676q0 319 144.5 503.5t382 184.5t382 -184.5t144.5 -503.5q0 -322 -145.5 -511.5t-381 -189.5t-381 189.5t-145.5 511.5zM332 676q0 -225 76.5 -359.5t205.5 -134.5t206 134.5t77 359.5q0 223 -77 352t-206 129t-205.5 -129t-76.5 -352zM446 -334q0 70 48.5 115 t120 45t119.5 -45t48 -115q0 -72 -47 -115t-120.5 -43t-121 43t-47.5 115z" />
<glyph unicode="&#x1ecd;" d="M109 502q0 242 148.5 385t357 143t357 -143.5t148.5 -384.5q0 -240 -148.5 -383.5t-357 -143.5t-357 143.5t-148.5 383.5zM352 502q0 -152 71 -243t191.5 -91t191.5 91t71 243q0 154 -70 245t-192.5 91t-192.5 -91t-70 -245zM446 -334q0 70 48.5 115t119.5 45 q74 0 121 -45t47 -115q0 -72 -47 -115t-120.5 -43t-121 43t-47.5 115z" />
<glyph unicode="&#x1ece;" d="M88 676q0 319 144.5 503.5t382 184.5t382 -184.5t144.5 -503.5q0 -322 -145.5 -511.5t-381 -189.5t-381 189.5t-145.5 511.5zM332 676q0 -225 76.5 -359.5t205.5 -134.5t206 134.5t77 359.5q0 223 -77 352t-206 129t-205.5 -129t-76.5 -352zM465 1675l27 125 q315 -8 315 -176q0 -172 -258 -203l-21 101q102 23 103 75q0 70 -166 78z" />
<glyph unicode="&#x1ecf;" d="M109 502q0 242 148.5 385t357 143t357 -143.5t148.5 -384.5q0 -240 -148.5 -383.5t-357 -143.5t-357 143.5t-148.5 383.5zM352 502q0 -152 71 -243t191.5 -91t191.5 91t71 243q0 154 -70 245t-192.5 91t-192.5 -91t-70 -245zM465 1391l27 125q315 -12 315 -179 q0 -169 -258 -200l-21 98q102 27 103 78q0 70 -166 78z" />
<glyph unicode="&#x1ed0;" d="M88 676q0 319 144.5 503.5t382 184.5t382 -184.5t144.5 -503.5q0 -322 -145.5 -511.5t-381 -189.5t-381 189.5t-145.5 511.5zM319 1442l193 225h205l192 -225h-172l-119 119h-8l-118 -119h-173zM332 676q0 -225 76.5 -359.5t205.5 -134.5t206 134.5t77 359.5 q0 223 -77 352t-206 129t-205.5 -129t-76.5 -352zM823 1577l144 238h190l-194 -238h-140z" />
<glyph unicode="&#x1ed1;" d="M109 502q0 242 148.5 385t357 143t357 -143.5t148.5 -384.5q0 -240 -148.5 -383.5t-357 -143.5t-357 143.5t-148.5 383.5zM352 502q0 -152 71 -243t191.5 -91t191.5 91t71 243q0 154 -70 245t-192.5 91t-192.5 -91t-70 -245zM352 1174l168 253h189l168 -253h-152 l-107 141h-8l-106 -141h-152zM815 1317l146 237h182l-191 -237h-137z" />
<glyph unicode="&#x1ed2;" d="M88 676q0 319 144.5 503.5t382 184.5t382 -184.5t144.5 -503.5q0 -322 -145.5 -511.5t-381 -189.5t-381 189.5t-145.5 511.5zM319 1442l193 225h205l192 -225h-172l-119 119h-8l-118 -119h-173zM332 676q0 -225 76.5 -359.5t205.5 -134.5t206 134.5t77 359.5 q0 223 -77 352t-206 129t-205.5 -129t-76.5 -352zM715 1815h190l142 -238h-140z" />
<glyph unicode="&#x1ed3;" d="M109 502q0 242 148.5 385t357 143t357 -143.5t148.5 -384.5q0 -240 -148.5 -383.5t-357 -143.5t-357 143.5t-148.5 383.5zM352 502q0 -152 71 -243t191.5 -91t191.5 91t71 243q0 154 -70 245t-192.5 91t-192.5 -91t-70 -245zM352 1174l168 253h189l168 -253h-152 l-107 141h-8l-106 -141h-152zM748 1554h184l145 -237h-137z" />
<glyph unicode="&#x1ed4;" d="M88 676q0 319 144.5 503.5t382 184.5t382 -184.5t144.5 -503.5q0 -322 -145.5 -511.5t-381 -189.5t-381 189.5t-145.5 511.5zM319 1442l193 225h205l192 -225h-172l-119 119h-8l-118 -119h-173zM332 676q0 -225 76.5 -359.5t205.5 -134.5t206 134.5t77 359.5 q0 223 -77 352t-206 129t-205.5 -129t-76.5 -352zM791 1761l22 107q272 -12 272 -158q0 -147 -213 -170l-22 84q80 18 80 66q0 63 -139 71z" />
<glyph unicode="&#x1ed5;" d="M109 502q0 242 148.5 385t357 143t357 -143.5t148.5 -384.5q0 -240 -148.5 -383.5t-357 -143.5t-357 143.5t-148.5 383.5zM352 502q0 -152 71 -243t191.5 -91t191.5 91t71 243q0 154 -70 245t-192.5 91t-192.5 -91t-70 -245zM352 1174l168 253h189l168 -253h-152 l-107 141h-8l-106 -141h-152zM793 1518l20 106q276 -8 277 -158q0 -82 -58 -122t-158 -58l-18 86q74 20 74 70q0 68 -137 76z" />
<glyph unicode="&#x1ed6;" d="M88 676q0 319 144.5 503.5t382 184.5t382 -184.5t144.5 -503.5q0 -322 -145.5 -511.5t-381 -189.5t-381 189.5t-145.5 511.5zM319 1442l193 225h205l192 -225h-172l-119 119h-8l-118 -119h-173zM326 1741q10 100 57 154.5t117 54.5q59 0 126.5 -41t92.5 -41q61 0 76 82 h108q-10 -100 -57 -154.5t-117 -54.5q-59 0 -126.5 41t-92.5 41q-62 0 -76 -82h-108zM332 676q0 -225 76.5 -359.5t205.5 -134.5t206 134.5t77 359.5q0 223 -77 352t-206 129t-205.5 -129t-76.5 -352z" />
<glyph unicode="&#x1ed7;" d="M109 502q0 242 148.5 385t357 143t357 -143.5t148.5 -384.5q0 -240 -148.5 -383.5t-357 -143.5t-357 143.5t-148.5 383.5zM332 1466q8 100 55 154.5t117 54.5q59 0 121.5 -41t87.5 -41q59 0 78 82h106q-8 -100 -55 -154.5t-117 -54.5q-59 0 -121.5 41t-87.5 41 q-60 0 -78 -82h-106zM336 1171l172 222h213l172 -222h-158l-117 127h-8l-116 -127h-158zM352 502q0 -152 71 -243t191.5 -91t191.5 91t71 243q0 154 -70 245t-192.5 91t-192.5 -91t-70 -245z" />
<glyph unicode="&#x1ed8;" d="M88 676q0 319 144.5 503.5t382 184.5t382 -184.5t144.5 -503.5q0 -322 -145.5 -511.5t-381 -189.5t-381 189.5t-145.5 511.5zM303 1442l197 237h229l197 -237h-185l-123 131h-8l-123 -131h-184zM332 676q0 -225 76.5 -359.5t205.5 -134.5t206 134.5t77 359.5 q0 223 -77 352t-206 129t-205.5 -129t-76.5 -352zM446 -334q0 70 48.5 115t120 45t119.5 -45t48 -115q0 -72 -47 -115t-120.5 -43t-121 43t-47.5 115z" />
<glyph unicode="&#x1ed9;" d="M109 502q0 242 148.5 385t357 143t357 -143.5t148.5 -384.5q0 -240 -148.5 -383.5t-357 -143.5t-357 143.5t-148.5 383.5zM311 1174l203 323h201l203 -323h-177l-123 198h-8l-123 -198h-176zM352 502q0 -152 71 -243t191.5 -91t191.5 91t71 243q0 154 -70 245t-192.5 91 t-192.5 -91t-70 -245zM446 -334q0 70 48.5 115t120 45t119.5 -45t48 -115q0 -72 -47 -115t-120.5 -43t-121 43t-47.5 115z" />
<glyph unicode="&#x1eda;" d="M88 676q0 319 144.5 503.5t381.5 184.5q135 0 246 -64q70 12 104.5 42t34.5 88q1 45 -30 90l164 73q53 -68 53 -147q0 -180 -217 -234q172 -188 172 -536q0 -322 -145.5 -511.5t-381 -189.5t-381 189.5t-145.5 511.5zM332 676q0 -225 76.5 -359.5t205.5 -134.5t206 134.5 t77 359.5q0 223 -77 352t-206 129t-205.5 -129t-76.5 -352zM485 1442l172 237h258l-239 -237h-191z" />
<glyph unicode="&#x1edb;" d="M109 502q0 242 148.5 385t356.5 143q109 0 215 -45q78 12 115 42t37 89q0 43 -31 90l164 76q53 -68 53 -149q0 -176 -211 -232q164 -150 164 -399q0 -240 -148.5 -383.5t-357 -143.5t-357 143.5t-148.5 383.5zM352 502q0 -152 71 -243t191.5 -91t191.5 91t71 243 q0 154 -70 245t-192.5 91t-192.5 -91.5t-70 -244.5zM463 1174l184 323h246l-254 -323h-176z" />
<glyph unicode="&#x1edc;" d="M88 676q0 319 144.5 503.5t381.5 184.5q135 0 246 -64q70 12 104.5 42t34.5 88q1 45 -30 90l164 73q53 -68 53 -147q0 -180 -217 -234q172 -188 172 -536q0 -322 -145.5 -511.5t-381 -189.5t-381 189.5t-145.5 511.5zM313 1679h258l172 -237h-190zM332 676 q0 -225 76.5 -359.5t205.5 -134.5t206 134.5t77 359.5q0 223 -77 352t-206 129t-205.5 -129t-76.5 -352z" />
<glyph unicode="&#x1edd;" d="M109 502q0 242 148.5 385t356.5 143q109 0 215 -45q78 12 115 42t37 89q0 43 -31 90l164 76q53 -68 53 -149q0 -176 -211 -232q164 -150 164 -399q0 -240 -148.5 -383.5t-357 -143.5t-357 143.5t-148.5 383.5zM336 1497h246l184 -323h-176zM352 502q0 -152 71 -243 t191.5 -91t191.5 91t71 243q0 154 -70 245t-192.5 91t-192.5 -91.5t-70 -244.5z" />
<glyph unicode="&#x1ede;" d="M88 676q0 319 144.5 503.5t381.5 184.5q135 0 246 -64q70 12 104.5 42t34.5 88q1 45 -30 90l164 73q53 -68 53 -147q0 -180 -217 -234q172 -188 172 -536q0 -322 -145.5 -511.5t-381 -189.5t-381 189.5t-145.5 511.5zM332 676q0 -225 76.5 -359.5t205.5 -134.5t206 134.5 t77 359.5q0 223 -77 352t-206 129t-205.5 -129t-76.5 -352zM465 1675l27 125q315 -8 315 -176q0 -172 -258 -203l-21 101q102 23 103 75q0 70 -166 78z" />
<glyph unicode="&#x1edf;" d="M109 502q0 242 148.5 385t356.5 143q109 0 215 -45q78 12 115 42t37 89q0 43 -31 90l164 76q53 -68 53 -149q0 -176 -211 -232q164 -150 164 -399q0 -240 -148.5 -383.5t-357 -143.5t-357 143.5t-148.5 383.5zM352 502q0 -152 71 -243t191.5 -91t191.5 91t71 243 q0 154 -70 245t-192.5 91t-192.5 -91.5t-70 -244.5zM465 1391l27 125q315 -12 315 -179q0 -169 -258 -200l-21 98q102 27 103 78q0 70 -166 78z" />
<glyph unicode="&#x1ee0;" d="M88 676q0 319 144.5 503.5t381.5 184.5q135 0 246 -64q70 12 104.5 42t34.5 88q1 45 -30 90l164 73q53 -68 53 -147q0 -180 -217 -234q172 -188 172 -536q0 -322 -145.5 -511.5t-381 -189.5t-381 189.5t-145.5 511.5zM291 1448q12 117 65.5 183.5t130.5 66.5 q61 0 139.5 -49.5t106.5 -49.5q62 1 80 99h125q-12 -117 -65.5 -183.5t-131.5 -66.5q-61 0 -139 50t-106 50q-61 0 -80 -100h-125zM332 676q0 -225 76.5 -359.5t205.5 -134.5t206 134.5t77 359.5q0 223 -77 352t-206 129t-205.5 -129t-76.5 -352z" />
<glyph unicode="&#x1ee1;" d="M109 502q0 242 148.5 385t356.5 143q109 0 215 -45q78 12 115 42t37 89q0 43 -31 90l164 76q53 -68 53 -149q0 -176 -211 -232q164 -150 164 -399q0 -240 -148.5 -383.5t-357 -143.5t-357 143.5t-148.5 383.5zM295 1182q14 123 68.5 191.5t140.5 68.5q55 0 124.5 -55.5 t96.5 -55.5q64 0 84 111h125q-14 -123 -68.5 -191.5t-140.5 -68.5q-55 0 -125 55t-96 55q-63 0 -84 -110h-125zM352 502q0 -152 71 -243t191.5 -91t191.5 91t71 243q0 154 -70 245t-192.5 91t-192.5 -91.5t-70 -244.5z" />
<glyph unicode="&#x1ee2;" d="M88 676q0 319 144.5 503.5t381.5 184.5q135 0 246 -64q70 12 104.5 42t34.5 88q1 45 -30 90l164 73q53 -68 53 -147q0 -180 -217 -234q172 -188 172 -536q0 -322 -145.5 -511.5t-381 -189.5t-381 189.5t-145.5 511.5zM332 676q0 -225 76.5 -359.5t205.5 -134.5t206 134.5 t77 359.5q0 223 -77 352t-206 129t-205.5 -129t-76.5 -352zM446 -334q0 70 48.5 115t120 45t119.5 -45t48 -115q0 -72 -47 -115t-120.5 -43t-121 43t-47.5 115z" />
<glyph unicode="&#x1ee3;" d="M109 502q0 242 148.5 385t356.5 143q109 0 215 -45q78 12 115 42t37 89q0 43 -31 90l164 76q53 -68 53 -149q0 -176 -211 -232q164 -150 164 -399q0 -240 -148.5 -383.5t-357 -143.5t-357 143.5t-148.5 383.5zM352 502q0 -152 71 -243t191.5 -91t191.5 91t71 243 q0 154 -70 245t-192.5 91t-192.5 -91.5t-70 -244.5zM446 -334q0 70 48 115t120 45q74 0 121 -45t47 -115q0 -72 -47 -115t-120.5 -43t-121 43t-47.5 115z" />
<glyph unicode="&#x1ee4;" d="M147 512v827h238v-845q0 -311 231 -312q238 0 238 312v845h227v-827q0 -270 -119.5 -403.5t-345 -133.5t-347.5 134.5t-122 402.5zM446 -334q0 70 48.5 115t120 45t119.5 -45t48 -115q0 -72 -47 -115t-120.5 -43t-121 43t-47.5 115z" />
<glyph unicode="&#x1ee5;" d="M143 383v623h236v-592q0 -123 43 -179.5t145 -56.5q72 0 128.5 34t123.5 116v678h236v-1006h-193l-18 160h-8q-158 -184 -357 -185q-336 0 -336 408zM487 -334q0 70 47.5 115t120.5 45q72 0 120 -45t48 -115q0 -72 -47 -115t-120.5 -43t-121 43t-47.5 115z" />
<glyph unicode="&#x1ee6;" d="M147 512v827h238v-845q0 -311 231 -312q238 0 238 312v845h227v-827q0 -270 -119.5 -403.5t-345 -133.5t-347.5 134.5t-122 402.5zM465 1675l27 125q315 -8 315 -176q0 -172 -258 -203l-21 101q102 23 103 75q0 70 -166 78z" />
<glyph unicode="&#x1ee7;" d="M143 383v623h236v-592q0 -123 43 -179.5t145 -56.5q72 0 128.5 34t123.5 116v678h236v-1006h-193l-18 160h-8q-158 -184 -357 -185q-336 0 -336 408zM455 1391l26 125q315 -12 316 -179q0 -169 -256 -200l-23 98q104 25 105 78q0 70 -168 78z" />
<glyph unicode="&#x1ee8;" d="M147 512v827h238v-845q0 -311 231 -312q238 0 238 312v845h109q82 6 127 35t45 96q0 46 -31 91l164 73q55 -66 55 -147q0 -190 -242 -240v-735q0 -270 -119.5 -403.5t-345 -133.5t-347.5 134.5t-122 402.5zM485 1442l172 237h258l-239 -237h-191z" />
<glyph unicode="&#x1ee9;" d="M143 383v623h236v-592q0 -123 43 -179.5t145 -56.5q72 0 128.5 34t123.5 116v678h76q168 12 168 131q0 43 -31 90l164 76q53 -68 53 -150q0 -170 -194 -227v-926h-193l-18 160h-8q-158 -184 -357 -185q-336 0 -336 408zM455 1174l182 323h248l-256 -323h-174z" />
<glyph unicode="&#x1eea;" d="M147 512v827h238v-845q0 -311 231 -312q238 0 238 312v845h109q82 6 127 35t45 96q0 46 -31 91l164 73q55 -66 55 -147q0 -190 -242 -240v-735q0 -270 -119.5 -403.5t-345 -133.5t-347.5 134.5t-122 402.5zM313 1679h258l172 -237h-190z" />
<glyph unicode="&#x1eeb;" d="M143 383v623h236v-592q0 -123 43 -179.5t145 -56.5q72 0 128.5 34t123.5 116v678h76q168 12 168 131q0 43 -31 90l164 76q53 -68 53 -150q0 -170 -194 -227v-926h-193l-18 160h-8q-158 -184 -357 -185q-336 0 -336 408zM326 1497h245l185 -323h-176z" />
<glyph unicode="&#x1eec;" d="M147 512v827h238v-845q0 -311 231 -312q238 0 238 312v845h109q82 6 127 35t45 96q0 46 -31 91l164 73q55 -66 55 -147q0 -190 -242 -240v-735q0 -270 -119.5 -403.5t-345 -133.5t-347.5 134.5t-122 402.5zM465 1675l27 125q315 -8 315 -176q0 -172 -258 -203l-21 101 q102 23 103 75q0 70 -166 78z" />
<glyph unicode="&#x1eed;" d="M143 383v623h236v-592q0 -123 43 -179.5t145 -56.5q72 0 128.5 34t123.5 116v678h76q168 12 168 131q0 43 -31 90l164 76q53 -68 53 -150q0 -170 -194 -227v-926h-193l-18 160h-8q-158 -184 -357 -185q-336 0 -336 408zM455 1391l26 125q315 -12 316 -179 q0 -169 -256 -200l-23 98q104 25 105 78q0 70 -168 78z" />
<glyph unicode="&#x1eee;" d="M147 512v827h238v-845q0 -311 231 -312q238 0 238 312v845h109q82 6 127 35t45 96q0 46 -31 91l164 73q55 -66 55 -147q0 -190 -242 -240v-735q0 -270 -119.5 -403.5t-345 -133.5t-347.5 134.5t-122 402.5zM291 1448q12 117 65.5 183.5t130.5 66.5q61 0 139.5 -49.5 t106.5 -49.5q62 1 80 99h125q-12 -117 -65.5 -183.5t-131.5 -66.5q-61 0 -139 50t-106 50q-61 0 -80 -100h-125z" />
<glyph unicode="&#x1eef;" d="M143 383v623h236v-592q0 -123 43 -179.5t145 -56.5q72 0 128.5 34t123.5 116v678h76q168 12 168 131q0 43 -31 90l164 76q53 -68 53 -150q0 -170 -194 -227v-926h-193l-18 160h-8q-158 -184 -357 -185q-336 0 -336 408zM285 1182q14 123 68.5 191.5t140.5 68.5 q55 0 124.5 -55.5t96.5 -55.5q64 0 84 111h127q-16 -125 -70.5 -192.5t-140.5 -67.5q-55 0 -124 55t-95 55q-63 0 -86 -110h-125z" />
<glyph unicode="&#x1ef0;" d="M147 512v827h238v-845q0 -311 231 -312q238 0 238 312v845h109q82 6 127 35t45 96q0 46 -31 91l164 73q55 -66 55 -147q0 -190 -242 -240v-735q0 -270 -119.5 -403.5t-345 -133.5t-347.5 134.5t-122 402.5zM446 -334q0 70 48.5 115t120 45t119.5 -45t48 -115 q0 -72 -47 -115t-120.5 -43t-121 43t-47.5 115z" />
<glyph unicode="&#x1ef1;" d="M143 383v623h236v-592q0 -123 43 -179.5t145 -56.5q72 0 128.5 34t123.5 116v678h76q168 12 168 131q0 43 -31 90l164 76q53 -68 53 -150q0 -170 -194 -227v-926h-193l-18 160h-8q-158 -184 -357 -185q-336 0 -336 408zM461 -334q0 70 48 115t119.5 45t120 -45t48.5 -115 q0 -72 -47.5 -115t-121 -43t-120.5 43t-47 115z" />
<glyph unicode="&#x1ef2;" d="M55 1339h252l168 -360q53 -117 137 -309h9q6 16 60 133t81 178l166 358h246l-441 -874v-465h-237v465zM313 1679h258l172 -237h-190z" />
<glyph unicode="&#x1ef3;" d="M82 1006h235l207 -494q23 -53 111 -295h8q25 78 100 295l183 494h223l-420 -1051q-70 -182 -173 -275.5t-275 -93.5q-78 0 -144 21l45 184q47 -14 84 -14q172 0 242 172l24 63zM346 1497h248l182 -323h-174z" />
<glyph unicode="&#x1ef4;" d="M55 1339h252l168 -360q53 -117 137 -309h9q6 16 60 133t81 178l166 358h246l-441 -874v-465h-237v465zM446 -334q0 70 48.5 115t120 45t119.5 -45t48 -115q0 -72 -47 -115t-120.5 -43t-121 43t-47.5 115z" />
<glyph unicode="&#x1ef5;" d="M82 1006h235l207 -494q23 -53 111 -295h8q25 78 100 295l183 494h223l-420 -1051q-70 -182 -173 -275.5t-275 -93.5q-78 0 -144 21l45 184q47 -14 84 -14q172 0 242 172l24 63zM801 -322q0 70 47 115t121 45q72 0 120 -45t48 -115q0 -72 -47.5 -114.5t-121 -42.5 t-120.5 43t-47 114z" />
<glyph unicode="&#x1ef6;" d="M55 1339h252l168 -360q53 -117 137 -309h9q6 16 60 133t81 178l166 358h246l-441 -874v-465h-237v465zM465 1675l27 125q315 -8 315 -176q0 -172 -258 -203l-21 101q102 23 103 75q0 70 -166 78z" />
<glyph unicode="&#x1ef7;" d="M82 1006h235l207 -494q23 -53 111 -295h8q25 78 100 295l183 494h223l-420 -1051q-70 -182 -173 -275.5t-275 -93.5q-78 0 -144 21l45 184q47 -14 84 -14q172 0 242 172l24 63zM481 1391l27 125q313 -12 313 -179q0 -169 -256 -200l-20 98q102 27 102 78q0 70 -166 78z " />
<glyph unicode="&#x1ef8;" d="M55 1339h252l168 -360q53 -117 137 -309h9q6 16 60 133t81 178l166 358h246l-441 -874v-465h-237v465zM291 1448q12 117 65.5 183.5t130.5 66.5q61 0 139.5 -49.5t106.5 -49.5q61 0 80 99h125q-12 -117 -65.5 -183.5t-131.5 -66.5q-61 0 -139 50t-106 50q-61 0 -80 -100 h-125z" />
<glyph unicode="&#x1ef9;" d="M82 1006h235l207 -494q23 -53 111 -295h8q25 78 100 295l183 494h223l-420 -1051q-70 -182 -173 -275.5t-275 -93.5q-78 0 -144 21l45 184q47 -14 84 -14q172 0 242 172l24 63zM305 1182q14 125 68.5 192.5t142.5 67.5q53 0 124 -55.5t95 -55.5q63 0 86 111h125 q-14 -123 -68.5 -191.5t-140.5 -68.5q-57 0 -126.5 55t-94.5 55q-63 0 -86 -110h-125z" />
<glyph unicode="&#x2000;" horiz-adv-x="986" />
<glyph unicode="&#x2001;" horiz-adv-x="1972" />
<glyph unicode="&#x2002;" horiz-adv-x="986" />
<glyph unicode="&#x2003;" horiz-adv-x="1972" />
<glyph unicode="&#x2004;" horiz-adv-x="657" />
<glyph unicode="&#x2005;" horiz-adv-x="493" />
<glyph unicode="&#x2006;" horiz-adv-x="328" />
<glyph unicode="&#x2007;" />
<glyph unicode="&#x2008;" horiz-adv-x="246" />
<glyph unicode="&#x2009;" horiz-adv-x="394" />
<glyph unicode="&#x200a;" horiz-adv-x="109" />
<glyph unicode="&#x2010;" d="M264 508v188h701v-188h-701z" />
<glyph unicode="&#x2011;" d="M264 508v188h701v-188h-701z" />
<glyph unicode="&#x2012;" d="M164 508v188h901v-188h-901z" />
<glyph unicode="&#x2013;" d="M164 508v188h901v-188h-901z" />
<glyph unicode="&#x2014;" d="M41 508v188h1147v-188h-1147z" />
<glyph unicode="&#x2015;" d="M41 508v188h1147v-188h-1147z" />
<glyph unicode="&#x2018;" d="M401 942q0 160 84 286t244 202l68 -130q-207 -109 -219 -305q18 8 45 9q74 0 119.5 -46.5t45.5 -119.5q0 -82 -48 -133.5t-126 -51.5q-98 0 -155.5 77t-57.5 212z" />
<glyph unicode="&#x2019;" d="M430 782q207 109 221 305q-23 -8 -49 -8q-72 0 -119 46t-47 120q0 82 49.5 133.5t124.5 51.5q98 0 155.5 -77t57.5 -212q0 -160 -83.5 -286t-241.5 -202z" />
<glyph unicode="&#x201a;" d="M430 -340q207 109 221 305q-23 -8 -49 -8q-72 0 -119 46t-47 120q0 82 49.5 133t124.5 51q98 0 155.5 -76.5t57.5 -212.5q0 -160 -83.5 -285.5t-241.5 -201.5z" />
<glyph unicode="&#x201c;" d="M147 942q0 160 84 286t244 202l68 -130q-207 -109 -219 -305q18 8 45 9q74 0 120 -46.5t46 -119.5q0 -82 -48.5 -133.5t-126.5 -51.5q-98 0 -155.5 77t-57.5 212zM655 942q0 160 84 286t244 202l68 -130q-207 -109 -220 -305q18 8 46 9q74 0 119.5 -46.5t45.5 -119.5 q0 -82 -48 -133.5t-126 -51.5q-98 0 -155.5 77t-57.5 212z" />
<glyph unicode="&#x201d;" d="M176 782q207 109 221 305q-23 -8 -49 -8q-72 0 -119 46t-47 120q0 82 49.5 133.5t124.5 51.5q98 0 155.5 -77t57.5 -212q0 -160 -83.5 -286t-241.5 -202zM684 782q207 109 221 305q-23 -8 -49 -8q-72 0 -119 46t-47 120q0 82 49 133.5t125 51.5q98 0 155.5 -77t57.5 -212 q0 -160 -83.5 -286t-241.5 -202z" />
<glyph unicode="&#x201e;" d="M176 -340q207 109 221 305q-23 -8 -49 -8q-72 0 -119 46t-47 120q0 82 49.5 133t124.5 51q98 0 155.5 -76.5t57.5 -212.5q0 -160 -83.5 -285.5t-241.5 -201.5zM684 -340q207 109 221 305q-23 -8 -49 -8q-72 0 -119 46t-47 120q0 82 49 133t125 51q98 0 155.5 -76.5 t57.5 -212.5q0 -160 -83.5 -285.5t-241.5 -201.5z" />
<glyph unicode="&#x2020;" d="M221 938v192l311 -14l-14 342h193l-15 -342l312 14v-192l-312 12l15 -1114h-193l14 1114z" />
<glyph unicode="&#x2021;" d="M221 164v192l311 -18l-14 309l14 309l-311 -18v192l311 -14l-14 342h193l-15 -342l312 14v-192l-312 18l15 -309l-15 -309l312 18v-192l-312 14l15 -342h-193l14 342z" />
<glyph unicode="&#x2022;" d="M295 620.5q0 137.5 93 226.5t226.5 89t226.5 -89t93 -226.5t-93 -226.5t-226.5 -89t-226.5 89t-93 226.5z" />
<glyph unicode="&#x2026;" d="M31 151.5q0 75.5 47 126t118.5 50.5t118.5 -50.5t47 -126t-47 -126t-118.5 -50.5t-118.5 50.5t-47 126zM449 151.5q0 75.5 47 126t118.5 50.5t118.5 -50.5t47 -126t-47 -126t-118.5 -50.5t-118.5 50.5t-47 126zM866 151.5q0 75.5 47.5 126t119 50.5t118.5 -50.5t47 -126 t-47 -126t-118.5 -50.5t-119 50.5t-47.5 126z" />
<glyph unicode="&#x202f;" horiz-adv-x="394" />
<glyph unicode="&#x2030;" d="M80 246q0 121 70.5 191.5t181 70.5t180.5 -70.5t70 -191.5q0 -123 -70 -197t-180.5 -74t-181 74t-70.5 197zM80 1067q0 121 70.5 190.5t181 69.5t180.5 -69.5t70 -190.5q0 -123 -70 -196.5t-180.5 -73.5t-181 73.5t-70.5 196.5zM203 639l919 410l62 -158l-946 -330z M223 246q0 -164 109 -164q106 0 106 164q0 154 -106 153q-109 0 -109 -153zM223 1067q0 -164 109 -164q106 0 106 164q0 154 -106 154q-109 0 -109 -154zM649 246q0 121 71 191.5t181.5 70.5t180 -70.5t69.5 -191.5q0 -123 -69.5 -197t-180 -74t-181.5 74t-71 197zM793 246 q-1 -164 108 -164q106 0 107 164q0 154 -107 153q-109 0 -108 -153z" />
<glyph unicode="&#x2032;" d="M498 807l45 602h233l-41 -252l-84 -350h-153z" />
<glyph unicode="&#x2033;" d="M285 807l45 602h235l-43 -252l-84 -350h-153zM709 807l45 602h235l-43 -252l-84 -350h-153z" />
<glyph unicode="&#x2039;" d="M381 399v234l332 321l104 -94l-260 -344l260 -346l-104 -92z" />
<glyph unicode="&#x203a;" d="M412 170l260 346l-260 344l104 94l332 -321v-234l-332 -321z" />
<glyph unicode="&#x2044;" d="M45 182l379 371l86 -80l-338 -412zM719 866l338 412l127 -121l-379 -371z" />
<glyph unicode="&#x205f;" horiz-adv-x="493" />
<glyph unicode="&#x2070;" d="M319 1221q0 156 82 245.5t213 89.5t213 -90t82 -245q0 -158 -83 -251t-212 -93t-212 93t-83 251zM487 1221q0 -106 36 -159.5t91.5 -53.5t91 53t35.5 160q0 205 -127 204.5t-127 -204.5z" />
<glyph unicode="&#x2071;" d="M352 1063v135h445v-666h-172v531h-273zM590 1419q0 49 32.5 80t86 31t86 -31t32.5 -80q0 -51 -32.5 -80.5t-86 -29.5t-86 29.5t-32.5 80.5z" />
<glyph unicode="&#x2074;" d="M340 1038v84l274 410h211v-383h105v-111h-105v-137h-155v137h-330zM504 1149h166v80l10 186h-6l-80 -129z" />
<glyph unicode="&#x2075;" d="M344 975l76 108q84 -76 178 -75q49 0 80 25.5t31 68.5q0 98 -111 98q-53 0 -119 -41l-76 51l31 322h414v-146h-279l-14 -106q39 18 100 18q102 0 164 -53t62 -147q0 -96 -75 -158.5t-190 -62.5q-151 0 -272 98z" />
<glyph unicode="&#x2076;" d="M344 1204q0 158 88 255t238 97q113 1 207 -73l-70 -105q-57 47 -127 47q-160 0 -176 -198q78 63 174 63q98 0 152.5 -51t54.5 -141q0 -92 -71 -156.5t-177 -64.5q-131 0 -212 90t-81 237zM506 1128q12 -61 47 -90.5t80 -29.5t69.5 24.5t24.5 65.5q0 84 -98 84 q-61 0 -123 -54z" />
<glyph unicode="&#x2077;" d="M369 1389v143h518v-92q-117 -131 -158 -247t-51 -292h-180q8 143 52 251t142 237h-323z" />
<glyph unicode="&#x2078;" d="M348 1061q0 94 129 162v8q-39 27 -56.5 40t-34.5 41.5t-17 65.5q0 78 71.5 128t173.5 50q106 0 176 -49t70 -129q0 -88 -108 -141v-8q129 -59 129 -168q0 -78 -76 -131t-191 -53q-117 0 -191.5 53t-74.5 131zM506 1073q0 -35 30.5 -57.5t77.5 -22.5q45 0 77 21.5t32 52.5 q0 41 -37 63.5t-106 43.5q-74 -40 -74 -101zM526 1374q0 -57 121 -92q57 35 58 86q0 31 -25 51.5t-68 20.5q-39 0 -62.5 -18.5t-23.5 -47.5z" />
<glyph unicode="&#x2079;" d="M344 1335q0 92 70.5 156.5t177.5 64.5q133 0 213 -89t80 -236q0 -160 -88 -257t-238 -97q-115 -1 -207 75l70 103q61 -47 127 -47q158 0 174 198q-74 -63 -172 -63t-152.5 51t-54.5 141zM502 1337q0 -86 98 -86q61 0 121 54q-18 121 -125 120q-45 0 -69.5 -23.5 t-24.5 -64.5z" />
<glyph unicode="&#x207d;" d="M461 1233q0 276 217 504l129 -84q-172 -184 -172 -420q0 -233 172 -418l-129 -84q-217 228 -217 502z" />
<glyph unicode="&#x207e;" d="M422 815q172 184 172 418q0 236 -172 420l129 84q217 -228 217 -504q0 -274 -217 -502z" />
<glyph unicode="&#x207f;" d="M338 532v666h141l13 -92h6q113 109 233 108q219 0 219 -266v-416h-172v394q0 76 -26.5 109.5t-87.5 33.5q-66 0 -152 -80v-457h-174z" />
<glyph unicode="&#x2080;" d="M319 -29q0 156 82 246t213 90t213 -90t82 -246q0 -158 -83 -251t-212 -93t-212 93.5t-83 250.5zM487 -29q0 -106 36 -159.5t91.5 -53.5t91 53.5t35.5 159.5q0 205 -127 205t-127 -205z" />
<glyph unicode="&#x2081;" d="M414 104v109q119 18 204 70h138v-631h-176v452h-166z" />
<glyph unicode="&#x2082;" d="M340 180q117 127 256 127q117 0 185.5 -57t68.5 -158q0 -70 -52.5 -137.5t-154.5 -159.5h234v-143h-512v94q160 113 237.5 187.5t77.5 129.5q0 47 -28.5 75t-80.5 28q-72 0 -129 -78z" />
<glyph unicode="&#x2083;" d="M344 -274l76 108q80 -76 178 -76q104 0 104 78q0 88 -172 88v96q145 0 146 86q0 70 -96 70q-70 0 -144 -59l-74 102q94 88 254 88q100 0 166 -48t66 -128q0 -109 -113 -149q139 -35 139 -158q0 -88 -74.5 -142.5t-185.5 -54.5q-155 1 -270 99z" />
<glyph unicode="&#x2084;" d="M340 -127l274 410h211v-383h105v-111h-105v-137h-155v137h-330v84zM504 -100h166v80l10 186h-6l-80 -129z" />
<glyph unicode="&#x2085;" d="M344 -274l76 108q84 -76 178 -76q49 0 80 26t31 69q0 98 -111 98q-53 0 -119 -41l-76 51l31 322h414v-146h-279l-14 -106q39 18 100 18q102 0 164 -53t62 -148q0 -96 -75 -158.5t-190 -62.5q-151 1 -272 99z" />
<glyph unicode="&#x2086;" d="M344 -45q0 158 88 255t238 97q113 0 207 -74l-70 -104q-57 47 -127 47q-160 0 -176 -199q78 63 174 64q98 0 152.5 -51t54.5 -142q0 -92 -71 -156.5t-177 -64.5q-131 0 -212 90t-81 238zM506 -121q12 -61 47 -91t80 -30t69.5 24.5t24.5 65.5q0 84 -98 84q-61 0 -123 -53z " />
<glyph unicode="&#x2087;" d="M369 139v144h518v-93q-117 -131 -158 -246.5t-51 -291.5h-180q8 143 52 250.5t142 236.5h-323z" />
<glyph unicode="&#x2088;" d="M348 -188q0 94 129 161v9q-39 27 -56.5 40t-34.5 41.5t-17 65.5q0 78 71.5 128t173.5 50q106 0 176 -49t70 -129q0 -88 -108 -141v-8q129 -59 129 -168q0 -78 -76 -131.5t-191 -53.5q-117 0 -191.5 53.5t-74.5 131.5zM506 -176q0 -35 30.5 -57.5t77.5 -22.5q45 0 77 21.5 t32 52.5q0 41 -37 63.5t-106 42.5q-74 -39 -74 -100zM526 125q0 -57 121 -92q57 35 58 86q0 31 -25 51t-68 20q-39 0 -62.5 -18t-23.5 -47z" />
<glyph unicode="&#x2089;" d="M344 86q0 92 70.5 156.5t177.5 64.5q133 0 213 -89t80 -236q0 -160 -88 -257.5t-238 -97.5q-115 0 -207 76l70 102q61 -47 127 -47q158 0 174 199q-74 -63 -172 -63t-152.5 51t-54.5 141zM502 88q0 -86 98 -86q61 0 121 53q-18 121 -125 121q-45 0 -69.5 -23.5 t-24.5 -64.5z" />
<glyph unicode="&#x208d;" d="M461 -16q0 276 217 503l129 -84q-172 -184 -172 -419q0 -233 172 -418l-129 -84q-217 228 -217 502z" />
<glyph unicode="&#x208e;" d="M422 403l129 84q217 -227 217 -503q0 -274 -217 -502l-129 84q172 184 172 418q0 236 -172 419z" />
<glyph unicode="&#x2094;" d="M309 838q0 43 8 75h449q-18 170 -186 170q-82 0 -170 -49l-58 107q109 74 248 73q152 0 243 -93t91 -255q0 -158 -93 -254t-231 -96q-143 0 -222 88.5t-79 233.5zM459 807q0 -76 38 -118t109 -42q143 0 164 160h-311z" />
<glyph unicode="&#x20a1;" d="M178 647q0 281 127 457t346 213l25 211h90l-25 -201h25q39 0 76 -6l24 207h90l-26 -232q117 -47 188 -129l-133 -129q-49 43 -80 62l-110 -936q115 14 209 125l133 -123q-160 -176 -365 -189l-24 -202h-91l25 202q-47 2 -98 17l-27 -219h-90l31 252q-150 70 -235 229.5 t-85 390.5zM418 655q0 -262 106 -393l103 856q-100 -43 -154.5 -162.5t-54.5 -300.5zM606 195q45 -25 99 -33l114 973q-31 8 -69 8q-21 0 -29 -2z" />
<glyph unicode="&#x20a4;" d="M150 0v145q109 45 173 129t72 189h-243v115l172 12h57q-14 49 -37 108h-192v117l149 8q-16 59 -16 107q0 182 123.5 289.5t326.5 107.5q227 0 371 -160l-131 -129q-96 96 -221 97q-117 0 -180.5 -57.5t-63.5 -159.5q0 -46 12 -93h398v-127h-361q18 -51 31 -108h330v-127 h-318q-6 -143 -131 -254v-8h637v-201h-958z" />
<glyph unicode="&#x20a6;" d="M76 487v93l147 10v112h-147v91l147 10v500h226l198 -500h182v500h177v-500h145v-101h-145v-112h145v-103h-145v-487h-226l-192 487h-189v-487h-176v487h-147zM354 1114l27 -311h90l-109 311h-8zM389 702l10 -110v-2h148l-6 16l-33 96h-119zM686 702l2 -4l39 -108h113 l-11 112h-143zM762 487l104 -299h8l-26 299h-86z" />
<glyph unicode="&#x20a7;" d="M66 815v139l147 11v338h338q426 0 471 -336h131v-152h-129q-25 -170 -154 -257t-319 -87h-115v-471h-223v815h-147zM436 625h94q233 0 271 190h-365v-190zM436 967h365q-38 184 -271 184h-94v-184z" />
<glyph unicode="&#x20ab;" d="M205 618q0 164 107.5 266.5t248.5 102.5q123 0 232 -88l-9 154v49h-317v127h317v119h197v-119h154v-115l-154 -12v-850h-162l-16 82h-6q-102 -102 -246 -103q-160 0 -253 101.5t-93 285.5zM229 0v127h818v-127h-818zM408 621q0 -111 50 -169.5t138 -58.5q104 0 188 90 v271q-86 70 -180 69q-80 0 -138 -57t-58 -145z" />
<glyph unicode="&#x20ac;" d="M104 461v114l117 9q-2 20 -2 63q0 41 2 60h-117v114l132 8q43 236 193.5 367t369.5 131q213 0 360 -160l-133 -129q-115 104 -235 105q-127 0 -207 -81t-109 -231h559v-124h-573q-2 -16 -2 -52q0 -47 2 -69h491v-125h-475q33 -145 112 -223t197 -78q145 0 258 129 l134 -123q-172 -190 -404 -191q-207 0 -351 127t-187 359h-132z" />
<glyph unicode="&#x20b1;" d="M66 739v92l147 11v106h-147v90l147 11v254h338q369 0 453 -254h149v-101h-127q2 -20 2 -61q0 -31 -2 -45h127v-103h-147q-45 -133 -167 -200.5t-288 -67.5h-115v-471h-223v739h-147zM436 625h94q176 0 242 114h-336v-114zM436 842h369q2 14 2 45q0 25 -4 61h-367v-106z M436 1049h334q-64 102 -240 102h-94v-102z" />
<glyph unicode="&#x20b2;" d="M154 647q0 281 126 458t338 214v209h164v-205q172 -20 303 -160l-133 -129q-109 109 -233 109q-156 0 -241 -129t-85 -359q0 -231 85 -359t237 -128q102 0 162 51v297h-195v195h408v-586q-131 -119 -308 -143v-207h-164v207q-211 31 -337.5 204.5t-126.5 460.5z" />
<glyph unicode="&#x20b5;" d="M178 647q0 287 132 465t358 209v195h139v-191q182 -18 311 -158l-133 -129q-90 82 -178 99v-971q107 21 197 123l133 -123q-143 -160 -330 -186v-205h-139v205q-223 25 -356.5 198.5t-133.5 468.5zM418 655q0 -201 65.5 -327.5t184.5 -157.5v963q-121 -31 -185.5 -155 t-64.5 -323z" />
<glyph unicode="&#x20b9;" d="M201 463v190h155q295 0 334 191h-489v117l159 10h324q-47 143 -328 143h-155v189h872v-125h-313q129 -70 158 -207h155v-127h-149q-29 -270 -312 -352l404 -492h-266l-371 463h-178z" />
<glyph unicode="&#x20ba;" d="M94 401v138l193 90v129l-193 -90v137l193 92v406h237v-291l350 168v-138l-350 -168v-129l350 168v-137l-350 -168v-411q152 8 269.5 90t117.5 209q0 41 -10 73l197 49q16 -72 16 -112q0 -264 -225 -402.5t-602 -128.5v517z" />
<glyph unicode="&#x2113;" d="M195 381q68 41 188 123v500q0 236 94 353.5t248 117.5q135 0 217 -88.5t82 -243.5q0 -188 -100.5 -353t-309.5 -331v-62q0 -115 47.5 -170t122.5 -55q87 0 189 90l90 -143q-160 -143 -315 -144q-139 0 -239.5 84t-121.5 238q-66 -41 -100 -64zM614 694q215 211 215 447 q0 158 -96 157q-51 0 -85 -64.5t-34 -195.5v-344z" />
<glyph unicode="&#x2117;" d="M49 664q0 309 162 492t403.5 183t403.5 -183t162 -492q0 -307 -162 -495.5t-403.5 -188.5t-403.5 188.5t-162 495.5zM164 663.5q0 -260.5 124 -419t326.5 -158.5t326.5 158.5t124 419t-124 416t-326.5 155.5t-326.5 -155.5t-124 -416zM379 283v745h248q133 0 215 -62.5 t82 -191.5q0 -137 -84 -208.5t-213 -71.5h-74v-211h-174zM553 623h57q143 0 144 147q0 125 -144 125h-57v-272z" />
<glyph unicode="&#x2120;" d="M6 819l84 101q82 -76 160 -76t78 61q0 29 -14.5 42.5t-61.5 35.5l-92 47q-121 59 -121 180q0 84 61.5 138.5t165.5 54.5q115 0 209 -80l-78 -102q-84 59 -135 59q-39 0 -58.5 -17.5t-19.5 -43.5q0 -41 76 -74l90 -43q125 -57 125 -182q0 -80 -65.5 -139.5t-171.5 -59.5 q-127 0 -232 98zM580 745v639h178l82 -213l49 -155h8l47 155l80 213h178v-639h-141v238l16 225h-8l-127 -342h-102l-127 342h-8l18 -225v-238h-143z" />
<glyph unicode="&#x2122;" d="M-18 1239v145h518v-145h-181v-494h-159v494h-178zM580 745v639h178l82 -213l49 -155h8l47 155l80 213h178v-639h-141v238l16 225h-8l-127 -342h-102l-127 342h-8l18 -225v-238h-143z" />
<glyph unicode="&#x2126;" d="M-23 0v193h252v8q-221 221 -221 528q0 299 166 473t440.5 174t440.5 -174t166 -473q0 -307 -222 -528v-8h252v-193h-528v158q254 197 254 557q0 207 -97.5 330.5t-265.5 123.5t-265 -123.5t-97 -330.5q0 -360 254 -557v-158h-529z" />
<glyph unicode="&#x212e;" d="M53 663.5q0 284.5 165 486.5t396.5 202t396.5 -202t165 -486v-17h-848q-8 0 -9 -8v-459q1 -16 17 -41q111 -123 282 -123q106 0 204 61.5t169 168.5h78q-86 -127 -202.5 -199t-252.5 -72q-231 0 -396 202t-165 486.5zM319 696q1 -12 9 -12h573q12 0 12 12v459 q0 25 -20 45q-111 111 -275 111q-170 0 -282 -119q-16 -25 -17 -45v-451z" />
<glyph unicode="&#x2153;" d="M45 182l379 371l86 -80l-338 -412zM145 1124v109q117 16 205 70h137v-631h-174v452h-168zM614 74l76 108q76 -76 176 -76q106 0 107 78q0 88 -172 88v97q143 0 143 86q0 70 -94 69q-70 0 -143 -59l-74 102q94 88 254 88q98 0 163.5 -48t65.5 -128q0 -111 -112 -149 q141 -35 141 -158q0 -88 -75 -142.5t-185 -54.5q-156 1 -271 99zM719 866l338 412l127 -121l-379 -371z" />
<glyph unicode="&#x2154;" d="M45 182l379 371l86 -80l-338 -412zM70 1200q121 127 258 127q117 0 184.5 -57.5t67.5 -157.5q0 -70 -52.5 -137.5t-154.5 -159.5h233v-143h-512v94q160 113 238 187.5t78 129.5q0 102 -107 103q-74 0 -129 -78zM614 74l76 108q76 -76 176 -76q106 0 107 78q0 88 -172 88 v97q143 0 143 86q0 70 -94 69q-70 0 -143 -59l-74 102q94 88 254 88q98 0 163.5 -48t65.5 -128q0 -111 -112 -149q141 -35 141 -158q0 -88 -75 -142.5t-185 -54.5q-156 1 -271 99zM719 866l338 412l127 -121l-379 -371z" />
<glyph unicode="&#x215b;" d="M45 182l379 371l86 -80l-338 -412zM145 1124v109q117 16 205 70h137v-631h-174v452h-168zM618 160q0 94 130 162v8q-39 25 -57.5 39t-35 42.5t-16.5 65.5q0 78 71.5 128t174.5 50q106 0 175.5 -49t69.5 -129q0 -88 -108 -141v-8q129 -59 129 -168q0 -78 -76 -131.5 t-190 -53.5q-117 0 -192 53.5t-75 131.5zM719 866l338 412l127 -121l-379 -371zM774 172q0 -35 32 -57.5t79 -22.5q45 0 76.5 21.5t31.5 52.5q0 41 -36.5 63.5t-106.5 42.5q-76 -39 -76 -100zM797 473q0 -57 121 -92q55 35 55 86q0 31 -23.5 51.5t-66.5 20.5 q-39 0 -62.5 -18.5t-23.5 -47.5z" />
<glyph unicode="&#x215c;" d="M45 182l379 371l86 -80l-338 -412zM78 745l76 109q76 -76 176 -76q106 0 106 78q0 88 -172 88v96q143 0 144 86q0 70 -95 70q-70 0 -143 -59l-74 102q94 88 254 88q98 0 164 -48t66 -128q0 -111 -113 -150q141 -33 141 -157q0 -88 -74.5 -142.5t-185.5 -54.5 q-155 0 -270 98zM618 160q0 94 130 162v8q-39 25 -57.5 39t-35 42.5t-16.5 65.5q0 78 71.5 128t174.5 50q106 0 175.5 -49t69.5 -129q0 -88 -108 -141v-8q129 -59 129 -168q0 -78 -76 -131.5t-190 -53.5q-117 0 -192 53.5t-75 131.5zM719 866l338 412l127 -121l-379 -371z M774 172q0 -35 32 -57.5t79 -22.5q45 0 76.5 21.5t31.5 52.5q0 41 -36.5 63.5t-106.5 42.5q-76 -39 -76 -100zM797 473q0 -57 121 -92q55 35 55 86q0 31 -23.5 51.5t-66.5 20.5q-39 0 -62.5 -18.5t-23.5 -47.5z" />
<glyph unicode="&#x215d;" d="M45 182l379 371l86 -80l-338 -412zM78 745l76 109q84 -76 176 -76q49 0 80.5 25.5t31.5 68.5q0 98 -112 99q-53 0 -119 -41l-74 51l31 322h412v-146h-279l-14 -106q41 18 102 18q102 0 163.5 -53t61.5 -147.5t-74.5 -158t-189.5 -63.5q-151 0 -272 98zM618 160 q0 94 130 162v8q-39 25 -57.5 39t-35 42.5t-16.5 65.5q0 78 71.5 128t174.5 50q106 0 175.5 -49t69.5 -129q0 -88 -108 -141v-8q129 -59 129 -168q0 -78 -76 -131.5t-190 -53.5q-117 0 -192 53.5t-75 131.5zM719 866l338 412l127 -121l-379 -371zM774 172q0 -35 32 -57.5 t79 -22.5q45 0 76.5 21.5t31.5 52.5q0 41 -36.5 63.5t-106.5 42.5q-76 -39 -76 -100zM797 473q0 -57 121 -92q55 35 55 86q0 31 -23.5 51.5t-66.5 20.5q-39 0 -62.5 -18.5t-23.5 -47.5z" />
<glyph unicode="&#x215e;" d="M45 182l379 371l86 -80l-338 -412zM100 1159v144h521v-93q-117 -131 -159 -247.5t-50 -290.5h-183q8 143 53.5 249.5t141.5 237.5h-324zM618 160q0 94 130 162v8q-39 25 -57.5 39t-35 42.5t-16.5 65.5q0 78 71.5 128t174.5 50q106 0 175.5 -49t69.5 -129q0 -88 -108 -141 v-8q129 -59 129 -168q0 -78 -76 -131.5t-190 -53.5q-117 0 -192 53.5t-75 131.5zM719 866l338 412l127 -121l-379 -371zM774 172q0 -35 32 -57.5t79 -22.5q45 0 76.5 21.5t31.5 52.5q0 41 -36.5 63.5t-106.5 42.5q-76 -39 -76 -100zM797 473q0 -57 121 -92q55 35 55 86 q0 31 -23.5 51.5t-66.5 20.5q-39 0 -62.5 -18.5t-23.5 -47.5z" />
<glyph unicode="&#x2190;" d="M31 512v8l563 545l115 -129l-357 -326h813v-188h-813l357 -326l-115 -129z" />
<glyph unicode="&#x2191;" d="M66 518l544 563h8l545 -563l-129 -115l-325 359v-813h-189v813l-325 -359z" />
<glyph unicode="&#x2192;" d="M61 422v188h816l-359 326l115 129l563 -545v-8l-563 -545l-115 129l359 326h-816z" />
<glyph unicode="&#x2193;" d="M66 512l129 115l325 -359v813h189v-813l325 359l129 -115l-545 -563h-8z" />
<glyph unicode="&#x2202;" d="M139 375q0 207 121 338t320 131q164 0 284 -137v51q0 426 -254 426q-119 -1 -221 -99l-104 148q160 143 350 143q217 0 336 -162.5t119 -461.5q0 -348 -156 -562.5t-408 -214.5q-162 0 -274.5 110t-112.5 290zM358 387q0 -100 56.5 -159.5t136.5 -59.5q109 0 186.5 89 t108.5 263q-100 139 -240 139q-117 0 -182.5 -72.5t-65.5 -199.5z" />
<glyph unicode="&#x2206;" d="M43 0v143l432 1209h279l432 -1209v-143h-1143zM311 201h607l-185 542l-115 379h-8l-114 -379z" />
<glyph unicode="&#x220f;" d="M78 -246v1549h1073v-1549h-240v1342h-596v-1342h-237z" />
<glyph unicode="&#x2211;" d="M131 -102l455 630l-432 631v144h925v-199h-635v-8l387 -568l-405 -565v-8h707v-201h-1002v144z" />
<glyph unicode="&#x2212;" d="M160 549v172h909v-172h-909z" />
<glyph unicode="&#x2215;" d="M45 182l379 371l86 -80l-338 -412zM719 866l338 412l127 -121l-379 -371z" />
<glyph unicode="&#x2219;" d="M408 717q0 90 57 149.5t145 59.5t144.5 -59.5t56.5 -149.5t-56.5 -148.5t-144.5 -58.5t-145 58.5t-57 148.5z" />
<glyph unicode="&#x221a;" d="M98 733l316 133l219 -655q10 -37 39 -150h8q18 109 27 150l344 1468h161l-444 -1859h-168l-307 860l-150 -64z" />
<glyph unicode="&#x221e;" d="M-18 655q0 174 89 274.5t228 100.5q176 0 281 -188h8q135 221 334 221q139 0 232 -105.5t93 -265.5q0 -190 -94 -301.5t-240 -111.5q-113 0 -193.5 53t-160.5 180h-8q-115 -188 -285 -188q-117 0 -200.5 98t-83.5 233zM160 664q0 -70 40 -117t101 -47q109 0 180 147 q-80 164 -188 164q-61 0 -97 -40t-36 -107zM657 707q57 -111 113.5 -160t130.5 -49q78 0 123 54t45 134q0 92 -49 147.5t-133 55.5q-128 0 -230 -182z" />
<glyph unicode="&#x222b;" d="M340 -309l25 174q25 -8 71 -8q80 0 106.5 68.5t26.5 230.5q0 152 -41 482.5t-41 491.5q0 113 14.5 195t49.5 151.5t103.5 105.5t170.5 36q72 0 105 -14l-25 -174q-25 8 -71 8q-78 0 -105 -70t-27 -229q0 -152 40 -482.5t40 -492.5q0 -113 -14 -195t-49 -151.5 t-102.5 -105.5t-167.5 -36q-61 0 -109 15z" />
<glyph unicode="&#x2248;" d="M131 295q106 279 307 278q70 0 135.5 -40.5t121 -81.5t100.5 -41q100 0 159 172l144 -68q-106 -276 -307 -276q-70 0 -135.5 40.5t-121 81.5t-100.5 41q-99 0 -160 -172zM131 754q106 279 307 278q70 0 135.5 -41t121 -82t100.5 -41q100 0 159 172l144 -67 q-106 -276 -307 -277q-70 0 -135.5 41t-121 82t-100.5 41q-99 0 -160 -172z" />
<glyph unicode="&#x2260;" d="M160 319v173h291l167 286h-458v172h555l151 254h158l-152 -254h197v-172h-291l-168 -286h459v-173h-555l-152 -253h-157l151 253h-196z" />
<glyph unicode="&#x2264;" d="M160 0v170h909v-170h-909zM160 575v201l909 303v-198l-389 -121l-281 -80v-8l281 -80l389 -121v-199z" />
<glyph unicode="&#x2265;" d="M160 0v170h909v-170h-909zM160 272v199l389 121l280 80v8l-280 80l-389 121v198l909 -303v-201z" />
<glyph unicode="&#x25a0;" d="M391 311v455h447v-455h-447z" />
<glyph unicode="&#x25b2;" d="M61 59v4l549 1043h8l549 -1043v-4h-1106z" />
<glyph unicode="&#x25b3;" d="M61 59v4l549 1043h8l549 -1043v-4h-1106zM338 217h555l-279 549z" />
<glyph unicode="&#x25b6;" d="M131 25v1103h4l1043 -546v-9l-1043 -548h-4z" />
<glyph unicode="&#x25b7;" d="M131 25v1103h4l1043 -546v-9l-1043 -548h-4zM291 299l543 279l-543 276v-555z" />
<glyph unicode="&#x25bc;" d="M61 1090v4h1106v-4l-549 -1041h-8z" />
<glyph unicode="&#x25bd;" d="M61 1090v4h1106v-4l-549 -1041h-8zM338 936l276 -547l279 547h-555z" />
<glyph unicode="&#x25c0;" d="M51 573v9l1043 546h4v-1103h-4z" />
<glyph unicode="&#x25c1;" d="M51 573v9l1043 546h4v-1103h-4zM395 578l543 -279v555z" />
<glyph unicode="&#x25c6;" d="M301 539l313 311l314 -311l-314 -314z" />
<glyph unicode="&#x25c9;" d="M221 539q0 174 114 285.5t279.5 111.5t279.5 -111.5t114 -285.5q0 -176 -114 -288t-279.5 -112t-279.5 111.5t-114 288.5zM356 538.5q0 -120.5 75 -196.5t183.5 -76t183 76t74.5 196.5t-74.5 196.5t-183 76t-183.5 -76t-75 -196.5zM487 539q0 55 37 93t90.5 38t90 -38 t36.5 -93q0 -57 -36.5 -96.5t-90 -39.5t-90.5 39t-37 97z" />
<glyph unicode="&#x25ca;" d="M180 676l334 696h201l334 -696l-334 -696h-201zM379 676l113 -240l118 -258h8l119 258l113 240l-113 237l-119 261h-8l-118 -261z" />
<glyph unicode="&#x2610;" d="M-55 -20v1280l139 118h1200v-1259l-119 -139h-1220zM47 82h1069v1130h-1069v-1130z" />
<glyph unicode="&#x2611;" d="M-55 -20v1280l139 118h987q108 150 225 269l148 -131q-74 -72 -160 -170v-1227l-119 -139h-1220zM47 82h1069v1042q-262 -383 -401 -880l-230 -27q-106 295 -286 563l153 101q141 -225 228 -482h8q119 418 368 813h-909v-1130z" />
<glyph unicode="&#x266a;" d="M133 113q0 104 97.5 180t238.5 76q88 0 121 -25v1077h133q16 -37 42 -61.5t103 -79.5q137 -96 191.5 -189.5t54.5 -218.5q0 -147 -84 -286l-86 35q27 82 27 188q0 96 -63.5 180t-176.5 119v-786q0 -178 -105.5 -276.5t-273.5 -98.5q-92 0 -155.5 43t-63.5 123z" />
<glyph unicode="&#x2713;" d="M-23 567l154 101q158 -236 262 -527h8q111 367 301.5 704t413.5 560l148 -131q-238 -223 -431.5 -550.5t-308.5 -737.5l-231 -27q-125 338 -316 608z" />
<glyph unicode="&#x2752;" d="M319 229v490l130 108h460v-471l-108 -127h-482zM410 315h344v357h-344v-357z" />
<glyph unicode="&#xe000;" horiz-adv-x="1004" d="M0 1005h1005v-1005h-1005v1005z" />
<glyph unicode="&#xfb01;" d="M59 819v176l136 11v104q0 166 81.5 263t251.5 97q98 0 185 -34l-45 -176q-55 25 -109 24q-129 0 -129 -170v-108h197v-187h-197v-819h-235v819h-136zM782 1341q0 72 50 117t124 45q76 0 125 -45t49 -117q0 -70 -49 -114.5t-125 -44.5q-74 0 -124 45t-50 114zM840 0v1006 h237v-1006h-237z" />
<glyph unicode="&#xfb02;" d="M70 819v176l135 11v104q0 166 81 263t251 97q98 0 184 -34l-45 -176q-53 25 -109 24q-127 0 -127 -170v-108h197v-187h-197v-819h-235v819h-135zM813 258v1188h236v-1200q0 -78 51 -78q19 0 37 4l28 -176q-47 -20 -125 -21q-227 0 -227 283z" />
<glyph d="M98 665.5q0 323.5 170 511t439 187.5q219 0 378 -168l-131 -147q-104 109 -247 108q-162 0 -262.5 -131t-100.5 -354q0 -231 95.5 -360.5t271.5 -129.5q121 0 180 60v288h-232v195h447v-590q-72 -70 -179.5 -115t-230.5 -45q-264 0 -431 183.5t-167 507zM354 1448 q12 117 65.5 183.5t131.5 66.5q59 0 137 -49.5t107 -49.5q63 0 82 99h122q-12 -117 -65 -183.5t-131 -66.5q-59 0 -136 50t-108 50q-61 0 -80 -100h-125z" />
<glyph d="M127 -176q0 127 160 211v8q-102 59 -103 168q0 106 121 190v9q-129 88 -129 258q0 168 120 265t294 97q90 0 158 -24h411v-175h-235q68 -80 67 -172q0 -162 -112.5 -251t-288.5 -89q-76 0 -154 27q-61 -39 -61 -92q0 -96 190 -96h205q199 0 297 -58.5t98 -187.5 q0 -152 -159.5 -254t-419.5 -102q-213 0 -336 68.5t-123 199.5zM305 1182q16 125 70.5 192.5t140.5 67.5q53 0 124 -55.5t95 -55.5q63 0 86 111h125q-14 -123 -68.5 -191.5t-140.5 -68.5q-55 0 -124.5 55t-96.5 55q-63 0 -84 -110h-127zM324 -145q0 -68 75.5 -107t214.5 -39 q143 0 233.5 48t90.5 116q0 55 -48 76.5t-155 21.5h-160q-102 0 -153 17q-98 -59 -98 -133zM399 668q0 -92 54.5 -146.5t136.5 -54.5t137 54t55 147q0 90 -56 145t-136 55t-135.5 -55t-55.5 -145z" />
<glyph d="M172 819v187h672v-1006q-139 -72 -139 -195q0 -41 26.5 -63.5t63.5 -22.5q35 0 77 27l54 -111q-78 -61 -185 -61q-88 0 -145 47t-57 133q0 127 133 246h-64v819h-436z" />
<glyph d="M109 502q0 238 132 383t316 145q160 0 291 -131h6l20 107h187v-1006h-195l-18 117h-6q-59 -61 -141.5 -101.5t-161.5 -40.5q-195 0 -312.5 140.5t-117.5 386.5zM352 504q0 -162 63.5 -248t180.5 -86q125 0 227 121v452q-98 92 -215 93q-109 0 -182.5 -89t-73.5 -243z" />
<glyph d="M109 502q0 238 132 383t316 145q160 0 291 -131h6l20 107h187v-1006h-195l-18 117h-6q-59 -61 -141.5 -101.5t-161.5 -40.5q-195 0 -312.5 140.5t-117.5 386.5zM352 504q0 -162 63.5 -248t180.5 -86q125 0 227 121v452q-98 92 -215 93q-109 0 -182.5 -89t-73.5 -243z M356 1497h246l184 -323h-176z" />
<glyph d="M109 502q0 238 132 383t316 145q160 0 291 -131h6l20 107h187v-1006h-195l-18 117h-6q-59 -61 -141.5 -101.5t-161.5 -40.5q-195 0 -312.5 140.5t-117.5 386.5zM352 504q0 -162 63.5 -248t180.5 -86q125 0 227 121v452q-98 92 -215 93q-109 0 -182.5 -89t-73.5 -243z M485 1174l183 323h247l-256 -323h-174z" />
<glyph d="M109 502q0 238 132 383t316 145q160 0 291 -131h6l20 107h187v-1006h-195l-18 117h-6q-59 -61 -141.5 -101.5t-161.5 -40.5q-195 0 -312.5 140.5t-117.5 386.5zM334 1174l203 323h198l203 -323h-176l-123 198h-8l-123 -198h-174zM352 504q0 -162 63.5 -248t180.5 -86 q125 0 227 121v452q-98 92 -215 93q-109 0 -182.5 -89t-73.5 -243z" />
<glyph d="M109 502q0 238 132 383t316 145q160 0 291 -131h6l20 107h187v-1006h-195l-18 117h-6q-59 -61 -141.5 -101.5t-161.5 -40.5q-195 0 -312.5 140.5t-117.5 386.5zM315 1182q14 123 68.5 191.5t140.5 68.5q55 0 125 -55.5t96 -55.5q63 0 86 111h125q-14 -125 -68 -192.5 t-143 -67.5q-55 0 -123.5 55t-95.5 55q-63 0 -86 -110h-125zM352 504q0 -162 63.5 -248t180.5 -86q125 0 227 121v452q-98 92 -215 93q-109 0 -182.5 -89t-73.5 -243z" />
<glyph d="M109 502q0 238 132 383t316 145q160 0 291 -131h6l20 107h187v-1006h-195l-18 117h-6q-59 -61 -141.5 -101.5t-161.5 -40.5q-195 0 -312.5 140.5t-117.5 386.5zM289 1323q0 59 38 99t99 40q59 0 97 -40t38 -99t-38 -98t-97 -39q-61 0 -99 39t-38 98zM352 504 q0 -162 63.5 -248t180.5 -86q125 0 227 121v452q-98 92 -215 93q-109 0 -182.5 -89t-73.5 -243zM711 1323q0 59 37.5 99t97 40t98.5 -40t39 -99t-39 -98t-98.5 -39t-97 39t-37.5 98z" />
<glyph d="M109 502q0 238 132 383t316 145q160 0 291 -131h6l20 107h187v-1006h-195l-18 117h-6q-59 -61 -141.5 -101.5t-161.5 -40.5q-195 0 -312.5 140.5t-117.5 386.5zM352 504q0 -162 63.5 -248t180.5 -86q125 0 227 121v452q-98 92 -215 93q-109 0 -182.5 -89t-73.5 -243z M369 1221v155h534v-155h-534z" />
<glyph d="M109 502q0 238 132 383t316 145q160 0 291 -131h6l20 107h187v-1006h-195l-18 117h-6q-59 -61 -141.5 -101.5t-161.5 -40.5q-195 0 -312.5 140.5t-117.5 386.5zM352 504q0 -162 63.5 -248t180.5 -86q125 0 227 121v452q-98 92 -215 93q-109 0 -182.5 -89t-73.5 -243z M352 1475h135q10 -72 47 -118t101 -46q66 0 102.5 46t44.5 118h138q-4 -123 -77 -210t-208 -87q-133 0 -206 87t-77 210z" />
<glyph d="M109 502q0 238 132 383t316 145q160 0 291 -131h6l20 107h187v-1006h-195l-18 117h-6q-59 -61 -141.5 -101.5t-161.5 -40.5q-195 0 -312.5 140.5t-117.5 386.5zM352 504q0 -162 63.5 -248t180.5 -86q125 0 227 121v452q-98 92 -215 93q-109 0 -182.5 -89t-73.5 -243z M424 1315q0 90 59.5 145.5t151.5 55.5q94 0 153.5 -55.5t59.5 -145.5q0 -88 -59.5 -143.5t-153.5 -55.5q-92 0 -151.5 55.5t-59.5 143.5zM545 1315q0 -45 26.5 -75t63.5 -30q39 0 65.5 30t26.5 75q0 47 -26.5 76.5t-65.5 29.5q-37 0 -63.5 -29.5t-26.5 -76.5z" />
<glyph d="M109 502q0 238 132 383t316 145q160 0 291 -131h6l20 107h187v-1006h-195l-18 117h-6q-59 -61 -141.5 -101.5t-161.5 -40.5q-195 0 -312.5 140.5t-117.5 386.5zM334 1497h174l123 -199h8l123 199h176l-203 -323h-198zM352 504q0 -162 63.5 -248t180.5 -86q125 0 227 121 v452q-98 92 -215 93q-109 0 -182.5 -89t-73.5 -243z" />
<glyph d="M109 502q0 238 132 383t316 145q160 0 291 -131h6l20 107h187v-1006h-195l-18 117h-6q-59 -61 -141.5 -101.5t-161.5 -40.5q-195 0 -312.5 140.5t-117.5 386.5zM352 504q0 -162 63.5 -248t180.5 -86q125 0 227 121v452q-98 92 -215 93q-109 0 -182.5 -89t-73.5 -243z M471 -334q0 70 48 115t120 45q74 0 121 -45t47 -115q0 -72 -47 -115t-121 -43t-121 43t-47 115z" />
<glyph d="M109 502q0 238 132 383t316 145q160 0 291 -131h6l20 107h187v-1006h-195l-18 117h-6q-59 -61 -141.5 -101.5t-161.5 -40.5q-195 0 -312.5 140.5t-117.5 386.5zM352 504q0 -162 63.5 -248t180.5 -86q125 0 227 121v452q-98 92 -215 93q-109 0 -182.5 -89t-73.5 -243z M487 1391l25 125q315 -12 315 -179q0 -169 -256 -200l-22 98q104 25 104 78q0 70 -166 78z" />
<glyph d="M109 502q0 238 132 383t316 145q160 0 291 -131h6l20 107h187v-1006h-195l-18 117h-6q-59 -61 -141.5 -101.5t-161.5 -40.5q-195 0 -312.5 140.5t-117.5 386.5zM352 504q0 -162 63.5 -248t180.5 -86q125 0 227 121v452q-98 92 -215 93q-109 0 -182.5 -89t-73.5 -243z M373 1174l168 253h190l166 -253h-149l-109 141h-8l-107 -141h-151zM836 1317l145 237h184l-192 -237h-137z" />
<glyph d="M109 502q0 238 132 383t316 145q160 0 291 -131h6l20 107h187v-1006h-195l-18 117h-6q-59 -61 -141.5 -101.5t-161.5 -40.5q-195 0 -312.5 140.5t-117.5 386.5zM352 504q0 -162 63.5 -248t180.5 -86q125 0 227 121v452q-98 92 -215 93q-109 0 -182.5 -89t-73.5 -243z M373 1174l168 253h190l166 -253h-149l-109 141h-8l-107 -141h-151zM770 1554h182l146 -237h-137z" />
<glyph d="M109 502q0 238 132 383t316 145q160 0 291 -131h6l20 107h187v-1006h-195l-18 117h-6q-59 -61 -141.5 -101.5t-161.5 -40.5q-195 0 -312.5 140.5t-117.5 386.5zM352 504q0 -162 63.5 -248t180.5 -86q125 0 227 121v452q-98 92 -215 93q-109 0 -182.5 -89t-73.5 -243z M373 1174l168 253h190l166 -253h-149l-109 141h-8l-107 -141h-151zM813 1518l23 106q274 -8 274 -158q0 -82 -57.5 -122t-157.5 -58l-18 86q74 20 73 70q0 68 -137 76z" />
<glyph d="M109 502q0 238 132 383t316 145q160 0 291 -131h6l20 107h187v-1006h-195l-18 117h-6q-59 -61 -141.5 -101.5t-161.5 -40.5q-195 0 -312.5 140.5t-117.5 386.5zM352 504q0 -162 63.5 -248t180.5 -86q125 0 227 121v452q-98 92 -215 93q-109 0 -182.5 -89t-73.5 -243z M352 1466q10 100 57.5 154.5t116.5 54.5q57 0 121 -41t88 -41q61 0 76 82h109q-10 -100 -57.5 -154.5t-117.5 -54.5q-59 0 -121.5 41t-86.5 41q-62 0 -76 -82h-109zM356 1171l172 222h215l170 -222h-157l-117 127h-8l-115 -127h-160z" />
<glyph d="M109 502q0 238 132 383t316 145q160 0 291 -131h6l20 107h187v-1006h-195l-18 117h-6q-59 -61 -141.5 -101.5t-161.5 -40.5q-195 0 -312.5 140.5t-117.5 386.5zM334 1174l203 323h198l203 -323h-176l-123 198h-8l-123 -198h-174zM352 504q0 -162 63.5 -248t180.5 -86 q125 0 227 121v452q-98 92 -215 93q-109 0 -182.5 -89t-73.5 -243zM471 -334q0 70 47 115t121 45q72 0 120 -45t48 -115q0 -72 -47 -115t-121 -43t-121 43t-47 115z" />
<glyph d="M109 502q0 238 132 383t316 145q160 0 291 -131h6l20 107h187v-1006h-195l-18 117h-6q-59 -61 -141.5 -101.5t-161.5 -40.5q-195 0 -312.5 140.5t-117.5 386.5zM352 504q0 -162 63.5 -248t180.5 -86q125 0 227 121v452q-98 92 -215 93q-109 0 -182.5 -89t-73.5 -243z M365 1450h110q10 -68 50 -110t110 -42q137 0 160 152h112q-4 -113 -73.5 -192.5t-198.5 -79.5q-127 0 -196.5 79.5t-73.5 192.5zM549 1401l129 237h178l-180 -237h-127z" />
<glyph d="M109 502q0 238 132 383t316 145q160 0 291 -131h6l20 107h187v-1006h-195l-18 117h-6q-59 -61 -141.5 -101.5t-161.5 -40.5q-195 0 -312.5 140.5t-117.5 386.5zM352 504q0 -162 63.5 -248t180.5 -86q125 0 227 121v452q-98 92 -215 93q-109 0 -182.5 -89t-73.5 -243z M365 1450h110q10 -68 50 -110t110 -42q137 0 160 152h112q-4 -113 -73.5 -192.5t-198.5 -79.5q-127 0 -196.5 79.5t-73.5 192.5zM414 1638h180l127 -237h-125z" />
<glyph d="M109 502q0 238 132 383t316 145q160 0 291 -131h6l20 107h187v-1006h-195l-18 117h-6q-59 -61 -141.5 -101.5t-161.5 -40.5q-195 0 -312.5 140.5t-117.5 386.5zM352 504q0 -162 63.5 -248t180.5 -86q125 0 227 121v452q-98 92 -215 93q-109 0 -182.5 -89t-73.5 -243z M365 1450h110q10 -68 50 -110t110 -42q137 0 160 152h112q-4 -113 -73.5 -192.5t-198.5 -79.5q-127 0 -196.5 79.5t-73.5 192.5zM492 1647l20 104q276 -8 276 -156q0 -84 -57.5 -124t-157.5 -56l-20 86q76 20 76 70q0 68 -137 76z" />
<glyph d="M109 502q0 238 132 383t316 145q160 0 291 -131h6l20 107h187v-1006h-195l-18 117h-6q-59 -61 -141.5 -101.5t-161.5 -40.5q-195 0 -312.5 140.5t-117.5 386.5zM352 504q0 -162 63.5 -248t180.5 -86q125 0 227 121v452q-98 92 -215 93q-109 0 -182.5 -89t-73.5 -243z M352 1466q10 100 57.5 154.5t116.5 54.5q57 0 121 -41t88 -41q61 0 76 82h109q-10 -100 -57.5 -154.5t-117.5 -54.5q-59 0 -121.5 41t-86.5 41q-61 0 -76 -82h-109zM365 1409h118q25 -115 152 -115q129 0 153 115h117q-4 -98 -72.5 -164.5t-197.5 -66.5t-196.5 65.5 t-73.5 165.5z" />
<glyph d="M109 502q0 238 132 383t316 145q160 0 291 -131h6l20 107h187v-1006h-195l-18 117h-6q-59 -61 -141.5 -101.5t-161.5 -40.5q-195 0 -312.5 140.5t-117.5 386.5zM352 504q0 -162 63.5 -248t180.5 -86q125 0 227 121v452q-98 92 -215 93q-109 0 -182.5 -89t-73.5 -243z M352 1475h135q10 -72 47 -118t101 -46q66 0 102.5 46t44.5 118h138q-4 -123 -77 -210t-208 -87q-133 0 -206 87t-77 210zM471 -334q0 70 47 115t121 45q72 0 120 -45t48 -115q0 -72 -47 -115t-121 -43t-121 43t-47 115z" />
<glyph d="M109 502q0 238 132 383t316 145q160 0 291 -131h6l20 107h187v-1006q-180 -70 -180 -195q0 -41 26.5 -63.5t63.5 -22.5q45 0 78 27l53 -111q-76 -61 -184 -61q-86 0 -143.5 47t-57.5 133q0 137 151 248l-20 115h-6q-59 -61 -141.5 -101.5t-161.5 -40.5 q-195 0 -312.5 140.5t-117.5 386.5zM352 504q0 -162 63.5 -248t180.5 -86q125 0 227 121v452q-98 92 -215 93q-109 0 -182.5 -89t-73.5 -243z" />
<glyph d="M109 520.5q0 227.5 132 368.5t316 141q164 0 291 -131h6l20 107h187v-1008q0 -199 -129 -309.5t-369 -110.5q-221 0 -387 107l82 163q139 -84 305 -84q125 0 193.5 57.5t74.5 158.5l5 163q-55 -55 -136.5 -90t-160.5 -35q-193 0 -311.5 137.5t-118.5 365zM348 522 q0 -145 67.5 -228t180.5 -83q127 0 227 123v409q-98 92 -217 93q-106 0 -182 -87t-76 -227z" />
<glyph d="M109 520.5q0 227.5 132 368.5t316 141q164 0 291 -131h6l20 107h187v-1008q0 -199 -129 -309.5t-369 -110.5q-221 0 -387 107l82 163q139 -84 305 -84q125 0 193.5 57.5t74.5 158.5l5 163q-55 -55 -136.5 -90t-160.5 -35q-193 0 -311.5 137.5t-118.5 365zM330 1174 l202 323h199l203 -323h-176l-123 198h-8l-123 -198h-174zM348 522q0 -145 67.5 -228t180.5 -83q127 0 227 123v409q-98 92 -217 93q-106 0 -182 -87t-76 -227z" />
<glyph d="M109 520.5q0 227.5 132 368.5t316 141q164 0 291 -131h6l20 107h187v-1008q0 -199 -129 -309.5t-369 -110.5q-221 0 -387 107l82 163q139 -84 305 -84q125 0 193.5 57.5t74.5 158.5l5 163q-55 -55 -136.5 -90t-160.5 -35q-193 0 -311.5 137.5t-118.5 365zM348 522 q0 -145 67.5 -228t180.5 -83q127 0 227 123v409q-98 92 -217 93q-106 0 -182 -87t-76 -227zM348 1475h135q10 -72 47 -118t101 -46q66 0 102.5 46t44.5 118h137q-4 -123 -76.5 -210t-207.5 -87q-133 0 -206 87t-77 210z" />
<glyph d="M109 520.5q0 227.5 132 368.5t316 141q164 0 291 -131h6l20 107h187v-1008q0 -199 -129 -309.5t-369 -110.5q-221 0 -387 107l82 163q139 -84 305 -84q125 0 193.5 57.5t74.5 158.5l5 163q-55 -55 -136.5 -90t-160.5 -35q-193 0 -311.5 137.5t-118.5 365zM348 522 q0 -145 67.5 -228t180.5 -83q127 0 227 123v409q-98 92 -217 93q-106 0 -182 -87t-76 -227zM463 1339.5q0 69.5 48 114.5t120 45q74 0 121 -45t47 -114.5t-47 -113.5t-121 -44t-121 44t-47 113.5z" />
<glyph d="M109 520.5q0 227.5 132 368.5t316 141q164 0 291 -131h6l20 107h187v-1008q0 -199 -129 -309.5t-369 -110.5q-221 0 -387 107l82 163q139 -84 305 -84q125 0 193.5 57.5t74.5 158.5l5 163q-55 -55 -136.5 -90t-160.5 -35q-193 0 -311.5 137.5t-118.5 365zM348 522 q0 -145 67.5 -228t180.5 -83q127 0 227 123v409q-98 92 -217 93q-106 0 -182 -87t-76 -227zM473 1276q0 90 93 140t237 61l20 -103q-176 -20 -176 -84q0 -61 96 -84l-47 -94q-121 14 -172 52t-51 112z" />
<glyph d="M109 520.5q0 227.5 132 368.5t316 141q164 0 291 -131h6l20 107h187v-1008q0 -199 -129 -309.5t-369 -110.5q-221 0 -387 107l82 163q139 -84 305 -84q125 0 193.5 57.5t74.5 158.5l5 163q-55 -55 -136.5 -90t-160.5 -35q-193 0 -311.5 137.5t-118.5 365zM330 1497h174 l123 -199h8l123 199h176l-203 -323h-199zM348 522q0 -145 67.5 -228t180.5 -83q127 0 227 123v409q-98 92 -217 93q-106 0 -182 -87t-76 -227z" />
<glyph d="M109 520.5q0 227.5 132 368.5t316 141q164 0 291 -131h6l20 107h187v-1008q0 -199 -129 -309.5t-369 -110.5q-221 0 -387 107l82 163q139 -84 305 -84q125 0 193.5 57.5t74.5 158.5l5 163q-55 -55 -136.5 -90t-160.5 -35q-193 0 -311.5 137.5t-118.5 365zM348 522 q0 -145 67.5 -228t180.5 -83q127 0 227 123v409q-98 92 -217 93q-106 0 -182 -87t-76 -227zM365 1221v155h534v-155h-534z" />
<glyph d="M109 520.5q0 227.5 132 368.5t316 141q164 0 291 -131h6l20 107h187v-1008q0 -199 -129 -309.5t-369 -110.5q-221 0 -387 107l82 163q139 -84 305 -84q125 0 193.5 57.5t74.5 158.5l5 163q-55 -55 -136.5 -90t-160.5 -35q-193 0 -311.5 137.5t-118.5 365zM311 1182 q14 123 68.5 191.5t140.5 68.5q55 0 125 -55.5t96 -55.5q63 0 86 111h125q-14 -125 -68.5 -192.5t-142.5 -67.5q-55 0 -123.5 55t-95.5 55q-63 0 -86 -110h-125zM348 522q0 -145 67.5 -228t180.5 -83q127 0 227 123v409q-98 92 -217 93q-106 0 -182 -87t-76 -227z" />
<glyph d="M131 598q0 291 129 448.5t354.5 157.5t354.5 -157.5t129 -448.5q0 -297 -129 -460t-354.5 -163t-354.5 163t-129 460zM344 598q0 -223 74 -330.5t196.5 -107.5t196.5 107.5t74 330.5q0 217 -73 319.5t-198 102.5t-197.5 -102.5t-72.5 -319.5zM473 606.5q0 65.5 41 105.5 t100.5 40t100.5 -40t41 -105.5t-41 -106.5t-100.5 -41t-100.5 41t-41 106.5z" />
<glyph d="M184 0v193h353v731h-273v149q197 31 336 107h172v-987h320v-193h-908z" />
<glyph d="M123 1001q197 203 446 203q201 0 323 -110.5t122 -294.5q0 -143 -126 -290t-370 -323q176 14 240 15h323v-201h-948v137q326 213 490.5 371t164.5 278q0 109 -64.5 169.5t-184.5 60.5q-143 0 -287 -144z" />
<glyph d="M102 4l111 152q154 -143 346 -144q123 0 201 56.5t78 152.5q0 111 -100.5 168t-331.5 57v172q387 0 387 220q0 82 -62.5 130t-167.5 48q-158 0 -297 -123l-123 147q199 164 430 164q203 0 330 -93t127 -257q0 -211 -264 -309v-8q137 -33 223 -117t86 -211 q0 -178 -143.5 -283.5t-351.5 -105.5q-304 0 -478 184z" />
<glyph d="M76 180v162l598 838h272v-815h184v-185h-184v-336h-221v336h-649zM313 365h412v340q2 53 12 260h-10q-33 -57 -135 -211z" />
<glyph d="M104 0l109 152q166 -139 340 -140q127 0 208 71t81 191.5t-76 185t-203 64.5q-115 0 -241 -71l-113 71l41 656h768v-201h-563l-29 -326q96 41 205 41q197 0 322.5 -103.5t125.5 -309.5q0 -211 -146.5 -336t-350.5 -125q-283 0 -478 180z" />
<glyph d="M141 612q0 356 160 535.5t395 179.5q231 0 389 -147l-127 -144q-104 98 -245 99q-150 0 -247 -115t-106 -369q160 156 342.5 156t293 -103.5t110.5 -300.5q0 -190 -132 -309t-319 -119q-221 0 -367.5 162t-146.5 475zM369 483q20 -166 94.5 -246.5t187.5 -80.5 q100 0 169 66.5t69 181t-61.5 173t-174.5 58.5q-156 0 -284 -152z" />
<glyph d="M135 979v201h963v-146q-168 -190 -258 -369.5t-125 -358.5t-47 -462h-240q18 362 108.5 615.5t301.5 519.5h-703z" />
<glyph d="M131 334q0 207 264 334v8q-195 125 -194 305q0 156 118.5 251t303.5 95q193 0 305 -96t112 -256q0 -170 -194 -297v-8q121 -59 186.5 -137t65.5 -203q0 -156 -128 -255.5t-354 -99.5q-221 0 -353 99.5t-132 259.5zM340 358q0 -96 78 -155.5t203 -59.5q119 0 186 52.5 t67 142.5q0 41 -16 73.5t-43 56.5t-70 45.5t-88 38.5t-106 37q-9 3 -12.5 5t-11 4t-13.5 4q-174 -103 -174 -244zM410 981q0 -90 74.5 -142.5t228.5 -103.5q129 104 129 226q0 88 -59.5 143t-164.5 55q-92 0 -150 -48t-58 -130z" />
<glyph d="M123 766q0 195 132 316.5t318 121.5q221 0 367.5 -161.5t146.5 -475.5q0 -373 -159.5 -560t-393 -187t-391.5 147l127 144q104 -98 246 -99q147 0 243.5 115t108.5 373q-162 -156 -340 -156q-182 0 -293.5 108.5t-111.5 313.5zM340 766q0 -121 61 -186.5t174 -65.5 q158 0 291 156q-18 180 -94 267t-194 87q-102 0 -170 -67.5t-68 -190.5z" />
<glyph d="M82 655q0 346 174 527.5t444 181.5q207 0 314.5 -122t107.5 -312v-586h-131l-18 111h-8q-45 -59 -113 -97.5t-145 -38.5q-113 0 -188 79t-75 200q0 154 133.5 235.5t393.5 114.5v19q0 106 -72 178t-207 72q-182 0 -312 -145.5t-130 -424.5q0 -256 130 -399.5t325 -143.5 q156 0 278 84l74 -120q-178 -113 -361 -113q-260 0 -437 183.5t-177 516.5zM623 602q0 -57 35.5 -91t99.5 -34q92 0 190 103v223q-176 -27 -250.5 -73t-74.5 -128z" />
<glyph d="M502 999.5q0 49.5 32.5 82t80 32.5t80 -32.5t32.5 -82t-31.5 -82t-81 -32.5t-81 32.5t-31.5 82z" />
<glyph d="M481 743q145 51 146 158h-13q-45 0 -77.5 27.5t-32.5 77.5q0 47 33.5 77.5t80.5 30.5q129 0 130 -174q0 -102 -61 -180t-167 -111z" />
<glyph d="M502 -250q0 49 32.5 82t80 33t80 -33t32.5 -82t-31.5 -82t-81 -33t-81 33t-31.5 82z" />
<glyph d="M481 -506q145 51 146 158h-13q-45 0 -77.5 27.5t-32.5 76.5q0 47 33.5 78t80.5 31q129 0 130 -174q0 -102 -61 -180t-167 -111z" />
<glyph d="M319 319q0 156 82 246t213 90t213 -90t82 -246q0 -158 -83 -251t-212 -93t-212 93.5t-83 250.5zM487 319q0 -106 36 -159.5t91.5 -53.5t91 53.5t35.5 159.5q0 205 -127 205t-127 -205z" />
<glyph d="M414 453v108q119 18 204 70h138v-631h-176v453h-166z" />
<glyph d="M336 528q121 127 258 127q117 0 184.5 -57t67.5 -158q0 -70 -52.5 -137t-152.5 -160h233v-143h-512v94q160 113 238 187.5t78 130.5q0 47 -28.5 74.5t-80.5 27.5q-72 0 -129 -78z" />
<glyph d="M344 74l76 108q80 -76 178 -76q104 0 104 78q0 88 -172 88v97q145 0 146 86q0 70 -96 69q-70 0 -144 -59l-74 102q94 88 254 88q100 0 166 -48t66 -128q0 -109 -113 -149q139 -35 139 -158q0 -88 -74.5 -142.5t-185.5 -54.5q-155 1 -270 99z" />
<glyph d="M340 137v84l274 410h211v-383h105v-111h-105v-137h-155v137h-330zM504 248h166v80l10 186h-6l-80 -129z" />
<glyph d="M344 74l76 108q84 -76 178 -76q49 0 80 26t31 69q0 98 -111 98q-53 0 -119 -41l-76 51l31 322h414v-146h-279l-14 -106q39 18 100 18q102 0 164 -53t62 -147q0 -96 -75 -159t-190 -63q-151 1 -272 99z" />
<glyph d="M346 303q0 158 87 255t239 97q113 1 207 -73l-70 -105q-57 47 -127 47q-160 0 -176 -198q78 63 174 63q98 0 152.5 -51t54.5 -141q0 -92 -71 -157t-177 -65q-131 0 -212 90.5t-81 237.5zM508 227q23 -121 125 -121q45 0 70.5 25t25.5 66q0 84 -98 84q-61 0 -123 -54z" />
<glyph d="M369 487v144h518v-92q-117 -131 -158 -247t-51 -292h-180q8 143 52 250.5t142 236.5h-323z" />
<glyph d="M348 160q0 94 129 162v8q-39 27 -56.5 40t-34.5 41.5t-17 65.5q0 78 71.5 128t173.5 50q106 0 176 -49t70 -129q0 -88 -108 -141v-8q129 -59 129 -168q0 -78 -76 -131.5t-191 -53.5q-117 0 -191.5 53.5t-74.5 131.5zM506 172q0 -35 30.5 -57.5t77.5 -22.5q45 0 77 21.5 t32 52.5q0 41 -37 63.5t-106 42.5q-74 -39 -74 -100zM526 473q0 -57 121 -92q57 35 58 86q0 31 -25 51.5t-68 20.5q-39 0 -62.5 -18.5t-23.5 -47.5z" />
<glyph d="M344 434q0 92 70.5 156.5t177.5 64.5q133 0 213 -89t80 -236q0 -160 -88 -257.5t-238 -97.5q-115 0 -207 76l70 103q61 -47 127 -48q158 0 174 199q-74 -63 -172 -63t-152.5 51t-54.5 141zM502 436q0 -86 98 -86q61 0 121 53q-18 121 -125 121q-45 0 -69.5 -23.5 t-24.5 -64.5z" />
<glyph d="M461 332q0 276 217 504l129 -84q-172 -184 -172 -420q0 -233 172 -418l-129 -84q-217 228 -217 502z" />
<glyph d="M422 -86q172 184 172 418q0 236 -172 420l129 84q217 -228 217 -504q0 -274 -217 -502z" />
<glyph d="M502 98q0 49 32.5 82t80 33t80 -33t32.5 -82t-31.5 -81.5t-81 -32.5t-81 32.5t-31.5 81.5z" />
<glyph d="M481 -158q145 51 146 158h-13q-45 0 -77.5 27.5t-32.5 76.5q0 47 33.5 78t80.5 31q129 0 130 -174q0 -102 -61 -180t-167 -111z" />
<glyph d="M319 991q0 156 82 246t213 90t213 -90t82 -246q0 -158 -83 -251t-212 -93t-212 93.5t-83 250.5zM487 991q0 -106 36 -159.5t91.5 -53.5t91 53.5t35.5 159.5q0 205 -127 205t-127 -205z" />
<glyph d="M414 1124v109q119 18 204 70h138v-631h-176v452h-166z" />
<glyph d="M340 1200q117 127 256 127q117 0 185.5 -57.5t68.5 -157.5q0 -70 -52.5 -137.5t-154.5 -159.5h234v-143h-512v94q160 113 237.5 187.5t77.5 129.5q0 47 -28.5 75t-80.5 28q-72 0 -129 -78z" />
<glyph d="M344 745l76 109q80 -76 178 -76q104 0 104 78q0 88 -172 88v96q145 0 146 86q0 70 -96 70q-70 0 -144 -59l-74 102q94 88 254 88q100 0 166 -48t66 -128q0 -109 -113 -150q139 -35 139 -157q0 -88 -74.5 -142.5t-185.5 -54.5q-155 0 -270 98z" />
<glyph d="M340 809v84l274 410h211v-383h105v-111h-105v-137h-155v137h-330zM504 920h166v79l10 187h-6l-80 -129z" />
<glyph d="M344 745l76 109q84 -76 178 -76q49 0 80 25.5t31 68.5q0 98 -111 99q-53 0 -119 -41l-76 51l31 322h414v-146h-279l-14 -106q39 18 100 18q102 0 164 -53t62 -148q0 -96 -75 -158.5t-190 -62.5q-151 0 -272 98z" />
<glyph d="M344 975q0 158 88 255t238 97q113 0 207 -74l-70 -104q-57 47 -127 47q-160 0 -176 -199q78 63 174 64q98 0 152.5 -51.5t54.5 -141.5q0 -92 -71 -156.5t-177 -64.5q-131 0 -212 90t-81 238zM506 899q12 -61 47 -91t80 -30t69.5 24.5t24.5 65.5q0 84 -98 84 q-61 0 -123 -53z" />
<glyph d="M369 1159v144h518v-93q-117 -131 -158 -246.5t-51 -291.5h-180q8 143 52 250.5t142 236.5h-323z" />
<glyph d="M348 831q0 94 129 162v8q-39 27 -56.5 40.5t-34.5 42t-17 65.5q0 78 71.5 128t173.5 50q106 0 176 -49t70 -129q0 -88 -108 -141v-9q129 -59 129 -168q0 -78 -76 -131t-191 -53q-117 0 -191.5 53t-74.5 131zM506 844q0 -35 30.5 -57.5t77.5 -22.5q45 0 77 21.5t32 52.5 q0 41 -37 63.5t-106 42.5q-74 -39 -74 -100zM526 1145q0 -57 121 -92q57 35 58 86q0 31 -25 51t-68 20q-39 0 -62.5 -18t-23.5 -47z" />
<glyph d="M344 1106q0 92 70.5 156.5t177.5 64.5q133 0 213 -89t80 -237q0 -160 -88 -257t-238 -97q-115 0 -207 76l70 102q61 -47 127 -47q158 0 174 199q-74 -63 -172 -63.5t-152.5 51t-54.5 141.5zM502 1108q0 -86 98 -86q61 0 121 53q-18 121 -125 121q-45 0 -69.5 -23.5 t-24.5 -64.5z" />
<glyph d="M461 872q0 276 217 504l129 -84q-172 -184 -172 -420q0 -233 172 -417l-129 -84q-217 227 -217 501z" />
<glyph d="M422 455q172 184 172 417q0 236 -172 420l129 84q217 -228 217 -504q0 -274 -217 -501z" />
<glyph d="M502 639q0 49 32.5 82t80 33t80 -33t32.5 -82t-31.5 -82t-81 -33t-81 33t-31.5 82z" />
<glyph d="M481 383q145 51 146 158h-13q-45 0 -77.5 27.5t-32.5 76.5q0 47 33.5 78t80.5 31q129 0 130 -174q0 -102 -61 -180t-167 -111z" />
<glyph d="M272 864q0 158 86 254t209 96q109 0 189 -79h6l14 63h135v-666h-141l-12 70h-4q-94 -86 -197 -86q-131 0 -208 93t-77 255zM449 866q0 -102 39.5 -155.5t111.5 -53.5q80 0 139 68v299q-63 51 -137 51q-66 0 -109.5 -55.5t-43.5 -153.5z" />
<glyph d="M272 864q0 158 87 254t206 96q109 0 191 -81h6l14 65h135v-924h-172v213l9 107q-92 -78 -191 -78q-131 0 -208 93t-77 255zM449 866q0 -209 151 -209q80 0 139 68v299q-63 51 -137 51q-66 0 -109.5 -55.5t-43.5 -153.5z" />
<glyph d="M315 864q0 156 98.5 253t231.5 97q143 0 221 -87t78 -230q0 -43 -8 -76h-453q12 -84 68.5 -129t140.5 -45t166 47l60 -104q-115 -74 -250 -74q-152 0 -252.5 94t-100.5 254zM449 1526h178l123 -217h-129zM481 928h316q0 156 -148 155q-63 0 -110.5 -39.5t-57.5 -115.5z " />
<glyph d="M315 864q0 156 98.5 253t231.5 97q143 0 221 -87t78 -230q0 -43 -8 -76h-453q12 -84 68.5 -129t140.5 -45t166 47l60 -104q-115 -74 -250 -74q-152 0 -252.5 94t-100.5 254zM481 928h316q0 156 -148 155q-63 0 -110.5 -39.5t-57.5 -115.5zM539 1309l123 217h180 l-174 -217h-129z" />
<glyph d="M272 864q0 158 86 254t209 96q109 0 189 -79h6l14 63h135v-666h-141l-12 70h-4q-94 -86 -197 -86q-131 0 -208 93t-77 255zM449 866q0 -102 39.5 -155.5t111.5 -53.5q80 0 139 68v299q-63 51 -137 51q-66 0 -109.5 -55.5t-43.5 -153.5z" />
<glyph d="M272 877q0 147 89.5 242t205.5 95q109 0 187 -77h4l14 61h139v-672q0 -127 -88 -196.5t-250 -69.5q-143 0 -256 74l60 115q96 -55 196 -56q162 0 166 131l4 97q-84 -74 -186 -74q-129 0 -207 90t-78 240zM446 878.5q0 -90.5 42 -142.5t112 -52q80 0 139 72v268 q-63 51 -137 51q-66 0 -111 -53t-45 -143.5z" />
<glyph d="M45 182l379 371l86 -80l-338 -412zM719 866l338 412l127 -121l-379 -371z" />
<glyph d="M313 1679h258l172 -237h-190z" />
<glyph d="M485 1442l172 237h258l-239 -237h-191z" />
<glyph d="M303 1442l197 237h229l197 -237h-185l-123 131h-8l-123 -131h-184z" />
<glyph d="M291 1448q12 117 65.5 183.5t130.5 66.5q61 0 139.5 -49.5t106.5 -49.5q61 0 80 99h125q-12 -117 -65.5 -183.5t-131.5 -66.5q-61 0 -139 50t-106 50q-61 0 -80 -100h-125z" />
<glyph d="M342 1483v155h545v-155h-545z" />
<glyph d="M348 1679h135q23 -111 131.5 -110.5t130.5 110.5h136q-12 -106 -78 -170.5t-188.5 -64.5t-188.5 64.5t-78 170.5z" />
<glyph d="M469 1583q0 57 41 95t104.5 38t104.5 -38t41 -95q0 -59 -41 -97t-104.5 -38t-104.5 38t-41 97z" />
<glyph d="M303 1571q0 53 34 88t87 35t88 -35t35 -88t-35 -87t-88 -34t-87 34t-34 87zM682 1571q0 53 35 88t88 35t87 -35t34 -88t-34 -87t-87 -34t-88 34t-35 87z" />
<glyph d="M465 1675l27 125q315 -8 315 -176q0 -172 -258 -203l-21 101q102 23 103 75q0 70 -166 78z" />
<glyph d="M403 1620q0 86 58.5 138t152.5 52q92 0 151.5 -52t59.5 -138t-58 -138t-152.5 -52t-153 52t-58.5 138zM524 1620q0 -45 25.5 -70.5t64.5 -25.5t65 25.5t26 70.5q0 43 -26 69.5t-65 26.5t-64.5 -26.5t-25.5 -69.5z" />
<glyph d="M362 1442l132 237h208l-178 -237h-162zM709 1442l131 237h209l-179 -237h-161z" />
<glyph d="M303 1679h184l123 -131h8l123 131h185l-197 -237h-229z" />
<glyph d="M180 1679h209l131 -237h-162zM526 1679h209l131 -237h-161z" />
<glyph d="M416 -342q174 20 174 94q0 61 -123 94l82 160h143l-47 -100q121 -43 121 -150q0 -90 -93 -140t-239 -60z" />
<glyph d="M455 -260q0 82 47 153.5t104 112.5h154q-129 -102 -129 -207q0 -41 27.5 -63.5t64.5 -22.5q39 0 78 29l59 -123q-84 -66 -190 -65q-92 0 -153.5 49t-61.5 137z" />
<glyph d="M315 1296q0 47 31 78t78 31t79 -31t32 -78t-32 -78.5t-79 -31.5t-78 31.5t-31 78.5zM346 1542v119h535v-119h-535zM694 1296q0 47 32 78t79 31t77.5 -31t30.5 -78t-30.5 -78.5t-77.5 -31.5t-79 31.5t-32 78.5z" />
<glyph d="M315 1558.5q0 47.5 31 79t78 31.5t79 -31.5t32 -79t-32 -78t-79 -30.5t-78 30.5t-31 78zM342 1774v118h545v-118h-545zM694 1558.5q0 47.5 32 79t79 31.5t77.5 -31.5t30.5 -79t-30.5 -78t-77.5 -30.5t-79 30.5t-32 78z" />
<glyph d="M315 1296q0 47 31 78t78 31t79 -31t32 -78t-32 -78.5t-79 -31.5t-78 31.5t-31 78.5zM492 1493l167 219h211l-223 -219h-155zM694 1296q0 47 32 78t79 31t77.5 -31t30.5 -78t-30.5 -78.5t-77.5 -31.5t-79 31.5t-32 78.5z" />
<glyph d="M315 1558.5q0 47.5 31 79t78 31.5t79 -31.5t32 -79t-32 -78t-79 -30.5t-78 30.5t-31 78zM485 1733l174 237h252l-235 -237h-191zM694 1558.5q0 47.5 32 79t79 31.5t77.5 -31.5t30.5 -79t-30.5 -78t-77.5 -30.5t-79 30.5t-32 78z" />
<glyph d="M315 1296q0 47 31 78t78 31t79 -31t32 -78t-32 -78.5t-79 -31.5t-78 31.5t-31 78.5zM334 1712h166l110 -125h8l111 125h166l-180 -219h-201zM694 1296q0 47 32 78t79 31t77.5 -31t30.5 -78t-30.5 -78.5t-77.5 -31.5t-79 31.5t-32 78.5z" />
<glyph d="M303 1970h184l123 -131h8l123 131h185l-197 -237h-229zM315 1558.5q0 47.5 31 79t78 31.5t79 -31.5t32 -79t-32 -78t-79 -30.5t-78 30.5t-31 78zM694 1558.5q0 47.5 32 79t79 31.5t77.5 -31.5t30.5 -79t-30.5 -78t-77.5 -30.5t-79 30.5t-32 78z" />
<glyph d="M315 1296q0 47 31 78t78 31t79 -31t32 -78t-32 -78.5t-79 -31.5t-78 31.5t-31 78.5zM358 1712h211l168 -219h-155zM694 1296q0 47 32 78t79 31t77.5 -31t30.5 -78t-30.5 -78.5t-77.5 -31.5t-79 31.5t-32 78.5z" />
<glyph d="M315 1558.5q0 47.5 31 79t78 31.5t79 -31.5t32 -79t-32 -78t-79 -30.5t-78 30.5t-31 78zM317 1970h252l174 -237h-190zM694 1558.5q0 47.5 32 79t79 31.5t77.5 -31.5t30.5 -79t-30.5 -78t-77.5 -30.5t-79 30.5t-32 78z" />
<glyph d="M352 1174l168 253h189l168 -253h-152l-107 141h-8l-106 -141h-152zM815 1317l146 237h182l-191 -237h-137z" />
<glyph d="M319 1442l193 225h205l192 -225h-172l-119 119h-8l-118 -119h-173zM823 1577l144 238h190l-194 -238h-140z" />
<glyph d="M352 1174l168 253h189l168 -253h-152l-107 141h-8l-106 -141h-152zM748 1554h184l145 -237h-137z" />
<glyph d="M319 1442l193 225h205l192 -225h-172l-119 119h-8l-118 -119h-173zM715 1815h190l142 -238h-140z" />
<glyph d="M352 1174l168 253h189l168 -253h-152l-107 141h-8l-106 -141h-152zM793 1518l20 106q276 -8 277 -158q0 -82 -58 -122t-158 -58l-18 86q74 20 74 70q0 68 -137 76z" />
<glyph d="M319 1442l193 225h205l192 -225h-172l-119 119h-8l-118 -119h-173zM791 1761l22 107q272 -12 272 -158q0 -147 -213 -170l-22 84q80 18 80 66q0 63 -139 71z" />
<glyph d="M332 1466q8 100 55 154.5t117 54.5q59 0 121.5 -41t87.5 -41q59 0 78 82h106q-8 -100 -55 -154.5t-117 -54.5q-59 0 -121.5 41t-87.5 41q-60 0 -78 -82h-106zM336 1171l172 222h213l172 -222h-158l-117 127h-8l-116 -127h-158z" />
<glyph d="M319 1442l193 225h205l192 -225h-172l-119 119h-8l-118 -119h-173zM326 1741q10 100 57 154.5t117 54.5q59 0 126.5 -41t92.5 -41q61 0 76 82h108q-10 -100 -57 -154.5t-117 -54.5q-59 0 -126.5 41t-92.5 41q-62 0 -76 -82h-108z" />
<glyph d="M342 1450h113q10 -68 50 -110t109.5 -42t109.5 42t50 110h113q-6 -113 -75 -192.5t-198 -79.5t-197.5 79.5t-74.5 192.5zM528 1401l129 237h179l-181 -237h-127z" />
<glyph d="M350 1675h115q31 -119 149.5 -119t149.5 119h115q-12 -102 -78 -166.5t-186.5 -64.5t-186.5 64.5t-78 166.5zM528 1649l142 229h188l-203 -229h-127z" />
<glyph d="M342 1450h113q10 -68 50 -110t109.5 -42t109.5 42t50 110h113q-6 -113 -75 -192.5t-198 -79.5t-197.5 79.5t-74.5 192.5zM393 1638h178l129 -237h-127z" />
<glyph d="M350 1675h115q31 -119 149.5 -119t149.5 119h115q-12 -102 -78 -166.5t-186.5 -64.5t-186.5 64.5t-78 166.5zM371 1878h188l141 -229h-127z" />
<glyph d="M342 1450h113q10 -68 50 -110t109.5 -42t109.5 42t50 110h113q-6 -113 -75 -192.5t-198 -79.5t-197.5 79.5t-74.5 192.5zM469 1647l23 104q274 -8 274 -156q0 -84 -57.5 -124t-157.5 -56l-19 86q74 20 74 70q0 68 -137 76z" />
<glyph d="M350 1675h115q31 -119 149.5 -119t149.5 119h115q-12 -102 -78 -166.5t-186.5 -64.5t-186.5 64.5t-78 166.5zM475 1868l23 104q272 -8 272 -157q0 -143 -213 -170l-22 84q80 18 79 65q0 33 -31.5 50.5t-107.5 23.5z" />
<glyph d="M332 1466q8 100 55 154.5t117 54.5q59 0 121.5 -41t87.5 -41q59 0 78 82h106q-8 -100 -55 -154.5t-117 -54.5q-59 0 -121.5 41t-87.5 41q-59 0 -78 -82h-106zM344 1409h117q25 -115 153.5 -115t153.5 115h117q-6 -100 -74 -165.5t-197 -65.5t-196.5 65.5t-73.5 165.5z " />
<glyph d="M322 1739q10 100 58 156.5t118 56.5q49 0 117.5 -43t95.5 -43q61 0 80 86h110q-10 -100 -58 -156.5t-118 -56.5q-53 0 -120.5 43t-94.5 43q-29 0 -50.5 -22.5t-27.5 -63.5h-110zM350 1675h115q31 -119 149.5 -119t149.5 119h115q-12 -102 -78 -166.5t-186.5 -64.5 t-186.5 64.5t-78 166.5z" />
<glyph d="M526 1567h158l-2 -129l-39 -316h-106z" />
<glyph d="M455 1276q0 90 93 140t238 61l19 -103q-174 -20 -174 -84q0 -61 96 -84l-47 -94q-121 14 -173 52t-52 112z" />
<glyph />
<glyph />
<glyph d="M336 1171l172 222h213l172 -222h-158l-117 127h-8l-116 -127h-158zM365 1675h116q18 -100 133 -100t134 100h116q-4 -92 -68.5 -154.5t-181 -62.5t-181 62.5t-68.5 154.5z" />
<glyph d="M319 1442l193 225h205l192 -225h-172l-119 119h-8l-118 -119h-173zM350 1950h115q29 -104 149.5 -104.5t149.5 104.5h115q-12 -100 -78 -158.5t-186.5 -58.5t-186.5 58t-78 159z" />
</font>
</defs>
</svg>
