<?xml version="1.0" standalone="no"?>
<!DOCTYPE svg PUBLIC "-//W3C//DTD SVG 1.1//EN" "http://www.w3.org/Graphics/SVG/1.1/DTD/svg11.dtd" >
<svg xmlns="http://www.w3.org/2000/svg">
<metadata>
This is a custom SVG webfont generated by Font Squirrel.
Copyright   :  2010 2012 Adobe Systems Incorporated All Rights Reserved
Designer    : Paul D Hunt
Foundry     : Adobe Systems Incorporated
Foundry URL : httpwwwadobecomtype
</metadata>
<defs>
<font id="SourceSansProLightItalic" horiz-adv-x="946" >
<font-face units-per-em="2048" ascent="1536" descent="-512" />
<missing-glyph horiz-adv-x="387" />
<glyph unicode="&#xfb00;" horiz-adv-x="1040" d="M96 0l183 909h-129l12 66l131 8l41 205q33 143 108.5 216t180.5 73q74 0 172 -41l-37 -68q-70 35 -135 35q-78 0 -131.5 -60.5t-73.5 -154.5l-41 -205h434l45 225q31 143 101.5 216t168.5 73q66 0 152 -41l-35 -67q-61 35 -117 34q-72 0 -118.5 -59t-67.5 -156l-45 -225 h215l-16 -74h-213l-185 -909h-84l185 909h-435l-182 -909h-84z" />
<glyph unicode="ft" horiz-adv-x="1042" d="M96 0l183 909h-129l12 66l131 8l45 225q31 143 101.5 216t168.5 73q63 0 154 -41l-37 -67q-57 35 -117 34q-70 0 -118 -60t-68 -155l-45 -225h362l68 281h72l-58 -281h266l-16 -74h-266l-133 -645q-8 -49 -8 -78q0 -70 30.5 -103.5t108.5 -33.5q49 0 119 35l22 -64 q-86 -45 -158 -45q-109 0 -157.5 54.5t-48.5 140.5q0 51 8 98l133 641h-359l-182 -909h-84z" />
<glyph unicode=" "  horiz-adv-x="387" />
<glyph unicode="&#x09;" horiz-adv-x="387" />
<glyph unicode="&#xa0;" horiz-adv-x="387" />
<glyph unicode="!" horiz-adv-x="518" d="M86 47q0 41 30.5 75t69.5 34q66 0 66 -76q0 -41 -28.5 -73t-67.5 -32q-31 0 -50.5 20.5t-19.5 51.5zM195 367l161 862l27 147h84l-29 -147l-178 -862h-65z" />
<glyph unicode="&#x22;" horiz-adv-x="710" d="M270 950l49 279l27 147h84l-29 -147l-67 -279h-64zM545 950l49 279l27 147h84l-29 -147l-70 -279h-61z" />
<glyph unicode="#" horiz-adv-x="950" d="M55 438l19 74h168l106 348h-170l21 74h174l125 397h71l-125 -397h287l125 397h72l-125 -397h166l-21 -74h-168l-106 -348h170l-19 -74h-176l-137 -438h-70l138 438h-289l-137 -438h-70l137 438h-166zM313 512h291l107 348h-291z" />
<glyph unicode="$" d="M47 162l57 57q121 -170 299 -170q129 0 215.5 81t86.5 208q0 92 -46.5 166t-113 124t-132 99t-111.5 117.5t-46 154.5q0 143 97.5 237.5t246.5 98.5l43 201h74l-43 -207q150 -35 237 -168l-61 -51q-100 152 -244 152q-115 0 -190.5 -70t-75.5 -178q0 -66 33 -122t83 -93 t108.5 -83t108.5 -90t82.5 -115t32.5 -157q0 -158 -105 -267.5t-271 -111.5l-39 -200h-74l41 205q-88 16 -165 67t-128 115z" />
<glyph unicode="%" horiz-adv-x="1572" d="M135 831q0 125 39 246t124 210t197.5 89t173 -84t60.5 -217q0 -125 -39 -246.5t-124 -211t-197.5 -89.5t-173 85t-60.5 218zM211 842q0 -113 39 -181.5t123 -68.5q88 0 154.5 79t96 184.5t29.5 207.5q0 113 -38.5 181.5t-122.5 68.5q-88 0 -155 -79t-96.5 -183.5 t-29.5 -208.5zM268 -25l1004 1401h74l-1004 -1401h-74zM897 279q0 125 39 245.5t124 209.5t197.5 89t172 -84t59.5 -217q0 -125 -39 -246.5t-124 -211t-197.5 -89.5t-172 85t-59.5 219zM971 289q0 -113 40 -181.5t124 -68.5q127 0 203.5 152.5t76.5 318.5q0 113 -40 181.5 t-124 68.5q-127 0 -203.5 -151.5t-76.5 -319.5z" />
<glyph unicode="&#x26;" horiz-adv-x="1132" d="M33 279q0 150 92 254t262 215q-35 123 -35 235q0 170 96.5 280.5t227.5 110.5q92 0 140 -54t48 -136q0 -76 -29.5 -141.5t-96 -126t-115 -96.5t-144.5 -97q86 -268 266 -471q154 156 293 453h82q-143 -307 -325 -504q125 -123 211 -156l-39 -70q-106 43 -234 166 q-186 -166 -389 -166q-137 0 -224 83t-87 221zM119 293q0 -111 68.5 -178.5t174.5 -67.5q160 0 324 148q-184 207 -276 481q-141 -94 -216 -181t-75 -202zM432 991q0 -88 27 -198q80 49 126 81.5t99 82t77.5 102.5t24.5 112q0 55 -28.5 94.5t-87.5 39.5q-102 0 -170 -89.5 t-68 -224.5z" />
<glyph unicode="'" horiz-adv-x="436" d="M270 950l49 279l27 147h84l-29 -147l-67 -279h-64z" />
<glyph unicode="(" horiz-adv-x="548" d="M143 274q0 340 119 629t356 592l54 -35q-451 -553 -451 -1200q0 -360 96 -598l-59 -20q-115 299 -115 632z" />
<glyph unicode=")" horiz-adv-x="552" d="M-104 -322q449 551 448 1201q0 358 -94 598l57 18q115 -287 115 -631q0 -342 -119 -630.5t-356 -591.5z" />
<glyph unicode="*" horiz-adv-x="782" d="M285 1268l22 51l191 -66l45 205l57 -4l-16 -207l196 29l11 -55l-201 -58l78 -188l-52 -31l-98 174l-156 -149l-40 37l133 170z" />
<glyph unicode="+" d="M98 643v70h367v409h74v-409h366v-70h-366v-422h-76v422h-365z" />
<glyph unicode="," horiz-adv-x="436" d="M-68 -248q180 80 205 234h-10q-33 0 -53.5 19.5t-20.5 51.5q0 37 26.5 68t67.5 31q37 0 58.5 -28t21.5 -73q0 -121 -77.5 -221t-198.5 -143z" />
<glyph unicode="-" horiz-adv-x="587" d="M74 475l14 76h430l-16 -76h-428z" />
<glyph unicode="." horiz-adv-x="436" d="M45 47q0 41 30.5 75t69.5 34q63 0 64 -76q0 -41 -27.5 -73t-68.5 -32q-31 0 -49.5 20.5t-18.5 51.5z" />
<glyph unicode="/" horiz-adv-x="710" d="M-150 -328l963 1782h74l-965 -1782h-72z" />
<glyph unicode="0" d="M92 406q0 221 66.5 433t188.5 353t265 141q141 0 218 -127t77 -307q0 -219 -66.5 -431t-187.5 -352.5t-264 -140.5q-145 0 -221 124t-76 307zM174 414q0 -158 54.5 -261.5t162.5 -103.5q119 0 221.5 136.5t157.5 329t55 376.5q0 160 -55 265.5t-164 105.5 q-117 0 -219 -138.5t-157.5 -332t-55.5 -377.5z" />
<glyph unicode="1" d="M61 0l17 74h293l221 1095h-232l13 58q162 23 262 82h70l-250 -1235h280l-12 -74h-662z" />
<glyph unicode="2" d="M-18 0l8 55q452 390 560 498q210 209 248 365q11 47 11 96q0 109 -62.5 177.5t-183.5 68.5q-154 0 -299 -146l-49 60q186 160 356 159q152 0 237 -85t85 -220q0 -203 -147.5 -376t-582.5 -548q-22 -18 -32 -28h635l-12 -76h-772z" />
<glyph unicode="3" d="M-10 195l59 47q133 -193 322 -193q160 0 264 93.5t104 232.5q0 123 -101 197.5t-312 74.5l16 72q242 0 358.5 95t116.5 214q0 106 -58.5 169t-176.5 63q-70 0 -151 -32t-134 -85l-49 61q160 129 344 129q152 0 230.5 -77.5t78.5 -211.5q0 -127 -84 -226t-233 -136v-8 q111 -33 175 -109t64 -180q0 -182 -129 -296t-332 -114q-125 0 -220 65t-152 155z" />
<glyph unicode="4" d="M16 387l9 53l747 869h78l-170 -848h182l-14 -74h-182l-78 -387h-82l78 387h-568zM137 461h461l96 477q2 12 58 244h-9q-41 -55 -161 -201z" />
<glyph unicode="5" d="M-6 190l61 48q53 -86 123 -137.5t189 -51.5q154 0 266 116t112 296q0 141 -72.5 215t-197.5 74q-104 0 -235 -72l-45 35l163 596h564l-17 -74h-487l-127 -463q94 49 198 49q154 0 247 -89t93 -255q0 -223 -139 -362.5t-334 -139.5q-233 0 -362 215z" />
<glyph unicode="6" d="M106 406q0 399 168 663t418 264q172 1 262 -157l-63 -48q-76 131 -205 132q-174 0 -308 -181.5t-175 -464.5q68 80 157 122t168 42q147 0 231.5 -93t84.5 -247q0 -193 -117 -328t-285 -135q-154 0 -245 121t-91 310zM188 414q0 -162 71 -264.5t190 -102.5 q125 0 219 112.5t94 258.5q0 133 -63.5 210t-182.5 77q-68 0 -157 -43.5t-166 -141.5q-4 -70 -5 -106z" />
<glyph unicode="7" d="M229 1235l17 74h774l-10 -58q-289 -274 -426.5 -559.5t-221.5 -691.5h-92q92 408 231.5 691.5t399.5 543.5h-672z" />
<glyph unicode="8" d="M70 315q0 264 319 412v8q-119 113 -119 254q0 158 104.5 251t254.5 93q127 0 216 -78.5t89 -220.5q0 -227 -262 -381v-8q184 -129 184 -291q0 -172 -121 -275.5t-295 -103.5q-152 0 -261 89t-109 251zM152 324q0 -131 86 -205t204 -74q133 0 232.5 81t99.5 216 q0 61 -22.5 109.5t-74.5 91.5t-93 67.5t-120 67.5q-5 4 -8 5t-8.5 4t-9.5 5q-139 -76 -212.5 -161t-73.5 -207zM350 995q0 -111 64.5 -179.5t197.5 -131.5q242 141 242 342q0 111 -67.5 174.5t-163.5 63.5q-111 0 -192 -74t-81 -195z" />
<glyph unicode="9" d="M45 133l66 47q72 -131 202 -131q172 0 308.5 182.5t177.5 462.5q-70 -80 -159 -122t-167 -42q-147 0 -232 93.5t-85 246.5q0 193 116.5 328t284.5 135q156 0 247 -119.5t91 -310.5q0 -399 -168 -663.5t-420 -264.5q-168 0 -262 158zM238 891q0 -133 64 -210t183 -77 q68 0 157 44t167 145q4 66 4 102q0 162 -70.5 264.5t-189.5 102.5q-125 0 -220 -113t-95 -258z" />
<glyph unicode=":" horiz-adv-x="436" d="M45 47q0 41 30.5 75t69.5 34q63 0 64 -76q0 -41 -27.5 -73t-68.5 -32q-31 0 -49.5 20.5t-18.5 51.5zM186 848q0 39 30 72.5t69 33.5q66 0 65 -75q0 -39 -28.5 -72t-67.5 -33q-31 0 -49.5 20.5t-18.5 53.5z" />
<glyph unicode=";" horiz-adv-x="436" d="M-68 -248q180 80 205 234h-10q-33 0 -53.5 19.5t-20.5 51.5q0 37 26.5 68t67.5 31q37 0 58.5 -28t21.5 -73q0 -121 -77.5 -221t-198.5 -143zM186 848q0 39 30 72.5t69 33.5q66 0 65 -75q0 -39 -28.5 -72t-67.5 -33q-31 0 -49.5 20.5t-18.5 53.5z" />
<glyph unicode="&#x3c;" d="M94 639v74l811 331v-77l-456 -185l-252 -102v-8l252 -101l456 -184v-80z" />
<glyph unicode="=" d="M98 434v70h807v-70h-807zM98 848v70h807v-70h-807z" />
<glyph unicode="&#x3e;" d="M98 307v80l457 184l252 101v8l-252 102l-457 185v77l811 -331v-74z" />
<glyph unicode="?" horiz-adv-x="794" d="M199 47q0 41 29.5 75t70.5 34q63 0 63 -76q0 -41 -27.5 -73t-68.5 -32q-31 0 -49 20.5t-18 51.5zM225 1257q55 61 137 100.5t170 39.5q129 0 203 -72t74 -197q0 -92 -43 -175t-105.5 -146.5t-126 -124.5t-110.5 -142t-53 -171l-76 6q4 98 50 184t108.5 148.5t124 123 t104.5 132t43 149.5q0 100 -53.5 155.5t-147.5 55.5q-137 0 -248 -121z" />
<glyph unicode="@" horiz-adv-x="1603" d="M94 336q0 201 74 380t193.5 304t275.5 198.5t319 73.5q268 0 420 -162.5t152 -429.5q0 -270 -118 -432t-277 -162q-72 0 -117 42t-60 114h-4q-121 -139 -235 -139q-92 0 -158.5 70.5t-66.5 195.5q0 180 116.5 327.5t274.5 147.5q98 0 153 -104h4l27 88h63l-98 -436 q-27 -106 1 -172t114 -66q119 0 213 141.5t94 370.5q0 246 -130 392.5t-374 146.5q-195 0 -375 -114t-293.5 -317.5t-113.5 -443.5q0 -268 146.5 -423.5t379.5 -155.5q166 0 297 75l31 -57q-152 -86 -334 -86q-262 0 -428 171t-166 462zM567 403q0 -104 45 -157t115 -53 q111 0 213 141l80 354q-57 109 -139 109q-131 0 -222.5 -126.5t-91.5 -267.5z" />
<glyph unicode="A" horiz-adv-x="999" d="M-98 0l743 1350h96l166 -1350h-88l-53 469h-514l-252 -469h-98zM291 541h467l-31 260q-6 61 -22.5 217t-24.5 244h-8q-66 -133 -242 -461z" />
<glyph unicode="B" horiz-adv-x="1169" d="M80 0l268 1350h332q188 0 291.5 -77t103.5 -216q0 -137 -95 -228.5t-210 -109.5v-8q111 -25 182.5 -97.5t71.5 -189.5q0 -211 -146.5 -317.5t-398.5 -106.5h-399zM180 74h269q489 0 489 344q0 117 -96.5 189.5t-263.5 72.5h-275zM315 752h230q215 0 328.5 80.5 t113.5 216.5q0 227 -342 227h-223z" />
<glyph unicode="C" horiz-adv-x="1105" d="M119 508q0 152 48 304.5t133 278.5t217 204.5t286 78.5q197 0 315 -190l-65 -47q-93 161 -254 161h-2q-176 0 -315.5 -124.5t-207 -300t-67.5 -353.5q0 -211 94 -340t285 -129q162 0 319 131l47 -57q-180 -150 -377 -150q-219 0 -337.5 147.5t-118.5 385.5z" />
<glyph unicode="D" horiz-adv-x="1181" d="M80 0l268 1350h223q272 0 414.5 -140.5t142.5 -384.5q0 -362 -189 -593.5t-531 -231.5h-328zM180 74h230q291 0 460.5 214t169.5 531q0 211 -120.5 334t-352.5 123h-147z" />
<glyph unicode="E" horiz-adv-x="1001" d="M80 0l268 1350h713l-17 -76h-624l-105 -520h529l-17 -76h-524l-123 -602h643l-16 -76h-727z" />
<glyph unicode="F" horiz-adv-x="931" d="M80 0l268 1350h713l-17 -76h-624l-109 -547h529l-17 -76h-524l-131 -651h-88z" />
<glyph unicode="G" horiz-adv-x="1177" d="M119 508q0 211 80 405.5t244.5 327.5t379.5 133q199 0 318 -190l-66 -47q-93 161 -256 161h-2q-139 0 -258 -72.5t-193.5 -188t-116.5 -251t-42 -266.5q0 -209 97 -339t302 -130q166 0 277 103l86 432h-312l17 73h395l-113 -548q-156 -135 -360 -136q-233 0 -355 144.5 t-122 388.5z" />
<glyph unicode="H" horiz-adv-x="1239" d="M80 0l268 1350h88l-121 -596h697l121 596h88l-271 -1350h-88l137 678h-696l-135 -678h-88z" />
<glyph unicode="I" horiz-adv-x="464" d="M80 0l268 1350h88l-268 -1350h-88z" />
<glyph unicode="J" horiz-adv-x="892" d="M2 184l68 41q55 -174 239 -174q113 0 186.5 84t102.5 227l197 988h88l-199 -998q-31 -174 -129 -275.5t-248 -101.5q-227 0 -305 209z" />
<glyph unicode="K" horiz-adv-x="1089" d="M80 0l268 1350h88l-145 -734h4l774 734h105l-512 -498l309 -852h-92l-285 795l-328 -308l-98 -487h-88z" />
<glyph unicode="L" horiz-adv-x="901" d="M80 0l268 1350h88l-252 -1274h600l-16 -76h-688z" />
<glyph unicode="M" horiz-adv-x="1400" d="M80 0l268 1350h127l131 -791l51 -299h9l153 299l438 791h125l-270 -1350h-86l180 893q55 258 82 362h-8l-160 -292l-444 -811h-76l-141 811l-47 292h-9q-8 -45 -28.5 -172t-32.5 -190l-178 -893h-84z" />
<glyph unicode="N" horiz-adv-x="1239" d="M80 0l268 1350h94l359 -959l94 -274h8q55 346 66 397l166 836h88l-271 -1350h-90l-354 954l-98 285h-9q-35 -229 -69 -393l-166 -846h-86z" />
<glyph unicode="O" horiz-adv-x="1265" d="M125 537q0 195 74.5 383t225 321t341.5 133q217 0 329.5 -152.5t112.5 -408.5q0 -143 -45 -289.5t-123.5 -269.5t-204 -201t-268.5 -78q-215 0 -328.5 153t-113.5 409zM215 547q0 -229 88 -362.5t270 -133.5q164 0 293 124t191.5 293t62.5 335q0 229 -89 362t-271 133 q-164 0 -293 -123.5t-190.5 -292.5t-61.5 -335z" />
<glyph unicode="P" horiz-adv-x="1087" d="M80 0l268 1350h354q401 0 402 -314q0 -221 -152.5 -335.5t-419.5 -114.5h-249l-115 -586h-88zM299 659h225q492 0 492 369q0 129 -87 188.5t-263 59.5h-246z" />
<glyph unicode="Q" horiz-adv-x="1265" d="M125 537q0 195 74.5 383t225 321t341.5 133q217 0 329.5 -152.5t112.5 -408.5q0 -193 -72.5 -379t-220 -320t-333.5 -139q31 -104 120 -157.5t216 -53.5q49 1 98 13l10 -76q-55 -14 -115 -14q-158 0 -269.5 73.5t-147.5 221.5q-180 25 -274.5 174t-94.5 381zM215 547 q0 -229 88 -362.5t270 -133.5q164 0 293 124t191.5 293t62.5 335q0 229 -89 362t-271 133q-164 0 -293 -123.5t-190.5 -292.5t-61.5 -335z" />
<glyph unicode="R" horiz-adv-x="1087" d="M80 0l268 1350h340q397 0 397 -297q0 -178 -118.5 -293t-311.5 -137l256 -623h-98l-250 616h-272l-123 -616h-88zM307 690h236q217 0 335.5 94.5t118.5 259.5q0 123 -85 177.5t-263 54.5h-229z" />
<glyph unicode="S" horiz-adv-x="1009" d="M33 205l67 47q135 -201 375 -201q147 0 245.5 86t98.5 225q0 154 -174 252l-174 105q-211 125 -211 307q0 141 110.5 244.5t278.5 103.5q115 0 210 -51t155 -131l-62 -53q-122 159 -313 159h-2q-125 0 -206 -79.5t-81 -182.5q0 -86 47 -142t131 -106l170 -98 q211 -125 211 -317q0 -176 -126 -287t-318 -111q-285 1 -432 230z" />
<glyph unicode="T" horiz-adv-x="1017" d="M201 1270l16 80h916l-17 -80h-414l-253 -1270h-89l254 1270h-413z" />
<glyph unicode="U" horiz-adv-x="1228" d="M166 377q0 76 18 174l160 799h88l-158 -791q-20 -80 -20 -166q0 -164 79 -253t234 -89q137 0 241.5 107.5t149.5 337.5l170 854h89l-175 -867q-53 -266 -181 -387t-302 -121q-186 0 -289.5 104.5t-103.5 297.5z" />
<glyph unicode="V" horiz-adv-x="948" d="M170 1350h86l70 -799q35 -350 41 -453h8q209 416 227 453l416 799h90l-709 -1350h-102z" />
<glyph unicode="W" horiz-adv-x="1503" d="M217 0l2 1350h88l-4 -797q-4 -82 -5 -232.5t-3 -209.5h8q168 369 201 442l370 797h91l26 -797q9 -221 13 -442h8q89 221 184 442l330 797h90l-576 -1350h-110l-29 928v317h-8q-4 -10 -137 -317l-428 -928h-111z" />
<glyph unicode="X" horiz-adv-x="940" d="M-74 0l529 702l-232 648h92l142 -410q12 -35 31.5 -94.5t27.5 -83.5h6q72 94 142 188l292 400h95l-498 -660l252 -690h-92l-150 428q-14 39 -39.5 113.5t-31.5 91.5h-5q-55 -68 -159 -217l-308 -416h-94z" />
<glyph unicode="Y" horiz-adv-x="886" d="M174 1350h90l113 -426q14 -53 38.5 -150.5t37.5 -140.5h8q33 47 97.5 145.5t96.5 145.5l295 426h94l-559 -801l-110 -549h-88l110 549z" />
<glyph unicode="Z" horiz-adv-x="1034" d="M2 0l12 53l953 1221h-666l16 76h770l-10 -54l-948 -1220h735l-16 -76h-846z" />
<glyph unicode="[" horiz-adv-x="552" d="M31 -311l352 1761h309l-6 -57h-248l-327 -1647h243l-14 -57h-309z" />
<glyph unicode="\" horiz-adv-x="710" d="M182 1454h66l287 -1782h-66z" />
<glyph unicode="]" horiz-adv-x="552" d="M-123 -311l12 57h244l334 1647h-248l10 57h314l-353 -1761h-313z" />
<glyph unicode="^" horiz-adv-x="950" d="M184 590l295 782h70l297 -782h-74l-156 416l-98 270h-4l-96 -270l-156 -416h-78z" />
<glyph unicode="_" horiz-adv-x="991" d="M-59 -236l16 70h936l-14 -70h-938z" />
<glyph unicode="`" horiz-adv-x="1040" d="M559 1446h92l123 -279h-67z" />
<glyph unicode="a" horiz-adv-x="1079" d="M90 330q0 279 163 478.5t372 199.5q166 0 254 -160h6l39 135h69l-196 -983h-72l23 156h-9q-174 -180 -362 -181q-131 0 -209 92.5t-78 262.5zM176 346q0 -145 57.5 -221t161.5 -76q184 0 369 213l102 494q-100 178 -243 178q-174 0 -310.5 -182.5t-136.5 -405.5z" />
<glyph unicode="b" horiz-adv-x="1077" d="M82 0l295 1473h84l-86 -429l-43 -198h4q201 162 362 162q133 0 210 -92.5t77 -262.5q0 -279 -163 -478.5t-369 -199.5q-166 0 -254 160h-6l-39 -135h-72zM211 227q100 -178 242 -178q174 0 311 182.5t137 407.5q0 145 -58.5 220t-162.5 75q-80 0 -179.5 -50t-183.5 -132z " />
<glyph unicode="c" horiz-adv-x="880" d="M86 365q0 276 162 459.5t368 183.5q143 0 248 -119l-53 -58q-84 102 -201 103q-168 0 -303 -167t-135 -390q0 -328 272 -328q125 0 254 103l43 -62q-154 -115 -307 -115q-160 0 -254 103t-94 287z" />
<glyph unicode="d" horiz-adv-x="1081" d="M90 330q0 279 163 478.5t372 199.5q166 0 252 -158h8l39 194l86 429h84l-297 -1473h-72l23 156h-9q-174 -180 -362 -181q-131 0 -209 92.5t-78 262.5zM176 346q0 -145 57.5 -221t161.5 -76q184 0 369 213l102 494q-100 178 -243 178q-174 0 -310.5 -182.5t-136.5 -405.5z " />
<glyph unicode="e" horiz-adv-x="964" d="M86 381q0 268 156.5 447.5t355.5 179.5q152 0 223.5 -93.5t71.5 -255.5q0 -88 -27 -172h-686q-11 -66 -11 -122q0 -129 60 -207q86 -110 244 -111q115 0 246 96l39 -61q-147 -106 -297 -107q-174 0 -274.5 105.5t-100.5 300.5zM193 555h610q12 57 12 117q0 113 -54 188.5 t-171 75.5q-131 0 -244.5 -107.5t-152.5 -273.5z" />
<glyph unicode="f" horiz-adv-x="524" d="M96 0l180 909h-126l12 66l131 8l45 225q31 143 101.5 216t168.5 73q78 0 154 -45l-37 -63q-55 34 -114 34h-3q-70 0 -118 -60t-68 -155l-45 -225h217l-16 -74h-218l-180 -909h-84z" />
<glyph unicode="g" horiz-adv-x="1067" d="M8 -338l47 62q133 -123 291 -123q270 0 344 346l49 221h-8q-180 -172 -356 -172q-129 0 -207 92t-78 258q0 268 161 465t361 197q168 0 252 -160h8l39 135h70l-215 -1067q-37 -184 -146.5 -286.5t-277.5 -102.5q-172 0 -334 135zM176 360q0 -141 56.5 -214.5t158.5 -73.5 q82 0 180.5 53t180.5 145l102 486q-106 178 -244 178q-164 0 -299 -180.5t-135 -393.5z" />
<glyph unicode="h" horiz-adv-x="1032" d="M82 0l295 1473h84l-111 -545l-26 -103h8q109 90 191.5 136.5t164.5 46.5q233 0 234 -240q0 -57 -17 -133l-127 -635h-84l127 623q16 94 17 127q0 182 -176 182q-139 0 -349 -207l-145 -725h-86z" />
<glyph unicode="i" horiz-adv-x="450" d="M82 0l199 983h84l-197 -983h-86zM307 1288q0 39 25.5 65.5t60.5 26.5q29 0 48.5 -19.5t19.5 -49.5q0 -37 -25.5 -63.5t-60.5 -26.5q-29 0 -48.5 19.5t-19.5 47.5z" />
<glyph unicode="j" horiz-adv-x="450" d="M-246 -436l33 67q40 -26 92 -26h4q113 0 160 205l238 1173h84l-234 -1163q-61 -289 -248 -289q-68 0 -129 33zM307 1288q0 39 25.5 65.5t60.5 26.5q31 0 50.5 -19.5t19.5 -49.5q0 -37 -26.5 -63.5t-59.5 -26.5q-29 0 -49.5 19.5t-20.5 47.5z" />
<glyph unicode="k" horiz-adv-x="915" d="M82 0l295 1473h84l-215 -1084h6l582 594h102l-385 -399l237 -584h-88l-213 528l-268 -272l-51 -256h-86z" />
<glyph unicode="l" horiz-adv-x="475" d="M98 63q1 23 11 64l268 1346h84l-268 -1352q-4 -20 -5 -41q0 -31 29 -31q14 0 35 8l6 -67q-31 -14 -70 -15q-41 0 -65.5 22.5t-24.5 65.5z" />
<glyph unicode="m" horiz-adv-x="1601" d="M82 0l199 983h69l-22 -156h8q195 180 328 181q215 0 227 -205q211 205 358 205q231 0 232 -240q0 -57 -17 -133l-127 -635h-86l127 623q16 80 17 127q0 182 -170 182q-53 0 -142.5 -52.5t-185.5 -154.5l-145 -725h-84l125 623q16 80 16 127q0 182 -170 182 q-53 0 -142 -53.5t-184 -153.5l-145 -725h-86z" />
<glyph unicode="n" horiz-adv-x="1044" d="M82 0l199 983h69l-22 -156h8q104 88 186 134.5t166 46.5q233 0 234 -240q0 -57 -17 -133l-127 -635h-84l127 623q16 94 17 127q0 182 -176 182q-139 0 -349 -207l-145 -725h-86z" />
<glyph unicode="o" horiz-adv-x="1032" d="M90 365q0 270 156.5 456.5t361.5 186.5q154 0 244 -102.5t90 -287.5q0 -268 -156.5 -455.5t-363.5 -187.5q-152 0 -242 103.5t-90 286.5zM174 377q0 -160 66.5 -244t189.5 -84q162 0 294 168t132 391q0 160 -65.5 243t-188.5 83q-162 0 -295 -168t-133 -389z" />
<glyph unicode="p" horiz-adv-x="1073" d="M-6 -444l287 1427h69l-20 -139h8q199 164 360 164q133 0 210 -92.5t77 -262.5q0 -279 -163 -478.5t-369 -199.5q-160 0 -260 158h-5l-43 -221l-67 -356h-84zM211 219q98 -170 242 -170q174 0 311 182.5t137 407.5q0 145 -58.5 220t-162.5 75q-80 0 -179.5 -51.5 t-183.5 -132.5z" />
<glyph unicode="q" horiz-adv-x="1079" d="M90 330q0 279 163 478.5t372 199.5q166 0 254 -160h6l39 135h69l-284 -1427h-86l71 356l54 248h-5q-176 -184 -366 -185q-131 0 -209 92.5t-78 262.5zM176 346q0 -145 57.5 -221t161.5 -76q84 0 183.5 56.5t185.5 156.5l102 494q-100 178 -243 178q-174 0 -310.5 -182.5 t-136.5 -405.5z" />
<glyph unicode="r" horiz-adv-x="649" d="M82 0l199 983h69l-31 -186h9q147 211 309 211q45 0 88 -17l-33 -80q-37 16 -78 17q-80 0 -166 -74t-151 -203l-129 -651h-86z" />
<glyph unicode="s" horiz-adv-x="796" d="M-2 158l59 45q100 -156 279 -156q102 0 177 61.5t75 145.5q0 61 -39 106.5t-150 104.5q-133 72 -186 131t-53 135q0 121 91 199t218 78q160 0 272 -119l-55 -53q-96 100 -219 100q-94 0 -159.5 -57.5t-65.5 -135.5q0 -45 28.5 -82.5t60 -58t93.5 -55.5 q147 -80 196.5 -142.5t49.5 -136.5q0 -133 -97.5 -213t-246.5 -80q-98 0 -189.5 54.5t-138.5 128.5z" />
<glyph unicode="t" horiz-adv-x="612" d="M137 909l13 66l159 8l68 281h72l-58 -281h266l-16 -74h-266l-133 -645q-8 -49 -9 -78q0 -70 31 -103.5t109 -33.5q49 0 119 35l22 -64q-86 -45 -158 -45q-109 0 -157.5 54.5t-48.5 140.5q0 28 8 98l133 641h-154z" />
<glyph unicode="u" horiz-adv-x="1060" d="M135 215q0 59 17 133l127 635h83l-124 -623q-16 -80 -17 -127q0 -182 174 -182q139 0 348 207l146 725h84l-197 -983h-69l20 160h-8q-104 -90 -185 -137.5t-163 -47.5q-236 0 -236 240z" />
<glyph unicode="v" horiz-adv-x="858" d="M119 983h84l94 -621q8 -53 21.5 -152t19.5 -138h8q27 51 154 290l334 621h88l-539 -983h-109z" />
<glyph unicode="w" horiz-adv-x="1398" d="M141 983h84l49 -643q8 -90 21 -266h8q23 49 63 139t56 127l295 643h102l45 -643q2 -47 7.5 -135t7.5 -131h8q94 211 121 266l299 643h82l-463 -983h-115l-41 612q-2 39 -6 140.5t-8 152.5h-8q-16 -39 -59.5 -140t-67.5 -153l-281 -612h-115z" />
<glyph unicode="x" horiz-adv-x="804" d="M-96 0l458 520l-194 463h88l102 -248q39 -109 64 -164h8q94 106 141 164l215 248h95l-416 -481l209 -502h-88l-105 266q-49 123 -80 187h-8q-72 -90 -157 -183l-234 -270h-98z" />
<glyph unicode="y" horiz-adv-x="858" d="M-160 -424l33 68q35 -18 70 -19q166 0 301 275l43 86l-166 997h84l96 -616q31 -199 41 -293h8q131 252 154 293l332 616h86l-607 -1104q-78 -150 -167 -239t-211 -89q-47 0 -97 25z" />
<glyph unicode="z" horiz-adv-x="804" d="M-47 0l8 51l735 858h-501l16 74h608l-8 -51l-733 -858h575l-14 -74h-686z" />
<glyph unicode="{" horiz-adv-x="548" d="M72 539l14 61q168 2 201 168q10 53 32.5 195.5t38.5 220.5q31 154 87.5 210t172.5 56h72l-10 -57h-62q-88 0 -130 -51.5t-64 -165.5q-10 -57 -30.5 -189.5t-33.5 -200.5q-20 -96 -55 -147t-98 -70v-8q74 -31 74 -115q0 -76 -56.5 -298t-56.5 -287q0 -59 27.5 -87 t99.5 -28h57l-14 -57h-70q-88 0 -129 35.5t-41 119.5q0 74 58.5 296t58.5 286q0 111 -143 113z" />
<glyph unicode="|" horiz-adv-x="444" d="M203 -512v2048h67v-2048h-67z" />
<glyph unicode="}" horiz-adv-x="552" d="M-125 -311l12 57h62q88 0 130 50t62 163q12 63 33 196.5t33 192.5q18 96 54 149.5t99 71.5v9q-76 29 -75 114q0 74 56 295t56 287q0 63 -26.5 91t-98.5 28h-59l14 57h70q90 0 131 -37t41 -119q0 -74 -58.5 -298t-58.5 -287q0 -106 144 -109l-17 -61q-168 -2 -200 -168 q-10 -55 -32 -199.5t-38 -220.5q-31 -152 -88.5 -207t-171.5 -55h-74z" />
<glyph unicode="~" d="M100 639q84 166 215 166q61 0 127 -46t124.5 -92t103.5 -46q88 0 157 129l56 -33q-84 -166 -215 -166q-63 0 -128 46t-123.5 92t-103.5 46q-87 0 -157 -129z" />
<glyph unicode="&#xa1;" horiz-adv-x="518" d="M47 -393l29 147l180 864h66l-164 -864l-27 -147h-84zM264 903q0 41 27.5 73t68.5 32q31 0 49.5 -20.5t18.5 -51.5q0 -39 -29.5 -74t-70.5 -35q-63 0 -64 76z" />
<glyph unicode="&#xa2;" d="M166 590q0 238 144.5 392.5t326.5 166.5l43 217h70l-43 -219q133 -16 225 -131l-58 -55q-84 102 -182 112l-157 -797q129 6 258 103l34 -66q-57 -37 -86.5 -52t-92 -35.5t-128.5 -22.5l-45 -226h-69l45 230q-133 16 -209 115.5t-76 267.5zM252 606q0 -139 54.5 -224 t158.5 -101l158 792q-141 -14 -256 -146t-115 -321z" />
<glyph unicode="&#xa3;" d="M14 0l11 49q150 78 225.5 211t75.5 293q0 31 -2 47h-195l16 62l174 8q-14 182 -14 231q0 201 105.5 317.5t277.5 116.5q168 0 266 -168l-65 -47q-80 141 -207 142q-129 0 -212 -98.5t-83 -256.5q0 -18 16 -237h330l-14 -70h-311v-33q0 -297 -211 -483v-8h559l-13 -76 h-729z" />
<glyph unicode="&#xa4;" d="M27 313l151 133q-27 70 -26 156q0 188 124 324l-98 131l55 45l97 -129q113 90 241 90q127 0 205 -90l152 133l43 -53l-156 -138q31 -63 31 -159q0 -178 -115 -310l113 -149l-53 -43l-111 143q-115 -102 -254 -102q-137 0 -209 94l-147 -129zM231 616q0 -121 52.5 -185 t148.5 -64q127 0 229.5 110.5t102.5 265.5q0 250 -201 250q-125 0 -228.5 -110.5t-103.5 -266.5z" />
<glyph unicode="&#xa5;" d="M70 342l14 61h328l28 154h-329l14 59h299l-197 693h86l107 -402q59 -240 69 -284h9q137 211 188 284l256 402h88l-463 -693h299l-14 -59h-328l-28 -154h327l-14 -61h-328l-67 -342h-84l67 342h-327z" />
<glyph unicode="&#xa6;" horiz-adv-x="444" d="M203 446h67v-958h-67v958zM203 569v967h67v-967h-67z" />
<glyph unicode="&#xa7;" horiz-adv-x="942" d="M47 45l53 59q117 -131 267 -131q88 0 151.5 57.5t63.5 141.5q0 70 -47.5 122t-115 88t-135 75t-114.5 100t-47 145q0 209 229 306q-35 55 -35 116q0 123 79 197t200 74q154 -1 287 -142l-58 -55q-104 125 -233 125q-76 0 -134.5 -51t-58.5 -133q0 -63 47.5 -114.5 t114 -89.5t132 -80t112.5 -107.5t47 -149.5q0 -115 -54.5 -181.5t-166.5 -111.5q33 -53 33 -119q0 -119 -87.5 -201.5t-216.5 -82.5q-174 0 -313 143zM203 717q0 -68 44 -122t99 -84t130 -73t114 -82q94 37 138 87.5t44 140.5q0 88 -61.5 149.5t-167 123t-148.5 99.5 q-193 -74 -192 -239z" />
<glyph unicode="&#xa8;" horiz-adv-x="1040" d="M473 1286q0 37 22.5 62.5t53.5 25.5q61 0 61 -65q0 -35 -22 -59.5t-53 -24.5q-27 0 -44.5 16t-17.5 45zM784 1286q0 37 22.5 62.5t53.5 25.5q61 0 62 -65q0 -35 -22.5 -59.5t-53.5 -24.5q-27 0 -44.5 16t-17.5 45z" />
<glyph unicode="&#xa9;" horiz-adv-x="1353" d="M80 543q0 197 88 377t258 297.5t383 117.5q236 0 383 -156.5t147 -408.5q0 -197 -88 -377t-258 -299t-383 -119q-236 0 -383 158t-147 410zM141 551q0 -233 129 -374.5t344 -141.5q190 0 346 111.5t237 276.5t81 339q0 233 -129 374.5t-344 141.5q-190 0 -346 -111.5 t-237 -276.5t-81 -339zM375 559q0 215 129 351.5t282 136.5q119 0 195 -105l-51 -45q-66 82 -152 82q-119 0 -224 -119t-105 -287q0 -123 59 -187t162 -64q94 0 231 94l35 -56q-74 -53 -134.5 -79.5t-139.5 -26.5q-131 0 -209 79t-78 226z" />
<glyph unicode="&#xaa;" horiz-adv-x="712" d="M125 756q0 180 109.5 312t250.5 132q109 0 162 -102h8l25 86h55l-127 -652h-59l18 105h-8q-115 -121 -242 -121q-88 0 -140 62.5t-52 177.5zM197 766q0 -92 37 -139t98 -47q119 0 243 143l60 301q-61 113 -152 113q-109 0 -197.5 -116t-88.5 -255z" />
<glyph unicode="&#xab;" horiz-adv-x="784" d="M82 483l14 82l324 316l39 -41l-299 -326l180 -336l-49 -31zM373 483l16 82l322 316l39 -41l-299 -326l182 -336l-49 -31z" />
<glyph unicode="&#xac;" d="M98 643v70h807v-492h-76v422h-731z" />
<glyph unicode="&#xad;" horiz-adv-x="587" d="M74 475l16 76h428l-16 -76h-428z" />
<glyph unicode="&#xae;" horiz-adv-x="786" d="M139 1010q0 172 116 305t282 133q133 0 226 -95.5t93 -240.5q0 -174 -116.5 -305t-280.5 -131q-133 0 -226.5 93t-93.5 241zM199 1018q0 -127 70.5 -208t193.5 -81q137 0 235.5 111.5t98.5 263.5q0 127 -73 208t-192 81q-137 0 -235 -112t-98 -263zM336 856l86 420h117 q59 0 92 -31t33 -88q0 -98 -103 -135l60 -166h-64l-51 152h-78l-33 -152h-59zM440 1061h52q51 0 80.5 23.5t29.5 66.5q0 72 -76 72h-57z" />
<glyph unicode="&#xaf;" horiz-adv-x="1040" d="M461 1241l12 70h447l-13 -70h-446z" />
<glyph unicode="&#xb0;" horiz-adv-x="598" d="M215 1128q0 111 70.5 192t171.5 81q86 0 141 -57.5t55 -149.5q0 -111 -70.5 -191.5t-170.5 -80.5q-86 0 -141.5 57t-55.5 149zM279 1137q0 -68 37.5 -112t99.5 -44q76 0 124 62.5t48 142.5q0 68 -37 111.5t-98 43.5q-76 0 -125 -62t-49 -142z" />
<glyph unicode="&#xb1;" d="M98 0v72h807v-72h-807zM98 649v72h367v401h74v-401h366v-72h-366v-413h-76v413h-365z" />
<glyph unicode="&#xb2;" horiz-adv-x="708" d="M193 901l8 57q291 211 396 323t105 230q0 147 -151 148q-90 0 -189 -109l-45 47q119 127 242 127q100 0 159.5 -55t59.5 -149q0 -129 -104.5 -249t-356.5 -306h390l-11 -64h-503z" />
<glyph unicode="&#xb3;" horiz-adv-x="708" d="M184 1040l58 37q70 -137 204 -137q84 0 141.5 46t57.5 128q0 72 -63.5 121t-180.5 49l15 59q139 0 208.5 54.5t69.5 128.5q0 61 -39 98t-108 37q-96 0 -191 -76l-34 55q104 84 233 84q96 0 154.5 -51t58.5 -141q0 -76 -54.5 -137.5t-144.5 -87.5q72 -23 112 -74t40 -109 q0 -115 -80 -181t-197 -66q-88 0 -156.5 46.5t-103.5 116.5z" />
<glyph unicode="&#xb4;" horiz-adv-x="1040" d="M555 1167l238 279h102l-264 -279h-76z" />
<glyph unicode="&#xb5;" horiz-adv-x="1052" d="M-6 -406l278 1389h84l-125 -623q-16 -80 -16 -127q0 -182 174 -182q135 0 348 207l146 725h84l-197 -983h-72l23 160h-8q-205 -182 -336 -183q-162 0 -203 134l-35 -197l-61 -320h-84z" />
<glyph unicode="&#xb6;" horiz-adv-x="1007" d="M154 848q0 238 158.5 370t377.5 132h105l-172 -854h-13q-195 0 -325.5 93t-130.5 259zM596 -164l303 1514h84l-303 -1514h-84z" />
<glyph unicode="&#xb7;" horiz-adv-x="436" d="M166 657q0 39 30.5 74t69.5 35q63 0 64 -78q0 -39 -28 -70.5t-69 -31.5q-31 0 -49 20.5t-18 50.5z" />
<glyph unicode="&#xb8;" horiz-adv-x="1040" d="M215 -379q199 39 199 135q0 37 -27 56.5t-90 35.5l111 156h71l-88 -123q94 -31 94 -112q0 -84 -74.5 -132.5t-187.5 -64.5z" />
<glyph unicode="&#xb9;" horiz-adv-x="704" d="M377 1573l10 51q139 23 217 76h58l-158 -799h-74l133 672h-186z" />
<glyph unicode="&#xba;" horiz-adv-x="700" d="M125 774q0 186 108.5 306t247.5 120q104 0 165 -68.5t61 -189.5q0 -186 -109 -306t-246 -120q-106 0 -166.5 68.5t-60.5 189.5zM195 780q0 -96 42 -149t119 -53q111 0 196 107.5t85 248.5q0 96 -42 149.5t-120 53.5q-111 0 -195.5 -107.5t-84.5 -249.5z" />
<glyph unicode="&#xbb;" horiz-adv-x="784" d="M43 188l299 326l-182 336l51 31l209 -336l-17 -82l-321 -316zM334 188l299 326l-180 336l49 31l209 -336l-15 -82l-323 -316z" />
<glyph unicode="&#xbc;" horiz-adv-x="1495" d="M246 -25l1003 1401h74l-1004 -1401h-73zM260 1225l10 51q139 23 217 76h58l-158 -799h-74l133 672h-186zM817 238l10 45l459 516h64l-101 -502h117l-14 -59h-115l-47 -238h-70l47 238h-350zM915 297h265l39 188l49 207h-8l-146 -168z" />
<glyph unicode="&#xbd;" horiz-adv-x="1533" d="M188 -25l1004 1401h74l-1004 -1401h-74zM252 1225l10 51q139 23 217 76h58l-158 -799h-74l133 672h-186zM834 0l10 57q291 211 396.5 323t105.5 230q0 147 -154 148q-88 0 -186 -109l-48 47q123 127 242 127q100 0 160.5 -55t60.5 -150q0 -129 -104.5 -248.5 t-355.5 -306.5h389l-13 -63h-503z" />
<glyph unicode="&#xbe;" horiz-adv-x="1533" d="M102 692l58 37q70 -137 205 -137q84 0 141 46t57 128q0 72 -63.5 121t-180.5 49l15 59q139 0 208.5 54.5t69.5 128.5q0 61 -38.5 98t-108.5 37q-97 0 -191 -76l-34 55q104 84 233 84q96 0 154.5 -51t58.5 -141q0 -76 -54 -137.5t-145 -88.5q72 -23 112 -73.5t40 -108.5 q0 -115 -80 -181.5t-197 -66.5q-88 0 -156.5 47.5t-103.5 116.5zM328 -25l1003 1401h74l-1004 -1401h-73zM860 238l10 45l459 516h62l-99 -502h117l-14 -59h-115l-47 -238h-70l47 238h-350zM958 297h265l37 188l51 207h-8l-146 -168z" />
<glyph unicode="&#xbf;" horiz-adv-x="794" d="M-10 -141q0 92 43 175t105.5 146.5t126 125t110.5 142t51 170.5l76 -6q-4 -98 -50 -184t-108.5 -148.5t-124 -123t-104.5 -132t-43 -149.5q0 -100 53 -155.5t147 -55.5q135 0 250 121l49 -55q-55 -61 -137 -100.5t-170 -39.5q-127 0 -200.5 72t-73.5 197zM434 907 q0 41 28.5 73t67.5 32q31 0 49.5 -20.5t18.5 -51.5q0 -41 -29.5 -75t-70.5 -34q-63 0 -64 76z" />
<glyph unicode="&#xc0;" horiz-adv-x="999" d="M-98 0l743 1350h96l166 -1350h-88l-53 469h-514l-252 -469h-98zM291 541h467l-31 260q-6 61 -22.5 217t-24.5 244h-8q-66 -133 -242 -461zM510 1665h96l154 -213h-72z" />
<glyph unicode="&#xc1;" horiz-adv-x="999" d="M-98 0l743 1350h96l166 -1350h-88l-53 469h-514l-252 -469h-98zM291 541h467l-31 260q-6 61 -22.5 217t-24.5 244h-8q-66 -133 -242 -461zM614 1452l224 213h104l-250 -213h-78z" />
<glyph unicode="&#xc2;" horiz-adv-x="999" d="M-98 0l743 1350h96l166 -1350h-88l-53 469h-514l-252 -469h-98zM291 541h467l-31 260q-6 61 -22.5 217t-24.5 244h-8q-66 -133 -242 -461zM461 1450l229 213h76l147 -213h-71l-115 152h-8l-178 -152h-80z" />
<glyph unicode="&#xc3;" horiz-adv-x="999" d="M-98 0l743 1350h96l166 -1350h-88l-53 469h-514l-252 -469h-98zM291 541h467l-31 260q-6 61 -22.5 217t-24.5 244h-8q-66 -133 -242 -461zM432 1466q14 72 63.5 128.5t112.5 56.5q49 0 106.5 -61.5t96.5 -61.5q68 0 109 119h57q-14 -72 -64.5 -128.5t-111.5 -56.5 q-49 0 -106.5 61.5t-96.5 61.5q-70 0 -109 -119h-57z" />
<glyph unicode="&#xc4;" horiz-adv-x="999" d="M-98 0l743 1350h96l166 -1350h-88l-53 469h-514l-252 -469h-98zM291 541h467l-31 260q-6 61 -22.5 217t-24.5 244h-8q-66 -133 -242 -461zM485 1542q0 37 22.5 61.5t53.5 24.5q59 0 60 -63q0 -35 -22.5 -59.5t-53.5 -24.5q-59 0 -60 61zM795 1542q0 37 22.5 61.5 t52.5 24.5q61 0 62 -63q0 -33 -23.5 -58.5t-52.5 -25.5q-61 0 -61 61z" />
<glyph unicode="&#xc5;" horiz-adv-x="999" d="M-98 0l743 1350h96l166 -1350h-88l-53 469h-514l-252 -469h-98zM291 541h467l-31 260q-6 61 -22.5 217t-24.5 244h-8q-66 -133 -242 -461zM545 1583q0 78 55 134.5t129 56.5q66 0 109 -40t43 -116q0 -78 -55.5 -133t-129.5 -55q-68 0 -109.5 38.5t-41.5 114.5zM606 1589 q0 -106 94 -106q49 0 84 38t35 93q0 49 -24.5 77.5t-69.5 28.5q-49 0 -84 -37.5t-35 -93.5z" />
<glyph unicode="&#xc6;" horiz-adv-x="1601" d="M-66 0l986 1350h739l-17 -76h-595l-105 -520h502l-17 -76h-497l-123 -602h616l-16 -76h-700l88 444h-439l-319 -444h-103zM410 518h399l152 756h-9q-57 -80 -170.5 -238.5t-171.5 -238.5z" />
<glyph unicode="&#xc7;" horiz-adv-x="1105" d="M119 508q0 152 48 304.5t133 278.5t217 204.5t286 78.5q197 0 315 -190l-65 -47q-94 162 -256 161q-176 0 -315.5 -124.5t-207 -300t-67.5 -353.5q0 -211 94 -340t285 -129q162 0 319 131l47 -57q-176 -147 -368 -150l-66 -94q94 -31 94 -112q0 -84 -74.5 -133.5 t-189.5 -63.5l-8 49q199 39 199 135q0 35 -27 55.5t-88 36.5l92 129q-193 20 -295 165t-102 366z" />
<glyph unicode="&#xc8;" horiz-adv-x="1001" d="M80 0l268 1350h713l-17 -76h-624l-105 -520h529l-17 -76h-524l-123 -602h643l-16 -76h-727zM543 1665h96l156 -213h-74z" />
<glyph unicode="&#xc9;" horiz-adv-x="1001" d="M80 0l268 1350h713l-17 -76h-624l-105 -520h529l-17 -76h-524l-123 -602h643l-16 -76h-727zM647 1452l223 213h107l-252 -213h-78z" />
<glyph unicode="&#xca;" horiz-adv-x="1001" d="M80 0l268 1350h713l-17 -76h-624l-105 -520h529l-17 -76h-524l-123 -602h643l-16 -76h-727zM494 1450l229 213h76l147 -213h-72l-114 152h-8l-179 -152h-79z" />
<glyph unicode="&#xcb;" horiz-adv-x="1001" d="M80 0l268 1350h713l-17 -76h-624l-105 -520h529l-17 -76h-524l-123 -602h643l-16 -76h-727zM518 1542q0 37 22.5 61.5t53.5 24.5q61 0 61 -63q0 -33 -23 -58.5t-52 -25.5q-61 0 -62 61zM827 1542q0 37 22.5 61.5t53.5 24.5q61 0 62 -63q0 -33 -23.5 -58.5t-52.5 -25.5 q-61 0 -62 61z" />
<glyph unicode="&#xcc;" horiz-adv-x="464" d="M80 0l268 1350h88l-268 -1350h-88zM221 1665h96l154 -213h-72z" />
<glyph unicode="&#xcd;" horiz-adv-x="464" d="M80 0l268 1350h88l-268 -1350h-88zM326 1452l223 213h104l-250 -213h-77z" />
<glyph unicode="&#xce;" horiz-adv-x="464" d="M80 0l268 1350h88l-268 -1350h-88zM172 1450l229 213h76l148 -213h-72l-115 152h-8l-178 -152h-80z" />
<glyph unicode="&#xcf;" horiz-adv-x="464" d="M80 0l268 1350h88l-268 -1350h-88zM197 1542q0 37 22.5 61.5t52.5 24.5q59 0 60 -63q0 -35 -22.5 -59.5t-53.5 -24.5q-59 0 -59 61zM506 1542q0 37 22.5 61.5t53.5 24.5q61 0 61 -63q0 -33 -23.5 -58.5t-52.5 -25.5q-61 0 -61 61z" />
<glyph unicode="&#xd0;" horiz-adv-x="1218" d="M106 684l15 59l145 5l119 602h223q272 0 414.5 -140.5t142.5 -384.5q0 -362 -189.5 -593.5t-531.5 -231.5h-327l135 684h-146zM217 74h229q291 0 461 214t170 531q0 211 -120.5 334t-352.5 123h-147l-105 -528h336l-14 -64h-336z" />
<glyph unicode="&#xd1;" horiz-adv-x="1239" d="M80 0l268 1350h94l359 -959l94 -274h8q55 346 66 397l166 836h88l-271 -1350h-90l-354 954l-98 285h-9q-35 -229 -69 -393l-166 -846h-86zM539 1466q14 72 63 128.5t113 56.5q49 0 106.5 -61.5t96.5 -61.5q68 0 108 119h57q-14 -72 -64 -128.5t-112 -56.5 q-49 0 -106.5 61.5t-95.5 61.5q-70 0 -109 -119h-57z" />
<glyph unicode="&#xd2;" horiz-adv-x="1265" d="M125 537q0 195 74.5 383t225 321t341.5 133q217 0 329.5 -152.5t112.5 -408.5q0 -143 -45 -289.5t-123.5 -269.5t-204 -201t-268.5 -78q-215 0 -328.5 153t-113.5 409zM215 547q0 -229 88 -362.5t270 -133.5q164 0 293 124t191.5 293t62.5 335q0 229 -89 362t-271 133 q-164 0 -293 -123.5t-190.5 -292.5t-61.5 -335zM635 1665h96l156 -213h-74z" />
<glyph unicode="&#xd3;" horiz-adv-x="1265" d="M125 537q0 195 74.5 383t225 321t341.5 133q217 0 329.5 -152.5t112.5 -408.5q0 -143 -45 -289.5t-123.5 -269.5t-204 -201t-268.5 -78q-215 0 -328.5 153t-113.5 409zM215 547q0 -229 88 -362.5t270 -133.5q164 0 293 124t191.5 293t62.5 335q0 229 -89 362t-271 133 q-164 0 -293 -123.5t-190.5 -292.5t-61.5 -335zM739 1452l224 213h106l-252 -213h-78z" />
<glyph unicode="&#xd4;" horiz-adv-x="1265" d="M125 537q0 195 74.5 383t225 321t341.5 133q217 0 329.5 -152.5t112.5 -408.5q0 -143 -45 -289.5t-123.5 -269.5t-204 -201t-268.5 -78q-215 0 -328.5 153t-113.5 409zM215 547q0 -229 88 -362.5t270 -133.5q164 0 293 124t191.5 293t62.5 335q0 229 -89 362t-271 133 q-164 0 -293 -123.5t-190.5 -292.5t-61.5 -335zM586 1450l229 213h76l147 -213h-71l-115 152h-8l-178 -152h-80z" />
<glyph unicode="&#xd5;" horiz-adv-x="1265" d="M125 537q0 195 74.5 383t225 321t341.5 133q217 0 329.5 -152.5t112.5 -408.5q0 -143 -45 -289.5t-123.5 -269.5t-204 -201t-268.5 -78q-215 0 -328.5 153t-113.5 409zM215 547q0 -229 88 -362.5t270 -133.5q164 0 293 124t191.5 293t62.5 335q0 229 -89 362t-271 133 q-164 0 -293 -123.5t-190.5 -292.5t-61.5 -335zM557 1466q14 72 63.5 128.5t112.5 56.5q49 0 106.5 -61.5t96.5 -61.5q70 0 108 119h58q-14 -72 -63.5 -128.5t-112.5 -56.5q-49 0 -106.5 61.5t-96.5 61.5q-68 0 -109 -119h-57z" />
<glyph unicode="&#xd6;" horiz-adv-x="1265" d="M125 537q0 195 74.5 383t225 321t341.5 133q217 0 329.5 -152.5t112.5 -408.5q0 -143 -45 -289.5t-123.5 -269.5t-204 -201t-268.5 -78q-215 0 -328.5 153t-113.5 409zM215 547q0 -229 88 -362.5t270 -133.5q164 0 293 124t191.5 293t62.5 335q0 229 -89 362t-271 133 q-164 0 -293 -123.5t-190.5 -292.5t-61.5 -335zM610 1542q0 37 22.5 61.5t53.5 24.5q61 0 62 -63q0 -33 -23.5 -58.5t-52.5 -25.5q-61 0 -62 61zM920 1542q0 37 22.5 61.5t52.5 24.5q61 0 62 -63q0 -33 -23.5 -58.5t-52.5 -25.5q-61 0 -61 61z" />
<glyph unicode="&#xd7;" d="M135 346l318 334l-318 330l49 49l318 -330l317 330l49 -49l-317 -330l317 -334l-49 -49l-317 334l-318 -334z" />
<glyph unicode="&#xd8;" horiz-adv-x="1265" d="M2 -4l191 207q-68 135 -68 334q0 195 74.5 383t225 321t341.5 133q229 0 344 -174l178 193l43 -45l-188 -205q66 -131 65 -330q0 -143 -45 -289.5t-123.5 -269.5t-203.5 -201t-269 -78q-221 0 -338 166l-174 -190zM215 547q0 -158 43 -275l793 863q-92 164 -291 163 q-164 0 -293 -123.5t-190.5 -292.5t-61.5 -335zM289 207q90 -156 284 -156q164 0 293 124t191.5 293t62.5 335q0 159 -41 268z" />
<glyph unicode="&#xd9;" horiz-adv-x="1228" d="M166 377q0 76 18 174l160 799h88l-158 -791q-20 -80 -20 -166q0 -164 79 -253t234 -89q137 0 241.5 107.5t149.5 337.5l170 854h89l-175 -867q-53 -266 -181 -387t-302 -121q-186 0 -289.5 104.5t-103.5 297.5zM612 1665h97l153 -213h-71z" />
<glyph unicode="&#xda;" horiz-adv-x="1228" d="M166 377q0 76 18 174l160 799h88l-158 -791q-20 -80 -20 -166q0 -164 79 -253t234 -89q137 0 241.5 107.5t149.5 337.5l170 854h89l-175 -867q-53 -266 -181 -387t-302 -121q-186 0 -289.5 104.5t-103.5 297.5zM717 1452l223 213h104l-249 -213h-78z" />
<glyph unicode="&#xdb;" horiz-adv-x="1228" d="M166 377q0 76 18 174l160 799h88l-158 -791q-20 -80 -20 -166q0 -164 79 -253t234 -89q137 0 241.5 107.5t149.5 337.5l170 854h89l-175 -867q-53 -266 -181 -387t-302 -121q-186 0 -289.5 104.5t-103.5 297.5zM561 1450l232 213h75l148 -213h-72l-115 152h-8l-178 -152 h-82z" />
<glyph unicode="&#xdc;" horiz-adv-x="1228" d="M166 377q0 76 18 174l160 799h88l-158 -791q-20 -80 -20 -166q0 -164 79 -253t234 -89q137 0 241.5 107.5t149.5 337.5l170 854h89l-175 -867q-53 -266 -181 -387t-302 -121q-186 0 -289.5 104.5t-103.5 297.5zM586 1542q0 37 22.5 61.5t53.5 24.5q61 0 61 -63 q0 -33 -23.5 -58.5t-52.5 -25.5q-61 0 -61 61zM897 1542q0 37 22.5 61.5t53.5 24.5q61 0 61 -63q0 -33 -23.5 -58.5t-52.5 -25.5q-61 0 -61 61z" />
<glyph unicode="&#xdd;" horiz-adv-x="886" d="M174 1350h90l113 -426q14 -53 38.5 -150.5t37.5 -140.5h8q33 47 97.5 145.5t96.5 145.5l295 426h94l-559 -801l-110 -549h-88l110 549zM528 1452l224 213h104l-250 -213h-78z" />
<glyph unicode="&#xde;" horiz-adv-x="1112" d="M80 0l268 1352h88l-47 -250h266q397 0 398 -311q0 -223 -152.5 -338t-419.5 -115h-248l-67 -338h-86zM250 412h223q242 0 367 93t125 275q0 131 -87 189.5t-262 58.5h-243z" />
<glyph unicode="&#xdf;" horiz-adv-x="1073" d="M82 0l221 1098q37 172 140.5 285.5t250.5 113.5q111 0 177.5 -64.5t66.5 -183.5q0 -76 -30.5 -138t-73.5 -105t-86 -82t-74 -85t-31 -97.5t34 -94.5t81 -76.5t94 -71.5t81 -95.5t34 -129.5q0 -125 -89.5 -212t-226.5 -87q-154 0 -278 109l47 57q117 -94 233 -94 q94 0 163 61.5t69 151.5q0 63 -34 115.5t-82 88.5t-95 71.5t-81 84t-34 105.5q0 63 31 118.5t74 96.5t86 83t73.5 98.5t30.5 121.5q0 82 -41 131t-125 49q-111 0 -192.5 -99t-114.5 -251l-213 -1073h-86z" />
<glyph unicode="&#xe0;" horiz-adv-x="1079" d="M90 330q0 279 163 478.5t372 199.5q166 0 254 -160h6l39 135h69l-196 -983h-72l23 156h-9q-174 -180 -362 -181q-131 0 -209 92.5t-78 262.5zM176 346q0 -145 57.5 -221t161.5 -76q184 0 369 213l102 494q-100 178 -243 178q-174 0 -310.5 -182.5t-136.5 -405.5z M551 1446h94l121 -279h-66z" />
<glyph unicode="&#xe1;" horiz-adv-x="1079" d="M90 330q0 279 163 478.5t372 199.5q166 0 254 -160h6l39 135h69l-196 -983h-72l23 156h-9q-174 -180 -362 -181q-131 0 -209 92.5t-78 262.5zM176 346q0 -145 57.5 -221t161.5 -76q184 0 369 213l102 494q-100 178 -243 178q-174 0 -310.5 -182.5t-136.5 -405.5z M547 1167l237 279h103l-262 -279h-78z" />
<glyph unicode="&#xe2;" horiz-adv-x="1079" d="M90 330q0 279 163 478.5t372 199.5q166 0 254 -160h6l39 135h69l-196 -983h-72l23 156h-9q-174 -180 -362 -181q-131 0 -209 92.5t-78 262.5zM176 346q0 -145 57.5 -221t161.5 -76q184 0 369 213l102 494q-100 178 -243 178q-174 0 -310.5 -182.5t-136.5 -405.5z M438 1167l250 279h60l137 -279h-66l-108 201h-9l-190 -201h-74z" />
<glyph unicode="&#xe3;" horiz-adv-x="1079" d="M90 330q0 279 163 478.5t372 199.5q166 0 254 -160h6l39 135h69l-196 -983h-72l23 156h-9q-174 -180 -362 -181q-131 0 -209 92.5t-78 262.5zM176 346q0 -145 57.5 -221t161.5 -76q184 0 369 213l102 494q-100 178 -243 178q-174 0 -310.5 -182.5t-136.5 -405.5z M418 1190q55 180 164 180q61 0 116.5 -59.5t98.5 -59.5q53 0 96 115h57q-23 -76 -64.5 -128t-97.5 -52q-39 0 -70.5 18.5t-48 42t-42 42t-56.5 18.5q-49 0 -96 -117h-57z" />
<glyph unicode="&#xe4;" horiz-adv-x="1079" d="M90 330q0 279 163 478.5t372 199.5q166 0 254 -160h6l39 135h69l-196 -983h-72l23 156h-9q-174 -180 -362 -181q-131 0 -209 92.5t-78 262.5zM176 346q0 -145 57.5 -221t161.5 -76q184 0 369 213l102 494q-100 178 -243 178q-174 0 -310.5 -182.5t-136.5 -405.5z M467 1286q0 37 22.5 62.5t53.5 25.5q61 0 61 -65q0 -35 -22.5 -59.5t-53.5 -24.5q-61 0 -61 61zM776 1286q0 37 22.5 62.5t53.5 25.5q61 0 61 -65q0 -35 -22 -59.5t-53 -24.5q-27 0 -44.5 16t-17.5 45z" />
<glyph unicode="&#xe5;" horiz-adv-x="1079" d="M90 330q0 279 163 478.5t372 199.5q166 0 254 -160h6l39 135h69l-196 -983h-72l23 156h-9q-174 -180 -362 -181q-131 0 -209 92.5t-78 262.5zM176 346q0 -145 57.5 -221t161.5 -76q184 0 369 213l102 494q-100 178 -243 178q-174 0 -310.5 -182.5t-136.5 -405.5z M516 1255q0 80 54.5 138.5t129.5 58.5q68 0 109 -41t41 -117q0 -80 -54 -138t-128 -58q-68 0 -110 41t-42 116zM578 1260q0 -49 25.5 -80t68.5 -31q47 0 83 42t36 99q0 49 -26 80t-69 31q-47 0 -82.5 -42t-35.5 -99z" />
<glyph unicode="&#xe6;" horiz-adv-x="1566" d="M78 211q0 369 670 395q14 70 14 117q0 211 -193 211q-131 0 -290 -94l-31 65q174 102 332 103q236 0 254 -230q72 106 168 168t196 62q152 0 223.5 -93.5t71.5 -255.5q0 -88 -27 -172h-657q-37 -190 39 -315t223 -125q115 0 250 96l37 -61q-145 -106 -297 -107 q-106 0 -191.5 60.5t-117.5 154.5q-219 -215 -428 -215q-104 0 -175 62.5t-71 173.5zM162 229q0 -86 52 -133t134 -47q178 0 381 209q-21 131 6 281q-268 -6 -420.5 -84t-152.5 -226zM821 555h582q12 59 12 117q0 113 -54 188.5t-171 75.5q-115 0 -222.5 -108.5 t-146.5 -272.5z" />
<glyph unicode="&#xe7;" horiz-adv-x="880" d="M86 365q0 276 162 459.5t368 183.5q143 0 248 -119l-53 -58q-84 102 -201 103q-168 0 -303 -167t-135 -390q0 -328 272 -328q125 0 254 103l43 -62q-152 -113 -303 -115l-67 -94q94 -31 94 -112q0 -84 -75 -132.5t-187 -64.5l-8 49q199 39 198 135q0 37 -27 56.5 t-90 35.5l95 132q-133 20 -209 120.5t-76 264.5z" />
<glyph unicode="&#xe8;" horiz-adv-x="964" d="M86 381q0 268 156.5 447.5t355.5 179.5q152 0 223.5 -93.5t71.5 -255.5q0 -88 -27 -172h-686q-37 -219 49 -329.5t244 -110.5q115 0 246 96l39 -61q-147 -106 -297 -107q-174 0 -274.5 105.5t-100.5 300.5zM193 555h610q12 57 12 117q0 113 -54 188.5t-171 75.5 q-131 0 -244.5 -107.5t-152.5 -273.5zM514 1446h92l121 -279h-65z" />
<glyph unicode="&#xe9;" horiz-adv-x="964" d="M86 381q0 268 156.5 447.5t355.5 179.5q152 0 223.5 -93.5t71.5 -255.5q0 -88 -27 -172h-686q-37 -219 49 -329.5t244 -110.5q115 0 246 96l39 -61q-147 -106 -297 -107q-174 0 -274.5 105.5t-100.5 300.5zM193 555h610q12 57 12 117q0 113 -54 188.5t-171 75.5 q-131 0 -244.5 -107.5t-152.5 -273.5zM510 1167l238 279h102l-264 -279h-76z" />
<glyph unicode="&#xea;" horiz-adv-x="964" d="M86 381q0 268 156.5 447.5t355.5 179.5q152 0 223.5 -93.5t71.5 -255.5q0 -88 -27 -172h-686q-37 -219 49 -329.5t244 -110.5q115 0 246 96l39 -61q-147 -106 -297 -107q-174 0 -274.5 105.5t-100.5 300.5zM193 555h610q12 57 12 117q0 113 -54 188.5t-171 75.5 q-131 0 -244.5 -107.5t-152.5 -273.5zM399 1167l250 279h60l137 -279h-64l-110 201h-8l-191 -201h-74z" />
<glyph unicode="&#xeb;" horiz-adv-x="964" d="M86 381q0 268 156.5 447.5t355.5 179.5q152 0 223.5 -93.5t71.5 -255.5q0 -88 -27 -172h-686q-37 -219 49 -329.5t244 -110.5q115 0 246 96l39 -61q-147 -106 -297 -107q-174 0 -274.5 105.5t-100.5 300.5zM193 555h610q12 57 12 117q0 113 -54 188.5t-171 75.5 q-131 0 -244.5 -107.5t-152.5 -273.5zM428 1286q0 37 22.5 62.5t53.5 25.5q61 0 61 -65q0 -35 -22.5 -59.5t-53.5 -24.5q-27 0 -44 16t-17 45zM737 1286q0 37 22.5 62.5t53.5 25.5q61 0 61 -65q0 -35 -22 -59.5t-53 -24.5q-29 0 -45.5 16t-16.5 45z" />
<glyph unicode="&#xec;" horiz-adv-x="450" d="M82 0l199 983h84l-197 -983h-86zM252 1446h92l121 -279h-66z" />
<glyph unicode="&#xed;" horiz-adv-x="450" d="M82 0l199 983h84l-197 -983h-86zM248 1167l237 279h103l-264 -279h-76z" />
<glyph unicode="&#xee;" horiz-adv-x="450" d="M82 0l199 983h84l-197 -983h-86zM137 1167l250 279h59l138 -279h-64l-110 201h-9l-190 -201h-74z" />
<glyph unicode="&#xef;" horiz-adv-x="450" d="M82 0l199 983h84l-197 -983h-86zM166 1286q0 37 22.5 62.5t53.5 25.5q61 0 61 -65q0 -35 -22.5 -59.5t-53.5 -24.5q-27 0 -44 16t-17 45zM475 1286q0 37 22.5 62.5t53.5 25.5q61 0 61 -65q0 -35 -22 -59.5t-53 -24.5q-29 0 -45.5 16t-16.5 45z" />
<glyph unicode="&#xf0;" horiz-adv-x="1058" d="M98 340q0 227 133.5 396t343.5 169q158 0 271 -162q-8 268 -141 453l-306 -129l-20 55l289 123q-84 98 -213 182l43 56q147 -92 241 -209l299 127l21 -55l-283 -119q154 -215 154 -527q0 -305 -137.5 -515t-358.5 -210q-145 0 -240.5 105.5t-95.5 259.5zM180 350 q0 -125 71.5 -213t194.5 -88q166 0 279 174t123 420q-121 188 -270 188q-172 0 -285 -145t-113 -336z" />
<glyph unicode="&#xf1;" horiz-adv-x="1044" d="M82 0l199 983h69l-22 -156h8q104 88 186 134.5t166 46.5q233 0 234 -240q0 -57 -17 -133l-127 -635h-84l127 623q16 94 17 127q0 182 -176 182q-139 0 -349 -207l-145 -725h-86zM436 1190q23 78 65 129t97 51q49 0 85 -29.5t65.5 -59.5t66.5 -30q53 0 96 115h58 q-25 -78 -67 -129t-97 -51q-39 0 -69.5 18.5t-47 42t-42 42t-56.5 18.5q-53 0 -96 -117h-58z" />
<glyph unicode="&#xf2;" horiz-adv-x="1032" d="M90 365q0 270 156.5 456.5t361.5 186.5q154 0 244 -102.5t90 -287.5q0 -268 -156.5 -455.5t-363.5 -187.5q-152 0 -242 103.5t-90 286.5zM174 377q0 -160 66.5 -244t189.5 -84q162 0 294 168t132 391q0 160 -65.5 243t-188.5 83q-162 0 -295 -168t-133 -389zM559 1446h92 l123 -279h-67z" />
<glyph unicode="&#xf3;" horiz-adv-x="1032" d="M90 365q0 270 156.5 456.5t361.5 186.5q154 0 244 -102.5t90 -287.5q0 -268 -156.5 -455.5t-363.5 -187.5q-152 0 -242 103.5t-90 286.5zM174 377q0 -160 66.5 -244t189.5 -84q162 0 294 168t132 391q0 160 -65.5 243t-188.5 83q-162 0 -295 -168t-133 -389zM555 1167 l238 279h102l-264 -279h-76z" />
<glyph unicode="&#xf4;" horiz-adv-x="1032" d="M90 365q0 270 156.5 456.5t361.5 186.5q154 0 244 -102.5t90 -287.5q0 -268 -156.5 -455.5t-363.5 -187.5q-152 0 -242 103.5t-90 286.5zM174 377q0 -160 66.5 -244t189.5 -84q162 0 294 168t132 391q0 160 -65.5 243t-188.5 83q-162 0 -295 -168t-133 -389zM446 1167 l250 279h58l139 -279h-66l-110 201h-8l-189 -201h-74z" />
<glyph unicode="&#xf5;" horiz-adv-x="1032" d="M90 365q0 270 156.5 456.5t361.5 186.5q154 0 244 -102.5t90 -287.5q0 -268 -156.5 -455.5t-363.5 -187.5q-152 0 -242 103.5t-90 286.5zM174 377q0 -160 66.5 -244t189.5 -84q162 0 294 168t132 391q0 160 -65.5 243t-188.5 83q-162 0 -295 -168t-133 -389zM426 1190 q23 78 64.5 129t97.5 51q49 0 85 -29.5t65.5 -59.5t66.5 -30q53 0 96 115h57q-25 -78 -66.5 -129t-96.5 -51q-61 0 -116.5 60.5t-98.5 60.5q-54 0 -97 -117h-57z" />
<glyph unicode="&#xf6;" horiz-adv-x="1032" d="M90 365q0 270 156.5 456.5t361.5 186.5q154 0 244 -102.5t90 -287.5q0 -268 -156.5 -455.5t-363.5 -187.5q-152 0 -242 103.5t-90 286.5zM174 377q0 -160 66.5 -244t189.5 -84q162 0 294 168t132 391q0 160 -65.5 243t-188.5 83q-162 0 -295 -168t-133 -389zM473 1286 q0 37 22.5 62.5t53.5 25.5q61 0 61 -65q0 -35 -22 -59.5t-53 -24.5q-27 0 -44.5 16t-17.5 45zM784 1286q0 37 22.5 62.5t53.5 25.5q61 0 62 -65q0 -35 -22.5 -59.5t-53.5 -24.5q-27 0 -44.5 16t-17.5 45z" />
<glyph unicode="&#xf7;" d="M98 643v70h807v-70h-807zM428 303q0 33 20.5 54.5t53.5 21.5t53 -21.5t20 -54.5t-21.5 -56.5t-52 -23.5t-52 23.5t-21.5 56.5zM428 1048.5q0 32.5 20.5 54t53.5 21.5t53 -21.5t20 -54t-21.5 -56t-52 -23.5t-52 23.5t-21.5 56z" />
<glyph unicode="&#xf8;" horiz-adv-x="1032" d="M0 -4l139 143q-49 90 -49 226q0 270 156.5 456.5t361.5 186.5q170 0 256 -121l135 139l43 -43l-145 -149q45 -90 45 -216q0 -270 -156.5 -456.5t-363.5 -186.5q-160 0 -250 113l-129 -133zM172 377q0 -100 29 -174l606 624q-66 106 -205 107q-164 0 -297 -169t-133 -388z M229 145q66 -96 199 -96q166 0 298 169t132 388q1 92 -24 164z" />
<glyph unicode="&#xf9;" horiz-adv-x="1060" d="M135 215q0 59 17 133l127 635h83l-124 -623q-16 -80 -17 -127q0 -182 174 -182q139 0 348 207l146 725h84l-197 -983h-69l20 160h-8q-104 -90 -185 -137.5t-163 -47.5q-236 0 -236 240zM541 1446h92l123 -279h-68z" />
<glyph unicode="&#xfa;" horiz-adv-x="1060" d="M135 215q0 59 17 133l127 635h83l-124 -623q-16 -80 -17 -127q0 -182 174 -182q139 0 348 207l146 725h84l-197 -983h-69l20 160h-8q-104 -90 -185 -137.5t-163 -47.5q-236 0 -236 240zM537 1167l237 279h103l-265 -279h-75z" />
<glyph unicode="&#xfb;" horiz-adv-x="1060" d="M135 215q0 59 17 133l127 635h83l-124 -623q-16 -80 -17 -127q0 -182 174 -182q139 0 348 207l146 725h84l-197 -983h-69l20 160h-8q-104 -90 -185 -137.5t-163 -47.5q-236 0 -236 240zM426 1167l250 279h59l139 -279h-65l-111 201h-8l-188 -201h-76z" />
<glyph unicode="&#xfc;" horiz-adv-x="1060" d="M135 215q0 59 17 133l127 635h83l-124 -623q-16 -80 -17 -127q0 -182 174 -182q139 0 348 207l146 725h84l-197 -983h-69l20 160h-8q-104 -90 -185 -137.5t-163 -47.5q-236 0 -236 240zM455 1286q0 37 22.5 62.5t52.5 25.5q61 0 62 -65q0 -35 -22.5 -59.5t-53.5 -24.5 q-29 0 -45 16t-16 45zM764 1286q0 37 23.5 62.5t54.5 25.5q61 0 61 -65q0 -35 -23.5 -59.5t-54.5 -24.5q-27 0 -44 16t-17 45z" />
<glyph unicode="&#xfd;" horiz-adv-x="858" d="M-160 -424l33 68q35 -18 70 -19q166 0 301 275l43 86l-166 997h84l96 -616q31 -199 41 -293h8q131 252 154 293l332 616h86l-607 -1104q-78 -150 -167 -239t-211 -89q-47 0 -97 25zM420 1167l237 279h103l-262 -279h-78z" />
<glyph unicode="&#xfe;" horiz-adv-x="1073" d="M-6 -444l383 1917h84l-86 -429l-43 -198h4q201 162 362 162q133 0 210 -92.5t77 -262.5q0 -279 -162.5 -478.5t-369.5 -199.5q-156 0 -260 158h-5l-43 -221l-67 -356h-84zM211 219q98 -170 242 -170q174 0 311 182.5t137 407.5q0 145 -58.5 220t-162.5 75 q-80 0 -179.5 -50t-183.5 -132z" />
<glyph unicode="&#xff;" horiz-adv-x="858" d="M-160 -424l33 68q35 -18 70 -19q166 0 301 275l43 86l-166 997h84l96 -616q31 -199 41 -293h8q131 252 154 293l332 616h86l-607 -1104q-78 -150 -167 -239t-211 -89q-47 0 -97 25zM340 1286q0 37 22.5 62.5t53.5 25.5q61 0 61 -65q0 -35 -22.5 -59.5t-53.5 -24.5 q-61 0 -61 61zM649 1286q0 37 22.5 62.5t53.5 25.5q61 0 61 -65q0 -35 -22 -59.5t-53 -24.5q-27 0 -44.5 16t-17.5 45z" />
<glyph unicode="&#x100;" horiz-adv-x="999" d="M-98 0l743 1350h96l166 -1350h-88l-53 469h-514l-252 -469h-98zM291 541h467l-31 260q-6 61 -22.5 217t-24.5 244h-8q-66 -133 -242 -461zM475 1503l14 70h445l-14 -70h-445z" />
<glyph unicode="&#x101;" horiz-adv-x="1079" d="M90 330q0 279 163 478.5t372 199.5q166 0 254 -160h6l39 135h69l-196 -983h-72l23 156h-9q-174 -180 -362 -181q-131 0 -209 92.5t-78 262.5zM176 346q0 -145 57.5 -221t161.5 -76q184 0 369 213l102 494q-100 178 -243 178q-174 0 -310.5 -182.5t-136.5 -405.5z M453 1241l12 70h446l-10 -70h-448z" />
<glyph unicode="&#x102;" horiz-adv-x="999" d="M-98 0l743 1350h96l166 -1350h-88l-53 469h-514l-252 -469h-98zM291 541h467l-31 260q-6 61 -22.5 217t-24.5 244h-8q-66 -133 -242 -461zM506 1665h57q-4 -63 30 -106t103 -43q68 0 117 44t74 105h61q-27 -86 -94.5 -149.5t-167.5 -63.5t-144 65.5t-36 147.5z" />
<glyph unicode="&#x103;" horiz-adv-x="1079" d="M90 330q0 279 163 478.5t372 199.5q166 0 254 -160h6l39 135h69l-196 -983h-72l23 156h-9q-174 -180 -362 -181q-131 0 -209 92.5t-78 262.5zM176 346q0 -145 57.5 -221t161.5 -76q184 0 369 213l102 494q-100 178 -243 178q-174 0 -310.5 -182.5t-136.5 -405.5z M485 1419h58q-14 -178 129 -178q72 0 127 49t82 129h61q-33 -100 -100.5 -169.5t-176 -69.5t-149.5 70.5t-31 168.5z" />
<glyph unicode="&#x104;" horiz-adv-x="999" d="M-98 0l743 1350h96l166 -1350q-190 -135 -190 -266q0 -37 21.5 -60.5t54.5 -23.5q41 0 84 24l24 -57q-63 -35 -123 -35q-63 0 -103 34t-40 95q0 76 57.5 154t136.5 135h-10l-53 469h-514l-252 -469h-98zM291 541h467l-31 260q-6 61 -22.5 217t-24.5 244h-8 q-66 -133 -242 -461z" />
<glyph unicode="&#x105;" horiz-adv-x="1079" d="M90 330q0 279 163 478.5t372 199.5q168 0 256 -164h4l39 139h69l-196 -983q-231 -125 -232 -266q0 -37 21.5 -59.5t54.5 -22.5q43 0 84 24l25 -55q-63 -37 -123 -37q-63 0 -102.5 33t-39.5 96q0 84 71 168t173 137l19 142h-5q-176 -184 -366 -185q-131 0 -209 92.5 t-78 262.5zM176 346q0 -145 57.5 -221t161.5 -76q84 0 183.5 56.5t185.5 156.5l102 498q-98 174 -243 174q-174 0 -310.5 -182.5t-136.5 -405.5z" />
<glyph unicode="&#x106;" horiz-adv-x="1105" d="M119 508q0 152 48 304.5t133 278.5t217 204.5t286 78.5q197 0 315 -190l-65 -47q-94 162 -256 161q-176 0 -315.5 -124.5t-207 -300t-67.5 -353.5q0 -211 94 -340t285 -129q162 0 319 131l47 -57q-180 -150 -377 -150q-219 0 -337.5 147.5t-118.5 385.5zM743 1452 l224 213h104l-250 -213h-78z" />
<glyph unicode="&#x107;" horiz-adv-x="880" d="M86 365q0 276 162 459.5t368 183.5q143 0 248 -119l-53 -58q-84 102 -201 103q-168 0 -303 -167t-135 -390q0 -328 272 -328q125 0 254 103l43 -62q-154 -115 -307 -115q-160 0 -254 103t-94 287zM524 1167l238 279h102l-264 -279h-76z" />
<glyph unicode="&#x108;" horiz-adv-x="1105" d="M119 508q0 152 48 304.5t133 278.5t217 204.5t286 78.5q197 0 315 -190l-65 -47q-94 162 -256 161q-176 0 -315.5 -124.5t-207 -300t-67.5 -353.5q0 -211 94 -340t285 -129q162 0 319 131l47 -57q-180 -150 -377 -150q-219 0 -337.5 147.5t-118.5 385.5zM588 1450 l231 213h76l147 -213h-71l-115 152h-8l-178 -152h-82z" />
<glyph unicode="&#x109;" horiz-adv-x="880" d="M86 365q0 276 162 459.5t368 183.5q143 0 248 -119l-53 -58q-84 102 -201 103q-168 0 -303 -167t-135 -390q0 -328 272 -328q125 0 254 103l43 -62q-154 -115 -307 -115q-160 0 -254 103t-94 287zM414 1167l250 279h59l137 -279h-63l-111 201h-8l-191 -201h-73z" />
<glyph unicode="&#x10a;" horiz-adv-x="1105" d="M119 508q0 152 48 304.5t133 278.5t217 204.5t286 78.5q197 0 315 -190l-65 -47q-94 162 -256 161q-176 0 -315.5 -124.5t-207 -300t-67.5 -353.5q0 -211 94 -340t285 -129q162 0 319 131l47 -57q-180 -150 -377 -150q-219 0 -337.5 147.5t-118.5 385.5zM760 1548 q0 39 25.5 65.5t60.5 26.5q29 0 48 -20.5t19 -50.5q0 -37 -25.5 -62.5t-60.5 -25.5q-29 0 -48 18.5t-19 48.5z" />
<glyph unicode="&#x10b;" horiz-adv-x="880" d="M86 365q0 276 162 459.5t368 183.5q143 0 248 -119l-53 -58q-84 102 -201 103q-168 0 -303 -167t-135 -390q0 -328 272 -328q125 0 254 103l43 -62q-154 -115 -307 -115q-160 0 -254 103t-94 287zM586 1288q0 39 25.5 65.5t60.5 26.5q29 0 48 -19.5t19 -49.5 q0 -37 -25.5 -63.5t-60.5 -26.5q-29 0 -48 19.5t-19 47.5z" />
<glyph unicode="&#x10c;" horiz-adv-x="1105" d="M119 508q0 152 48 304.5t133 278.5t217 204.5t286 78.5q197 0 315 -190l-65 -47q-94 162 -256 161q-176 0 -315.5 -124.5t-207 -300t-67.5 -353.5q0 -211 94 -340t285 -129q162 0 319 131l47 -57q-180 -150 -377 -150q-219 0 -337.5 147.5t-118.5 385.5zM635 1665h72 l114 -152h6l179 152h81l-231 -213h-76z" />
<glyph unicode="&#x10d;" horiz-adv-x="880" d="M86 365q0 276 162 459.5t368 183.5q143 0 248 -119l-53 -58q-84 102 -201 103q-168 0 -303 -167t-135 -390q0 -328 272 -328q125 0 254 103l43 -62q-154 -115 -307 -115q-160 0 -254 103t-94 287zM473 1446h64l110 -199h8l191 199h74l-250 -279h-60z" />
<glyph unicode="&#x10e;" horiz-adv-x="1181" d="M80 0l268 1350h223q272 0 414.5 -140.5t142.5 -384.5q0 -362 -189 -593.5t-531 -231.5h-328zM180 74h230q291 0 460.5 214t169.5 531q0 211 -120.5 334t-352.5 123h-147zM559 1665h72l114 -152h9l178 152h80l-230 -213h-75z" />
<glyph unicode="&#x10f;" horiz-adv-x="1077" d="M90 330q0 279 163 478.5t372 199.5q166 0 252 -158h8l39 194l86 429h84l-297 -1473h-72l23 156h-9q-174 -180 -362 -181q-131 0 -209 92.5t-78 262.5zM176 346q0 -145 57.5 -221t161.5 -76q184 0 369 213l102 494q-100 178 -243 178q-174 0 -310.5 -182.5t-136.5 -405.5z M1133 1122l81 422h72l-18 -102l-82 -320h-53z" />
<glyph unicode="&#x110;" horiz-adv-x="1218" d="M106 684l15 59l145 5l119 602h223q272 0 414.5 -140.5t142.5 -384.5q0 -362 -189.5 -593.5t-531.5 -231.5h-327l135 684h-146zM217 74h229q291 0 461 214t170 531q0 211 -120.5 334t-352.5 123h-147l-105 -528h336l-14 -64h-336z" />
<glyph unicode="&#x111;" horiz-adv-x="1075" d="M90 330q0 252 162 444.5t369 192.5q170 0 247 -158h9l38 195l37 186h-334l15 63h334l43 220h84l-45 -220h151l-14 -55l-150 -8l-239 -1190h-72l23 156h-9q-174 -180 -362 -181q-131 0 -209 92.5t-78 262.5zM176 346q0 -145 57.5 -221t161.5 -76q185 0 369 213l94 453 q-94 178 -240 178q-170 0 -306 -174t-136 -373z" />
<glyph unicode="&#x112;" horiz-adv-x="1001" d="M80 0l268 1350h713l-17 -76h-624l-105 -520h529l-17 -76h-524l-123 -602h643l-16 -76h-727zM508 1503l14 70h445l-15 -70h-444z" />
<glyph unicode="&#x113;" horiz-adv-x="964" d="M86 381q0 268 156.5 447.5t355.5 179.5q152 0 223.5 -93.5t71.5 -255.5q0 -88 -27 -172h-686q-37 -219 49 -329.5t244 -110.5q115 0 246 96l39 -61q-147 -106 -297 -107q-174 0 -274.5 105.5t-100.5 300.5zM193 555h610q12 57 12 117q0 113 -54 188.5t-171 75.5 q-131 0 -244.5 -107.5t-152.5 -273.5zM416 1241l10 70h446l-10 -70h-446z" />
<glyph unicode="&#x114;" horiz-adv-x="1001" d="M80 0l268 1350h713l-17 -76h-624l-105 -520h529l-17 -76h-524l-123 -602h643l-16 -76h-727zM539 1665h57q-4 -63 29.5 -106t105.5 -43q68 0 116 44t73 105h61q-27 -86 -94.5 -149.5t-167.5 -63.5q-98 0 -143.5 65.5t-36.5 147.5z" />
<glyph unicode="&#x115;" horiz-adv-x="964" d="M86 381q0 268 156.5 447.5t355.5 179.5q152 0 223.5 -93.5t71.5 -255.5q0 -88 -27 -172h-686q-37 -219 49 -329.5t244 -110.5q115 0 246 96l39 -61q-147 -106 -297 -107q-174 0 -274.5 105.5t-100.5 300.5zM193 555h610q12 57 12 117q0 113 -54 188.5t-171 75.5 q-131 0 -244.5 -107.5t-152.5 -273.5zM446 1419h58q-14 -178 129 -178q72 0 127 49t82 129h63q-33 -100 -101.5 -169.5t-177 -69.5t-148.5 69.5t-32 169.5z" />
<glyph unicode="&#x116;" horiz-adv-x="1001" d="M80 0l268 1350h713l-17 -76h-624l-105 -520h529l-17 -76h-524l-123 -602h643l-16 -76h-727zM664 1548q0 39 26.5 65.5t59.5 26.5q29 0 49 -19t20 -52q0 -37 -26.5 -62.5t-59.5 -25.5q-31 0 -50 18.5t-19 48.5z" />
<glyph unicode="&#x117;" horiz-adv-x="964" d="M86 381q0 268 156.5 447.5t355.5 179.5q152 0 223.5 -93.5t71.5 -255.5q0 -88 -27 -172h-686q-37 -219 49 -329.5t244 -110.5q115 0 246 96l39 -61q-147 -106 -297 -107q-174 0 -274.5 105.5t-100.5 300.5zM193 555h610q12 57 12 117q0 113 -54 188.5t-171 75.5 q-131 0 -244.5 -107.5t-152.5 -273.5zM571 1288q0 39 26 65.5t60 26.5q29 0 48.5 -19.5t19.5 -49.5q0 -37 -25.5 -63.5t-60.5 -26.5q-29 0 -48.5 19.5t-19.5 47.5z" />
<glyph unicode="&#x118;" horiz-adv-x="1001" d="M80 0l268 1350h713l-17 -76h-624l-105 -520h529l-17 -76h-524l-123 -602h643l-16 -76q-90 -8 -167 -98t-77 -168q0 -37 21.5 -60.5t54.5 -23.5q41 0 84 24l25 -57q-63 -35 -123 -35q-63 0 -103.5 34t-40.5 95q0 78 58.5 159t132.5 130h-592z" />
<glyph unicode="&#x119;" horiz-adv-x="964" d="M86 381q0 268 156.5 447.5t355.5 179.5q152 0 223.5 -93.5t71.5 -255.5q0 -88 -27 -172h-686q-37 -219 49 -329.5t244 -110.5q115 0 246 96l39 -61q-303 -197 -303 -348q0 -37 21.5 -59.5t55.5 -22.5q41 0 84 24l23 -55q-63 -37 -123 -37q-61 0 -100 34t-39 95 q0 137 170 273q-51 -10 -86 -11q-174 0 -274.5 105.5t-100.5 300.5zM193 555h610q12 57 12 117q0 113 -54 188.5t-171 75.5q-131 0 -244.5 -107.5t-152.5 -273.5z" />
<glyph unicode="&#x11a;" horiz-adv-x="1001" d="M80 0l268 1350h713l-17 -76h-624l-105 -520h529l-17 -76h-524l-123 -602h643l-16 -76h-727zM539 1665h71l115 -152h8l178 152h80l-229 -213h-76z" />
<glyph unicode="&#x11b;" horiz-adv-x="964" d="M86 381q0 268 156.5 447.5t355.5 179.5q152 0 223.5 -93.5t71.5 -255.5q0 -88 -27 -172h-686q-37 -219 49 -329.5t244 -110.5q115 0 246 96l39 -61q-147 -106 -297 -107q-174 0 -274.5 105.5t-100.5 300.5zM193 555h610q12 57 12 117q0 113 -54 188.5t-171 75.5 q-131 0 -244.5 -107.5t-152.5 -273.5zM459 1446h63l111 -199h8l190 199h74l-250 -279h-59z" />
<glyph unicode="&#x11c;" horiz-adv-x="1177" d="M119 508q0 211 80 405.5t244.5 327.5t379.5 133q199 0 318 -190l-66 -47q-94 162 -258 161q-139 0 -258 -72.5t-193.5 -188t-116.5 -251t-42 -266.5q0 -209 97 -339t302 -130q166 0 277 103l86 432h-312l17 73h395l-113 -548q-156 -135 -360 -136q-233 0 -355 144.5 t-122 388.5zM588 1450l229 213h76l147 -213h-71l-115 152h-8l-178 -152h-80z" />
<glyph unicode="&#x11d;" horiz-adv-x="1067" d="M8 -338l47 62q133 -123 291 -123q270 0 344 346l49 221h-8q-180 -172 -356 -172q-129 0 -207 92t-78 258q0 268 161 465t361 197q168 0 252 -160h8l39 135h70l-215 -1067q-37 -184 -146.5 -286.5t-277.5 -102.5q-172 0 -334 135zM176 360q0 -141 56.5 -214.5t158.5 -73.5 q82 0 180.5 53t180.5 145l102 486q-106 178 -244 178q-164 0 -299 -180.5t-135 -393.5zM432 1167l250 279h59l138 -279h-64l-110 201h-9l-190 -201h-74z" />
<glyph unicode="&#x11e;" horiz-adv-x="1177" d="M119 508q0 211 80 405.5t244.5 327.5t379.5 133q199 0 318 -190l-66 -47q-94 162 -258 161q-139 0 -258 -72.5t-193.5 -188t-116.5 -251t-42 -266.5q0 -209 97 -339t302 -130q166 0 277 103l86 432h-312l17 73h395l-113 -548q-156 -135 -360 -136q-233 0 -355 144.5 t-122 388.5zM633 1665h57q-4 -63 30 -106t105 -43q68 0 116 44t73 105h61q-27 -86 -94.5 -149.5t-167.5 -63.5q-98 0 -142 65.5t-38 147.5z" />
<glyph unicode="&#x11f;" horiz-adv-x="1067" d="M8 -338l47 62q133 -123 291 -123q270 0 344 346l49 221h-8q-180 -172 -356 -172q-129 0 -207 92t-78 258q0 268 161 465t361 197q168 0 252 -160h8l39 135h70l-215 -1067q-37 -184 -146.5 -286.5t-277.5 -102.5q-172 0 -334 135zM176 360q0 -141 56.5 -214.5t158.5 -73.5 q82 0 180.5 53t180.5 145l102 486q-106 178 -244 178q-164 0 -299 -180.5t-135 -393.5zM479 1419h58q-14 -178 129 -178q72 0 127 49t81 129h64q-33 -100 -101.5 -169.5t-177 -69.5t-148.5 69.5t-32 169.5z" />
<glyph unicode="&#x120;" horiz-adv-x="1177" d="M119 508q0 211 80 405.5t244.5 327.5t379.5 133q199 0 318 -190l-66 -47q-94 162 -258 161q-139 0 -258 -72.5t-193.5 -188t-116.5 -251t-42 -266.5q0 -209 97 -339t302 -130q166 0 277 103l86 432h-312l17 73h395l-113 -548q-156 -135 -360 -136q-233 0 -355 144.5 t-122 388.5zM758 1548q0 39 26.5 65.5t59.5 26.5q29 0 49 -19t20 -52q0 -37 -26.5 -62.5t-59.5 -25.5q-31 0 -50 18.5t-19 48.5z" />
<glyph unicode="&#x121;" horiz-adv-x="1067" d="M8 -338l47 62q133 -123 291 -123q270 0 344 346l49 221h-8q-180 -172 -356 -172q-129 0 -207 92t-78 258q0 268 161 465t361 197q168 0 252 -160h8l39 135h70l-215 -1067q-37 -184 -146.5 -286.5t-277.5 -102.5q-172 0 -334 135zM176 360q0 -141 56.5 -214.5t158.5 -73.5 q82 0 180.5 53t180.5 145l102 486q-106 178 -244 178q-164 0 -299 -180.5t-135 -393.5zM604 1288q0 39 25.5 65.5t60.5 26.5q29 0 48.5 -19.5t19.5 -49.5q0 -37 -25.5 -63.5t-60.5 -26.5q-29 0 -48.5 19.5t-19.5 47.5z" />
<glyph unicode="&#x122;" horiz-adv-x="1177" d="M119 508q0 211 80 405.5t244.5 327.5t379.5 133q199 0 318 -190l-66 -47q-94 162 -258 161q-139 0 -258 -72.5t-193.5 -188t-116.5 -251t-42 -266.5q0 -209 97 -339t302 -130q166 0 277 103l86 432h-312l17 73h395l-113 -548q-156 -135 -360 -136q-233 0 -355 144.5 t-122 388.5zM381 -365q207 39 207 134q0 54 -84 79l28 52q125 -37 125 -119q0 -158 -268 -195z" />
<glyph unicode="&#x123;" horiz-adv-x="1067" d="M8 -338l47 62q133 -123 291 -123q270 0 344 346l49 221h-8q-180 -172 -356 -172q-129 0 -207 92t-78 258q0 268 161 465t361 197q168 0 252 -160h8l39 135h70l-215 -1067q-37 -184 -146.5 -286.5t-277.5 -102.5q-172 0 -334 135zM176 360q0 -141 56.5 -214.5t158.5 -73.5 q82 0 180.5 53t180.5 145l102 486q-106 178 -244 178q-164 0 -299 -180.5t-135 -393.5zM567 1231q0 158 269 194l8 -49q-205 -39 -205 -133q0 -35 21.5 -51.5t62.5 -30.5l-31 -51q-125 37 -125 121z" />
<glyph unicode="&#x124;" horiz-adv-x="1239" d="M80 0l268 1350h88l-121 -596h697l121 596h88l-271 -1350h-88l137 678h-696l-135 -678h-88zM549 1450l231 213h76l145 -213h-71l-115 152h-6l-178 -152h-82z" />
<glyph unicode="&#x125;" horiz-adv-x="1032" d="M82 0l295 1473h84l-111 -545l-26 -103h8q109 90 191.5 136.5t164.5 46.5q233 0 234 -240q0 -57 -17 -133l-127 -635h-84l127 623q16 94 17 127q0 182 -176 182q-139 0 -349 -207l-145 -725h-86zM195 1540l229 213h76l147 -213h-72l-114 152h-8l-179 -152h-79z" />
<glyph unicode="&#x126;" horiz-adv-x="1296" d="M104 0l203 1014h-145l14 59l143 4l56 273h88l-55 -273h696l55 273h88l-55 -273h156l-15 -63h-153l-203 -1014h-88l135 678h-694l-137 -678h-89zM342 754h696l54 260h-697z" />
<glyph unicode="&#x127;" horiz-adv-x="1032" d="M82 0l237 1190h-147l10 55l152 8l43 220h84l-45 -220h377l-15 -63h-375l-61 -303l-27 -103h9q109 90 191.5 136.5t164.5 46.5q233 0 233 -240q0 -57 -16 -133l-119 -594h-84l119 582q16 94 16 127q0 182 -176 182q-139 0 -348 -207l-137 -684h-86z" />
<glyph unicode="&#x128;" horiz-adv-x="464" d="M80 0l268 1350h88l-268 -1350h-88zM143 1466q14 72 63.5 128.5t112.5 56.5q49 0 106.5 -61.5t96.5 -61.5q68 0 109 119h57q-14 -72 -64.5 -128.5t-111.5 -56.5q-49 0 -106.5 61.5t-96.5 61.5q-69 0 -108 -119h-58z" />
<glyph unicode="&#x129;" horiz-adv-x="450" d="M82 0l199 983h84l-197 -983h-86zM119 1190q23 78 64.5 129t97.5 51q61 0 117.5 -59.5t97.5 -59.5q53 0 96 115h57q-23 -76 -64.5 -128t-97.5 -52q-61 0 -117.5 60.5t-97.5 60.5q-53 0 -96 -117h-57z" />
<glyph unicode="&#x12a;" horiz-adv-x="464" d="M80 0l268 1350h88l-268 -1350h-88zM186 1503l15 70h444l-14 -70h-445z" />
<glyph unicode="&#x12b;" horiz-adv-x="450" d="M82 0l199 983h84l-197 -983h-86zM154 1241l10 70h446l-10 -70h-446z" />
<glyph unicode="&#x12e;" horiz-adv-x="464" d="M-84 -289q0 76 54.5 155t119.5 134h-10l268 1350h88l-268 -1350q-74 -59 -123 -131t-49 -135q0 -39 21.5 -61.5t56.5 -22.5q39 0 82 24l24 -49q-55 -43 -127 -43q-61 0 -99 34t-38 95z" />
<glyph unicode="&#x12f;" horiz-adv-x="450" d="M-88 -287q0 76 56.5 156t127.5 131h-14l199 983h84l-197 -983q-178 -143 -178 -266q0 -37 21.5 -59.5t56.5 -22.5q43 0 82 24l24 -55q-63 -37 -123 -37q-61 0 -100 34t-39 95zM307 1288q0 39 25.5 65.5t60.5 26.5q29 0 48.5 -19.5t19.5 -49.5q0 -37 -25.5 -63.5 t-60.5 -26.5q-29 0 -48.5 19.5t-19.5 47.5z" />
<glyph unicode="&#x130;" horiz-adv-x="464" d="M80 0l268 1350h88l-268 -1350h-88zM342 1548q0 39 25.5 65.5t60.5 26.5q31 0 50.5 -19t19.5 -52q0 -37 -26.5 -62.5t-59.5 -25.5q-31 0 -50.5 18.5t-19.5 48.5z" />
<glyph unicode="&#x131;" horiz-adv-x="450" d="M82 0l199 983h84l-197 -983h-86z" />
<glyph unicode="&#x134;" horiz-adv-x="892" d="M2 184l68 41q55 -174 239 -174q113 0 186.5 84t102.5 227l197 988h88l-199 -998q-31 -174 -129 -275.5t-248 -101.5q-227 0 -305 209zM616 1450l232 213h76l145 -213h-72l-114 152h-6l-179 -152h-82z" />
<glyph unicode="&#x135;" horiz-adv-x="450" d="M-246 -436l33 67q41 -27 96 -26q113 0 160 205l238 1173h84l-234 -1163q-61 -289 -248 -289q-68 0 -129 33zM127 1167l250 279h59l137 -279h-65l-109 201h-8l-190 -201h-74z" />
<glyph unicode="&#x136;" horiz-adv-x="1089" d="M80 0l268 1350h88l-145 -734h4l774 734h105l-512 -498l309 -852h-92l-285 795l-328 -308l-98 -487h-88zM332 -365q207 39 207 134q0 54 -84 79l28 52q125 -37 125 -119q0 -158 -268 -195z" />
<glyph unicode="&#x137;" horiz-adv-x="915" d="M82 0l295 1473h84l-215 -1084h6l582 594h102l-385 -399l237 -584h-88l-213 528l-268 -272l-51 -256h-86zM215 -365q205 39 205 134q0 54 -84 79l31 52q125 -37 125 -119q0 -84 -77 -131t-192 -64z" />
<glyph unicode="&#x138;" horiz-adv-x="915" d="M82 0l199 983h84l-119 -594h6l582 594h102l-385 -399l237 -584h-88l-213 528l-268 -272l-51 -256h-86z" />
<glyph unicode="&#x139;" horiz-adv-x="901" d="M80 0l268 1350h88l-252 -1274h600l-16 -76h-688zM330 1452l223 213h104l-249 -213h-78z" />
<glyph unicode="&#x13a;" horiz-adv-x="475" d="M98 63q1 23 11 64l268 1346h84l-268 -1352q-4 -20 -5 -41q0 -31 29 -31q14 0 35 8l6 -67q-31 -14 -70 -15q-41 0 -65.5 22.5t-24.5 65.5zM354 1556l224 213h106l-250 -213h-80z" />
<glyph unicode="&#x13b;" horiz-adv-x="901" d="M80 0l268 1350h88l-252 -1274h600l-16 -76h-688zM240 -365q205 39 204 134q0 54 -84 79l31 52q125 -37 125 -119q0 -84 -77 -131t-191 -64z" />
<glyph unicode="&#x13c;" horiz-adv-x="475" d="M-82 -365q205 41 205 134q0 54 -84 79l31 52q125 -37 125 -119q0 -84 -77 -131t-192 -64zM98 63q1 23 11 64l268 1346h84l-268 -1352q-4 -20 -5 -41q0 -31 29 -31q14 0 35 8l6 -67q-31 -14 -70 -15q-41 0 -65.5 22.5t-24.5 65.5z" />
<glyph unicode="&#x13d;" horiz-adv-x="901" d="M80 0l268 1350h88l-252 -1274h600l-16 -76h-688zM733 1055l82 422h72l-19 -103l-82 -319h-53z" />
<glyph unicode="&#x13e;" horiz-adv-x="448" d="M98 63q1 23 11 64l268 1346h84l-268 -1352q-4 -20 -5 -41q0 -31 29 -31q14 0 35 8l6 -67q-31 -14 -70 -15q-41 0 -65.5 22.5t-24.5 65.5zM502 1122l82 422h73l-18 -102l-82 -320h-55z" />
<glyph unicode="&#x13f;" horiz-adv-x="901" d="M80 0l268 1350h88l-252 -1274h600l-16 -76h-688zM639 657q0 39 30.5 74t69.5 35q31 0 48.5 -22.5t17.5 -55.5q0 -39 -28.5 -70.5t-67.5 -31.5q-31 0 -50.5 20.5t-19.5 50.5z" />
<glyph unicode="&#x140;" horiz-adv-x="569" d="M98 63q1 23 11 64l268 1346h84l-268 -1352q-4 -20 -5 -41q0 -31 29 -31q14 0 35 8l6 -67q-31 -14 -70 -15q-41 0 -65.5 22.5t-24.5 65.5zM461 655q0 39 29.5 74t70.5 35q63 0 64 -76q0 -41 -28 -72.5t-69 -31.5q-31 0 -49 20.5t-18 50.5z" />
<glyph unicode="&#x141;" horiz-adv-x="901" d="M-6 430l16 86l191 90l147 744h88l-139 -699l426 203l-16 -86l-426 -205l-97 -487h600l-16 -76h-688l102 518z" />
<glyph unicode="&#x142;" horiz-adv-x="477" d="M86 655l16 90l148 84l129 644h84l-117 -588l166 100l-14 -90l-170 -100l-133 -674q-4 -20 -5 -41q0 -31 31 -31q12 0 33 8l6 -67q-31 -14 -70 -15q-88 0 -88 88q0 14 9 64l122 614z" />
<glyph unicode="&#x143;" horiz-adv-x="1239" d="M80 0l268 1350h94l359 -959l94 -274h8q55 346 66 397l166 836h88l-271 -1350h-90l-354 954l-98 285h-9q-35 -229 -69 -393l-166 -846h-86zM721 1452l223 213h105l-250 -213h-78z" />
<glyph unicode="&#x144;" horiz-adv-x="1044" d="M82 0l199 983h69l-22 -156h8q104 88 186 134.5t166 46.5q233 0 234 -240q0 -57 -17 -133l-127 -635h-84l127 623q16 94 17 127q0 182 -176 182q-139 0 -349 -207l-145 -725h-86zM565 1167l238 279h102l-264 -279h-76z" />
<glyph unicode="&#x145;" horiz-adv-x="1239" d="M80 0l268 1350h94l359 -959l94 -274h8q55 346 66 397l166 836h88l-271 -1350h-90l-354 954l-98 285h-9q-35 -229 -69 -393l-166 -846h-86zM324 -381q205 39 204 133q0 55 -84 80l31 51q125 -37 125 -119q0 -84 -77 -131t-191 -63z" />
<glyph unicode="&#x146;" horiz-adv-x="1044" d="M82 0l199 983h69l-22 -156h8q104 88 186 134.5t166 46.5q233 0 234 -240q0 -57 -17 -133l-127 -635h-84l127 623q16 94 17 127q0 182 -176 182q-139 0 -349 -207l-145 -725h-86zM240 -365q207 39 206 134q0 54 -86 79l31 52q125 -37 125 -119q0 -158 -268 -195z" />
<glyph unicode="&#x147;" horiz-adv-x="1239" d="M80 0l268 1350h94l359 -959l94 -274h8q55 346 66 397l166 836h88l-271 -1350h-90l-354 954l-98 285h-9q-35 -229 -69 -393l-166 -846h-86zM612 1665h72l115 -152h8l176 152h82l-229 -213h-78z" />
<glyph unicode="&#x148;" horiz-adv-x="1044" d="M82 0l199 983h69l-22 -156h8q104 88 186 134.5t166 46.5q233 0 234 -240q0 -57 -17 -133l-127 -635h-84l127 623q16 94 17 127q0 182 -176 182q-139 0 -349 -207l-145 -725h-86zM514 1446h66l108 -199h8l191 199h74l-250 -279h-60z" />
<glyph unicode="&#x149;" horiz-adv-x="1413" d="M231 1040q168 96 172 242h-8q-76 0 -76 70q0 35 24 59.5t56 24.5q37 0 59.5 -28t22.5 -75q0 -113 -60.5 -202t-162.5 -142zM457 0l196 983h72l-23 -156h9q104 88 186 134.5t164 46.5q236 0 235 -240q0 -57 -16 -133l-127 -635h-84l125 623q16 80 16 127q0 182 -174 182 q-141 0 -350 -207l-145 -725h-84z" />
<glyph unicode="&#x14c;" horiz-adv-x="1265" d="M125 537q0 195 74.5 383t225 321t341.5 133q217 0 329.5 -152.5t112.5 -408.5q0 -143 -45 -289.5t-123.5 -269.5t-204 -201t-268.5 -78q-215 0 -328.5 153t-113.5 409zM215 547q0 -229 88 -362.5t270 -133.5q164 0 293 124t191.5 293t62.5 335q0 229 -89 362t-271 133 q-164 0 -293 -123.5t-190.5 -292.5t-61.5 -335zM600 1503l14 70h445l-15 -70h-444z" />
<glyph unicode="&#x14d;" horiz-adv-x="1032" d="M90 365q0 270 156.5 456.5t361.5 186.5q154 0 244 -102.5t90 -287.5q0 -268 -156.5 -455.5t-363.5 -187.5q-152 0 -242 103.5t-90 286.5zM174 377q0 -160 66.5 -244t189.5 -84q162 0 294 168t132 391q0 160 -65.5 243t-188.5 83q-162 0 -295 -168t-133 -389zM461 1241 l12 70h447l-13 -70h-446z" />
<glyph unicode="&#x150;" horiz-adv-x="1265" d="M125 537q0 195 74.5 383t225 321t341.5 133q217 0 329.5 -152.5t112.5 -408.5q0 -143 -45 -289.5t-123.5 -269.5t-204 -201t-268.5 -78q-215 0 -328.5 153t-113.5 409zM215 547q0 -229 88 -362.5t270 -133.5q164 0 293 124t191.5 293t62.5 335q0 229 -89 362t-271 133 q-164 0 -293 -123.5t-190.5 -292.5t-61.5 -335zM629 1452l182 217h90l-203 -217h-69zM909 1452l183 217h90l-203 -217h-70z" />
<glyph unicode="&#x151;" horiz-adv-x="1032" d="M90 365q0 270 156.5 456.5t361.5 186.5q154 0 244 -102.5t90 -287.5q0 -268 -156.5 -455.5t-363.5 -187.5q-152 0 -242 103.5t-90 286.5zM174 377q0 -160 66.5 -244t189.5 -84q162 0 294 168t132 391q0 160 -65.5 243t-188.5 83q-162 0 -295 -168t-133 -389zM494 1167 l213 283h96l-240 -283h-69zM758 1167l213 283h96l-240 -283h-69z" />
<glyph unicode="&#x152;" horiz-adv-x="1650" d="M125 524q0 362 190.5 594t532.5 232h860l-16 -76h-578l-102 -520h481l-16 -76h-480l-123 -602h599l-17 -76h-772q-272 0 -415.5 140t-143.5 384zM215 530q0 -211 121 -333.5t352 -122.5h103l239 1202h-184q-291 0 -461 -214t-170 -532z" />
<glyph unicode="&#x153;" horiz-adv-x="1681" d="M90 365q0 270 155.5 456.5t360.5 186.5q131 0 214 -76t104 -217q63 135 169.5 214t219.5 79q154 0 225.5 -93.5t71.5 -255.5q0 -82 -29 -172h-651q-33 -219 44 -329.5t216 -110.5q111 0 246 96l37 -61q-145 -106 -297 -107q-133 0 -217.5 81t-104.5 233 q-70 -143 -186.5 -228.5t-247.5 -85.5q-152 0 -241 103.5t-89 286.5zM174 377q0 -160 66.5 -244t189.5 -84q160 0 292 168t132 391q0 160 -65.5 243t-188.5 83q-160 0 -293 -168t-133 -389zM944 555h576q10 66 10 117q0 113 -54.5 188.5t-170.5 75.5q-119 0 -221.5 -107.5 t-139.5 -273.5z" />
<glyph unicode="&#x154;" horiz-adv-x="1087" d="M80 0l268 1350h340q397 0 397 -297q0 -178 -118.5 -293t-311.5 -137l256 -623h-98l-250 616h-272l-123 -616h-88zM307 690h236q217 0 335.5 94.5t118.5 259.5q0 123 -85 177.5t-263 54.5h-229zM651 1452l223 213h107l-252 -213h-78z" />
<glyph unicode="&#x155;" horiz-adv-x="649" d="M82 0l199 983h69l-31 -186h9q147 211 309 211q45 0 88 -17l-33 -80q-37 16 -78 17q-80 0 -166 -74t-151 -203l-129 -651h-86zM395 1167l238 279h102l-264 -279h-76z" />
<glyph unicode="&#x156;" horiz-adv-x="1087" d="M80 0l268 1350h340q397 0 397 -297q0 -178 -118.5 -293t-311.5 -137l256 -623h-98l-250 616h-272l-123 -616h-88zM291 -381q205 39 205 133q0 55 -84 80l30 51q125 -37 125 -119q0 -84 -76.5 -131t-191.5 -63zM307 690h236q217 0 335.5 94.5t118.5 259.5q0 123 -85 177.5 t-263 54.5h-229z" />
<glyph unicode="&#x157;" horiz-adv-x="649" d="M-74 -365q205 41 205 134q0 54 -84 79l31 52q125 -37 125 -119q0 -84 -77 -131t-192 -64zM82 0l199 983h69l-31 -186h9q147 211 309 211q45 0 88 -17l-33 -80q-37 16 -78 17q-80 0 -166 -74t-151 -203l-129 -651h-86z" />
<glyph unicode="&#x158;" horiz-adv-x="1087" d="M80 0l268 1350h340q397 0 397 -297q0 -178 -118.5 -293t-311.5 -137l256 -623h-98l-250 616h-272l-123 -616h-88zM307 690h236q217 0 335.5 94.5t118.5 259.5q0 123 -85 177.5t-263 54.5h-229zM543 1665h71l115 -152h8l178 152h80l-229 -213h-76z" />
<glyph unicode="&#x159;" horiz-adv-x="649" d="M82 0l199 983h69l-31 -186h9q147 211 309 211q45 0 88 -17l-33 -80q-37 16 -78 17q-80 0 -166 -74t-151 -203l-129 -651h-86zM344 1446h66l108 -199h8l191 199h74l-250 -279h-60z" />
<glyph unicode="&#x15a;" horiz-adv-x="1009" d="M33 205l67 47q135 -201 375 -201q147 0 245.5 86t98.5 225q0 154 -174 252l-174 105q-211 125 -211 307q0 141 110.5 244.5t278.5 103.5q115 0 210 -51t155 -131l-62 -53q-123 160 -315 159q-125 0 -206 -79.5t-81 -182.5q0 -86 47 -142t131 -106l170 -98 q211 -125 211 -317q0 -176 -126 -287t-318 -111q-285 1 -432 230zM625 1450l223 213h104l-250 -213h-77z" />
<glyph unicode="&#x15b;" horiz-adv-x="796" d="M-2 158l59 45q100 -156 279 -156q102 0 177 61.5t75 145.5q0 61 -39 106.5t-150 104.5q-133 72 -186 131t-53 135q0 121 91 199t218 78q160 0 272 -119l-55 -53q-96 100 -219 100q-94 0 -159.5 -57.5t-65.5 -135.5q0 -45 28.5 -82.5t60 -58t93.5 -55.5 q147 -80 196.5 -142.5t49.5 -136.5q0 -133 -97.5 -213t-246.5 -80q-98 0 -189.5 54.5t-138.5 128.5zM416 1167l237 279h103l-264 -279h-76z" />
<glyph unicode="&#x15c;" horiz-adv-x="1009" d="M33 205l67 47q135 -201 375 -201q147 0 245.5 86t98.5 225q0 154 -174 252l-174 105q-211 125 -211 307q0 141 110.5 244.5t278.5 103.5q115 0 210 -51t155 -131l-62 -53q-123 160 -315 159q-125 0 -206 -79.5t-81 -182.5q0 -86 47 -142t131 -106l170 -98 q211 -125 211 -317q0 -176 -126 -287t-318 -111q-285 1 -432 230zM471 1450l229 213h76l148 -213h-72l-115 152h-8l-178 -152h-80z" />
<glyph unicode="&#x15d;" horiz-adv-x="796" d="M-2 158l59 45q100 -156 279 -156q102 0 177 61.5t75 145.5q0 61 -39 106.5t-150 104.5q-133 72 -186 131t-53 135q0 121 91 199t218 78q160 0 272 -119l-55 -53q-96 100 -219 100q-94 0 -159.5 -57.5t-65.5 -135.5q0 -45 28.5 -82.5t60 -58t93.5 -55.5 q147 -80 196.5 -142.5t49.5 -136.5q0 -133 -97.5 -213t-246.5 -80q-98 0 -189.5 54.5t-138.5 128.5zM307 1167l250 279h57l140 -279h-66l-110 201h-9l-188 -201h-74z" />
<glyph unicode="&#x15e;" horiz-adv-x="1009" d="M33 205l67 47q135 -201 375 -201q147 0 245.5 86t98.5 225q0 154 -174 252l-174 105q-211 125 -211 307q0 141 110.5 244.5t278.5 103.5q115 0 210 -51t155 -131l-62 -53q-123 160 -315 159q-125 0 -206 -79.5t-81 -182.5q0 -86 47 -142t131 -106l170 -98 q211 -125 211 -317q0 -174 -125 -285t-315 -113l-66 -94q92 -31 93 -112q0 -84 -74 -133.5t-189 -63.5l-8 49q199 39 199 135q0 35 -26.5 55.5t-88.5 36.5l92 132q-238 23 -368 225z" />
<glyph unicode="&#x15f;" horiz-adv-x="796" d="M-2 158l59 45q100 -156 279 -156q102 0 177 61.5t75 145.5q0 61 -39 106.5t-150 104.5q-133 72 -186 131t-53 135q0 121 91 199t218 78q160 0 272 -119l-55 -53q-96 100 -219 100q-94 0 -159.5 -57.5t-65.5 -135.5q0 -45 28.5 -82.5t60 -58t93.5 -55.5 q147 -80 196.5 -142.5t49.5 -136.5q0 -121 -81 -198.5t-212 -92.5l-68 -96q92 -31 92 -112q0 -84 -73.5 -133.5t-188.5 -63.5l-8 49q199 39 199 135q0 35 -27 55.5t-88 36.5l90 127q-92 6 -177 59.5t-130 123.5z" />
<glyph unicode="&#x160;" horiz-adv-x="1009" d="M33 205l67 47q135 -201 375 -201q147 0 245.5 86t98.5 225q0 154 -174 252l-174 105q-211 125 -211 307q0 141 110.5 244.5t278.5 103.5q115 0 210 -51t155 -131l-62 -53q-123 160 -315 159q-125 0 -206 -79.5t-81 -182.5q0 -86 47 -142t131 -106l170 -98 q211 -125 211 -317q0 -176 -126 -287t-318 -111q-285 1 -432 230zM516 1663h72l114 -152h9l176 152h82l-230 -213h-77z" />
<glyph unicode="&#x161;" horiz-adv-x="796" d="M-2 158l59 45q100 -156 279 -156q102 0 177 61.5t75 145.5q0 61 -39 106.5t-150 104.5q-133 72 -186 131t-53 135q0 121 91 199t218 78q160 0 272 -119l-55 -53q-96 100 -219 100q-94 0 -159.5 -57.5t-65.5 -135.5q0 -45 28.5 -82.5t60 -58t93.5 -55.5 q147 -80 196.5 -142.5t49.5 -136.5q0 -133 -97.5 -213t-246.5 -80q-98 0 -189.5 54.5t-138.5 128.5zM365 1446h65l109 -199h8l190 199h74l-250 -279h-59z" />
<glyph unicode="&#x162;" horiz-adv-x="1017" d="M162 -379q199 39 198 135q0 37 -26.5 56.5t-89.5 35.5l110 156h6l254 1266h-413l16 80h916l-17 -80h-414l-253 -1270h-25l-86 -119q94 -31 94 -112q0 -84 -74.5 -132.5t-187.5 -64.5z" />
<glyph unicode="&#x163;" horiz-adv-x="612" d="M121 -379q199 39 198 135q0 37 -26.5 56.5t-89.5 35.5l94 134q-147 29 -147 188q0 29 8 98l133 641h-154l13 66l159 8l68 281h72l-58 -281h266l-16 -74h-266l-133 -645q-8 -49 -9 -78q0 -70 31 -103.5t109 -33.5q49 0 119 35l22 -64q-76 -43 -152 -45l-65 -94 q94 -31 94 -112q0 -84 -74.5 -132.5t-187.5 -64.5z" />
<glyph unicode="&#x164;" horiz-adv-x="1017" d="M201 1270l16 80h916l-17 -80h-414l-253 -1270h-89l254 1270h-413zM487 1665h72l115 -152h8l178 152h80l-229 -213h-76z" />
<glyph unicode="&#x165;" horiz-adv-x="612" d="M137 909l13 66l159 8l68 281h72l-58 -281h266l-16 -74h-266l-133 -645q-8 -49 -9 -78q0 -70 31 -103.5t109 -33.5q49 0 119 35l22 -64q-86 -45 -158 -45q-109 0 -157.5 54.5t-48.5 140.5q0 28 8 98l133 641h-154zM623 1122l82 422h71l-18 -102l-82 -320h-53z" />
<glyph unicode="&#x168;" horiz-adv-x="1228" d="M166 377q0 76 18 174l160 799h88l-158 -791q-20 -80 -20 -166q0 -164 79 -253t234 -89q137 0 241.5 107.5t149.5 337.5l170 854h89l-175 -867q-53 -266 -181 -387t-302 -121q-186 0 -289.5 104.5t-103.5 297.5zM535 1466q14 72 63 128.5t113 56.5q47 0 105 -61.5 t97 -61.5q68 0 107 119h57q-14 -72 -63 -128.5t-111 -56.5q-49 0 -106.5 61.5t-96.5 61.5q-69 0 -108 -119h-57z" />
<glyph unicode="&#x169;" horiz-adv-x="1060" d="M135 215q0 59 17 133l127 635h83l-124 -623q-16 -80 -17 -127q0 -182 174 -182q139 0 348 207l146 725h84l-197 -983h-69l20 160h-8q-104 -90 -185 -137.5t-163 -47.5q-236 0 -236 240zM408 1190q23 78 64.5 129t96.5 51q61 0 117.5 -59.5t97.5 -59.5q53 0 97 115h57 q-23 -76 -65 -128t-97 -52q-61 0 -117.5 60.5t-97.5 60.5q-53 0 -96 -117h-57z" />
<glyph unicode="&#x16a;" horiz-adv-x="1228" d="M166 377q0 76 18 174l160 799h88l-158 -791q-20 -80 -20 -166q0 -164 79 -253t234 -89q137 0 241.5 107.5t149.5 337.5l170 854h89l-175 -867q-53 -266 -181 -387t-302 -121q-186 0 -289.5 104.5t-103.5 297.5zM575 1503l17 70h444l-16 -70h-445z" />
<glyph unicode="&#x16b;" horiz-adv-x="1060" d="M135 215q0 59 17 133l127 635h83l-124 -623q-16 -80 -17 -127q0 -182 174 -182q139 0 348 207l146 725h84l-197 -983h-69l20 160h-8q-104 -90 -185 -137.5t-163 -47.5q-236 0 -236 240zM442 1241l11 70h448l-12 -70h-447z" />
<glyph unicode="&#x16c;" horiz-adv-x="1228" d="M166 377q0 76 18 174l160 799h88l-158 -791q-20 -80 -20 -166q0 -164 79 -253t234 -89q137 0 241.5 107.5t149.5 337.5l170 854h89l-175 -867q-53 -266 -181 -387t-302 -121q-186 0 -289.5 104.5t-103.5 297.5zM608 1665h58q-4 -63 29.5 -106t103.5 -43q68 0 117 44 t71 105h64q-27 -86 -94.5 -149.5t-168 -63.5t-144.5 65.5t-36 147.5z" />
<glyph unicode="&#x16d;" horiz-adv-x="1060" d="M135 215q0 59 17 133l127 635h83l-124 -623q-16 -80 -17 -127q0 -182 174 -182q139 0 348 207l146 725h84l-197 -983h-69l20 160h-8q-104 -90 -185 -137.5t-163 -47.5q-236 0 -236 240zM473 1419h57q-14 -178 132 -178q72 0 126 49t80 129h64q-33 -100 -101.5 -169.5 t-177 -69.5t-148.5 69.5t-32 169.5z" />
<glyph unicode="&#x16e;" horiz-adv-x="1228" d="M166 377q0 76 18 174l160 799h88l-158 -791q-20 -80 -20 -166q0 -164 79 -253t234 -89q137 0 241.5 107.5t149.5 337.5l170 854h89l-175 -867q-53 -266 -181 -387t-302 -121q-186 0 -289.5 104.5t-103.5 297.5zM647 1583q0 78 55.5 134.5t128.5 56.5q66 0 108 -40 t42 -116q0 -78 -54 -133t-128 -55q-68 0 -110 38.5t-42 114.5zM707 1589q0 -51 25.5 -78.5t70.5 -27.5q49 0 84 38t35 93q0 49 -25 77.5t-70 28.5q-49 0 -84.5 -37.5t-35.5 -93.5z" />
<glyph unicode="&#x16f;" horiz-adv-x="1060" d="M135 215q0 59 17 133l127 635h83l-124 -623q-16 -80 -17 -127q0 -182 174 -182q139 0 348 207l146 725h84l-197 -983h-69l20 160h-8q-104 -90 -185 -137.5t-163 -47.5q-236 0 -236 240zM506 1255q0 80 54 138.5t128 58.5q68 0 110 -41t42 -117q0 -80 -54.5 -138 t-130.5 -58q-68 0 -108.5 41t-40.5 116zM565 1260q0 -49 25.5 -80t68.5 -31q47 0 83 42t36 99q0 49 -25.5 80t-68.5 31q-47 0 -83 -42t-36 -99z" />
<glyph unicode="&#x170;" horiz-adv-x="1228" d="M166 377q0 76 18 174l160 799h88l-158 -791q-20 -80 -20 -166q0 -164 79 -253t234 -89q137 0 241.5 107.5t149.5 337.5l170 854h89l-175 -867q-53 -266 -181 -387t-302 -121q-186 0 -289.5 104.5t-103.5 297.5zM606 1452l182 217h91l-203 -217h-70zM885 1452l184 217h90 l-205 -217h-69z" />
<glyph unicode="&#x171;" horiz-adv-x="1060" d="M135 215q0 59 17 133l127 635h83l-124 -623q-16 -80 -17 -127q0 -182 174 -182q139 0 348 207l146 725h84l-197 -983h-69l20 160h-8q-104 -90 -185 -137.5t-163 -47.5q-236 0 -236 240zM475 1167l213 283h96l-239 -283h-70zM739 1167l213 283h95l-238 -283h-70z" />
<glyph unicode="&#x172;" horiz-adv-x="1228" d="M166 377q0 76 18 174l160 799h88l-158 -791q-20 -80 -20 -166q0 -164 79 -253t234 -89q137 0 241.5 107.5t149.5 337.5l170 854h89l-175 -867q-45 -221 -137 -334.5t-246 -164.5q-115 -37 -175 -110t-60 -140q0 -37 21.5 -60.5t54.5 -23.5q41 0 82 24l24 -57 q-59 -35 -122.5 -35t-102.5 33t-39 96q0 66 49 139.5t121 126.5q-168 16 -257 119t-89 281z" />
<glyph unicode="&#x173;" horiz-adv-x="1060" d="M135 215q0 59 17 133l127 635h83l-124 -623q-16 -80 -17 -127q0 -182 174 -182q139 0 348 207l146 725h84l-197 -983q-231 -127 -231 -266q0 -37 21.5 -59.5t56.5 -22.5q41 0 84 24l22 -55q-63 -37 -123 -37q-61 0 -100 34t-39 95q0 84 70.5 168t171.5 137l18 142h-8 q-104 -90 -185 -137.5t-163 -47.5q-236 0 -236 240z" />
<glyph unicode="&#x174;" horiz-adv-x="1503" d="M217 0l2 1350h88l-4 -797q-4 -82 -5 -232.5t-3 -209.5h8q168 369 201 442l370 797h91l26 -797q9 -221 13 -442h8q89 221 184 442l330 797h90l-576 -1350h-110l-29 928v317h-8q-4 -10 -137 -317l-428 -928h-111zM690 1452l232 213h75l146 -213h-72l-115 152h-6l-178 -152 h-82z" />
<glyph unicode="&#x175;" horiz-adv-x="1398" d="M141 983h84l49 -643q8 -90 21 -266h8q23 49 63 139t56 127l295 643h102l45 -643q2 -47 7.5 -135t7.5 -131h8q94 211 121 266l299 643h82l-463 -983h-115l-41 612q-2 39 -6 140.5t-8 152.5h-8q-16 -39 -59.5 -140t-67.5 -153l-281 -612h-115zM604 1167l250 279h59 l138 -279h-66l-108 201h-9l-190 -201h-74z" />
<glyph unicode="&#x176;" horiz-adv-x="886" d="M174 1350h90l113 -426q14 -53 38.5 -150.5t37.5 -140.5h8q33 47 97.5 145.5t96.5 145.5l295 426h94l-559 -801l-110 -549h-88l110 549zM375 1452l229 213h76l147 -213h-71l-115 152h-8l-178 -152h-80z" />
<glyph unicode="&#x177;" horiz-adv-x="858" d="M-160 -424l33 68q35 -18 70 -19q166 0 301 275l43 86l-166 997h84l96 -616q31 -199 41 -293h8q131 252 154 293l332 616h86l-607 -1104q-78 -150 -167 -239t-211 -89q-47 0 -97 25zM311 1167l250 279h60l137 -279h-66l-108 201h-9l-190 -201h-74z" />
<glyph unicode="&#x178;" horiz-adv-x="886" d="M174 1350h90l113 -426q14 -53 38.5 -150.5t37.5 -140.5h8q33 47 97.5 145.5t96.5 145.5l295 426h94l-559 -801l-110 -549h-88l110 549zM399 1542q0 37 22.5 61.5t53.5 24.5q59 0 60 -63q0 -35 -22.5 -59.5t-53.5 -24.5q-59 0 -60 61zM709 1542q0 37 22.5 61.5t52.5 24.5 q61 0 62 -63q0 -33 -23.5 -58.5t-52.5 -25.5q-61 0 -61 61z" />
<glyph unicode="&#x179;" horiz-adv-x="1034" d="M2 0l12 53l953 1221h-666l16 76h770l-10 -54l-948 -1220h735l-16 -76h-846zM627 1452l223 213h104l-249 -213h-78z" />
<glyph unicode="&#x17a;" horiz-adv-x="804" d="M-47 0l8 51l735 858h-501l16 74h608l-8 -51l-733 -858h575l-14 -74h-686zM418 1167l237 279h103l-264 -279h-76z" />
<glyph unicode="&#x17b;" horiz-adv-x="1034" d="M2 0l12 53l953 1221h-666l16 76h770l-10 -54l-948 -1220h735l-16 -76h-846zM643 1548q0 39 25.5 65.5t60.5 26.5q29 0 49.5 -19t20.5 -52q0 -37 -26.5 -62.5t-59.5 -25.5q-31 0 -50.5 18.5t-19.5 48.5z" />
<glyph unicode="&#x17c;" horiz-adv-x="804" d="M-47 0l8 51l735 858h-501l16 74h608l-8 -51l-733 -858h575l-14 -74h-686zM479 1288q0 39 26.5 65.5t59.5 26.5q31 0 50.5 -19.5t19.5 -49.5q0 -37 -26.5 -63.5t-59.5 -26.5q-29 0 -49.5 19.5t-20.5 47.5z" />
<glyph unicode="&#x17d;" horiz-adv-x="1034" d="M2 0l12 53l953 1221h-666l16 76h770l-10 -54l-948 -1220h735l-16 -76h-846zM518 1665h72l115 -152h8l176 152h82l-230 -213h-77z" />
<glyph unicode="&#x17e;" horiz-adv-x="804" d="M-47 0l8 51l735 858h-501l16 74h608l-8 -51l-733 -858h575l-14 -74h-686zM367 1446h65l111 -199h8l188 199h74l-250 -279h-57z" />
<glyph unicode="&#x18f;" horiz-adv-x="1263" d="M127 467q0 86 25 205h962q8 55 8 129q0 500 -346 499q-180 0 -334 -143l-47 60q170 160 389 159q213 0 319.5 -150.5t106.5 -410.5q0 -360 -194.5 -600t-472.5 -240q-195 0 -305.5 137.5t-110.5 354.5zM217 600q-35 -254 56.5 -401.5t275.5 -147.5q199 0 351.5 152.5 t201.5 396.5h-885z" />
<glyph unicode="&#x192;" d="M-113 -158l35 68q52 -37 111 -37q164 0 262 324l172 557h-188l16 67l133 4h59l52 164q53 176 139 281.5t203 105.5q76 0 155 -45l-32 -67q-68 39 -127 39q-152 0 -252 -322l-47 -156h266l-17 -71h-272l-178 -578q-119 -377 -344 -377q-82 0 -146 43z" />
<glyph unicode="&#x1a0;" horiz-adv-x="1265" d="M125 537q0 195 74.5 383t225 321t341.5 133q137 0 238 -65q94 4 156.5 46t62.5 109q-1 35 -9 64l72 28q18 -45 19 -79q0 -82 -64.5 -143.5t-171.5 -80.5q139 -152 139 -440q0 -143 -45 -289.5t-123.5 -269.5t-203.5 -201t-269 -78q-215 0 -328.5 153t-113.5 409zM215 547 q0 -229 88 -362.5t270 -133.5q164 0 293 124t191.5 293t62.5 335q0 229 -89 362t-271 133q-164 0 -293 -123.5t-190.5 -292.5t-61.5 -335z" />
<glyph unicode="&#x1a1;" horiz-adv-x="1034" d="M90 365q0 270 156.5 456.5t361.5 186.5q98 0 176 -45q92 4 152.5 45t60.5 110q0 29 -10 62l72 30q18 -39 18 -80q0 -82 -60.5 -142t-170.5 -77q96 -106 96 -293q0 -268 -156.5 -455.5t-363.5 -187.5q-152 0 -242 103.5t-90 286.5zM174 377q0 -160 66.5 -244t189.5 -84 q162 0 294 168t132 391q0 160 -65.5 243t-188.5 83q-162 0 -295 -168t-133 -389z" />
<glyph unicode="&#x1af;" horiz-adv-x="1245" d="M166 377q0 76 18 174l160 799h88l-158 -791q-20 -80 -20 -166q0 -164 79 -253t234 -89q137 0 241.5 107.5t149.5 337.5l170 854h23q90 2 154.5 45t64.5 108q0 29 -10 64l72 30q18 -39 18 -79q0 -82 -64.5 -144.5t-179.5 -79.5l-164 -811q-53 -266 -181 -387t-302 -121 q-186 0 -289.5 104.5t-103.5 297.5z" />
<glyph unicode="&#x1b0;" horiz-adv-x="1083" d="M135 215q0 59 17 133l127 635h83l-124 -623q-16 -80 -17 -127q0 -182 174 -182q139 0 348 207l146 725h18q78 10 135.5 51t57.5 105q0 34 -8 61l71 31q16 -41 17 -80q0 -80 -61.5 -141.5t-155.5 -77.5l-187 -932h-69l20 160h-8q-104 -90 -185 -137.5t-163 -47.5 q-236 0 -236 240z" />
<glyph unicode="&#x1cd;" horiz-adv-x="999" d="M-98 0l743 1350h96l166 -1350h-88l-53 469h-514l-252 -469h-98zM291 541h467l-31 260q-6 61 -22.5 217t-24.5 244h-8q-66 -133 -242 -461zM506 1665h72l114 -152h8l177 152h81l-229 -213h-78z" />
<glyph unicode="&#x1ce;" horiz-adv-x="1079" d="M90 330q0 279 163 478.5t372 199.5q166 0 254 -160h6l39 135h69l-196 -983h-72l23 156h-9q-174 -180 -362 -181q-131 0 -209 92.5t-78 262.5zM176 346q0 -145 57.5 -221t161.5 -76q184 0 369 213l102 494q-100 178 -243 178q-174 0 -310.5 -182.5t-136.5 -405.5z M496 1446h65l111 -199h8l188 199h76l-250 -279h-59z" />
<glyph unicode="&#x1cf;" horiz-adv-x="464" d="M80 0l268 1350h88l-268 -1350h-88zM217 1665h72l114 -152h9l176 152h82l-230 -213h-78z" />
<glyph unicode="&#x1d0;" horiz-adv-x="450" d="M82 0l199 983h84l-197 -983h-86zM197 1446h63l111 -199h8l190 199h74l-250 -279h-59z" />
<glyph unicode="&#x1d1;" horiz-adv-x="1265" d="M125 537q0 195 74.5 383t225 321t341.5 133q217 0 329.5 -152.5t112.5 -408.5q0 -143 -45 -289.5t-123.5 -269.5t-204 -201t-268.5 -78q-215 0 -328.5 153t-113.5 409zM215 547q0 -229 88 -362.5t270 -133.5q164 0 293 124t191.5 293t62.5 335q0 229 -89 362t-271 133 q-164 0 -293 -123.5t-190.5 -292.5t-61.5 -335zM631 1665h71l115 -152h8l179 152h79l-229 -213h-76z" />
<glyph unicode="&#x1d2;" horiz-adv-x="1032" d="M90 365q0 270 156.5 456.5t361.5 186.5q154 0 244 -102.5t90 -287.5q0 -268 -156.5 -455.5t-363.5 -187.5q-152 0 -242 103.5t-90 286.5zM174 377q0 -160 66.5 -244t189.5 -84q162 0 294 168t132 391q0 160 -65.5 243t-188.5 83q-162 0 -295 -168t-133 -389zM504 1446h65 l109 -199h8l191 199h73l-250 -279h-59z" />
<glyph unicode="&#x1d3;" horiz-adv-x="1228" d="M166 377q0 76 18 174l160 799h88l-158 -791q-20 -80 -20 -166q0 -164 79 -253t234 -89q137 0 241.5 107.5t149.5 337.5l170 854h89l-175 -867q-53 -266 -181 -387t-302 -121q-186 0 -289.5 104.5t-103.5 297.5zM608 1665h72l115 -152h6l178 152h82l-232 -213h-75z" />
<glyph unicode="&#x1d4;" horiz-adv-x="1060" d="M135 215q0 59 17 133l127 635h83l-124 -623q-16 -80 -17 -127q0 -182 174 -182q139 0 348 207l146 725h84l-197 -983h-69l20 160h-8q-104 -90 -185 -137.5t-163 -47.5q-236 0 -236 240zM485 1446h66l108 -199h9l190 199h74l-250 -279h-59z" />
<glyph unicode="&#x1d5;" horiz-adv-x="1228" d="M166 377q0 76 18 174l160 799h88l-158 -791q-20 -80 -20 -166q0 -164 79 -253t234 -89q137 0 241.5 107.5t149.5 337.5l170 854h89l-175 -867q-53 -266 -181 -387t-302 -121q-186 0 -289.5 104.5t-103.5 297.5zM598 1544q0 33 21.5 58.5t54.5 25.5q27 0 43 -17.5 t16 -43.5q0 -35 -21.5 -60.5t-54.5 -25.5q-59 0 -59 63zM631 1749l14 63h445l-15 -63h-444zM905 1544q0 31 24.5 57.5t57.5 26.5q25 0 42.5 -17.5t17.5 -43.5q0 -35 -23.5 -60.5t-58.5 -25.5q-25 0 -42.5 17.5t-17.5 45.5z" />
<glyph unicode="&#x1d6;" horiz-adv-x="1060" d="M135 215q0 59 17 133l127 635h83l-124 -623q-16 -80 -17 -127q0 -182 174 -182q139 0 348 207l146 725h84l-197 -983h-69l20 160h-8q-104 -90 -185 -137.5t-163 -47.5q-236 0 -236 240zM457 1284q0 37 22.5 61.5t50.5 24.5q59 0 60 -61q0 -35 -22.5 -59.5t-51.5 -24.5 q-27 0 -43 16t-16 43zM504 1526l14 63h445l-15 -63h-444zM766 1284q0 37 22.5 61.5t53.5 24.5q57 0 57 -61q0 -35 -22.5 -59.5t-51.5 -24.5q-27 0 -43 16t-16 43z" />
<glyph unicode="&#x1d7;" horiz-adv-x="1228" d="M166 377q0 76 18 174l160 799h88l-158 -791q-20 -80 -20 -166q0 -164 79 -253t234 -89q137 0 241.5 107.5t149.5 337.5l170 854h89l-175 -867q-53 -266 -181 -387t-302 -121q-186 0 -289.5 104.5t-103.5 297.5zM586 1544q0 31 24.5 57.5t57.5 26.5q25 0 42 -17.5 t17 -43.5q0 -35 -23.5 -60.5t-58.5 -25.5q-27 0 -43 17.5t-16 45.5zM768 1698l223 213h103l-248 -213h-78zM899 1544q0 33 22.5 58.5t57.5 25.5q25 0 42 -17.5t17 -43.5q0 -35 -23.5 -60.5t-56.5 -25.5q-59 0 -59 63z" />
<glyph unicode="&#x1d8;" horiz-adv-x="1060" d="M135 215q0 59 17 133l127 635h83l-124 -623q-16 -80 -17 -127q0 -182 174 -182q139 0 348 207l146 725h84l-197 -983h-69l20 160h-8q-104 -90 -185 -137.5t-163 -47.5q-236 0 -236 240zM457 1284q0 37 22.5 61.5t50.5 24.5q59 0 60 -61q0 -35 -22.5 -59.5t-51.5 -24.5 q-27 0 -43 16t-16 43zM635 1452l180 197h98l-204 -197h-74zM766 1284q0 37 22.5 61.5t53.5 24.5q57 0 57 -61q0 -35 -22.5 -59.5t-51.5 -24.5q-27 0 -43 16t-16 43z" />
<glyph unicode="&#x1d9;" horiz-adv-x="1228" d="M166 377q0 76 18 174l160 799h88l-158 -791q-20 -80 -20 -166q0 -164 79 -253t234 -89q137 0 241.5 107.5t149.5 337.5l170 854h89l-175 -867q-53 -266 -181 -387t-302 -121q-186 0 -289.5 104.5t-103.5 297.5zM586 1544q0 31 24.5 57.5t57.5 26.5q25 0 42 -17.5 t17 -43.5q0 -35 -23.5 -60.5t-58.5 -25.5q-27 0 -43 17.5t-16 45.5zM655 1911h74l113 -152h8l178 152h80l-229 -213h-76zM899 1544q0 33 22.5 58.5t57.5 25.5q25 0 42 -17.5t17 -43.5q0 -35 -23.5 -60.5t-56.5 -25.5q-59 0 -59 63z" />
<glyph unicode="&#x1da;" horiz-adv-x="1060" d="M135 215q0 59 17 133l127 635h83l-124 -623q-16 -80 -17 -127q0 -182 174 -182q139 0 348 207l146 725h84l-197 -983h-69l20 160h-8q-104 -90 -185 -137.5t-163 -47.5q-236 0 -236 240zM457 1284q0 37 22.5 61.5t50.5 24.5q59 0 60 -61q0 -35 -22.5 -59.5t-51.5 -24.5 q-27 0 -43 16t-16 43zM532 1649h64l125 -133h8l162 133h74l-215 -197h-64zM766 1284q0 37 22.5 61.5t53.5 24.5q57 0 57 -61q0 -35 -22.5 -59.5t-51.5 -24.5q-27 0 -43 16t-16 43z" />
<glyph unicode="&#x1db;" horiz-adv-x="1228" d="M166 377q0 76 18 174l160 799h88l-158 -791q-20 -80 -20 -166q0 -164 79 -253t234 -89q137 0 241.5 107.5t149.5 337.5l170 854h89l-175 -867q-53 -266 -181 -387t-302 -121q-186 0 -289.5 104.5t-103.5 297.5zM586 1544q0 31 24.5 57.5t57.5 26.5q25 0 42 -17.5 t17 -43.5q0 -35 -23.5 -60.5t-58.5 -25.5q-27 0 -43 17.5t-16 45.5zM668 1911h94l158 -213h-74zM899 1544q0 33 22.5 58.5t57.5 25.5q25 0 42 -17.5t17 -43.5q0 -35 -23.5 -60.5t-56.5 -25.5q-59 0 -59 63z" />
<glyph unicode="&#x1dc;" horiz-adv-x="1060" d="M135 215q0 59 17 133l127 635h83l-124 -623q-16 -80 -17 -127q0 -182 174 -182q139 0 348 207l146 725h84l-197 -983h-69l20 160h-8q-104 -90 -185 -137.5t-163 -47.5q-236 0 -236 240zM457 1284q0 37 22.5 61.5t50.5 24.5q59 0 60 -61q0 -35 -22.5 -59.5t-51.5 -24.5 q-27 0 -43 16t-16 43zM565 1649h90l123 -197h-63zM766 1284q0 37 22.5 61.5t53.5 24.5q57 0 57 -61q0 -35 -22.5 -59.5t-51.5 -24.5q-27 0 -43 16t-16 43z" />
<glyph unicode="&#x1e6;" horiz-adv-x="1177" d="M119 508q0 211 80 405.5t244.5 327.5t379.5 133q199 0 318 -190l-66 -47q-94 162 -258 161q-139 0 -258 -72.5t-193.5 -188t-116.5 -251t-42 -266.5q0 -209 97 -339t302 -130q166 0 277 103l86 432h-312l17 73h395l-113 -548q-156 -135 -360 -136q-233 0 -355 144.5 t-122 388.5zM633 1665h72l114 -152h8l179 152h79l-229 -213h-76z" />
<glyph unicode="&#x1e7;" horiz-adv-x="1067" d="M8 -338l47 62q133 -123 291 -123q270 0 344 346l49 221h-8q-180 -172 -356 -172q-129 0 -207 92t-78 258q0 268 161 465t361 197q168 0 252 -160h8l39 135h70l-215 -1067q-37 -184 -146.5 -286.5t-277.5 -102.5q-172 0 -334 135zM176 360q0 -141 56.5 -214.5t158.5 -73.5 q82 0 180.5 53t180.5 145l102 486q-106 178 -244 178q-164 0 -299 -180.5t-135 -393.5zM492 1446h63l111 -199h8l190 199h74l-250 -279h-59z" />
<glyph unicode="&#x1ea;" horiz-adv-x="1265" d="M125 537q0 195 74.5 383t225 321t341.5 133q217 0 329.5 -152.5t112.5 -408.5q0 -268 -135 -505.5t-364 -311.5q-127 -43 -191.5 -116t-64.5 -146q0 -37 21.5 -60.5t53.5 -23.5q41 0 82 24l25 -57q-59 -35 -122.5 -35t-102.5 33t-39 96q0 76 55 153t115 111 q-201 12 -308.5 162t-107.5 400zM215 547q0 -229 88 -362.5t270 -133.5q164 0 293 124t191.5 293t62.5 335q0 229 -89 362t-271 133q-164 0 -293 -123.5t-190.5 -292.5t-61.5 -335z" />
<glyph unicode="&#x1eb;" horiz-adv-x="1032" d="M90 365q0 270 156.5 456.5t361.5 186.5q154 0 244 -102.5t90 -287.5q0 -223 -107.5 -385.5t-293.5 -244.5q-102 -43 -164 -117t-62 -137q0 -37 21.5 -59.5t56.5 -22.5q41 0 84 24l23 -55q-63 -37 -123 -37q-61 0 -100 34t-39 95q0 78 54 154t118 110q-152 8 -236 107.5 t-84 280.5zM174 377q0 -160 66.5 -244t189.5 -84q162 0 294 168t132 391q0 160 -65.5 243t-188.5 83q-162 0 -295 -168t-133 -389z" />
<glyph unicode="&#x218;" horiz-adv-x="1009" d="M33 205l67 47q135 -201 375 -201q147 0 245.5 86t98.5 225q0 154 -174 252l-174 105q-211 125 -211 307q0 141 110.5 244.5t278.5 103.5q115 0 210 -51t155 -131l-62 -53q-123 160 -315 159q-125 0 -206 -79.5t-81 -182.5q0 -86 47 -142t131 -106l170 -98 q211 -125 211 -317q0 -176 -126 -287t-318 -111q-285 1 -432 230zM227 -381q205 41 205 133q0 55 -84 80l31 51q125 -37 125 -119q0 -84 -77 -131t-191 -63z" />
<glyph unicode="&#x219;" horiz-adv-x="796" d="M-2 158l59 45q100 -156 279 -156q102 0 177 61.5t75 145.5q0 61 -39 106.5t-150 104.5q-133 72 -186 131t-53 135q0 121 91 199t218 78q160 0 272 -119l-55 -53q-96 100 -219 100q-94 0 -159.5 -57.5t-65.5 -135.5q0 -45 28.5 -82.5t60 -58t93.5 -55.5 q147 -80 196.5 -142.5t49.5 -136.5q0 -133 -97.5 -213t-246.5 -80q-98 0 -189.5 54.5t-138.5 128.5zM133 -365q205 41 205 134q0 54 -84 79l31 52q125 -37 125 -119q0 -84 -77 -131t-192 -64z" />
<glyph unicode="&#x21a;" horiz-adv-x="1017" d="M201 1270l16 80h916l-17 -80h-414l-253 -1270h-89l254 1270h-413zM203 -365q205 41 205 134q0 54 -84 79l30 52q125 -37 125 -119q0 -84 -76.5 -131t-191.5 -64z" />
<glyph unicode="&#x21b;" horiz-adv-x="612" d="M98 -365q207 39 207 134q0 54 -86 79l31 52q125 -37 125 -119q0 -158 -269 -195zM137 909l13 66l159 8l68 281h72l-58 -281h266l-16 -74h-266l-133 -645q-8 -49 -9 -78q0 -70 31 -103.5t109 -33.5q49 0 119 35l22 -64q-86 -45 -158 -45q-109 0 -157.5 54.5t-48.5 140.5 q0 28 8 98l133 641h-154z" />
<glyph unicode="&#x237;" horiz-adv-x="450" d="M-246 -436l33 67q41 -27 96 -26q113 0 160 205l238 1173h84l-234 -1163q-61 -289 -248 -289q-68 0 -129 33z" />
<glyph unicode="&#x251;" horiz-adv-x="1079" d="M90 330q0 279 163 478.5t372 199.5q166 0 254 -160h6l39 135h69l-196 -983h-72l23 156h-9q-174 -180 -362 -181q-131 0 -209 92.5t-78 262.5zM176 346q0 -145 57.5 -221t161.5 -76q184 0 369 213l102 494q-100 178 -243 178q-174 0 -310.5 -182.5t-136.5 -405.5z" />
<glyph unicode="&#x259;" horiz-adv-x="960" d="M63 324q0 86 31 194h686q27 186 -43.5 302t-210.5 116q-106 0 -254 -80l-30 66q164 86 297 86q154 0 242.5 -105.5t88.5 -300.5q0 -268 -157.5 -447.5t-354.5 -179.5q-152 0 -223.5 94.5t-71.5 254.5zM141 311q0 -115 52.5 -188.5t173.5 -73.5q133 0 245.5 110t153.5 292 h-608q-16 -57 -17 -140z" />
<glyph unicode="&#x261;" horiz-adv-x="1067" d="M8 -338l47 62q133 -123 291 -123q270 0 344 346l49 221h-8q-180 -172 -356 -172q-129 0 -207 92t-78 258q0 268 161 465t361 197q168 0 252 -160h8l39 135h70l-215 -1067q-37 -184 -146.5 -286.5t-277.5 -102.5q-172 0 -334 135zM176 360q0 -141 56.5 -214.5t158.5 -73.5 q82 0 180.5 53t180.5 145l102 486q-106 178 -244 178q-164 0 -299 -180.5t-135 -393.5z" />
<glyph unicode="&#x2b0;" horiz-adv-x="704" d="M125 532l192 969h72l-51 -264l-35 -150h8q135 113 232 113q154 0 153 -162q0 -35 -12 -88l-84 -418h-70l82 408q10 61 11 80q0 117 -97 117q-100 0 -235 -138l-94 -467h-72z" />
<glyph unicode="&#x2b2;" horiz-adv-x="315" d="M-100 254l28 53q41 -20 70 -20q78 0 106 131l150 766h70l-150 -768q-35 -190 -178 -191q-43 0 -96 29zM270 1386q0 27 19.5 47.5t46.5 20.5q23 0 38 -15.5t15 -39.5q0 -29 -19 -48.5t-46 -19.5q-23 0 -38.5 15.5t-15.5 39.5z" />
<glyph unicode="&#x2b3;" horiz-adv-x="421" d="M125 532l129 652h59l-16 -105h8q88 121 193 121q18 0 45 -10l-27 -70q-16 8 -39 8q-98 0 -192 -153l-88 -443h-72z" />
<glyph unicode="&#x2b7;" horiz-adv-x="950" d="M160 1184h71l35 -406l15 -184h8l80 184l194 406h76l35 -406l18 -184h8l84 184l191 406h69l-311 -652h-98l-37 386l-10 184h-4l-84 -189l-183 -381h-92z" />
<glyph unicode="&#x2b8;" horiz-adv-x="591" d="M-35 250l29 53q32 -16 57 -16q98 0 203 190l20 47l-127 660h72l72 -398l28 -186h9l94 186l211 398h74l-388 -717q-31 -55 -50 -87t-53 -74t-76 -61.5t-91 -19.5q-37 0 -84 25z" />
<glyph unicode="&#x2bb;" horiz-adv-x="436" d="M240 1087q0 113 60.5 202.5t162.5 142.5l26 -52q-168 -98 -172 -241h9q76 0 75 -70q0 -35 -22.5 -59.5t-54.5 -24.5q-37 0 -60.5 27.5t-23.5 74.5z" />
<glyph unicode="&#x2bc;" horiz-adv-x="436" d="M231 1040q168 96 172 242h-8q-76 0 -76 70q0 35 24 59.5t56 24.5q37 0 59.5 -28t22.5 -75q0 -113 -60.5 -202t-162.5 -142z" />
<glyph unicode="&#x2be;" horiz-adv-x="307" d="M207 1104l10 49q76 2 118 42t42 101q0 106 -113 107l15 49q78 2 119.5 -38t41.5 -105q0 -90 -63.5 -147.5t-169.5 -57.5z" />
<glyph unicode="&#x2bf;" horiz-adv-x="342" d="M209 1251q0 90 63 147.5t172 57.5l-10 -49q-76 -2 -119 -42t-43 -101q0 -106 113 -107l-12 -49q-78 -2 -121 39t-43 104z" />
<glyph unicode="&#x2c6;" horiz-adv-x="1040" d="M446 1167l250 279h58l139 -279h-66l-110 201h-8l-189 -201h-74z" />
<glyph unicode="&#x2c7;" horiz-adv-x="1040" d="M504 1446h65l109 -199h8l191 199h73l-250 -279h-59z" />
<glyph unicode="&#x2c8;" horiz-adv-x="186" d="M197 1190l57 352h82l-80 -352h-59z" />
<glyph unicode="&#x2c9;" horiz-adv-x="501" d="M174 1241l12 70h447l-12 -70h-447z" />
<glyph unicode="&#x2ca;" horiz-adv-x="421" d="M227 1167l238 279h102l-264 -279h-76z" />
<glyph unicode="&#x2cb;" horiz-adv-x="421" d="M231 1446h93l122 -279h-67z" />
<glyph unicode="&#x2cc;" horiz-adv-x="186" d="M-139 -506l80 352h59l-59 -352h-80z" />
<glyph unicode="&#x2d8;" horiz-adv-x="1040" d="M492 1419h57q-14 -178 131 -178q72 0 126 49t83 129h61q-33 -100 -101.5 -169.5t-177 -69.5t-148.5 69.5t-31 169.5z" />
<glyph unicode="&#x2d9;" horiz-adv-x="1040" d="M616 1288q0 39 26 65.5t60 26.5q31 0 50.5 -19.5t19.5 -49.5q0 -37 -26.5 -63.5t-59.5 -26.5q-29 0 -49.5 19.5t-20.5 47.5z" />
<glyph unicode="&#x2da;" horiz-adv-x="1040" d="M524 1255q0 80 54.5 138.5t128.5 58.5q68 0 109.5 -42t41.5 -116q0 -80 -54 -139t-128 -59q-68 0 -110 42t-42 117zM584 1260q0 -49 25.5 -80t70.5 -31q47 0 83 41t36 98q0 51 -26 81t-71 30q-47 0 -82.5 -41t-35.5 -98z" />
<glyph unicode="&#x2db;" horiz-adv-x="1040" d="M238 -287q0 78 58 159t140 136h82q-203 -137 -203 -274q0 -37 21.5 -59.5t56.5 -22.5q41 0 84 24l23 -55q-63 -37 -123 -37q-61 0 -100 34t-39 95z" />
<glyph unicode="&#x2dc;" horiz-adv-x="1040" d="M426 1190q23 78 64.5 129t97.5 51q49 0 85 -29.5t65.5 -59.5t66.5 -30q53 0 96 115h57q-25 -78 -66.5 -129t-96.5 -51q-61 0 -116.5 60.5t-98.5 60.5q-54 0 -97 -117h-57z" />
<glyph unicode="&#x2dd;" horiz-adv-x="1040" d="M494 1167l213 283h96l-240 -283h-69zM758 1167l213 283h96l-240 -283h-69z" />
<glyph unicode="&#x2e1;" horiz-adv-x="317" d="M141 590q1 32 9 57l167 854h72l-174 -868q-4 -16 -4 -29q0 -23 27 -22q14 0 26 6l6 -62q-31 -10 -61 -10q-68 0 -68 74z" />
<glyph unicode="&#x2e2;" horiz-adv-x="538" d="M59 627l50 45q92 -96 192 -97q66 0 110 37t44 90q0 70 -125 134q-156 78 -156 174q0 82 61.5 136t149.5 54q104 0 195 -80l-43 -51q-74 70 -156 70q-61 0 -100 -35t-39 -84q0 -59 123 -123q160 -78 159 -184q0 -92 -65.5 -144.5t-169.5 -52.5q-128 0 -230 111z" />
<glyph unicode="&#x2e3;" horiz-adv-x="557" d="M10 532l303 342l-133 310h72l61 -148l52 -114h8l82 98l133 164h84l-273 -322l142 -330h-72l-70 162l-53 125h-8l-92 -110l-150 -177h-86z" />
<glyph unicode="&#x300;" horiz-adv-x="0" d="M119 1446h94l121 -279h-66z" />
<glyph unicode="&#x301;" horiz-adv-x="0" d="M115 1167l237 279h103l-262 -279h-78z" />
<glyph unicode="&#x302;" horiz-adv-x="0" d="M6 1167l250 279h59l138 -279h-66l-108 201h-9l-190 -201h-74z" />
<glyph unicode="&#x303;" horiz-adv-x="0" d="M-14 1190q55 180 164 180q49 0 83.5 -29.5t64.5 -59.5t67 -30q53 0 96 115h57q-23 -76 -64.5 -128t-97.5 -52q-39 0 -70.5 18.5t-48 42t-42 42t-56.5 18.5q-49 0 -96 -117h-57z" />
<glyph unicode="&#x304;" horiz-adv-x="0" d="M20 1241l13 70h446l-10 -70h-449z" />
<glyph unicode="&#x306;" horiz-adv-x="0" d="M53 1419h58q-14 -178 129 -178q72 0 127 49t82 129h61q-33 -100 -100.5 -169.5t-176 -69.5t-149.5 70.5t-31 168.5z" />
<glyph unicode="&#x307;" horiz-adv-x="0" d="M176 1288q0 39 26.5 65.5t59.5 26.5q31 0 50.5 -19.5t19.5 -49.5q0 -37 -25.5 -63.5t-60.5 -26.5q-29 0 -49.5 19.5t-20.5 47.5z" />
<glyph unicode="&#x308;" horiz-adv-x="0" d="M35 1286q0 37 22.5 62.5t53.5 25.5q61 0 61 -65q0 -35 -22.5 -59.5t-53.5 -24.5q-61 0 -61 61zM344 1286q0 37 22.5 62.5t53.5 25.5q61 0 61 -65q0 -35 -22 -59.5t-53 -24.5q-29 0 -45.5 16t-16.5 45z" />
<glyph unicode="&#x309;" horiz-adv-x="0" d="M176 1178q84 29 123 57.5t39 73.5q0 41 -33 61.5t-119 28.5l15 57q209 -12 209 -131q0 -76 -56.5 -122t-160.5 -75z" />
<glyph unicode="&#x30a;" horiz-adv-x="0" d="M84 1255q0 80 54.5 138.5t129.5 58.5q68 0 109 -42t41 -116q0 -80 -54 -139t-128 -59q-68 0 -110 42t-42 117zM145 1260q0 -49 26 -80t69 -31q47 0 82.5 41t35.5 98q0 51 -24.5 81t-69.5 30q-47 0 -83 -41t-36 -98z" />
<glyph unicode="&#x30b;" horiz-adv-x="0" d="M55 1167l211 283h96l-239 -283h-68zM319 1167l211 283h97l-240 -283h-68z" />
<glyph unicode="&#x30c;" horiz-adv-x="0" d="M63 1446h66l111 -199h8l188 199h76l-250 -279h-59z" />
<glyph unicode="&#x30f;" horiz-adv-x="0" d="M-61 1450h86l92 -283h-64zM199 1450h86l92 -283h-66z" />
<glyph unicode="&#x312;" horiz-adv-x="0" d="M135 1219q0 169 205 249l16 -51q-125 -53 -149 -157q8 4 24 4q27 0 46.5 -20.5t19.5 -49.5q0 -84 -86 -84q-33 0 -54.5 32t-21.5 77z" />
<glyph unicode="&#x313;" horiz-adv-x="0" d="M145 1161q123 47 150 156q-8 -2 -25 -2q-27 0 -46 20.5t-19 48.5q0 41 24.5 62.5t63.5 21.5q33 0 53.5 -31.5t20.5 -76.5q0 -172 -203 -250z" />
<glyph unicode="&#x31b;" horiz-adv-x="0" d="M164 963q92 2 156.5 44t64.5 111q0 35 -8 62l72 30q18 -47 18 -80q0 -94 -81 -158.5t-218 -66.5z" />
<glyph unicode="&#x323;" horiz-adv-x="0" d="M-143 -350q0 39 25.5 65.5t60.5 26.5q29 0 48 -19.5t19 -50.5q0 -37 -25.5 -63.5t-60.5 -26.5q-29 0 -48 19.5t-19 48.5z" />
<glyph unicode="&#x324;" horiz-adv-x="0" d="M-285 -328q0 35 20.5 59.5t55.5 24.5q27 0 43 -17.5t16 -45.5q0 -35 -20 -59.5t-55 -24.5q-27 0 -43.5 17.5t-16.5 45.5zM25 -328q0 33 22.5 58.5t56.5 25.5q25 0 43.5 -18.5t18.5 -44.5q0 -33 -22.5 -58.5t-57.5 -25.5q-25 0 -43 18.5t-18 44.5z" />
<glyph unicode="&#x326;" horiz-adv-x="0" d="M-223 -381q205 41 205 133q0 55 -84 80l30 51q125 -37 125 -119q0 -84 -76.5 -131t-191.5 -63z" />
<glyph unicode="&#x327;" horiz-adv-x="0" d="M-225 -379q199 39 198 135q0 35 -26.5 55.5t-87.5 36.5l110 156h70l-86 -123q94 -31 94 -112q0 -84 -74.5 -133.5t-189.5 -63.5z" />
<glyph unicode="&#x328;" horiz-adv-x="0" d="M-203 -287q0 78 59.5 158t141.5 137h80q-201 -135 -201 -274q0 -37 21.5 -59.5t54.5 -22.5q41 0 84 24l24 -55q-68 -37 -122 -37q-63 0 -102.5 33t-39.5 96z" />
<glyph unicode="&#x32e;" horiz-adv-x="0" d="M-274 -199h57q-14 -178 129 -178q72 0 127 49t82 129h61q-33 -100 -100.5 -169.5t-176 -69.5t-149.5 70.5t-30 168.5z" />
<glyph unicode="&#x331;" horiz-adv-x="0" d="M-289 -338l13 70h446l-10 -70h-449z" />
<glyph unicode="&#x3c0;" horiz-adv-x="1054" d="M125 0l180 909h-168l8 66l134 8h802l-16 -74h-156l-149 -751q-23 -109 47 -109q23 0 53 12l10 -65q-47 -20 -92 -21q-72 0 -94 56.5t-4 140.5l145 737h-436l-180 -909h-84z" />
<glyph unicode="&#x1d43;" horiz-adv-x="712" d="M125 756q0 180 109.5 312t250.5 132q109 0 162 -102h8l25 86h55l-127 -652h-59l18 105h-8q-115 -121 -242 -121q-88 0 -140 62.5t-52 177.5zM197 766q0 -92 37 -139t98 -47q119 0 243 143l60 301q-61 113 -152 113q-109 0 -197.5 -116t-88.5 -255z" />
<glyph unicode="&#x1d47;" horiz-adv-x="724" d="M125 532l192 969h72l-51 -264l-31 -135h4q117 98 232 98q90 0 141 -62.5t51 -176.5q0 -182 -109.5 -313.5t-250.5 -131.5q-111 0 -160 100h-8l-27 -84h-55zM227 690q59 -111 150 -110q109 0 199 114.5t90 255.5q0 92 -38.5 139.5t-97.5 47.5q-117 0 -237 -115z" />
<glyph unicode="&#x1d48;" horiz-adv-x="727" d="M125 756q0 180 109.5 312t250.5 132q109 0 160 -100h8l21 131l51 258h72l-189 -957h-59l18 105h-8q-115 -121 -242 -121q-88 0 -140 62.5t-52 177.5zM197 766q0 -92 37 -139t98 -47q119 0 243 143l60 301q-61 113 -152 113q-109 0 -197.5 -116t-88.5 -255z" />
<glyph unicode="&#x1d49;" horiz-adv-x="651" d="M125 788q0 176 105.5 294t238.5 118q111 0 159 -66.5t48 -166.5q0 -61 -23 -119h-452q-18 -125 31 -197.5t153 -72.5q76 0 170 59l29 -55q-113 -66 -209 -66q-117 0 -183.5 70.5t-66.5 201.5zM213 905h389q8 27 8 66q0 72 -36.5 120t-110.5 48q-78 0 -151.5 -67 t-98.5 -167z" />
<glyph unicode="&#x1d4d;" horiz-adv-x="710" d="M74 313l39 52q94 -80 196 -80q170 0 226 231l24 121h-8q-113 -96 -234 -96q-88 0 -140 60.5t-52 166.5q0 172 110.5 302t249.5 130q109 0 162 -102h8l25 86h55l-133 -676q-27 -131 -104.5 -208t-192.5 -77q-125 0 -231 90zM197 778q0 -84 37 -129t98 -45q119 0 243 119 l60 301q-61 113 -152 113q-106 0 -196 -113t-90 -246z" />
<glyph unicode="&#x1d4f;" horiz-adv-x="628" d="M125 532l192 969h72l-139 -686h8l371 369h80l-252 -264l159 -388h-71l-142 347l-174 -172l-32 -175h-72z" />
<glyph unicode="&#x1d50;" horiz-adv-x="1077" d="M125 532l129 652h59l-12 -99h8q121 115 219 115q131 0 152 -127q143 127 235 127q156 0 156 -164q0 -31 -12 -86l-82 -418h-70l82 408q10 57 10 80q0 117 -100 117q-92 0 -217 -138l-92 -467h-72l82 408q12 51 12 80q0 117 -102 117q-92 0 -219 -138l-94 -467h-72z" />
<glyph unicode="&#x1d52;" horiz-adv-x="700" d="M125 774q0 186 108.5 306t247.5 120q104 0 165 -68.5t61 -189.5q0 -186 -109 -306t-246 -120q-106 0 -166.5 68.5t-60.5 189.5zM195 780q0 -96 42 -149t119 -53q111 0 196 107.5t85 248.5q0 96 -42 149.5t-120 53.5q-111 0 -195.5 -107.5t-84.5 -249.5z" />
<glyph unicode="&#x1d56;" horiz-adv-x="720" d="M70 248l184 936h59l-8 -82h8q119 98 230 98q90 0 141 -62.5t51 -176.5q0 -182 -109.5 -313.5t-250.5 -131.5q-111 0 -160 100h-8l-23 -147l-45 -221h-69zM227 690q59 -111 150 -110q109 0 199 114.5t90 255.5q0 92 -38.5 139.5t-97.5 47.5q-117 0 -237 -115z" />
<glyph unicode="&#x1d57;" horiz-adv-x="421" d="M152 1120l12 58l102 6l45 186h60l-37 -186h186l-12 -64h-184l-78 -393q-8 -37 -8 -55q0 -94 81 -94q29 0 80 20l15 -57q-61 -25 -105 -25q-143 0 -143 146q0 18 8 67l80 391h-102z" />
<glyph unicode="&#x1d58;" horiz-adv-x="712" d="M158 678q0 33 12 88l82 418h72l-82 -408q-12 -55 -13 -80q0 -117 98.5 -116.5t235.5 137.5l92 467h72l-127 -652h-59l10 99h-8q-133 -115 -232 -115q-154 0 -153 162z" />
<glyph unicode="&#x1d5b;" horiz-adv-x="591" d="M147 1184h72l55 -398l31 -192h8l105 192l215 398h74l-363 -652h-92z" />
<glyph unicode="&#x1d9c;" horiz-adv-x="591" d="M125 776q0 160 102.5 292t255.5 132q100 0 174 -80l-47 -47q-55 63 -135 64q-115 0 -196.5 -114t-81.5 -237q0 -98 51 -153t131 -55q66 0 156 55l30 -51q-90 -66 -194 -66q-111 0 -178.5 69.5t-67.5 190.5z" />
<glyph unicode="&#x1da0;" horiz-adv-x="364" d="M129 532l119 588h-88l10 58l90 6l27 135q20 96 71.5 147.5t122.5 51.5q57 0 109 -29l-29 -57q-41 25 -80 24q-45 0 -77.5 -36t-45.5 -95l-28 -141h149l-10 -64h-152l-116 -588h-72z" />
<glyph unicode="&#x1dbb;" horiz-adv-x="546" d="M43 532l6 43l469 545h-319l10 64h420l-6 -43l-476 -547h373l-10 -62h-467z" />
<glyph unicode="&#x1e0c;" horiz-adv-x="1181" d="M80 0l268 1350h223q272 0 414.5 -140.5t142.5 -384.5q0 -362 -189 -593.5t-531 -231.5h-328zM180 74h230q291 0 460.5 214t169.5 531q0 211 -120.5 334t-352.5 123h-147zM375 -334q0 39 26.5 65.5t59.5 26.5q31 0 50 -19.5t19 -49.5q0 -37 -26.5 -63.5t-59.5 -26.5 q-29 0 -49 19.5t-20 47.5z" />
<glyph unicode="&#x1e0d;" horiz-adv-x="1081" d="M90 330q0 279 163 478.5t372 199.5q166 0 252 -158h8l39 194l86 429h84l-297 -1473h-72l23 156h-9q-174 -180 -362 -181q-131 0 -209 92.5t-78 262.5zM176 346q0 -145 57.5 -221t161.5 -76q184 0 369 213l102 494q-100 178 -243 178q-174 0 -310.5 -182.5t-136.5 -405.5z M328 -334q0 39 25.5 65.5t60.5 26.5q29 0 48 -19.5t19 -49.5q0 -37 -25.5 -63.5t-60.5 -26.5q-29 0 -48 19.5t-19 47.5z" />
<glyph unicode="&#x1e0e;" horiz-adv-x="1181" d="M80 0l268 1350h223q272 0 414.5 -140.5t142.5 -384.5q0 -362 -189 -593.5t-531 -231.5h-328zM180 74h230q291 0 460.5 214t169.5 531q0 211 -120.5 334t-352.5 123h-147zM231 -322l11 70h448l-12 -70h-447z" />
<glyph unicode="&#x1e0f;" horiz-adv-x="1081" d="M90 330q0 279 163 478.5t372 199.5q166 0 252 -158h8l39 194l86 429h84l-297 -1473h-72l23 156h-9q-174 -180 -362 -181q-131 0 -209 92.5t-78 262.5zM176 346q0 -145 57.5 -221t161.5 -76q184 0 369 213l102 494q-100 178 -243 178q-174 0 -310.5 -182.5t-136.5 -405.5z M182 -322l13 70h446l-10 -70h-449z" />
<glyph unicode="&#x1e20;" horiz-adv-x="1177" d="M119 508q0 211 80 405.5t244.5 327.5t379.5 133q199 0 318 -190l-66 -47q-94 162 -258 161q-139 0 -258 -72.5t-193.5 -188t-116.5 -251t-42 -266.5q0 -209 97 -339t302 -130q166 0 277 103l86 432h-312l17 73h395l-113 -548q-156 -135 -360 -136q-233 0 -355 144.5 t-122 388.5zM602 1503l14 70h445l-14 -70h-445z" />
<glyph unicode="&#x1e21;" horiz-adv-x="1067" d="M8 -338l47 62q133 -123 291 -123q270 0 344 346l49 221h-8q-180 -172 -356 -172q-129 0 -207 92t-78 258q0 268 161 465t361 197q168 0 252 -160h8l39 135h70l-215 -1067q-37 -184 -146.5 -286.5t-277.5 -102.5q-172 0 -334 135zM176 360q0 -141 56.5 -214.5t158.5 -73.5 q82 0 180.5 53t180.5 145l102 486q-106 178 -244 178q-164 0 -299 -180.5t-135 -393.5zM449 1241l10 70h446l-10 -70h-446z" />
<glyph unicode="&#x1e24;" horiz-adv-x="1239" d="M80 0l268 1350h88l-121 -596h697l121 596h88l-271 -1350h-88l137 678h-696l-135 -678h-88zM418 -334q0 39 26.5 65.5t59.5 26.5q31 0 50 -19.5t19 -49.5q0 -37 -26.5 -63.5t-59.5 -26.5q-29 0 -49 19.5t-20 47.5z" />
<glyph unicode="&#x1e25;" horiz-adv-x="1032" d="M82 0l295 1473h84l-111 -545l-26 -103h8q109 90 191.5 136.5t164.5 46.5q233 0 234 -240q0 -57 -17 -133l-127 -635h-84l127 623q16 94 17 127q0 182 -176 182q-139 0 -349 -207l-145 -725h-86zM324 -334q0 39 25.5 65.5t60.5 26.5q29 0 48 -19.5t19 -49.5 q0 -37 -25.5 -63.5t-60.5 -26.5q-29 0 -48 19.5t-19 47.5z" />
<glyph unicode="&#x1e2a;" horiz-adv-x="1239" d="M80 0l268 1350h88l-121 -596h697l121 596h88l-271 -1350h-88l137 678h-696l-135 -678h-88zM287 -182h57q-14 -178 131 -178q72 0 126 49t81 129h63q-33 -100 -101.5 -170t-177 -70t-148 69.5t-31.5 170.5z" />
<glyph unicode="&#x1e2b;" horiz-adv-x="1032" d="M82 0l295 1473h84l-111 -545l-26 -103h8q109 90 191.5 136.5t164.5 46.5q233 0 234 -240q0 -57 -17 -133l-127 -635h-84l127 623q16 94 17 127q0 182 -176 182q-139 0 -349 -207l-145 -725h-86zM190 -182h60q-14 -178 129 -178q72 0 127 50t82 128h61 q-33 -100 -100.5 -170t-176 -70t-149.5 69.5t-33 170.5z" />
<glyph unicode="&#x1e36;" horiz-adv-x="901" d="M80 0l268 1350h88l-252 -1274h600l-16 -76h-688zM319 -334q0 39 26 65.5t61 26.5q31 0 50 -19.5t19 -49.5q0 -37 -26.5 -63.5t-59.5 -26.5q-29 0 -49.5 19.5t-20.5 47.5z" />
<glyph unicode="&#x1e37;" horiz-adv-x="475" d="M-2 -334q0 39 25.5 65.5t60.5 26.5q29 0 48.5 -19.5t19.5 -49.5q0 -37 -25.5 -63.5t-60.5 -26.5q-29 0 -48.5 19.5t-19.5 47.5zM98 63q1 23 11 64l268 1346h84l-268 -1352q-4 -20 -5 -41q0 -31 29 -31q14 0 35 8l6 -67q-31 -14 -70 -15q-41 0 -65.5 22.5t-24.5 65.5z" />
<glyph unicode="&#x1e38;" horiz-adv-x="901" d="M80 0l268 1350h88l-252 -1274h600l-16 -76h-688zM188 1503l17 70h444l-16 -70h-445zM319 -334q0 39 26 65.5t61 26.5q31 0 50 -19.5t19 -49.5q0 -37 -26.5 -63.5t-59.5 -26.5q-29 0 -49.5 19.5t-20.5 47.5z" />
<glyph unicode="&#x1e39;" horiz-adv-x="475" d="M-2 -334q0 39 25.5 65.5t60.5 26.5q29 0 48.5 -19.5t19.5 -49.5q0 -37 -25.5 -63.5t-60.5 -26.5q-29 0 -48.5 19.5t-19.5 47.5zM98 63q1 23 11 64l268 1346h84l-268 -1352q-4 -20 -5 -41q0 -31 29 -31q14 0 35 8l6 -67q-31 -14 -70 -15q-41 0 -65.5 22.5t-24.5 65.5z M236 1704l10 70h448l-12 -70h-446z" />
<glyph unicode="&#x1e3a;" horiz-adv-x="901" d="M80 0l268 1350h88l-252 -1274h600l-16 -76h-688zM176 -322l10 70h447l-10 -70h-447z" />
<glyph unicode="&#x1e3b;" horiz-adv-x="475" d="M-147 -322l12 70h446l-10 -70h-448zM98 63q1 23 11 64l268 1346h84l-268 -1352q-4 -20 -5 -41q0 -31 29 -31q14 0 35 8l6 -67q-31 -14 -70 -15q-41 0 -65.5 22.5t-24.5 65.5z" />
<glyph unicode="&#x1e42;" horiz-adv-x="1400" d="M80 0l268 1350h127l131 -791l51 -299h9l153 299l438 791h125l-270 -1350h-86l180 893q55 258 82 362h-8l-160 -292l-444 -811h-76l-141 811l-47 292h-9q-8 -45 -28.5 -172t-32.5 -190l-178 -893h-84zM485 -350q0 39 27 65.5t59 26.5q31 0 50.5 -19.5t19.5 -50.5 q0 -37 -25.5 -63.5t-60.5 -26.5q-29 0 -49.5 19.5t-20.5 48.5z" />
<glyph unicode="&#x1e43;" horiz-adv-x="1601" d="M82 0l199 983h69l-22 -156h8q195 180 328 181q215 0 227 -205q211 205 358 205q231 0 232 -240q0 -57 -17 -133l-127 -635h-86l127 623q16 80 17 127q0 182 -170 182q-53 0 -142.5 -52.5t-185.5 -154.5l-145 -725h-84l125 623q16 80 16 127q0 182 -170 182 q-53 0 -142 -53.5t-184 -153.5l-145 -725h-86zM594 -334q0 39 26.5 65.5t59.5 26.5q31 0 50.5 -19.5t19.5 -49.5q0 -37 -25.5 -63.5t-60.5 -26.5q-29 0 -49.5 19.5t-20.5 47.5z" />
<glyph unicode="&#x1e44;" horiz-adv-x="1239" d="M80 0l268 1350h94l359 -959l94 -274h8q55 346 66 397l166 836h88l-271 -1350h-90l-354 954l-98 285h-9q-35 -229 -69 -393l-166 -846h-86zM737 1548q0 39 25.5 65.5t60.5 26.5q29 0 49.5 -19t20.5 -52q0 -37 -26.5 -62.5t-59.5 -25.5q-31 0 -50.5 18.5t-19.5 48.5z" />
<glyph unicode="&#x1e45;" horiz-adv-x="1044" d="M82 0l199 983h69l-22 -156h8q104 88 186 134.5t166 46.5q233 0 234 -240q0 -57 -17 -133l-127 -635h-84l127 623q16 94 17 127q0 182 -176 182q-139 0 -349 -207l-145 -725h-86zM627 1288q0 39 25.5 65.5t60.5 26.5q31 0 50 -19.5t19 -49.5q0 -37 -26.5 -63.5 t-59.5 -26.5q-29 0 -49 19.5t-20 47.5z" />
<glyph unicode="&#x1e46;" horiz-adv-x="1239" d="M80 0l268 1350h94l359 -959l94 -274h8q55 346 66 397l166 836h88l-271 -1350h-90l-354 954l-98 285h-9q-35 -229 -69 -393l-166 -846h-86zM403 -350q0 39 26 65.5t60 26.5q31 0 50.5 -19.5t19.5 -50.5q0 -37 -26.5 -63.5t-59.5 -26.5q-29 0 -49.5 19.5t-20.5 48.5z" />
<glyph unicode="&#x1e47;" horiz-adv-x="1044" d="M82 0l199 983h69l-22 -156h8q104 88 186 134.5t166 46.5q233 0 234 -240q0 -57 -17 -133l-127 -635h-84l127 623q16 94 17 127q0 182 -176 182q-139 0 -349 -207l-145 -725h-86zM319 -334q0 39 27 65.5t60 26.5q31 0 50 -19.5t19 -49.5q0 -37 -26.5 -63.5t-59.5 -26.5 q-29 0 -49.5 19.5t-20.5 47.5z" />
<glyph unicode="&#x1e48;" horiz-adv-x="1239" d="M80 0l268 1350h94l359 -959l94 -274h8q55 346 66 397l166 836h88l-271 -1350h-90l-354 954l-98 285h-9q-35 -229 -69 -393l-166 -846h-86zM260 -338l10 70h447l-10 -70h-447z" />
<glyph unicode="&#x1e49;" horiz-adv-x="1044" d="M82 0l199 983h69l-22 -156h8q104 88 186 134.5t166 46.5q233 0 234 -240q0 -57 -17 -133l-127 -635h-84l127 623q16 94 17 127q0 182 -176 182q-139 0 -349 -207l-145 -725h-86zM176 -322l10 70h449l-12 -70h-447z" />
<glyph unicode="&#x1e5a;" horiz-adv-x="1087" d="M80 0l268 1350h340q397 0 397 -297q0 -178 -118.5 -293t-311.5 -137l256 -623h-98l-250 616h-272l-123 -616h-88zM307 690h236q217 0 335.5 94.5t118.5 259.5q0 123 -85 177.5t-263 54.5h-229zM371 -350q0 39 25.5 65.5t60.5 26.5q31 0 50 -19.5t19 -50.5 q0 -37 -26.5 -63.5t-59.5 -26.5q-29 0 -49 19.5t-20 48.5z" />
<glyph unicode="&#x1e5b;" horiz-adv-x="649" d="M6 -334q0 39 25.5 65.5t60.5 26.5q29 0 48.5 -19.5t19.5 -49.5q0 -37 -25.5 -63.5t-60.5 -26.5q-29 0 -48.5 19.5t-19.5 47.5zM82 0l199 983h69l-31 -186h9q147 211 309 211q45 0 88 -17l-33 -80q-37 16 -78 17q-80 0 -166 -74t-151 -203l-129 -651h-86z" />
<glyph unicode="&#x1e5c;" horiz-adv-x="1087" d="M80 0l268 1350h340q397 0 397 -297q0 -178 -118.5 -293t-311.5 -137l256 -623h-98l-250 616h-272l-123 -616h-88zM307 690h236q217 0 335.5 94.5t118.5 259.5q0 123 -85 177.5t-263 54.5h-229zM371 -350q0 39 25.5 65.5t60.5 26.5q31 0 50 -19.5t19 -50.5 q0 -37 -26.5 -63.5t-59.5 -26.5q-29 0 -49 19.5t-20 48.5zM512 1503l14 70h445l-15 -70h-444z" />
<glyph unicode="&#x1e5d;" horiz-adv-x="649" d="M6 -334q0 39 25.5 65.5t60.5 26.5q29 0 48.5 -19.5t19.5 -49.5q0 -37 -25.5 -63.5t-60.5 -26.5q-29 0 -48.5 19.5t-19.5 47.5zM82 0l199 983h69l-31 -186h9q147 211 309 211q45 0 88 -17l-33 -80q-37 16 -78 17q-80 0 -166 -74t-151 -203l-129 -651h-86zM301 1241l10 70 h449l-12 -70h-447z" />
<glyph unicode="&#x1e5e;" horiz-adv-x="1087" d="M80 0l268 1350h340q397 0 397 -297q0 -178 -118.5 -293t-311.5 -137l256 -623h-98l-250 616h-272l-123 -616h-88zM227 -338l11 70h446l-10 -70h-447zM307 690h236q217 0 335.5 94.5t118.5 259.5q0 123 -85 177.5t-263 54.5h-229z" />
<glyph unicode="&#x1e5f;" horiz-adv-x="649" d="M-139 -322l12 70h446l-12 -70h-446zM82 0l199 983h69l-31 -186h9q147 211 309 211q45 0 88 -17l-33 -80q-37 16 -78 17q-80 0 -166 -74t-151 -203l-129 -651h-86z" />
<glyph unicode="&#x1e60;" horiz-adv-x="1009" d="M33 205l67 47q135 -201 375 -201q147 0 245.5 86t98.5 225q0 154 -174 252l-174 105q-211 125 -211 307q0 141 110.5 244.5t278.5 103.5q115 0 210 -51t155 -131l-62 -53q-123 160 -315 159q-125 0 -206 -79.5t-81 -182.5q0 -86 47 -142t131 -106l170 -98 q211 -125 211 -317q0 -176 -126 -287t-318 -111q-285 1 -432 230zM641 1546q0 39 25.5 65.5t60.5 26.5q31 0 50.5 -20.5t19.5 -50.5q0 -37 -26.5 -62.5t-59.5 -25.5q-31 0 -50.5 18.5t-19.5 48.5z" />
<glyph unicode="&#x1e61;" horiz-adv-x="796" d="M-2 158l59 45q100 -156 279 -156q102 0 177 61.5t75 145.5q0 61 -39 106.5t-150 104.5q-133 72 -186 131t-53 135q0 121 91 199t218 78q160 0 272 -119l-55 -53q-96 100 -219 100q-94 0 -159.5 -57.5t-65.5 -135.5q0 -45 28.5 -82.5t60 -58t93.5 -55.5 q147 -80 196.5 -142.5t49.5 -136.5q0 -133 -97.5 -213t-246.5 -80q-98 0 -189.5 54.5t-138.5 128.5zM477 1288q0 39 25.5 65.5t60.5 26.5q31 0 50.5 -19.5t19.5 -49.5q0 -37 -26.5 -63.5t-59.5 -26.5q-29 0 -49.5 19.5t-20.5 47.5z" />
<glyph unicode="&#x1e62;" horiz-adv-x="1009" d="M33 205l67 47q135 -201 375 -201q147 0 245.5 86t98.5 225q0 154 -174 252l-174 105q-211 125 -211 307q0 141 110.5 244.5t278.5 103.5q115 0 210 -51t155 -131l-62 -53q-123 160 -315 159q-125 0 -206 -79.5t-81 -182.5q0 -86 47 -142t131 -106l170 -98 q211 -125 211 -317q0 -176 -126 -287t-318 -111q-285 1 -432 230zM307 -350q0 39 25.5 65.5t60.5 26.5q29 0 48.5 -19.5t19.5 -50.5q0 -37 -25.5 -63.5t-60.5 -26.5q-29 0 -48.5 19.5t-19.5 48.5z" />
<glyph unicode="&#x1e63;" horiz-adv-x="796" d="M-2 158l59 45q100 -156 279 -156q102 0 177 61.5t75 145.5q0 61 -39 106.5t-150 104.5q-133 72 -186 131t-53 135q0 121 91 199t218 78q160 0 272 -119l-55 -53q-96 100 -219 100q-94 0 -159.5 -57.5t-65.5 -135.5q0 -45 28.5 -82.5t60 -58t93.5 -55.5 q147 -80 196.5 -142.5t49.5 -136.5q0 -133 -97.5 -213t-246.5 -80q-98 0 -189.5 54.5t-138.5 128.5zM213 -334q0 39 25.5 65.5t60.5 26.5q29 0 48.5 -19.5t19.5 -49.5q0 -37 -25.5 -63.5t-60.5 -26.5q-29 0 -48.5 19.5t-19.5 47.5z" />
<glyph unicode="&#x1e6c;" horiz-adv-x="1017" d="M201 1270l16 80h916l-17 -80h-414l-253 -1270h-89l254 1270h-413zM283 -334q0 39 25.5 65.5t60.5 26.5q29 0 48 -19.5t19 -49.5q0 -37 -25.5 -63.5t-60.5 -26.5q-29 0 -48 19.5t-19 47.5z" />
<glyph unicode="&#x1e6d;" horiz-adv-x="612" d="M137 909l13 66l159 8l68 281h72l-58 -281h266l-16 -74h-266l-133 -645q-8 -49 -9 -78q0 -70 31 -103.5t109 -33.5q49 0 119 35l22 -64q-86 -45 -158 -45q-109 0 -157.5 54.5t-48.5 140.5q0 28 8 98l133 641h-154zM178 -334q0 39 26.5 65.5t59.5 26.5q31 0 50.5 -19.5 t19.5 -49.5q0 -37 -25.5 -63.5t-60.5 -26.5q-29 0 -49.5 19.5t-20.5 47.5z" />
<glyph unicode="&#x1e6e;" horiz-adv-x="1017" d="M137 -322l13 70h446l-10 -70h-449zM201 1270l16 80h916l-17 -80h-414l-253 -1270h-89l254 1270h-413z" />
<glyph unicode="&#x1e6f;" horiz-adv-x="612" d="M35 -322l12 70h447l-13 -70h-446zM137 909l13 66l159 8l68 281h72l-58 -281h266l-16 -74h-266l-133 -645q-8 -49 -9 -78q0 -70 31 -103.5t109 -33.5q49 0 119 35l22 -64q-86 -45 -158 -45q-109 0 -157.5 54.5t-48.5 140.5q0 28 8 98l133 641h-154z" />
<glyph unicode="&#x1e80;" horiz-adv-x="1503" d="M217 0l2 1350h88l-4 -797q-4 -82 -5 -232.5t-3 -209.5h8q168 369 201 442l370 797h91l26 -797q9 -221 13 -442h8q89 221 184 442l330 797h90l-576 -1350h-110l-29 928v317h-8q-4 -10 -137 -317l-428 -928h-111zM741 1665h97l153 -213h-71z" />
<glyph unicode="&#x1e81;" horiz-adv-x="1398" d="M141 983h84l49 -643q8 -90 21 -266h8q23 49 63 139t56 127l295 643h102l45 -643q2 -47 7.5 -135t7.5 -131h8q94 211 121 266l299 643h82l-463 -983h-115l-41 612q-2 39 -6 140.5t-8 152.5h-8q-16 -39 -59.5 -140t-67.5 -153l-281 -612h-115zM717 1446h92l123 -279h-68z " />
<glyph unicode="&#x1e82;" horiz-adv-x="1503" d="M217 0l2 1350h88l-4 -797q-4 -82 -5 -232.5t-3 -209.5h8q168 369 201 442l370 797h91l26 -797q9 -221 13 -442h8q89 221 184 442l330 797h90l-576 -1350h-110l-29 928v317h-8q-4 -10 -137 -317l-428 -928h-111zM846 1452l223 213h105l-250 -213h-78z" />
<glyph unicode="&#x1e83;" horiz-adv-x="1398" d="M141 983h84l49 -643q8 -90 21 -266h8q23 49 63 139t56 127l295 643h102l45 -643q2 -47 7.5 -135t7.5 -131h8q94 211 121 266l299 643h82l-463 -983h-115l-41 612q-2 39 -6 140.5t-8 152.5h-8q-16 -39 -59.5 -140t-67.5 -153l-281 -612h-115zM713 1167l237 279h103 l-265 -279h-75z" />
<glyph unicode="&#x1e84;" horiz-adv-x="1503" d="M217 0l2 1350h88l-4 -797q-4 -82 -5 -232.5t-3 -209.5h8q168 369 201 442l370 797h91l26 -797q9 -221 13 -442h8q89 221 184 442l330 797h90l-576 -1350h-110l-29 928v317h-8q-4 -10 -137 -317l-428 -928h-111zM715 1542q0 37 22.5 61.5t53.5 24.5q61 0 61 -63 q0 -33 -23.5 -58.5t-52.5 -25.5q-61 0 -61 61zM1026 1542q0 37 22.5 61.5t53.5 24.5q59 0 59 -63q0 -35 -22.5 -59.5t-53.5 -24.5q-59 0 -59 61z" />
<glyph unicode="&#x1e85;" horiz-adv-x="1398" d="M141 983h84l49 -643q8 -90 21 -266h8q23 49 63 139t56 127l295 643h102l45 -643q2 -47 7.5 -135t7.5 -131h8q94 211 121 266l299 643h82l-463 -983h-115l-41 612q-2 39 -6 140.5t-8 152.5h-8q-16 -39 -59.5 -140t-67.5 -153l-281 -612h-115zM631 1286q0 37 23.5 62.5 t54.5 25.5q61 0 61 -65q0 -35 -23.5 -59.5t-54.5 -24.5q-29 0 -45 16t-16 45zM942 1286q0 37 22.5 62.5t53.5 25.5q61 0 61 -65q0 -35 -22 -59.5t-53 -24.5q-29 0 -45.5 16t-16.5 45z" />
<glyph unicode="&#x1e8e;" horiz-adv-x="886" d="M174 1350h90l113 -426q14 -53 38.5 -150.5t37.5 -140.5h8q33 47 97.5 145.5t96.5 145.5l295 426h94l-559 -801l-110 -549h-88l110 549zM545 1548q0 39 25.5 65.5t60.5 26.5q29 0 49 -19t20 -52q0 -37 -26.5 -62.5t-59.5 -25.5q-31 0 -50 18.5t-19 48.5z" />
<glyph unicode="&#x1e8f;" horiz-adv-x="858" d="M-160 -424l33 68q35 -18 70 -19q166 0 301 275l43 86l-166 997h84l96 -616q31 -199 41 -293h8q131 252 154 293l332 616h86l-607 -1104q-78 -150 -167 -239t-211 -89q-47 0 -97 25zM481 1288q0 39 27 65.5t59 26.5q31 0 50.5 -19.5t19.5 -49.5q0 -37 -25.5 -63.5 t-60.5 -26.5q-29 0 -49.5 19.5t-20.5 47.5z" />
<glyph unicode="&#x1e92;" horiz-adv-x="1034" d="M2 0l12 53l953 1221h-666l16 76h770l-10 -54l-948 -1220h735l-16 -76h-846zM293 -350q0 39 25.5 65.5t60.5 26.5q31 0 50.5 -19.5t19.5 -50.5q0 -37 -27 -63.5t-60 -26.5q-29 0 -49 19.5t-20 48.5z" />
<glyph unicode="&#x1e93;" horiz-adv-x="804" d="M-47 0l8 51l735 858h-501l16 74h608l-8 -51l-733 -858h575l-14 -74h-686zM184 -334q0 39 26 65.5t60 26.5q29 0 48.5 -19.5t19.5 -49.5q0 -37 -25.5 -63.5t-60.5 -26.5q-29 0 -48.5 19.5t-19.5 47.5z" />
<glyph unicode="&#x1e97;" horiz-adv-x="612" d="M137 909l13 66l159 8l68 281h72l-58 -281h266l-16 -74h-266l-133 -645q-8 -49 -9 -78q0 -70 31 -103.5t109 -33.5q49 0 119 35l22 -64q-86 -45 -158 -45q-109 0 -157.5 54.5t-48.5 140.5q0 28 8 98l133 641h-154zM229 1559q0 37 22.5 62.5t53.5 25.5q61 0 62 -66 q0 -35 -22.5 -59.5t-53.5 -24.5q-29 0 -45.5 17.5t-16.5 44.5zM539 1559q0 37 23.5 62.5t53.5 25.5q61 0 62 -66q0 -35 -23.5 -59.5t-54.5 -24.5q-27 0 -44 17.5t-17 44.5z" />
<glyph unicode="&#x1e9e;" horiz-adv-x="1249" d="M80 0l178 899q45 219 177 348t337 129q160 0 256 -73.5t139 -241.5l-374 -322q176 -49 270 -149.5t94 -214.5q0 -170 -109.5 -285t-281.5 -115q-236 0 -356 193l61 49q111 -168 297 -168q125 0 212 93.5t87 219.5q0 229 -377 328l8 64l379 325q-76 223 -311 224 q-158 0 -271.5 -111t-156.5 -330l-170 -862h-88z" />
<glyph unicode="&#x1ea0;" horiz-adv-x="999" d="M-98 0l743 1350h96l166 -1350h-88l-53 469h-514l-252 -469h-98zM291 541h467l-31 260q-6 61 -22.5 217t-24.5 244h-8q-66 -133 -242 -461zM309 -334q0 39 25.5 65.5t60.5 26.5q29 0 48.5 -19.5t19.5 -49.5q0 -37 -25.5 -63.5t-60.5 -26.5q-29 0 -48.5 19.5t-19.5 47.5z " />
<glyph unicode="&#x1ea1;" horiz-adv-x="1079" d="M90 330q0 279 163 478.5t372 199.5q166 0 254 -160h6l39 135h69l-196 -983h-72l23 156h-9q-174 -180 -362 -181q-131 0 -209 92.5t-78 262.5zM176 346q0 -145 57.5 -221t161.5 -76q184 0 369 213l102 494q-100 178 -243 178q-174 0 -310.5 -182.5t-136.5 -405.5z M332 -334q0 39 26.5 65.5t59.5 26.5q31 0 50 -19.5t19 -49.5q0 -37 -25.5 -63.5t-60.5 -26.5q-29 0 -49 19.5t-20 47.5z" />
<glyph unicode="&#x1ea2;" horiz-adv-x="999" d="M-98 0l743 1350h96l166 -1350h-88l-53 469h-514l-252 -469h-98zM291 541h467l-31 260q-6 61 -22.5 217t-24.5 244h-8q-66 -133 -242 -461zM590 1485q84 27 123 56.5t39 74.5q0 41 -33 61.5t-119 28.5l14 57q209 -12 209 -131q0 -76 -56.5 -121.5t-160.5 -74.5z" />
<glyph unicode="&#x1ea3;" horiz-adv-x="1079" d="M90 330q0 279 163 478.5t372 199.5q166 0 254 -160h6l39 135h69l-196 -983h-72l23 156h-9q-174 -180 -362 -181q-131 0 -209 92.5t-78 262.5zM176 346q0 -145 57.5 -221t161.5 -76q184 0 369 213l102 494q-100 178 -243 178q-174 0 -310.5 -182.5t-136.5 -405.5z M608 1178q84 29 123 57.5t39 73.5q0 41 -33 61.5t-119 28.5l15 57q209 -12 209 -131q0 -76 -56.5 -122t-160.5 -75z" />
<glyph unicode="&#x1ea4;" horiz-adv-x="999" d="M-98 0l743 1350h96l166 -1350h-88l-53 469h-514l-252 -469h-98zM291 541h467l-31 260q-6 61 -22.5 217t-24.5 244h-8q-66 -133 -242 -461zM475 1452l217 201h74l143 -201h-71l-111 139h-8l-166 -139h-78zM874 1573l175 217h84l-193 -217h-66z" />
<glyph unicode="&#x1ea5;" horiz-adv-x="1079" d="M90 330q0 279 163 478.5t372 199.5q166 0 254 -160h6l39 135h69l-196 -983h-72l23 156h-9q-174 -180 -362 -181q-131 0 -209 92.5t-78 262.5zM176 346q0 -145 57.5 -221t161.5 -76q184 0 369 213l102 494q-100 178 -243 178q-174 0 -310.5 -182.5t-136.5 -405.5z M459 1167l217 234h59l121 -234h-63l-95 158h-8l-158 -158h-73zM852 1300l192 228h91l-213 -228h-70z" />
<glyph unicode="&#x1ea6;" horiz-adv-x="999" d="M-98 0l743 1350h96l166 -1350h-88l-53 469h-514l-252 -469h-98zM291 541h467l-31 260q-6 61 -22.5 217t-24.5 244h-8q-66 -133 -242 -461zM475 1452l217 201h74l143 -201h-71l-111 139h-8l-166 -139h-78zM836 1790h79l105 -217h-57z" />
<glyph unicode="&#x1ea7;" horiz-adv-x="1079" d="M90 330q0 279 163 478.5t372 199.5q166 0 254 -160h6l39 135h69l-196 -983h-72l23 156h-9q-174 -180 -362 -181q-131 0 -209 92.5t-78 262.5zM176 346q0 -145 57.5 -221t161.5 -76q184 0 369 213l102 494q-100 178 -243 178q-174 0 -310.5 -182.5t-136.5 -405.5z M459 1167l217 234h59l121 -234h-63l-95 158h-8l-158 -158h-73zM831 1528h84l103 -228h-62z" />
<glyph unicode="&#x1ea8;" horiz-adv-x="999" d="M-98 0l743 1350h96l166 -1350h-88l-53 469h-514l-252 -469h-98zM291 541h467l-31 260q-6 61 -22.5 217t-24.5 244h-8q-66 -133 -242 -461zM475 1452l217 201h74l143 -201h-71l-111 139h-8l-166 -139h-78zM903 1593q135 35 135 121q0 66 -129 72l13 53q90 0 138 -31.5 t48 -78.5q0 -133 -190 -183z" />
<glyph unicode="&#x1ea9;" horiz-adv-x="1079" d="M90 330q0 279 163 478.5t372 199.5q166 0 254 -160h6l39 135h69l-196 -983h-72l23 156h-9q-174 -180 -362 -181q-131 0 -209 92.5t-78 262.5zM176 346q0 -145 57.5 -221t161.5 -76q184 0 369 213l102 494q-100 178 -243 178q-174 0 -310.5 -182.5t-136.5 -405.5z M459 1167l217 234h59l121 -234h-63l-95 158h-8l-158 -158h-73zM872 1329q135 41 136 121q0 39 -28.5 59.5t-100.5 28.5l14 53q90 -6 138 -39.5t48 -85.5q0 -131 -192 -184z" />
<glyph unicode="&#x1eaa;" horiz-adv-x="999" d="M-98 0l743 1350h96l166 -1350h-88l-53 469h-514l-252 -469h-98zM291 541h467l-31 260q-6 61 -22.5 217t-24.5 244h-8q-66 -133 -242 -461zM475 1452l217 201h74l143 -201h-71l-111 139h-8l-166 -139h-78zM502 1722q14 70 58 121t104 51q49 0 107 -57t95 -57 q64 -1 101 110h55q-14 -70 -59 -121t-103 -51q-49 0 -107.5 57.5t-95.5 57.5q-63 0 -100 -111h-55z" />
<glyph unicode="&#x1eab;" horiz-adv-x="1079" d="M90 330q0 279 163 478.5t372 199.5q166 0 254 -160h6l39 135h69l-196 -983h-72l23 156h-9q-174 -180 -362 -181q-131 0 -209 92.5t-78 262.5zM176 346q0 -145 57.5 -221t161.5 -76q184 0 369 213l102 494q-100 178 -243 178q-174 0 -310.5 -182.5t-136.5 -405.5z M440 1167l222 197h75l144 -197h-66l-121 131h-8l-170 -131h-76zM483 1442q18 66 60.5 111.5t91.5 45.5q57 0 110.5 -50t88.5 -50q25 0 53 28.5t41 67.5h53q-18 -66 -60 -111.5t-92 -45.5q-57 0 -110 50t-88 50q-25 0 -52.5 -28.5t-41.5 -67.5h-54z" />
<glyph unicode="&#x1eac;" horiz-adv-x="999" d="M-98 0l743 1350h96l166 -1350h-88l-53 469h-514l-252 -469h-98zM291 541h467l-31 260q-6 61 -22.5 217t-24.5 244h-8q-66 -133 -242 -461zM309 -334q0 39 25.5 65.5t60.5 26.5q29 0 48.5 -19.5t19.5 -49.5q0 -37 -25.5 -63.5t-60.5 -26.5q-29 0 -48.5 19.5t-19.5 47.5z M461 1450l229 213h76l147 -213h-71l-115 152h-8l-178 -152h-80z" />
<glyph unicode="&#x1ead;" horiz-adv-x="1079" d="M90 330q0 279 163 478.5t372 199.5q166 0 254 -160h6l39 135h69l-196 -983h-72l23 156h-9q-174 -180 -362 -181q-131 0 -209 92.5t-78 262.5zM176 346q0 -145 57.5 -221t161.5 -76q184 0 369 213l102 494q-100 178 -243 178q-174 0 -310.5 -182.5t-136.5 -405.5z M332 -334q0 39 26.5 65.5t59.5 26.5q31 0 50 -19.5t19 -49.5q0 -37 -25.5 -63.5t-60.5 -26.5q-29 0 -49 19.5t-20 47.5zM438 1167l250 279h60l137 -279h-66l-108 201h-9l-190 -201h-74z" />
<glyph unicode="&#x1eae;" horiz-adv-x="999" d="M-98 0l743 1350h96l166 -1350h-88l-53 469h-514l-252 -469h-98zM291 541h467l-31 260q-6 61 -22.5 217t-24.5 244h-8q-66 -133 -242 -461zM510 1657h55q-4 -63 30 -104.5t101 -41.5q72 0 122 42.5t75 103.5h59q-23 -80 -91 -142.5t-171 -62.5q-100 0 -144 62.5t-36 142.5 zM651 1632l199 199h90l-223 -199h-66z" />
<glyph unicode="&#x1eaf;" horiz-adv-x="1079" d="M90 330q0 279 163 478.5t372 199.5q166 0 254 -160h6l39 135h69l-196 -983h-72l23 156h-9q-174 -180 -362 -181q-131 0 -209 92.5t-78 262.5zM176 346q0 -145 57.5 -221t161.5 -76q184 0 369 213l102 494q-100 178 -243 178q-174 0 -310.5 -182.5t-136.5 -405.5z M483 1419h54q-6 -84 26.5 -132t106.5 -48q72 0 128 50t85 130h59q-33 -100 -101.5 -169.5t-177 -69.5t-149.5 70.5t-31 168.5zM633 1366l194 223h88l-215 -223h-67z" />
<glyph unicode="&#x1eb0;" horiz-adv-x="999" d="M-98 0l743 1350h96l166 -1350h-88l-53 469h-514l-252 -469h-98zM291 541h467l-31 260q-6 61 -22.5 217t-24.5 244h-8q-66 -133 -242 -461zM510 1657h55q-4 -63 30 -104.5t101 -41.5q72 0 122 42.5t75 103.5h59q-23 -80 -91 -142.5t-171 -62.5q-100 0 -144 62.5t-36 142.5 zM604 1831h80l107 -199h-62z" />
<glyph unicode="&#x1eb1;" horiz-adv-x="1079" d="M90 330q0 279 163 478.5t372 199.5q166 0 254 -160h6l39 135h69l-196 -983h-72l23 156h-9q-174 -180 -362 -181q-131 0 -209 92.5t-78 262.5zM176 346q0 -145 57.5 -221t161.5 -76q184 0 369 213l102 494q-100 178 -243 178q-174 0 -310.5 -182.5t-136.5 -405.5z M483 1419h54q-6 -84 26.5 -132t106.5 -48q72 0 128 50t85 130h59q-33 -100 -101.5 -169.5t-177 -69.5t-149.5 70.5t-31 168.5zM582 1589h77l105 -223h-62z" />
<glyph unicode="&#x1eb2;" horiz-adv-x="999" d="M-98 0l743 1350h96l166 -1350h-88l-53 469h-514l-252 -469h-98zM291 541h467l-31 260q-6 61 -22.5 217t-24.5 244h-8q-66 -133 -242 -461zM510 1657h55q-4 -63 30 -104.5t101 -41.5q72 0 122 42.5t75 103.5h59q-23 -80 -91 -142.5t-171 -62.5q-100 0 -144 62.5t-36 142.5 zM662 1671q135 37 135 121q0 66 -129 72l12 53q90 0 138 -31t48 -78q0 -135 -190 -184z" />
<glyph unicode="&#x1eb3;" horiz-adv-x="1079" d="M90 330q0 279 163 478.5t372 199.5q166 0 254 -160h6l39 135h69l-196 -983h-72l23 156h-9q-174 -180 -362 -181q-131 0 -209 92.5t-78 262.5zM176 346q0 -145 57.5 -221t161.5 -76q184 0 369 213l102 494q-100 178 -243 178q-174 0 -310.5 -182.5t-136.5 -405.5z M483 1419h54q-6 -84 26.5 -132t106.5 -48q72 0 128 50t85 130h59q-33 -100 -101.5 -169.5t-177 -69.5t-149.5 70.5t-31 168.5zM651 1427q125 43 125 117q0 39 -25.5 55.5t-97.5 26.5l15 55q178 -12 178 -120q0 -70 -45 -111t-135 -72z" />
<glyph unicode="&#x1eb4;" horiz-adv-x="999" d="M-98 0l743 1350h96l166 -1350h-88l-53 469h-514l-252 -469h-98zM291 541h467l-31 260q-6 61 -22.5 217t-24.5 244h-8q-66 -133 -242 -461zM502 1722q14 70 58 121t104 51q49 0 107 -57t95 -57q64 -1 101 110h55q-14 -70 -59 -121t-103 -51q-49 0 -107.5 57.5t-95.5 57.5 q-63 0 -100 -111h-55zM510 1657h55q-4 -63 30 -104.5t101 -41.5q72 0 122 42t75 104h59q-23 -80 -91 -142.5t-171 -62.5q-100 0 -144 62.5t-36 142.5z" />
<glyph unicode="&#x1eb5;" horiz-adv-x="1079" d="M90 330q0 279 163 478.5t372 199.5q166 0 254 -160h6l39 135h69l-196 -983h-72l23 156h-9q-174 -180 -362 -181q-131 0 -209 92.5t-78 262.5zM176 346q0 -145 57.5 -221t161.5 -76q184 0 369 213l102 494q-100 178 -243 178q-174 0 -310.5 -182.5t-136.5 -405.5z M479 1384h56q-4 -63 30.5 -104t102 -41t125 43t86.5 102h59q-33 -82 -103.5 -143t-173 -61t-145.5 61.5t-37 142.5zM483 1442q18 66 60.5 111.5t91.5 45.5q57 0 110.5 -50t88.5 -50q25 0 53 28.5t41 67.5h53q-18 -66 -60 -111.5t-92 -45.5q-57 0 -110 50t-88 50 q-25 0 -52.5 -28.5t-41.5 -67.5h-54z" />
<glyph unicode="&#x1eb6;" horiz-adv-x="999" d="M-98 0l743 1350h96l166 -1350h-88l-53 469h-514l-252 -469h-98zM291 541h467l-31 260q-6 61 -22.5 217t-24.5 244h-8q-66 -133 -242 -461zM309 -334q0 39 25.5 65.5t60.5 26.5q29 0 48.5 -19.5t19.5 -49.5q0 -37 -25.5 -63.5t-60.5 -26.5q-29 0 -48.5 19.5t-19.5 47.5z M506 1665h57q-4 -63 30 -106t103 -43q68 0 117 44t74 105h61q-27 -86 -94.5 -149.5t-167.5 -63.5t-144 65.5t-36 147.5z" />
<glyph unicode="&#x1eb7;" horiz-adv-x="1079" d="M90 330q0 279 163 478.5t372 199.5q166 0 254 -160h6l39 135h69l-196 -983h-72l23 156h-9q-174 -180 -362 -181q-131 0 -209 92.5t-78 262.5zM176 346q0 -145 57.5 -221t161.5 -76q184 0 369 213l102 494q-100 178 -243 178q-174 0 -310.5 -182.5t-136.5 -405.5z M332 -334q0 39 26.5 65.5t59.5 26.5q31 0 50 -19.5t19 -49.5q0 -37 -25.5 -63.5t-60.5 -26.5q-29 0 -49 19.5t-20 47.5zM485 1419h58q-14 -178 129 -178q72 0 127 49t82 129h61q-33 -100 -100.5 -169.5t-176 -69.5t-149.5 70.5t-31 168.5z" />
<glyph unicode="&#x1eb8;" horiz-adv-x="1001" d="M80 0l268 1350h713l-17 -76h-624l-105 -520h529l-17 -76h-524l-123 -602h643l-16 -76h-727zM350 -334q0 39 26.5 65.5t59.5 26.5q31 0 50.5 -19.5t19.5 -49.5q0 -37 -25.5 -63.5t-60.5 -26.5q-29 0 -49.5 19.5t-20.5 47.5z" />
<glyph unicode="&#x1eb9;" horiz-adv-x="964" d="M86 381q0 268 156.5 447.5t355.5 179.5q152 0 223.5 -93.5t71.5 -255.5q0 -88 -27 -172h-686q-37 -219 49 -329.5t244 -110.5q115 0 246 96l39 -61q-147 -106 -297 -107q-174 0 -274.5 105.5t-100.5 300.5zM193 555h610q12 57 12 117q0 113 -54 188.5t-171 75.5 q-131 0 -244.5 -107.5t-152.5 -273.5zM305 -334q0 39 25.5 65.5t60.5 26.5q31 0 50.5 -19.5t19.5 -49.5q0 -37 -26.5 -63.5t-59.5 -26.5q-29 0 -49.5 19.5t-20.5 47.5z" />
<glyph unicode="&#x1eba;" horiz-adv-x="1001" d="M80 0l268 1350h713l-17 -76h-624l-105 -520h529l-17 -76h-524l-123 -602h643l-16 -76h-727zM623 1485q84 27 122.5 56.5t38.5 74.5q0 41 -32.5 61.5t-118.5 28.5l14 57q209 -12 209 -131q0 -76 -56.5 -122t-160.5 -74z" />
<glyph unicode="&#x1ebb;" horiz-adv-x="964" d="M86 381q0 268 156.5 447.5t355.5 179.5q152 0 223.5 -93.5t71.5 -255.5q0 -88 -27 -172h-686q-37 -219 49 -329.5t244 -110.5q115 0 246 96l39 -61q-147 -106 -297 -107q-174 0 -274.5 105.5t-100.5 300.5zM193 555h610q12 57 12 117q0 113 -54 188.5t-171 75.5 q-131 0 -244.5 -107.5t-152.5 -273.5zM575 1178q84 29 123 57.5t39 73.5q0 41 -32.5 61.5t-118.5 28.5l14 57q209 -12 209 -131q0 -76 -56.5 -122t-160.5 -75z" />
<glyph unicode="&#x1ebc;" horiz-adv-x="1001" d="M80 0l268 1350h713l-17 -76h-624l-105 -520h529l-17 -76h-524l-123 -602h643l-16 -76h-727zM465 1466q14 72 63.5 128.5t112.5 56.5q49 0 106.5 -61.5t96.5 -61.5q70 0 108 119h58q-14 -72 -63.5 -128.5t-112.5 -56.5q-49 0 -106.5 61.5t-96.5 61.5q-68 0 -109 -119h-57z " />
<glyph unicode="&#x1ebd;" horiz-adv-x="964" d="M86 381q0 268 156.5 447.5t355.5 179.5q152 0 223.5 -93.5t71.5 -255.5q0 -88 -27 -172h-686q-37 -219 49 -329.5t244 -110.5q115 0 246 96l39 -61q-147 -106 -297 -107q-174 0 -274.5 105.5t-100.5 300.5zM193 555h610q12 57 12 117q0 113 -54 188.5t-171 75.5 q-131 0 -244.5 -107.5t-152.5 -273.5zM381 1190q23 78 64.5 129t97.5 51q61 0 117.5 -59.5t97.5 -59.5q53 0 96 115h57q-23 -76 -64.5 -128t-96.5 -52q-61 0 -118 60.5t-97 60.5q-54 0 -97 -117h-57z" />
<glyph unicode="&#x1ebe;" horiz-adv-x="1001" d="M80 0l268 1350h713l-17 -76h-624l-105 -520h529l-17 -76h-524l-123 -602h643l-16 -76h-727zM508 1452l219 201h72l143 -201h-72l-110 139h-8l-166 -139h-78zM907 1573l176 217h82l-192 -217h-66z" />
<glyph unicode="&#x1ebf;" horiz-adv-x="964" d="M86 381q0 268 156.5 447.5t355.5 179.5q152 0 223.5 -93.5t71.5 -255.5q0 -88 -27 -172h-686q-37 -219 49 -329.5t244 -110.5q115 0 246 96l39 -61q-147 -106 -297 -107q-174 0 -274.5 105.5t-100.5 300.5zM193 555h610q12 57 12 117q0 113 -54 188.5t-171 75.5 q-131 0 -244.5 -107.5t-152.5 -273.5zM418 1167l217 234h57l121 -234h-61l-97 158h-8l-158 -158h-71zM811 1300l190 228h91l-211 -228h-70z" />
<glyph unicode="&#x1ec0;" horiz-adv-x="1001" d="M80 0l268 1350h713l-17 -76h-624l-105 -520h529l-17 -76h-524l-123 -602h643l-16 -76h-727zM508 1452l219 201h72l143 -201h-72l-110 139h-8l-166 -139h-78zM868 1790h80l107 -217h-60z" />
<glyph unicode="&#x1ec1;" horiz-adv-x="964" d="M86 381q0 268 156.5 447.5t355.5 179.5q152 0 223.5 -93.5t71.5 -255.5q0 -88 -27 -172h-686q-37 -219 49 -329.5t244 -110.5q115 0 246 96l39 -61q-147 -106 -297 -107q-174 0 -274.5 105.5t-100.5 300.5zM193 555h610q12 57 12 117q0 113 -54 188.5t-171 75.5 q-131 0 -244.5 -107.5t-152.5 -273.5zM418 1167l217 234h57l121 -234h-61l-97 158h-8l-158 -158h-71zM791 1528h81l105 -228h-64z" />
<glyph unicode="&#x1ec2;" horiz-adv-x="1001" d="M80 0l268 1350h713l-17 -76h-624l-105 -520h529l-17 -76h-524l-123 -602h643l-16 -76h-727zM508 1452l219 201h72l143 -201h-72l-110 139h-8l-166 -139h-78zM936 1593q135 35 135 121q0 66 -129 72l12 53q90 0 138.5 -31.5t48.5 -78.5q0 -133 -191 -183z" />
<glyph unicode="&#x1ec3;" horiz-adv-x="964" d="M86 381q0 268 156.5 447.5t355.5 179.5q152 0 223.5 -93.5t71.5 -255.5q0 -88 -27 -172h-686q-37 -219 49 -329.5t244 -110.5q115 0 246 96l39 -61q-147 -106 -297 -107q-174 0 -274.5 105.5t-100.5 300.5zM193 555h610q12 57 12 117q0 113 -54 188.5t-171 75.5 q-131 0 -244.5 -107.5t-152.5 -273.5zM418 1167l217 234h57l121 -234h-61l-97 158h-8l-158 -158h-71zM831 1329q135 41 136 121q0 39 -28.5 59.5t-100.5 28.5l12 53q92 -6 139 -39.5t47 -85.5q0 -129 -190 -184z" />
<glyph unicode="&#x1ec4;" horiz-adv-x="1001" d="M80 0l268 1350h713l-17 -76h-624l-105 -520h529l-17 -76h-524l-123 -602h643l-16 -76h-727zM508 1452l219 201h72l143 -201h-72l-110 139h-8l-166 -139h-78zM535 1722q14 72 59 122t104 50q47 0 106.5 -57t94.5 -57q61 0 102 110h54q-14 -70 -59.5 -121t-102.5 -51 q-49 0 -107.5 57.5t-93.5 57.5q-66 0 -102 -111h-55z" />
<glyph unicode="&#x1ec5;" horiz-adv-x="964" d="M86 381q0 268 156.5 447.5t355.5 179.5q152 0 223.5 -93.5t71.5 -255.5q0 -88 -27 -172h-686q-37 -219 49 -329.5t244 -110.5q115 0 246 96l39 -61q-147 -106 -297 -107q-174 0 -274.5 105.5t-100.5 300.5zM193 555h610q12 57 12 117q0 113 -54 188.5t-171 75.5 q-131 0 -244.5 -107.5t-152.5 -273.5zM397 1167l224 197h73l144 -197h-64l-123 131h-8l-168 -131h-78zM440 1442q18 66 60.5 111.5t91.5 45.5q57 0 110.5 -50t90.5 -50q25 0 52 28.5t40 67.5h55q-18 -66 -61 -111.5t-93 -45.5q-57 0 -109 50t-89 50q-25 0 -52.5 -28.5 t-39.5 -67.5h-56z" />
<glyph unicode="&#x1ec6;" horiz-adv-x="1001" d="M80 0l268 1350h713l-17 -76h-624l-105 -520h529l-17 -76h-524l-123 -602h643l-16 -76h-727zM350 -334q0 39 26.5 65.5t59.5 26.5q31 0 50.5 -19.5t19.5 -49.5q0 -37 -25.5 -63.5t-60.5 -26.5q-29 0 -49.5 19.5t-20.5 47.5zM494 1450l229 213h76l147 -213h-72l-114 152h-8 l-179 -152h-79z" />
<glyph unicode="&#x1ec7;" horiz-adv-x="964" d="M86 381q0 268 156.5 447.5t355.5 179.5q152 0 223.5 -93.5t71.5 -255.5q0 -88 -27 -172h-686q-37 -219 49 -329.5t244 -110.5q115 0 246 96l39 -61q-147 -106 -297 -107q-174 0 -274.5 105.5t-100.5 300.5zM193 555h610q12 57 12 117q0 113 -54 188.5t-171 75.5 q-131 0 -244.5 -107.5t-152.5 -273.5zM305 -334q0 39 25.5 65.5t60.5 26.5q31 0 50.5 -19.5t19.5 -49.5q0 -37 -26.5 -63.5t-59.5 -26.5q-29 0 -49.5 19.5t-20.5 47.5zM399 1167l250 279h60l137 -279h-64l-110 201h-8l-191 -201h-74z" />
<glyph unicode="&#x1ec8;" horiz-adv-x="464" d="M80 0l268 1350h88l-268 -1350h-88zM301 1485q84 27 123 56.5t39 74.5q0 41 -33 61.5t-119 28.5l15 57q209 -12 209 -131q0 -76 -56.5 -122t-161.5 -74z" />
<glyph unicode="&#x1ec9;" horiz-adv-x="450" d="M82 0l199 983h84l-197 -983h-86zM313 1178q84 29 123 57.5t39 73.5q0 41 -32.5 61.5t-118.5 28.5l14 57q209 -12 209 -131q0 -76 -56.5 -122t-160.5 -75z" />
<glyph unicode="&#x1eca;" horiz-adv-x="464" d="M6 -348q0 39 25.5 65.5t60.5 26.5q29 0 48.5 -20.5t19.5 -51.5q0 -37 -25.5 -62.5t-60.5 -25.5q-29 0 -48.5 18.5t-19.5 49.5zM80 0l268 1350h88l-268 -1350h-88z" />
<glyph unicode="&#x1ecb;" horiz-adv-x="450" d="M2 -334q0 39 25.5 65.5t60.5 26.5q31 0 50.5 -19.5t19.5 -49.5q0 -37 -26.5 -63.5t-59.5 -26.5q-29 0 -49.5 19.5t-20.5 47.5zM82 0l199 983h84l-197 -983h-86zM307 1288q0 39 25.5 65.5t60.5 26.5q29 0 48.5 -19.5t19.5 -49.5q0 -37 -25.5 -63.5t-60.5 -26.5 q-29 0 -48.5 19.5t-19.5 47.5z" />
<glyph unicode="&#x1ecc;" horiz-adv-x="1265" d="M125 537q0 195 74.5 383t225 321t341.5 133q217 0 329.5 -152.5t112.5 -408.5q0 -143 -45 -289.5t-123.5 -269.5t-204 -201t-268.5 -78q-215 0 -328.5 153t-113.5 409zM215 547q0 -229 88 -362.5t270 -133.5q164 0 293 124t191.5 293t62.5 335q0 229 -89 362t-271 133 q-164 0 -293 -123.5t-190.5 -292.5t-61.5 -335zM428 -334q0 39 25.5 65.5t60.5 26.5q29 0 48.5 -19.5t19.5 -49.5q0 -37 -25.5 -63.5t-60.5 -26.5q-29 0 -48.5 19.5t-19.5 47.5z" />
<glyph unicode="&#x1ecd;" horiz-adv-x="1032" d="M90 365q0 270 156.5 456.5t361.5 186.5q154 0 244 -102.5t90 -287.5q0 -268 -156.5 -455.5t-363.5 -187.5q-152 0 -242 103.5t-90 286.5zM174 377q0 -160 66.5 -244t189.5 -84q162 0 294 168t132 391q0 160 -65.5 243t-188.5 83q-162 0 -295 -168t-133 -389zM256 -334 q0 39 26.5 65.5t59.5 26.5q31 0 50.5 -19.5t19.5 -49.5q0 -37 -26.5 -63.5t-59.5 -26.5q-29 0 -49.5 19.5t-20.5 47.5z" />
<glyph unicode="&#x1ece;" horiz-adv-x="1265" d="M125 537q0 195 74.5 383t225 321t341.5 133q217 0 329.5 -152.5t112.5 -408.5q0 -143 -45 -289.5t-123.5 -269.5t-204 -201t-268.5 -78q-215 0 -328.5 153t-113.5 409zM215 547q0 -229 88 -362.5t270 -133.5q164 0 293 124t191.5 293t62.5 335q0 229 -89 362t-271 133 q-164 0 -293 -123.5t-190.5 -292.5t-61.5 -335zM715 1485q84 27 123 56.5t39 74.5q0 41 -33 61.5t-119 28.5l14 57q209 -12 209 -131q0 -76 -56 -122t-161 -74z" />
<glyph unicode="&#x1ecf;" horiz-adv-x="1032" d="M90 365q0 270 156.5 456.5t361.5 186.5q154 0 244 -102.5t90 -287.5q0 -268 -156.5 -455.5t-363.5 -187.5q-152 0 -242 103.5t-90 286.5zM174 377q0 -160 66.5 -244t189.5 -84q162 0 294 168t132 391q0 160 -65.5 243t-188.5 83q-162 0 -295 -168t-133 -389zM616 1178 q84 29 122 57.5t38 73.5q0 41 -31.5 61.5t-117.5 28.5l12 57q209 -12 209 -131q0 -76 -56.5 -122t-160.5 -75z" />
<glyph unicode="&#x1ed0;" horiz-adv-x="1265" d="M125 537q0 195 74.5 383t225 321t341.5 133q217 0 329.5 -152.5t112.5 -408.5q0 -143 -45 -289.5t-123.5 -269.5t-204 -201t-268.5 -78q-215 0 -328.5 153t-113.5 409zM215 547q0 -229 88 -362.5t270 -133.5q164 0 293 124t191.5 293t62.5 335q0 229 -89 362t-271 133 q-164 0 -293 -123.5t-190.5 -292.5t-61.5 -335zM600 1452l219 201h72l143 -201h-71l-111 139h-8l-166 -139h-78zM999 1573l177 217h81l-192 -217h-66z" />
<glyph unicode="&#x1ed1;" horiz-adv-x="1032" d="M90 365q0 270 156.5 456.5t361.5 186.5q154 0 244 -102.5t90 -287.5q0 -268 -156.5 -455.5t-363.5 -187.5q-152 0 -242 103.5t-90 286.5zM174 377q0 -160 66.5 -244t189.5 -84q162 0 294 168t132 391q0 160 -65.5 243t-188.5 83q-162 0 -295 -168t-133 -389zM467 1167 l217 234h59l121 -234h-63l-94 158h-9l-159 -158h-72zM860 1300l191 228h90l-211 -228h-70z" />
<glyph unicode="&#x1ed2;" horiz-adv-x="1265" d="M125 537q0 195 74.5 383t225 321t341.5 133q217 0 329.5 -152.5t112.5 -408.5q0 -143 -45 -289.5t-123.5 -269.5t-204 -201t-268.5 -78q-215 0 -328.5 153t-113.5 409zM215 547q0 -229 88 -362.5t270 -133.5q164 0 293 124t191.5 293t62.5 335q0 229 -89 362t-271 133 q-164 0 -293 -123.5t-190.5 -292.5t-61.5 -335zM600 1452l219 201h72l143 -201h-71l-111 139h-8l-166 -139h-78zM961 1790h79l107 -217h-60z" />
<glyph unicode="&#x1ed3;" horiz-adv-x="1032" d="M90 365q0 270 156.5 456.5t361.5 186.5q154 0 244 -102.5t90 -287.5q0 -268 -156.5 -455.5t-363.5 -187.5q-152 0 -242 103.5t-90 286.5zM174 377q0 -160 66.5 -244t189.5 -84q162 0 294 168t132 391q0 160 -65.5 243t-188.5 83q-162 0 -295 -168t-133 -389zM467 1167 l217 234h59l121 -234h-63l-94 158h-9l-159 -158h-72zM840 1528h82l104 -228h-61z" />
<glyph unicode="&#x1ed4;" horiz-adv-x="1265" d="M125 537q0 195 74.5 383t225 321t341.5 133q217 0 329.5 -152.5t112.5 -408.5q0 -143 -45 -289.5t-123.5 -269.5t-204 -201t-268.5 -78q-215 0 -328.5 153t-113.5 409zM215 547q0 -229 88 -362.5t270 -133.5q164 0 293 124t191.5 293t62.5 335q0 229 -89 362t-271 133 q-164 0 -293 -123.5t-190.5 -292.5t-61.5 -335zM600 1452l219 201h72l143 -201h-71l-111 139h-8l-166 -139h-78zM1028 1593q135 35 135 121q0 66 -129 72l13 53q90 0 138 -31.5t48 -78.5q0 -133 -191 -183z" />
<glyph unicode="&#x1ed5;" horiz-adv-x="1032" d="M90 365q0 270 156.5 456.5t361.5 186.5q154 0 244 -102.5t90 -287.5q0 -268 -156.5 -455.5t-363.5 -187.5q-152 0 -242 103.5t-90 286.5zM174 377q0 -160 66.5 -244t189.5 -84q162 0 294 168t132 391q0 160 -65.5 243t-188.5 83q-162 0 -295 -168t-133 -389zM467 1167 l217 234h59l121 -234h-63l-94 158h-9l-159 -158h-72zM881 1329q135 41 135 121q0 39 -28.5 59.5t-100.5 28.5l12 53q92 -6 139 -39.5t47 -85.5q0 -129 -190 -184z" />
<glyph unicode="&#x1ed6;" horiz-adv-x="1265" d="M125 537q0 195 74.5 383t225 321t341.5 133q217 0 329.5 -152.5t112.5 -408.5q0 -143 -45 -289.5t-123.5 -269.5t-204 -201t-268.5 -78q-215 0 -328.5 153t-113.5 409zM215 547q0 -229 88 -362.5t270 -133.5q164 0 293 124t191.5 293t62.5 335q0 229 -89 362t-271 133 q-164 0 -293 -123.5t-190.5 -292.5t-61.5 -335zM600 1452l219 201h72l143 -201h-71l-111 139h-8l-166 -139h-78zM627 1722q14 72 59 122t105 50q49 0 106 -57t94 -57q61 0 103 110h53q-14 -70 -59.5 -121t-102.5 -51q-49 0 -107.5 57.5t-93.5 57.5q-66 0 -102 -111h-55z" />
<glyph unicode="&#x1ed7;" horiz-adv-x="1032" d="M90 365q0 270 156.5 456.5t361.5 186.5q154 0 244 -102.5t90 -287.5q0 -268 -156.5 -455.5t-363.5 -187.5q-152 0 -242 103.5t-90 286.5zM174 377q0 -160 66.5 -244t189.5 -84q162 0 294 168t132 391q0 160 -65.5 243t-188.5 83q-162 0 -295 -168t-133 -389zM446 1167 l224 197h73l144 -197h-64l-121 131h-8l-170 -131h-78zM489 1442q18 66 61.5 111.5t92.5 45.5q57 0 109.5 -50t89.5 -50q25 0 52.5 28.5t39.5 67.5h55q-18 -66 -60 -111.5t-91 -45.5q-57 0 -110.5 50t-90.5 50q-25 0 -52.5 -28.5t-39.5 -67.5h-56z" />
<glyph unicode="&#x1ed8;" horiz-adv-x="1265" d="M125 537q0 195 74.5 383t225 321t341.5 133q217 0 329.5 -152.5t112.5 -408.5q0 -143 -45 -289.5t-123.5 -269.5t-204 -201t-268.5 -78q-215 0 -328.5 153t-113.5 409zM215 547q0 -229 88 -362.5t270 -133.5q164 0 293 124t191.5 293t62.5 335q0 229 -89 362t-271 133 q-164 0 -293 -123.5t-190.5 -292.5t-61.5 -335zM428 -334q0 39 25.5 65.5t60.5 26.5q29 0 48.5 -19.5t19.5 -49.5q0 -37 -25.5 -63.5t-60.5 -26.5q-29 0 -48.5 19.5t-19.5 47.5zM586 1450l229 213h76l147 -213h-71l-115 152h-8l-178 -152h-80z" />
<glyph unicode="&#x1ed9;" horiz-adv-x="1032" d="M90 365q0 270 156.5 456.5t361.5 186.5q154 0 244 -102.5t90 -287.5q0 -268 -156.5 -455.5t-363.5 -187.5q-152 0 -242 103.5t-90 286.5zM174 377q0 -160 66.5 -244t189.5 -84q162 0 294 168t132 391q0 160 -65.5 243t-188.5 83q-162 0 -295 -168t-133 -389zM256 -334 q0 39 26.5 65.5t59.5 26.5q31 0 50.5 -19.5t19.5 -49.5q0 -37 -26.5 -63.5t-59.5 -26.5q-29 0 -49.5 19.5t-20.5 47.5zM446 1167l250 279h58l139 -279h-66l-110 201h-8l-189 -201h-74z" />
<glyph unicode="&#x1eda;" horiz-adv-x="1265" d="M125 537q0 195 74.5 383t225 321t341.5 133q137 0 238 -65q94 4 156.5 46t62.5 109q-1 35 -9 64l72 28q18 -45 19 -79q0 -82 -64.5 -143.5t-171.5 -80.5q139 -152 139 -440q0 -143 -45 -289.5t-123.5 -269.5t-203.5 -201t-269 -78q-215 0 -328.5 153t-113.5 409zM215 547 q0 -229 88 -362.5t270 -133.5q164 0 293 124t191.5 293t62.5 335q0 229 -89 362t-271 133q-164 0 -293 -123.5t-190.5 -292.5t-61.5 -335zM731 1452l223 213h107l-252 -213h-78z" />
<glyph unicode="&#x1edb;" horiz-adv-x="1034" d="M90 365q0 270 156.5 456.5t361.5 186.5q98 0 176 -45q92 4 152.5 45t60.5 110q0 29 -10 62l72 30q18 -39 18 -80q0 -82 -60.5 -142t-170.5 -77q96 -106 96 -293q0 -268 -156.5 -455.5t-363.5 -187.5q-152 0 -242 103.5t-90 286.5zM174 377q0 -160 66.5 -244t189.5 -84 q162 0 294 168t132 391q0 160 -65.5 243t-188.5 83q-162 0 -295 -168t-133 -389zM541 1167l237 279h105l-265 -279h-77z" />
<glyph unicode="&#x1edc;" horiz-adv-x="1265" d="M125 537q0 195 74.5 383t225 321t341.5 133q137 0 238 -65q94 4 156.5 46t62.5 109q-1 35 -9 64l72 28q18 -45 19 -79q0 -82 -64.5 -143.5t-171.5 -80.5q139 -152 139 -440q0 -143 -45 -289.5t-123.5 -269.5t-203.5 -201t-269 -78q-215 0 -328.5 153t-113.5 409zM215 547 q0 -229 88 -362.5t270 -133.5q164 0 293 124t191.5 293t62.5 335q0 229 -89 362t-271 133q-164 0 -293 -123.5t-190.5 -292.5t-61.5 -335zM627 1665h96l156 -213h-74z" />
<glyph unicode="&#x1edd;" horiz-adv-x="1034" d="M90 365q0 270 156.5 456.5t361.5 186.5q98 0 176 -45q92 4 152.5 45t60.5 110q0 29 -10 62l72 30q18 -39 18 -80q0 -82 -60.5 -142t-170.5 -77q96 -106 96 -293q0 -268 -156.5 -455.5t-363.5 -187.5q-152 0 -242 103.5t-90 286.5zM174 377q0 -160 66.5 -244t189.5 -84 q162 0 294 168t132 391q0 160 -65.5 243t-188.5 83q-162 0 -295 -168t-133 -389zM545 1446h94l121 -279h-66z" />
<glyph unicode="&#x1ede;" horiz-adv-x="1265" d="M125 537q0 195 74.5 383t225 321t341.5 133q137 0 238 -65q94 4 156.5 46t62.5 109q-1 35 -9 64l72 28q18 -45 19 -79q0 -82 -64.5 -143.5t-171.5 -80.5q139 -152 139 -440q0 -143 -45 -289.5t-123.5 -269.5t-203.5 -201t-269 -78q-215 0 -328.5 153t-113.5 409zM215 547 q0 -229 88 -362.5t270 -133.5q164 0 293 124t191.5 293t62.5 335q0 229 -89 362t-271 133q-164 0 -293 -123.5t-190.5 -292.5t-61.5 -335zM707 1485q84 27 122.5 56.5t38.5 74.5q0 41 -32.5 61.5t-118.5 28.5l14 57q209 -12 209 -131q0 -76 -56.5 -121.5t-160.5 -74.5z" />
<glyph unicode="&#x1edf;" horiz-adv-x="1034" d="M90 365q0 270 156.5 456.5t361.5 186.5q98 0 176 -45q92 4 152.5 45t60.5 110q0 29 -10 62l72 30q18 -39 18 -80q0 -82 -60.5 -142t-170.5 -77q96 -106 96 -293q0 -268 -156.5 -455.5t-363.5 -187.5q-152 0 -242 103.5t-90 286.5zM174 377q0 -160 66.5 -244t189.5 -84 q162 0 294 168t132 391q0 160 -65.5 243t-188.5 83q-162 0 -295 -168t-133 -389zM602 1178q84 29 123 57.5t39 73.5q0 41 -33 61.5t-119 28.5l15 57q209 -12 209 -131q0 -76 -57 -122t-161 -75z" />
<glyph unicode="&#x1ee0;" horiz-adv-x="1265" d="M125 537q0 195 74.5 383t225 321t341.5 133q137 0 238 -65q94 4 156.5 46t62.5 109q-1 35 -9 64l72 28q18 -45 19 -79q0 -82 -64.5 -143.5t-171.5 -80.5q139 -152 139 -440q0 -143 -45 -289.5t-123.5 -269.5t-203.5 -201t-269 -78q-215 0 -328.5 153t-113.5 409zM215 547 q0 -229 88 -362.5t270 -133.5q164 0 293 124t191.5 293t62.5 335q0 229 -89 362t-271 133q-164 0 -293 -123.5t-190.5 -292.5t-61.5 -335zM549 1466q14 72 63.5 128.5t112.5 56.5q49 0 106.5 -61.5t96.5 -61.5q69 0 108 119h58q-14 -72 -63.5 -128.5t-112.5 -56.5 q-49 0 -106.5 61.5t-96.5 61.5q-68 0 -109 -119h-57z" />
<glyph unicode="&#x1ee1;" horiz-adv-x="1034" d="M90 365q0 270 156.5 456.5t361.5 186.5q98 0 176 -45q92 4 152.5 45t60.5 110q0 29 -10 62l72 30q18 -39 18 -80q0 -82 -60.5 -142t-170.5 -77q96 -106 96 -293q0 -268 -156.5 -455.5t-363.5 -187.5q-152 0 -242 103.5t-90 286.5zM174 377q0 -160 66.5 -244t189.5 -84 q162 0 294 168t132 391q0 160 -65.5 243t-188.5 83q-162 0 -295 -168t-133 -389zM412 1190q55 180 163 180q61 0 118 -59.5t98 -59.5q53 0 96 115h57q-23 -76 -64.5 -128t-97.5 -52q-39 0 -70.5 18.5t-48 42t-42 42t-56.5 18.5q-51 0 -94 -117h-59z" />
<glyph unicode="&#x1ee2;" horiz-adv-x="1265" d="M125 537q0 195 74.5 383t225 321t341.5 133q137 0 238 -65q94 4 156.5 46t62.5 109q-1 35 -9 64l72 28q18 -45 19 -79q0 -82 -64.5 -143.5t-171.5 -80.5q139 -152 139 -440q0 -143 -45 -289.5t-123.5 -269.5t-203.5 -201t-269 -78q-215 0 -328.5 153t-113.5 409zM215 547 q0 -229 88 -362.5t270 -133.5q164 0 293 124t191.5 293t62.5 335q0 229 -89 362t-271 133q-164 0 -293 -123.5t-190.5 -292.5t-61.5 -335zM420 -334q0 39 25.5 65.5t60.5 26.5q29 0 48 -19.5t19 -49.5q0 -37 -25.5 -63.5t-60.5 -26.5q-29 0 -48 19.5t-19 47.5z" />
<glyph unicode="&#x1ee3;" horiz-adv-x="1034" d="M90 365q0 270 156.5 456.5t361.5 186.5q98 0 176 -45q92 4 152.5 45t60.5 110q0 29 -10 62l72 30q18 -39 18 -80q0 -82 -60.5 -142t-170.5 -77q96 -106 96 -293q0 -268 -156.5 -455.5t-363.5 -187.5q-152 0 -242 103.5t-90 286.5zM174 377q0 -160 66.5 -244t189.5 -84 q162 0 294 168t132 391q0 160 -65.5 243t-188.5 83q-162 0 -295 -168t-133 -389zM248 -334q0 39 25.5 65.5t60.5 26.5q29 0 48 -19.5t19 -49.5q0 -37 -25.5 -63.5t-60.5 -26.5q-29 0 -48 19.5t-19 47.5z" />
<glyph unicode="&#x1ee4;" horiz-adv-x="1228" d="M166 377q0 76 18 174l160 799h88l-158 -791q-20 -80 -20 -166q0 -164 79 -253t234 -89q137 0 241.5 107.5t149.5 337.5l170 854h89l-175 -867q-53 -266 -181 -387t-302 -121q-186 0 -289.5 104.5t-103.5 297.5zM385 -334q0 39 25.5 65.5t60.5 26.5q31 0 50.5 -19.5 t19.5 -49.5q0 -37 -26.5 -63.5t-59.5 -26.5q-29 0 -49.5 19.5t-20.5 47.5z" />
<glyph unicode="&#x1ee5;" horiz-adv-x="1060" d="M135 215q0 59 17 133l127 635h83l-124 -623q-16 -80 -17 -127q0 -182 174 -182q139 0 348 207l146 725h84l-197 -983h-69l20 160h-8q-104 -90 -185 -137.5t-163 -47.5q-236 0 -236 240zM362 -336q0 41 26 66.5t61 25.5q29 0 48 -19.5t19 -49.5q0 -37 -25.5 -62.5 t-60.5 -25.5q-29 0 -48.5 18t-19.5 47z" />
<glyph unicode="&#x1ee6;" horiz-adv-x="1228" d="M166 377q0 76 18 174l160 799h88l-158 -791q-20 -80 -20 -166q0 -164 79 -253t234 -89q137 0 241.5 107.5t149.5 337.5l170 854h89l-175 -867q-53 -266 -181 -387t-302 -121q-186 0 -289.5 104.5t-103.5 297.5zM692 1485q82 27 121 56.5t39 74.5q0 41 -32 61.5t-118 28.5 l15 57q209 -12 209 -131q0 -76 -56.5 -122t-160.5 -74z" />
<glyph unicode="&#x1ee7;" horiz-adv-x="1060" d="M135 215q0 59 17 133l127 635h83l-124 -623q-16 -80 -17 -127q0 -182 174 -182q139 0 348 207l146 725h84l-197 -983h-69l20 160h-8q-104 -90 -185 -137.5t-163 -47.5q-236 0 -236 240zM598 1178q84 29 122 57.5t38 73.5q0 41 -33 61.5t-119 28.5l15 57q209 -12 208 -131 q0 -76 -56 -122t-161 -75z" />
<glyph unicode="&#x1ee8;" horiz-adv-x="1245" d="M166 377q0 76 18 174l160 799h88l-158 -791q-20 -80 -20 -166q0 -164 79 -253t234 -89q137 0 241.5 107.5t149.5 337.5l170 854h23q90 2 154.5 45t64.5 108q0 29 -10 64l72 30q18 -39 18 -79q0 -82 -64.5 -144.5t-179.5 -79.5l-164 -811q-53 -266 -181 -387t-302 -121 q-186 0 -289.5 104.5t-103.5 297.5zM711 1452l223 213h106l-249 -213h-80z" />
<glyph unicode="&#x1ee9;" horiz-adv-x="1083" d="M135 215q0 59 17 133l127 635h83l-124 -623q-16 -80 -17 -127q0 -182 174 -182q139 0 348 207l146 725h18q78 10 135.5 51t57.5 105q0 34 -8 61l71 31q16 -41 17 -80q0 -80 -61.5 -141.5t-155.5 -77.5l-187 -932h-69l20 160h-8q-104 -90 -185 -137.5t-163 -47.5 q-236 0 -236 240zM537 1167l237 279h103l-265 -279h-75z" />
<glyph unicode="&#x1eea;" horiz-adv-x="1245" d="M166 377q0 76 18 174l160 799h88l-158 -791q-20 -80 -20 -166q0 -164 79 -253t234 -89q137 0 241.5 107.5t149.5 337.5l170 854h23q90 2 154.5 45t64.5 108q0 29 -10 64l72 30q18 -39 18 -79q0 -82 -64.5 -144.5t-179.5 -79.5l-164 -811q-53 -266 -181 -387t-302 -121 q-186 0 -289.5 104.5t-103.5 297.5zM608 1665h97l153 -213h-74z" />
<glyph unicode="&#x1eeb;" horiz-adv-x="1083" d="M135 215q0 59 17 133l127 635h83l-124 -623q-16 -80 -17 -127q0 -182 174 -182q139 0 348 207l146 725h18q78 10 135.5 51t57.5 105q0 34 -8 61l71 31q16 -41 17 -80q0 -80 -61.5 -141.5t-155.5 -77.5l-187 -932h-69l20 160h-8q-104 -90 -185 -137.5t-163 -47.5 q-236 0 -236 240zM541 1446h92l123 -279h-68z" />
<glyph unicode="&#x1eec;" horiz-adv-x="1245" d="M166 377q0 76 18 174l160 799h88l-158 -791q-20 -80 -20 -166q0 -164 79 -253t234 -89q137 0 241.5 107.5t149.5 337.5l170 854h23q90 2 154.5 45t64.5 108q0 29 -10 64l72 30q18 -39 18 -79q0 -82 -64.5 -144.5t-179.5 -79.5l-164 -811q-53 -266 -181 -387t-302 -121 q-186 0 -289.5 104.5t-103.5 297.5zM688 1485q82 27 121 56.5t39 74.5q0 41 -32 61.5t-118 28.5l15 57q209 -12 209 -131q-1 -135 -220 -196z" />
<glyph unicode="&#x1eed;" horiz-adv-x="1083" d="M135 215q0 59 17 133l127 635h83l-124 -623q-16 -80 -17 -127q0 -182 174 -182q139 0 348 207l146 725h18q78 10 135.5 51t57.5 105q0 34 -8 61l71 31q16 -41 17 -80q0 -80 -61.5 -141.5t-155.5 -77.5l-187 -932h-69l20 160h-8q-104 -90 -185 -137.5t-163 -47.5 q-236 0 -236 240zM598 1178q84 29 122 57.5t38 73.5q0 41 -33 61.5t-119 28.5l15 57q209 -12 208 -131q0 -76 -56.5 -122t-160.5 -75z" />
<glyph unicode="&#x1eee;" horiz-adv-x="1245" d="M166 377q0 76 18 174l160 799h88l-158 -791q-20 -80 -20 -166q0 -164 79 -253t234 -89q137 0 241.5 107.5t149.5 337.5l170 854h23q90 2 154.5 45t64.5 108q0 29 -10 64l72 30q18 -39 18 -79q0 -82 -64.5 -144.5t-179.5 -79.5l-164 -811q-53 -266 -181 -387t-302 -121 q-186 0 -289.5 104.5t-103.5 297.5zM530 1466q12 72 62.5 128.5t112.5 56.5q49 0 106 -61.5t96 -61.5q70 0 109 119h57q-14 -72 -63 -128.5t-113 -56.5q-47 0 -105.5 61.5t-97.5 61.5q-68 0 -106 -119h-58z" />
<glyph unicode="&#x1eef;" horiz-adv-x="1083" d="M135 215q0 59 17 133l127 635h83l-124 -623q-16 -80 -17 -127q0 -182 174 -182q139 0 348 207l146 725h18q78 10 135.5 51t57.5 105q0 34 -8 61l71 31q16 -41 17 -80q0 -80 -61.5 -141.5t-155.5 -77.5l-187 -932h-69l20 160h-8q-104 -90 -185 -137.5t-163 -47.5 q-236 0 -236 240zM408 1190q23 78 64.5 129t96.5 51q61 0 117.5 -59.5t97.5 -59.5q54 0 97 115h57q-23 -76 -65 -128t-97 -52q-61 0 -117.5 60.5t-97.5 60.5q-53 0 -96 -117h-57z" />
<glyph unicode="&#x1ef0;" horiz-adv-x="1245" d="M166 377q0 76 18 174l160 799h88l-158 -791q-20 -80 -20 -166q0 -164 79 -253t234 -89q137 0 241.5 107.5t149.5 337.5l170 854h23q90 2 154.5 45t64.5 108q0 29 -10 64l72 30q18 -39 18 -79q0 -82 -64.5 -144.5t-179.5 -79.5l-164 -811q-53 -266 -181 -387t-302 -121 q-186 0 -289.5 104.5t-103.5 297.5zM389 -334q0 39 25.5 65.5t60.5 26.5q31 0 50.5 -19.5t19.5 -49.5q0 -37 -26.5 -63.5t-59.5 -26.5q-29 0 -49.5 19.5t-20.5 47.5z" />
<glyph unicode="&#x1ef1;" horiz-adv-x="1083" d="M135 215q0 59 17 133l127 635h83l-124 -623q-16 -80 -17 -127q0 -182 174 -182q139 0 348 207l146 725h18q78 10 135.5 51t57.5 105q0 34 -8 61l71 31q16 -41 17 -80q0 -80 -61.5 -141.5t-155.5 -77.5l-187 -932h-69l20 160h-8q-104 -90 -185 -137.5t-163 -47.5 q-236 0 -236 240zM362 -336q0 41 26 66.5t61 25.5q29 0 48 -19.5t19 -49.5q0 -37 -25.5 -62.5t-60.5 -25.5q-29 0 -48.5 18t-19.5 47z" />
<glyph unicode="&#x1ef2;" horiz-adv-x="886" d="M174 1350h90l113 -426q14 -53 38.5 -150.5t37.5 -140.5h8q33 47 97.5 145.5t96.5 145.5l295 426h94l-559 -801l-110 -549h-88l110 549zM424 1665h96l154 -213h-72z" />
<glyph unicode="&#x1ef3;" horiz-adv-x="858" d="M-160 -424l33 68q35 -18 70 -19q166 0 301 275l43 86l-166 997h84l96 -616q31 -199 41 -293h8q131 252 154 293l332 616h86l-607 -1104q-78 -150 -167 -239t-211 -89q-47 0 -97 25zM424 1446h94l121 -279h-66z" />
<glyph unicode="&#x1ef4;" horiz-adv-x="886" d="M174 1350h90l113 -426q14 -53 38.5 -150.5t37.5 -140.5h8q33 47 97.5 145.5t96.5 145.5l295 426h94l-559 -801l-110 -549h-88l110 549zM219 -350q0 39 25.5 65.5t60.5 26.5q29 0 48.5 -19.5t19.5 -50.5q0 -37 -25.5 -63.5t-60.5 -26.5q-29 0 -48.5 19.5t-19.5 48.5z" />
<glyph unicode="&#x1ef5;" horiz-adv-x="858" d="M-160 -424l33 68q35 -18 70 -19q166 0 301 275l43 86l-166 997h84l96 -616q31 -199 41 -293h8q131 252 154 293l332 616h86l-607 -1104q-78 -150 -167 -239t-211 -89q-47 0 -97 25zM444 -350q0 39 27 65.5t59 26.5q31 0 50.5 -19.5t19.5 -50.5q0 -37 -26.5 -63.5 t-59.5 -26.5q-29 0 -49.5 19.5t-20.5 48.5z" />
<glyph unicode="&#x1ef6;" horiz-adv-x="886" d="M174 1350h90l113 -426q14 -53 38.5 -150.5t37.5 -140.5h8q33 47 97.5 145.5t96.5 145.5l295 426h94l-559 -801l-110 -549h-88l110 549zM504 1485q84 27 123 56.5t39 74.5q0 41 -33 61.5t-119 28.5l14 57q209 -12 209 -131q0 -76 -56 -122t-161 -74z" />
<glyph unicode="&#x1ef7;" horiz-adv-x="858" d="M-160 -424l33 68q35 -18 70 -19q166 0 301 275l43 86l-166 997h84l96 -616q31 -199 41 -293h8q131 252 154 293l332 616h86l-607 -1104q-78 -150 -167 -239t-211 -89q-47 0 -97 25zM481 1178q84 29 123 57.5t39 73.5q0 41 -32.5 61.5t-118.5 28.5l14 57q209 -12 209 -131 q0 -76 -56.5 -122t-160.5 -75z" />
<glyph unicode="&#x1ef8;" horiz-adv-x="886" d="M174 1350h90l113 -426q14 -53 38.5 -150.5t37.5 -140.5h8q33 47 97.5 145.5t96.5 145.5l295 426h94l-559 -801l-110 -549h-88l110 549zM346 1466q14 72 63.5 128.5t112.5 56.5q49 0 106.5 -61.5t96.5 -61.5q68 0 109 119h57q-14 -72 -64.5 -128.5t-111.5 -56.5 q-49 0 -106.5 61.5t-96.5 61.5q-70 0 -109 -119h-57z" />
<glyph unicode="&#x1ef9;" horiz-adv-x="858" d="M-160 -424l33 68q35 -18 70 -19q166 0 301 275l43 86l-166 997h84l96 -616q31 -199 41 -293h8q131 252 154 293l332 616h86l-607 -1104q-78 -150 -167 -239t-211 -89q-47 0 -97 25zM291 1190q55 180 164 180q61 0 116.5 -59.5t98.5 -59.5q53 0 96 115h57 q-23 -76 -64.5 -128t-96.5 -52q-39 0 -71 18.5t-48.5 42t-42 42t-56.5 18.5q-49 0 -96 -117h-57z" />
<glyph unicode="&#x2000;" horiz-adv-x="958" />
<glyph unicode="&#x2001;" horiz-adv-x="1917" />
<glyph unicode="&#x2002;" horiz-adv-x="958" />
<glyph unicode="&#x2003;" horiz-adv-x="1917" />
<glyph unicode="&#x2004;" horiz-adv-x="639" />
<glyph unicode="&#x2005;" horiz-adv-x="479" />
<glyph unicode="&#x2006;" horiz-adv-x="319" />
<glyph unicode="&#x2007;" />
<glyph unicode="&#x2008;" horiz-adv-x="239" />
<glyph unicode="&#x2009;" horiz-adv-x="383" />
<glyph unicode="&#x200a;" horiz-adv-x="106" />
<glyph unicode="&#x2010;" horiz-adv-x="587" d="M74 475l14 76h430l-16 -76h-428z" />
<glyph unicode="&#x2011;" horiz-adv-x="587" d="M74 475l14 76h430l-16 -76h-428z" />
<glyph unicode="&#x2012;" d="M74 479l14 70h786l-20 -70h-780z" />
<glyph unicode="&#x2013;" d="M74 479l14 70h784l-18 -70h-780z" />
<glyph unicode="&#x2014;" horiz-adv-x="1572" d="M74 479l14 70h1413l-16 -70h-1411z" />
<glyph unicode="&#x2015;" horiz-adv-x="1572" d="M74 479l14 70h1413l-16 -70h-1411z" />
<glyph unicode="&#x2018;" horiz-adv-x="436" d="M240 1087q0 113 60.5 202.5t162.5 142.5l26 -52q-168 -98 -172 -241h9q76 0 75 -70q0 -35 -22.5 -59.5t-54.5 -24.5q-37 0 -60.5 27.5t-23.5 74.5z" />
<glyph unicode="&#x2019;" horiz-adv-x="436" d="M231 1040q168 96 172 242h-8q-76 0 -76 70q0 35 24 59.5t56 24.5q37 0 59.5 -28t22.5 -75q0 -113 -60.5 -202t-162.5 -142z" />
<glyph unicode="&#x201a;" horiz-adv-x="436" d="M-33 -240q170 98 174 242h-10q-74 0 -74 70q0 35 22.5 59.5t55.5 24.5q37 0 59.5 -28t22.5 -75q0 -113 -59.5 -202t-161.5 -142z" />
<glyph unicode="&#x201c;" horiz-adv-x="710" d="M240 1087q0 113 60.5 202.5t162.5 142.5l26 -52q-168 -98 -172 -241h9q76 0 75 -70q0 -35 -22.5 -59.5t-54.5 -24.5q-37 0 -60.5 27.5t-23.5 74.5zM514 1087q0 113 60.5 202.5t162.5 142.5l27 -52q-168 -96 -172 -241h8q76 0 76 -70q0 -35 -22.5 -59.5t-55.5 -24.5 q-37 0 -60.5 27.5t-23.5 74.5z" />
<glyph unicode="&#x201d;" horiz-adv-x="710" d="M231 1040q168 96 172 242h-8q-76 0 -76 70q0 35 24 59.5t56 24.5q37 0 59.5 -28t22.5 -75q0 -113 -60.5 -202t-162.5 -142zM506 1040q168 96 172 242h-8q-76 0 -76 70q0 35 22.5 59.5t55.5 24.5q37 0 60.5 -28t23.5 -75q0 -113 -61 -202t-163 -142z" />
<glyph unicode="&#x201e;" horiz-adv-x="446" d="M-33 -240q170 98 174 242h-10q-74 0 -74 70q0 35 22.5 59.5t55.5 24.5q37 0 59.5 -28t22.5 -75q0 -113 -59.5 -202t-161.5 -142zM242 -240q168 96 172 242h-8q-76 0 -76 70q0 35 23.5 59.5t56.5 24.5q37 0 59.5 -28t22.5 -75q0 -113 -61 -202t-163 -142z" />
<glyph unicode="&#x2020;" horiz-adv-x="827" d="M229 1069l17 82l256 -6l57 313h82l-66 -313l259 6l-17 -82l-256 6l-244 -1239h-81l256 1239z" />
<glyph unicode="&#x2021;" horiz-adv-x="827" d="M45 143l16 80l258 -6l80 430l93 430l-263 -8l17 82l256 -6l57 313h82l-66 -313l259 6l-17 -82l-256 8l-80 -430l-92 -430l262 6l-16 -80l-258 4l-55 -311h-82l63 311z" />
<glyph unicode="&#x2022;" horiz-adv-x="561" d="M86 514q0 98 62.5 174t162.5 76q74 0 125 -55.5t51 -139.5q0 -100 -62.5 -175t-160.5 -75q-78 0 -128 54.5t-50 140.5z" />
<glyph unicode="&#x2026;" horiz-adv-x="1945" d="M186 47q0 41 30 75t71 34q63 0 63 -76q0 -41 -27.5 -73t-68.5 -32q-31 0 -49.5 20.5t-18.5 51.5zM870 47q0 41 30 75t71 34q63 0 63 -76q0 -41 -27.5 -73t-68.5 -32q-31 0 -49.5 20.5t-18.5 51.5zM1554 47q0 41 30 75t71 34q63 0 63 -76q0 -41 -27.5 -73t-68.5 -32 q-31 0 -49.5 20.5t-18.5 51.5z" />
<glyph unicode="&#x202f;" horiz-adv-x="383" />
<glyph unicode="&#x2030;" horiz-adv-x="2275" d="M135 831q0 125 39 246t124 210t197.5 89t173 -84t60.5 -217q0 -125 -39 -246.5t-124 -211t-197.5 -89.5t-173 85t-60.5 218zM211 842q0 -113 39 -181.5t123 -68.5q88 0 154.5 79t96 184.5t29.5 207.5q0 113 -38.5 181.5t-122.5 68.5q-88 0 -155 -79t-96.5 -183.5 t-29.5 -208.5zM268 -25l1004 1401h74l-1004 -1401h-74zM897 279q0 125 39 245.5t124 209.5t197.5 89t172 -84t59.5 -217q0 -125 -39 -246.5t-124 -211t-197.5 -89.5t-172 85t-59.5 219zM971 289q0 -113 40 -181.5t124 -68.5q127 0 203.5 152.5t76.5 318.5q0 113 -40 181.5 t-124 68.5q-127 0 -203.5 -151.5t-76.5 -319.5zM1597 279q0 125 39 245.5t124 209.5t198 89t172 -84t59 -217q0 -125 -39 -246.5t-123.5 -211t-197.5 -89.5t-172.5 85t-59.5 219zM1671 289q0 -113 40 -181.5t124 -68.5q127 0 204 152.5t77 318.5q0 113 -40 181.5t-124 68.5 q-127 0 -204 -151.5t-77 -319.5z" />
<glyph unicode="&#x2032;" horiz-adv-x="436" d="M250 985l137 434h80l-47 -149l-111 -285h-59z" />
<glyph unicode="&#x2033;" horiz-adv-x="712" d="M250 985l137 434h80l-47 -149l-111 -285h-59zM524 985l138 434h79l-47 -149l-112 -285h-58z" />
<glyph unicode="&#x2039;" horiz-adv-x="491" d="M82 483l14 82l324 316l39 -41l-299 -326l180 -336l-49 -31z" />
<glyph unicode="&#x203a;" horiz-adv-x="491" d="M43 188l299 326l-182 336l51 31l209 -336l-17 -82l-321 -316z" />
<glyph unicode="&#x2044;" horiz-adv-x="159" d="M-428 -25l1003 1401h74l-1003 -1401h-74z" />
<glyph unicode="&#x205f;" horiz-adv-x="479" />
<glyph unicode="&#x2070;" horiz-adv-x="708" d="M217 1180q0 125 39 245.5t124 209.5t197.5 89t173 -84t60.5 -217q0 -125 -39 -246.5t-124 -210.5t-197.5 -89t-173 85t-60.5 218zM293 1190q0 -113 39 -181.5t123 -68.5q88 0 154.5 79t96 184.5t29.5 207.5q0 113 -39 181.5t-123 68.5q-88 0 -154.5 -79t-96 -183.5 t-29.5 -208.5z" />
<glyph unicode="&#x2071;" horiz-adv-x="315" d="M125 532l129 652h70l-127 -652h-72zM270 1386q0 27 19.5 47.5t46.5 20.5q23 0 38 -15.5t15 -39.5q0 -29 -19 -48.5t-46 -19.5q-23 0 -38.5 15.5t-15.5 39.5z" />
<glyph unicode="&#x2074;" horiz-adv-x="712" d="M221 1139l8 45l459 516h64l-101 -502h119l-14 -59h-117l-47 -238h-68l47 238h-350zM317 1198h267l37 188l51 207h-8l-146 -168z" />
<glyph unicode="&#x2075;" horiz-adv-x="708" d="M184 1040l58 37q70 -137 223 -137q80 0 145.5 66.5t65.5 169.5q0 86 -46 135t-122 49q-51 0 -86 -16.5t-84 -53.5l-33 35l107 375h401l-14 -64h-336l-74 -254q59 39 133 39q100 0 164 -63.5t64 -169.5q0 -137 -89.5 -224t-209.5 -87q-92 0 -162 46.5t-105 116.5z" />
<glyph unicode="&#x2076;" horiz-adv-x="712" d="M240 1182q0 252 117.5 397t281.5 145q110 1 182 -65l-47 -51q-53 53 -141 53q-115 0 -206 -102.5t-110 -280.5q35 49 94.5 81t125.5 32q98 0 157.5 -60.5t59.5 -152.5q0 -137 -80 -219t-184.5 -82t-177 82.5t-72.5 222.5zM313 1196q0 -127 52.5 -191.5t130.5 -64.5 q74 0 130 64.5t56 160.5q0 76 -42 121t-114 45q-125 0 -213 -127v-8z" />
<glyph unicode="&#x2077;" horiz-adv-x="708" d="M324 1636l14 64h512l-6 -45q-184 -180 -276.5 -359.5t-141.5 -394.5h-82q109 426 406 735h-426z" />
<glyph unicode="&#x2078;" horiz-adv-x="712" d="M217 1085q0 82 58.5 147.5t142.5 104.5l2 9q-86 78 -86 155q0 98 71.5 160.5t176.5 62.5q90 0 149.5 -54t59.5 -142q0 -133 -162 -225v-9q102 -74 102 -176q0 -106 -81 -173.5t-199 -67.5q-100 0 -167 58t-67 150zM291 1100q0 -76 48 -120t118 -44q80 0 140 48t60 124 q0 51 -26.5 88t-56 54.5t-89.5 43.5l-18 9q-84 -37 -130 -91.5t-46 -111.5zM406 1513q-1 -123 163 -180q150 76 150 183q0 68 -40 107.5t-104 39.5q-72 0 -120.5 -43t-48.5 -107z" />
<glyph unicode="&#x2079;" horiz-adv-x="712" d="M203 942l47 51q53 -53 141 -53q115 0 206 101.5t110 277.5q-90 -109 -220 -109q-98 0 -157.5 60.5t-59.5 152.5q0 137 80 219t184.5 82t177 -82.5t72.5 -222.5q0 -252 -116.5 -397t-280.5 -145q-112 -1 -184 65zM344 1436q0 -76 41 -121t113 -45q125 0 213 127v8 q0 127 -52.5 191.5t-130.5 64.5q-74 0 -129 -64.5t-55 -160.5z" />
<glyph unicode="&#x207d;" horiz-adv-x="430" d="M264 1135q0 199 70.5 363.5t226.5 342.5l45 -33q-272 -319 -272 -678q0 -219 63 -352l-51 -28q-82 168 -82 385z" />
<glyph unicode="&#x207e;" horiz-adv-x="430" d="M139 782q272 319 273 678q0 217 -64 350l51 31q82 -168 82 -385q0 -199 -70.5 -364.5t-226.5 -341.5z" />
<glyph unicode="&#x207f;" horiz-adv-x="706" d="M125 532l129 652h59l-12 -99h8q133 115 234 115q154 0 153 -162q0 -14 -12 -88l-84 -418h-70l82 408q10 57 11 80q0 117 -97 117q-100 0 -235 -138l-94 -467h-72z" />
<glyph unicode="&#x2080;" horiz-adv-x="708" d="M-29 -70q0 125 39 246t124 210t197.5 89t173 -84t60.5 -217q0 -125 -39 -247t-124 -211t-197.5 -89t-173 85t-60.5 218zM47 -59q0 -113 39 -181.5t123 -68.5q88 0 154.5 78.5t96 184t29.5 208.5q0 113 -38.5 181.5t-122.5 68.5q-88 0 -155 -79t-96.5 -183.5t-29.5 -208.5 z" />
<glyph unicode="&#x2081;" horiz-adv-x="704" d="M131 324l10 51q139 23 217 76h58l-158 -799h-74l133 672h-186z" />
<glyph unicode="&#x2082;" horiz-adv-x="708" d="M-53 -348l8 57q291 211 396.5 322.5t105.5 230.5q0 147 -152 148q-90 0 -188 -109l-45 47q119 127 241 127q100 0 159.5 -55t59.5 -150q0 -129 -104 -248.5t-356 -306.5h389l-10 -63h-504z" />
<glyph unicode="&#x2083;" horiz-adv-x="708" d="M-61 -209l57 37q70 -137 205 -137q84 0 141 46t57 128q0 72 -63.5 121t-179.5 49l14 59q139 0 209 54.5t70 127.5q0 61 -39 98.5t-109 37.5q-96 0 -190 -76l-35 55q104 84 233 84q96 0 154.5 -51t58.5 -141q0 -76 -54 -137.5t-144 -88.5q72 -23 111.5 -74t39.5 -108 q0 -115 -80 -181.5t-196 -66.5q-88 0 -156.5 47t-103.5 117z" />
<glyph unicode="&#x2084;" horiz-adv-x="712" d="M-25 -111l9 45l458 517h64l-100 -502h118l-14 -60h-117l-47 -237h-67l47 237h-351zM72 -51h266l37 188l51 207h-8l-146 -168z" />
<glyph unicode="&#x2085;" horiz-adv-x="708" d="M-61 -209l57 37q70 -137 223 -137q80 0 145.5 66.5t65.5 168.5q0 86 -46 135.5t-122 49.5q-51 0 -86 -16.5t-84 -53.5l-33 35l107 375h401l-14 -64h-336l-74 -254q59 39 133 39q100 0 164 -63.5t64 -169.5q0 -137 -89 -224.5t-210 -87.5q-92 0 -161.5 47t-104.5 117z" />
<glyph unicode="&#x2086;" horiz-adv-x="712" d="M-6 -68q0 252 117.5 397.5t281.5 145.5q110 1 182 -65l-47 -52q-53 53 -141 54q-115 0 -206 -102.5t-109 -280.5q35 49 94 80.5t125 31.5q98 0 157.5 -60.5t59.5 -152.5q0 -137 -80 -219t-184.5 -82t-177 83t-72.5 222zM68 -45v-8q0 -127 52 -191.5t130 -64.5 q74 0 130 64.5t56 160.5q0 76 -41.5 121t-113.5 45q-125 0 -213 -127z" />
<glyph unicode="&#x2087;" horiz-adv-x="708" d="M78 387l14 64h512l-6 -45q-184 -180 -276.5 -359.5t-141.5 -394.5h-82q109 426 406 735h-426z" />
<glyph unicode="&#x2088;" horiz-adv-x="712" d="M-29 -164q0 82 58.5 147.5t142.5 104.5l2 8q-86 78 -86 156q0 98 71.5 160.5t176.5 62.5q90 0 149.5 -54t59.5 -142q0 -133 -162 -226v-8q102 -74 102 -176q0 -106 -80.5 -174t-199.5 -68q-100 0 -167 58.5t-67 150.5zM45 -150q0 -76 48 -119.5t118 -43.5q80 0 140.5 48 t60.5 124q0 51 -27 88t-56.5 54t-89.5 44l-6 3q-2 1 -6 2t-6 3q-84 -37 -130 -91.5t-46 -111.5zM160 264q0 -123 164 -180q150 76 149 182q0 68 -40 108t-103 40q-72 0 -121 -43t-49 -107z" />
<glyph unicode="&#x2089;" horiz-adv-x="712" d="M-43 -307l47 51q53 -53 141 -53q115 0 206 101.5t110 277.5q-90 -109 -219 -109q-98 0 -157.5 60.5t-59.5 152.5q0 137 79.5 219t184 82t177.5 -83t73 -222q0 -252 -117 -397.5t-281 -145.5q-112 0 -184 66zM98 186q0 -76 41 -121t113 -45q125 0 213 127v9 q0 127 -52.5 191.5t-129.5 64.5q-74 0 -129.5 -64.5t-55.5 -161.5z" />
<glyph unicode="&#x208d;" horiz-adv-x="430" d="M18 -115q0 199 70.5 364t226.5 343l45 -33q-272 -319 -272 -678q0 -219 64 -352l-52 -29q-82 168 -82 385z" />
<glyph unicode="&#x208e;" horiz-adv-x="430" d="M-106 -467q272 319 272 678q0 217 -64 350l52 31q82 -168 82 -385q0 -199 -70.5 -365t-226.5 -342z" />
<glyph unicode="&#x2094;" horiz-adv-x="643" d="M111 748q0 72 22 135h457q12 125 -34 190.5t-138 65.5q-74 0 -166 -54l-25 56q102 59 201 59q109 0 171.5 -70.5t62.5 -199.5q0 -176 -106.5 -295t-233.5 -119q-109 0 -160 65.5t-51 166.5zM176 739q0 -70 37 -115.5t115 -45.5t151 69t96 178h-391q-8 -49 -8 -86z" />
<glyph unicode="&#x20a1;" d="M133 459q0 352 150.5 593.5t367.5 278.5l64 205h57l-63 -201h4q68 0 125 -26l71 227h58l-80 -256q68 -49 114 -145l-65 -41q-33 68 -74 106l-358 -1151h2q141 0 276 131l47 -55q-150 -150 -335 -150h-13l-63 -200h-60l66 207q-72 16 -121 51l-80 -258h-59l94 299 q-125 131 -125 385zM215 471q0 -188 72 -301l338 1081q-172 -47 -291 -263t-119 -517zM330 119q46 -48 116 -64l369 1180q-45 27 -108 27h-21z" />
<glyph unicode="&#x20a4;" d="M14 0l11 49q139 74 214.5 195t84.5 268h-224l15 51l211 10q-2 43 -11 142h-172l15 53l153 6q-6 68 -6 127q0 201 105.5 317.5t277.5 116.5q168 0 266 -168l-65 -47q-80 141 -207 142q-129 0 -212 -98.5t-83 -256.5q0 -37 8 -131h350l-14 -61h-332q8 -94 9 -142h294 l-14 -61h-282q-14 -258 -209 -428v-8h559l-13 -76h-729z" />
<glyph unicode="&#x20a6;" d="M29 506l14 49l154 8l30 150h-157l14 47l156 8l108 543h80l88 -543h215l107 543h75l-110 -543h145l-14 -55h-141l-31 -150h145l-14 -57h-143l-103 -506h-84l-78 506h-225l-100 -506h-76l102 506h-157zM272 563h205l-22 150h-154zM311 768h135l-12 78l-45 328h-4zM526 713 l25 -150h139l31 150h-195zM559 506l8 -45l41 -330h8l64 375h-121z" />
<glyph unicode="&#x20a7;" d="M82 0l182 907h-160l13 60l159 8l68 336h180q166 0 261.5 -74t95.5 -217q0 -31 -2 -45h127l-15 -68h-121q-35 -176 -169 -267t-332 -91h-93l-108 -549h-86zM293 618h69q176 0 288 73t141 216h-441zM362 975h437v31q0 125 -78 181t-238 56h-67z" />
<glyph unicode="&#x20ab;" d="M72 0l14 63h659l-14 -63h-659zM158 483q0 203 130 344.5t294 141.5q113 0 186 -111l35 195l20 102h-268l14 64h269l34 165h78l-32 -165h159l-14 -56l-160 -8l-184 -915h-68l15 100h-4q-139 -121 -273 -121q-106 0 -168.5 74t-62.5 190zM238 500q0 -98 42 -154.5 t123 -56.5q121 0 275 131l72 364q-61 119 -170 119q-127 0 -234.5 -120.5t-107.5 -282.5z" />
<glyph unicode="&#x20ac;" d="M47 510l14 53l115 8q6 84 25 164h-111l14 51l111 7q66 242 212 392t321 150q184 0 280 -196l-67 -41q-41 80 -90.5 122t-131.5 42q-139 0 -260 -130.5t-180 -336.5h561l-14 -60h-561q-18 -80 -25 -164h477l-14 -61h-465q-4 -219 74 -340t215 -121q139 0 274 131l49 -55 q-154 -150 -333 -150q-172 0 -270.5 140.5t-92.5 394.5h-127z" />
<glyph unicode="&#x20b1;" d="M82 0l164 817h-158l10 49l158 8l29 142h-158l8 49l162 8l47 238h180q150 0 243 -59.5t110 -178.5h147l-12 -57h-131q0 -77 -19 -142h121l-12 -57h-127q-53 -133 -180 -201.5t-297 -68.5h-91l-108 -547h-86zM291 616h71q303 0 400 201h-430zM342 874h440q16 61 17 132v10 h-428zM381 1073h412q-38 170 -310 170h-67z" />
<glyph unicode="&#x20b2;" d="M106 459q0 360 169 605t403 269l43 203h72l-41 -203q164 -16 252 -194l-68 -41q-82 164 -221 164q-207 0 -364.5 -228.5t-157.5 -562.5q0 -195 75.5 -308.5t210.5 -113.5q150 0 242 109l82 407h-232l17 74h309l-100 -512q-131 -145 -314 -152l-39 -200h-73l41 205 q-143 23 -224.5 150.5t-81.5 328.5z" />
<glyph unicode="&#x20b5;" d="M133 459q0 375 169 622.5t403 253.5l38 199h70l-41 -205q145 -27 225 -192l-65 -41q-70 139 -174 161l-242 -1208q135 4 264 131l47 -55q-147 -147 -325 -150l-41 -200h-70l41 205q-141 25 -220 152.5t-79 326.5zM217 471q0 -172 60 -281.5t169 -134.5l242 1207 q-190 -12 -330.5 -236.5t-140.5 -554.5z" />
<glyph unicode="&#x20b9;" d="M156 575l16 74h113q199 0 324.5 84t140.5 246h-517l15 55l133 8h369q-20 195 -326 195h-135l14 74h727l-18 -64h-301q119 -59 129 -205h135l-14 -63h-123q-14 -156 -121 -256t-264 -133l239 -590h-94l-229 578q-16 -2 -54 -3h-159z" />
<glyph unicode="&#x20ba;" d="M68 506l14 69l221 91l35 172l-221 -90l14 69l223 90l80 402h84l-74 -369l392 160l-15 -70l-393 -160l-33 -172l389 160l-14 -70l-389 -159l-113 -568q227 4 384 133.5t155 350.5l80 24q4 -147 -51.5 -261.5t-155.5 -185.5t-230.5 -108t-285.5 -39l125 621z" />
<glyph unicode="&#x2113;" horiz-adv-x="737" d="M23 340q80 43 180 119l119 596q43 213 126.5 316.5t188.5 103.5q84 0 131 -61.5t47 -162.5q0 -186 -151.5 -412.5t-384.5 -410.5l-7 -35q-72 -342 134 -342q16 0 33.5 3t29.5 5t30.5 10.5t27 11.5t28.5 15.5t23.5 14.5t26.5 17l24 15l30 -55q-141 -113 -268 -113 q-121 0 -184.5 96.5t-28.5 262.5l4 24q-72 -49 -137 -86zM301 539q190 166 313 357t123 341q0 166 -108 166q-61 0 -124.5 -84t-94.5 -238z" />
<glyph unicode="&#x2117;" horiz-adv-x="1353" d="M80 543q0 197 88 377t258 297.5t383 117.5q236 0 383 -156.5t147 -408.5q0 -197 -88 -377t-258 -299t-383 -119q-236 0 -383 158t-147 410zM141 551q0 -233 129 -374.5t344 -141.5q190 0 346 111.5t237 276.5t81 339q0 233 -129 374.5t-344 141.5q-190 0 -346 -111.5 t-237 -276.5t-81 -339zM420 279l147 743h240q102 0 166.5 -52t64.5 -141q0 -137 -94 -212.5t-233 -75.5h-166l-51 -262h-74zM559 604h152q117 0 185.5 56.5t68.5 154.5q0 66 -47.5 103.5t-131.5 37.5h-159z" />
<glyph unicode="&#x2120;" horiz-adv-x="1181" d="M98 840l54 43q59 -88 153 -88q59 0 105.5 35.5t46.5 87.5q0 55 -66 94l-88 55q-90 59 -90 137q0 86 60.5 139.5t154.5 53.5q86 0 168 -82l-51 -49q-66 68 -123 67.5t-96 -34t-39 -72.5q0 -66 65 -103l88 -53q88 -51 88 -139q0 -84 -63.5 -142.5t-163.5 -58.5 q-137 0 -203 109zM629 756l127 628h100l49 -260l27 -176h8l94 176l158 260h102l-127 -628h-71l65 331l53 213h-8l-260 -446h-57l-84 446h-8l-31 -213l-66 -331h-71z" />
<glyph unicode="&#x2122;" horiz-adv-x="1202" d="M162 1317l14 67h500l-14 -67h-211l-113 -561h-72l111 561h-215zM649 756l127 628h101l49 -260l26 -176h9l94 176l157 260h103l-127 -628h-72l66 331l53 213h-8l-260 -446h-58l-84 446h-8l-31 -213l-65 -331h-72z" />
<glyph unicode="&#x2126;" horiz-adv-x="1300" d="M-12 0l12 74h293v8q-164 193 -164 467q0 352 197.5 588.5t488.5 236.5q203 0 317.5 -138t114.5 -364q0 -467 -395 -790l-4 -8h272l-12 -74h-422l14 57q197 125 327 327t130 478q0 197 -93 316.5t-261 119.5q-248 0 -417 -215t-169 -532q0 -164 56.5 -292t142.5 -202 l-10 -57h-418z" />
<glyph unicode="&#x212e;" horiz-adv-x="1638" d="M135 663.5q0 286.5 212 487.5t513 201t513 -201t212 -487v-17h-1175q-8 0 -9 -8v-377q1 -16 17 -41q178 -205 446 -205q135 0 257 61.5t210 168.5h107q-104 -125 -255 -198t-323 -73q-301 0 -513 201t-212 487.5zM401 696q1 -12 9 -12h901q12 0 12 12v377q0 25 -20 45 q-186 193 -439 193q-260 0 -446 -201q-16 -25 -17 -45v-369z" />
<glyph unicode="&#x2153;" horiz-adv-x="1554" d="M188 -25l1004 1401h74l-1004 -1401h-74zM252 1225l10 51q139 23 217 76h58l-158 -799h-74l133 672h-186zM846 139l55 37q74 -137 205 -137q84 0 142.5 46t58.5 128q0 72 -63.5 121t-182.5 49l14 59q141 0 210 54.5t69 128.5q0 61 -39 98t-109 37q-96 0 -188 -76l-37 55 q109 84 236 84q96 0 154.5 -51t58.5 -141q0 -76 -54.5 -137.5t-146.5 -87.5q72 -23 111.5 -74t39.5 -109q0 -115 -79.5 -181.5t-194.5 -66.5q-88 0 -156.5 47t-103.5 117z" />
<glyph unicode="&#x2154;" horiz-adv-x="1593" d="M113 553l8 57q291 211 396.5 322.5t105.5 230.5q0 147 -152 148q-90 0 -188 -109l-45 47q119 127 241 127q100 0 159.5 -55t59.5 -150q0 -129 -104.5 -248.5t-355.5 -306.5h389l-11 -63h-503zM291 -25l1003 1401h74l-1003 -1401h-74zM885 139l55 37q74 -137 205 -137 q84 0 142.5 46t58.5 128q0 72 -63.5 121t-182.5 49l14 59q141 0 210 54.5t69 128.5q0 61 -39 98t-109 37q-96 0 -188 -76l-37 55q109 84 235 84q96 0 154.5 -51t58.5 -141q0 -76 -54 -137.5t-146 -87.5q72 -23 111.5 -74t39.5 -109q0 -115 -79.5 -181.5t-194.5 -66.5 q-88 0 -156.5 47t-103.5 117z" />
<glyph unicode="&#x215b;" horiz-adv-x="1536" d="M188 -25l1002 1401h74l-1002 -1401h-74zM252 1225l10 51q139 23 217 76h58l-158 -799h-74l133 672h-186zM858 184q0 84 58.5 149.5t144.5 102.5v8q-84 76 -84 156q0 98 70.5 160.5t175.5 62.5q90 0 149.5 -54t59.5 -142q0 -133 -162 -226v-8q102 -74 102 -176 q0 -106 -81 -174t-197 -68q-100 0 -168 58.5t-68 150.5zM932 199q0 -76 48 -120t118 -44q80 0 141 48t61 124q0 16 -3 31.5t-6 28t-13 24.5t-14 19t-20.5 19.5t-21.5 16.5t-26.5 14.5t-26 13.5t-30 14t-29.5 13q-86 -37 -132 -91t-46 -111zM1049 612q-1 -123 161 -180 q150 76 150 182q0 68 -39 108t-102 40q-72 0 -121 -43t-49 -107z" />
<glyph unicode="&#x215c;" horiz-adv-x="1576" d="M100 692l58 37q70 -137 204 -137q84 0 141.5 46t57.5 128q0 72 -63.5 121t-180.5 49l15 59q139 0 208.5 54.5t69.5 128.5q0 61 -39 98t-108 37q-96 0 -191 -76l-34 55q104 84 233 84q96 0 154.5 -51t58.5 -141q0 -76 -54.5 -137.5t-144.5 -88.5q72 -23 112 -73.5 t40 -108.5q0 -115 -80 -181.5t-197 -66.5q-88 0 -156.5 47t-103.5 117zM287 -25l1003 1401h74l-1004 -1401h-73zM895 184q0 84 58.5 149.5t144.5 102.5v8q-84 76 -84 156q0 98 70.5 160.5t175.5 62.5q90 0 149 -54t59 -142q0 -133 -161 -226v-8q102 -74 102 -176 q0 -106 -81 -174t-198 -68q-100 0 -167.5 58.5t-67.5 150.5zM969 199q0 -76 48 -120t118 -44q80 0 141 48t61 124q0 16 -3 31.5t-6 28t-13 24.5t-14.5 19t-20.5 19.5t-21.5 16.5t-27 14.5t-25.5 13.5t-29.5 14t-29.5 13q-86 -37 -132 -91t-46 -111zM1085 612 q0 -123 162 -180q150 76 150 182q0 68 -39 108t-103 40q-72 0 -121 -43t-49 -107z" />
<glyph unicode="&#x215d;" horiz-adv-x="1576" d="M102 692l58 37q70 -137 223 -137q80 0 145.5 66.5t65.5 168.5q0 86 -46 135.5t-122 49.5q-51 0 -86 -16.5t-84 -53.5l-33 35l107 375h401l-14 -64h-336l-74 -254q59 39 133 39q100 0 164 -63.5t64 -169.5q0 -137 -89.5 -224.5t-209.5 -87.5q-92 0 -162 47t-105 117z M287 -25l1003 1401h74l-1004 -1401h-73zM895 184q0 84 58.5 149.5t144.5 102.5v8q-84 76 -84 156q0 98 70.5 160.5t175.5 62.5q90 0 149 -54t59 -142q0 -133 -161 -226v-8q102 -74 102 -176q0 -106 -81 -174t-198 -68q-100 0 -167.5 58.5t-67.5 150.5zM969 199 q0 -76 48 -120t118 -44q80 0 141 48t61 124q0 16 -3 31.5t-6 28t-13 24.5t-14.5 19t-20.5 19.5t-21.5 16.5t-27 14.5t-25.5 13.5t-29.5 14t-29.5 13q-86 -37 -132 -91t-46 -111zM1085 612q0 -123 162 -180q150 76 150 182q0 68 -39 108t-103 40q-72 0 -121 -43t-49 -107z " />
<glyph unicode="&#x215e;" horiz-adv-x="1538" d="M186 -25l1004 1401h74l-1004 -1401h-74zM203 1288l14 64h512l-6 -45q-184 -180 -276.5 -359.5t-141.5 -394.5h-82q109 426 406 735h-426zM856 184q0 84 58.5 149.5t144.5 102.5v8q-84 76 -84 156q0 98 70.5 160.5t175.5 62.5q90 0 149.5 -54t59.5 -142q0 -133 -162 -226 v-8q102 -74 102 -176q0 -106 -81 -174t-197 -68q-100 0 -168 58.5t-68 150.5zM930 199q0 -76 48 -120t118 -44q80 0 141 48t61 124q0 16 -3 31.5t-6 28t-13 24.5t-14.5 19t-20.5 19.5t-21.5 16.5t-27 14.5t-25.5 13.5t-29.5 14t-29.5 13q-86 -37 -132 -91t-46 -111z M1047 612q-1 -123 161 -180q150 76 150 182q0 68 -39 108t-102 40q-72 0 -121 -43t-49 -107z" />
<glyph unicode="&#x2190;" horiz-adv-x="1216" d="M43 506v12l530 539l48 -51l-455 -457h1008v-74h-1008l455 -457l-48 -49z" />
<glyph unicode="&#x2191;" horiz-adv-x="1216" d="M63 547l539 530h12l537 -530l-49 -47l-457 454v-1007h-74v1007l-456 -454z" />
<glyph unicode="&#x2192;" horiz-adv-x="1216" d="M43 475v74h1006l-453 457l47 51l531 -539v-12l-531 -537l-47 49l453 457h-1006z" />
<glyph unicode="&#x2193;" horiz-adv-x="1216" d="M63 477l52 47l456 -452v1005h74v-1005l457 452l49 -47l-537 -530h-12z" />
<glyph unicode="&#x2202;" horiz-adv-x="1011" d="M39 291q0 201 132 361.5t333 160.5q205 0 338 -201q43 172 43 322q0 166 -64.5 261t-195.5 95q-110 0 -219 -94l-39 57q129 111 266 111q168 0 252 -111.5t84 -306.5q0 -236 -80 -458t-224.5 -367.5t-312.5 -145.5q-135 0 -224 87.5t-89 228.5zM121 297q4 -100 68.5 -174 t170.5 -74q143 2 264 137.5t193 343.5q-129 209 -315 209q-166 0 -273.5 -135t-107.5 -307z" />
<glyph unicode="&#x2206;" horiz-adv-x="1099" d="M-53 0l12 49l715 1301h96l164 -1301l-10 -49h-977zM66 76h774l-84 725q-8 82 -25.5 238.5t-23.5 222.5h-9q-65 -139 -239 -461z" />
<glyph unicode="&#x220f;" horiz-adv-x="1282" d="M37 -246l311 1555h903l-309 -1555h-86l299 1479h-735l-299 -1479h-84z" />
<glyph unicode="&#x2211;" horiz-adv-x="962" d="M-109 -246l11 68l655 727l-346 694l12 66h834l-17 -74h-735v-8l340 -690l-631 -699v-8h811l-20 -76h-914z" />
<glyph unicode="&#x2212;" d="M98 643v70h807v-70h-807z" />
<glyph unicode="&#x2215;" horiz-adv-x="159" d="M-428 -25l1003 1401h74l-1003 -1401h-74z" />
<glyph unicode="&#x2219;" horiz-adv-x="446" d="M166 657q0 39 30.5 74t69.5 35q63 0 64 -78q0 -39 -28 -70.5t-69 -31.5q-31 0 -49 20.5t-18 50.5z" />
<glyph unicode="&#x221a;" horiz-adv-x="1064" d="M135 682l236 106l90 -780l6 -102h8l39 102l705 1671h81l-808 -1894h-74l-117 899l-156 -66z" />
<glyph unicode="&#x221e;" horiz-adv-x="1503" d="M51 676q0 133 85 216t212 83q57 0 109.5 -20.5t96.5 -60.5t72.5 -71.5t61.5 -77.5h8q68 86 111 131.5t115.5 86.5t152.5 41q143 0 232.5 -89.5t89.5 -234.5q0 -141 -90 -235.5t-228 -94.5q-117 0 -206 63.5t-189 188.5h-8q-47 -63 -83 -103t-107.5 -81t-149.5 -41 q-117 0 -201 85t-84 214zM125 676q0 -98 65.5 -165t155.5 -67q154 0 299 228q-160 225 -301 225q-92 0 -155.5 -60.5t-63.5 -160.5zM729 680q94 -131 178 -189.5t176 -58.5q106 0 172 69.5t66 176.5q0 111 -68.5 184.5t-181.5 73.5q-162 0 -342 -256z" />
<glyph unicode="&#x222b;" horiz-adv-x="593" d="M-47 -311l20 67q33 -8 66 -8q86 0 132 92t85 285q29 143 62.5 523t62.5 521q20 106 41.5 177t55.5 136.5t84 98.5t118 33q57 0 80 -12l-21 -68q-25 8 -67 8q-82 0 -130 -97t-83 -280q-29 -150 -64 -527.5t-61 -514.5q-23 -106 -45.5 -180t-57 -138.5t-85 -96.5 t-115.5 -32q-55 0 -78 13z" />
<glyph unicode="&#x2248;" d="M100 430q84 166 215 166q61 0 127 -46t124.5 -92t103.5 -46q88 0 157 129l56 -33q-84 -166 -215 -166q-61 0 -127 46t-124.5 92t-103.5 46q-87 0 -157 -129zM100 844q84 166 215 166q61 0 127 -46t124.5 -92.5t103.5 -46.5q88 0 157 129l56 -32q-84 -166 -215 -166 q-63 0 -128 46t-123.5 92t-103.5 46q-87 0 -157 -129z" />
<glyph unicode="&#x2260;" d="M98 434v70h260l211 344h-471v70h508l166 264h76l-166 -264h223v-70h-260l-211 -344h471v-70h-508l-166 -264h-75l166 264h-224z" />
<glyph unicode="&#x2264;" d="M94 643v78l811 323v-77l-454 -183l-254 -98v-8l254 -98l454 -183v-78zM98 0v72h807v-72h-807z" />
<glyph unicode="&#x2265;" d="M98 0v72h807v-72h-807zM98 319v78l457 183l252 98v8l-252 98l-457 183v77l811 -323v-78z" />
<glyph unicode="&#x25a0;" horiz-adv-x="552" d="M102 356v369h349v-369h-349z" />
<glyph unicode="&#x25b2;" horiz-adv-x="1093" d="M47 98v4l498 975h4l498 -975v-4h-1000z" />
<glyph unicode="&#x25b3;" horiz-adv-x="1093" d="M49 100v4l498 971h8l494 -971v-4h-1000zM180 170h740l-369 762z" />
<glyph unicode="&#x25b6;" horiz-adv-x="1101" d="M117 59v1037h4l934 -514v-9l-934 -514h-4z" />
<glyph unicode="&#x25b7;" horiz-adv-x="1101" d="M117 57v1037h4l936 -512v-9l-936 -516h-4zM190 188l713 390l-713 389v-779z" />
<glyph unicode="&#x25bc;" horiz-adv-x="1093" d="M47 1049v4h1000v-4l-498 -975h-4z" />
<glyph unicode="&#x25bd;" horiz-adv-x="1093" d="M49 1047v4h1000v-4l-494 -973h-8zM180 981l371 -762l369 762h-740z" />
<glyph unicode="&#x25c0;" horiz-adv-x="1101" d="M43 573v9l934 514h4v-1037h-4z" />
<glyph unicode="&#x25c1;" horiz-adv-x="1101" d="M41 573v9l936 512h4v-1037h-4zM193 578l714 -390v779z" />
<glyph unicode="&#x25c6;" horiz-adv-x="552" d="M31 541l248 252l247 -252l-247 -252z" />
<glyph unicode="&#x25c9;" horiz-adv-x="819" d="M82 541q0 158 97 255t231 97q135 0 232 -97.5t97 -254.5q0 -160 -97 -256.5t-232 -96.5q-133 0 -230.5 96.5t-97.5 256.5zM154 541q0 -133 77 -209t179 -76q104 0 180 76t76 209q0 131 -76 207.5t-180 76.5q-102 0 -179 -76.5t-77 -207.5zM307 541q0 49 31 79.5t72 30.5 t71.5 -30.5t30.5 -79.5t-30.5 -80t-71.5 -31t-72 31t-31 80z" />
<glyph unicode="&#x25ca;" horiz-adv-x="987" d="M150 676l325 696h96l326 -696l-326 -696h-96zM236 676l149 -338l133 -287h8l136 287l149 338l-149 336l-136 288h-8l-133 -288z" />
<glyph unicode="&#x2610;" horiz-adv-x="1556" d="M143 -20v1298l109 94h1161v-1284l-88 -108h-1182zM211 47h1073v1186h-1073v-1186z" />
<glyph unicode="&#x2611;" horiz-adv-x="1560" d="M143 -20v1298l111 94h1098q98 101 245 230l54 -60q-104 -84 -234 -211v-1241l-92 -110h-1182zM215 51h1069v1143q-442 -477 -663 -977l-105 -10q-39 309 -158 584l72 36q115 -287 143 -536h9q205 459 639 942h-1006v-1182z" />
<glyph unicode="&#x266a;" horiz-adv-x="937" d="M88 96q0 90 82 156.5t213 66.5q70 0 125 -24v1126h59q8 -43 29.5 -69.5t97.5 -87.5q127 -96 174 -185.5t47 -220.5q0 -104 -47 -233l-43 14q25 84 25 178q0 113 -72.5 202t-195.5 128v-893q0 -141 -93.5 -219t-216.5 -78q-80 0 -132 38t-52 101z" />
<glyph unicode="&#x2713;" horiz-adv-x="1083" d="M-29 567l72 37q123 -283 156 -561h8q158 356 443.5 721.5t600.5 626.5l52 -60q-319 -256 -604 -616.5t-453 -745.5l-105 -10q-47 346 -170 608z" />
<glyph unicode="&#x2752;" horiz-adv-x="692" d="M109 274v418l106 94h377v-405l-90 -107h-393zM170 340h291v307h-291v-307z" />
<glyph unicode="&#xe000;" horiz-adv-x="985" d="M0 985h985v-985h-985v985z" />
<glyph unicode="&#xfb01;" horiz-adv-x="974" d="M96 0l180 909h-126l12 66l131 8l45 225q31 143 101.5 216t168.5 73q78 0 154 -45l-37 -63q-57 35 -117 34q-70 0 -118 -60t-68 -155l-45 -225h217l-16 -74h-218l-180 -909h-84zM606 0l199 983h84l-199 -983h-84zM831 1288q0 39 26 65.5t61 26.5q29 0 48 -19.5t19 -49.5 q0 -37 -25.5 -63.5t-60.5 -26.5q-29 0 -48.5 19.5t-19.5 47.5z" />
<glyph unicode="&#xfb02;" horiz-adv-x="999" d="M96 0l180 909h-126l12 66l131 8l45 225q31 143 101.5 216t168.5 73q78 0 154 -45l-37 -63q-57 35 -117 34q-70 0 -118 -60t-68 -155l-45 -225h217l-16 -74h-218l-180 -909h-84zM623 63q0 23 10 64l268 1346h84l-268 -1352q-4 -20 -4 -41q0 -31 28 -31q14 0 33 8l6 -67 q-29 -14 -67 -15q-41 0 -65.5 22.5t-24.5 65.5z" />
<glyph horiz-adv-x="1177" d="M119 508q0 211 80 405.5t244.5 327.5t379.5 133q199 0 318 -190l-66 -47q-94 162 -258 161q-139 0 -258 -72.5t-193.5 -188t-116.5 -251t-42 -266.5q0 -209 97 -339t302 -130q166 0 277 103l86 432h-312l17 73h395l-113 -548q-156 -135 -360 -136q-233 0 -355 144.5 t-122 388.5zM559 1466q14 72 63.5 128.5t112.5 56.5q49 0 106.5 -61.5t96.5 -61.5q70 0 109 119h57q-14 -72 -63.5 -128.5t-112.5 -56.5q-49 0 -106.5 61.5t-96.5 61.5q-68 0 -109 -119h-57z" />
<glyph horiz-adv-x="1067" d="M8 -338l47 62q133 -123 291 -123q270 0 344 346l49 221h-8q-180 -172 -356 -172q-129 0 -207 92t-78 258q0 268 161 465t361 197q168 0 252 -160h8l39 135h70l-215 -1067q-37 -184 -146.5 -286.5t-277.5 -102.5q-172 0 -334 135zM176 360q0 -141 56.5 -214.5t158.5 -73.5 q82 0 180.5 53t180.5 145l102 486q-106 178 -244 178q-164 0 -299 -180.5t-135 -393.5zM414 1190q23 78 64.5 129t96.5 51q61 0 118 -59.5t98 -59.5q53 0 96 115h57q-23 -76 -64.5 -128t-97.5 -52q-61 0 -117.5 60.5t-97.5 60.5q-53 0 -96 -117h-57z" />
<glyph horiz-adv-x="450" d="M-88 -287q0 76 56.5 156t127.5 131h-14l199 983h84l-197 -983q-178 -143 -178 -266q0 -37 21.5 -59.5t56.5 -22.5q43 0 82 24l24 -55q-63 -37 -123 -37q-61 0 -100 34t-39 95z" />
<glyph horiz-adv-x="612" d="M-16 0l16 76h172l242 1198h-176l16 76h442l-16 -76h-178l-242 -1198h180l-16 -76h-440z" />
<glyph horiz-adv-x="612" d="M-16 0l16 76h172l242 1198h-176l16 76h442l-16 -76h-178l-242 -1198h180l-16 -76h-440zM291 1665h96l156 -213h-74z" />
<glyph horiz-adv-x="612" d="M-16 0l16 76h172l242 1198h-176l16 76h442l-16 -76h-178l-242 -1198h180l-16 -76h-440zM395 1452l223 213h107l-252 -213h-78z" />
<glyph horiz-adv-x="612" d="M-16 0l16 76h172l242 1198h-176l16 76h442l-16 -76h-178l-242 -1198h180l-16 -76h-440zM242 1452l229 213h76l147 -213h-71l-115 152h-8l-178 -152h-80z" />
<glyph horiz-adv-x="612" d="M-16 0l16 76h172l242 1198h-176l16 76h442l-16 -76h-178l-242 -1198h180l-16 -76h-440zM213 1466q14 72 63.5 128.5t112.5 56.5q49 0 106.5 -61.5t96.5 -61.5q70 0 108 119h58q-14 -72 -63.5 -128.5t-112.5 -56.5q-49 0 -106.5 61.5t-96.5 61.5q-68 0 -109 -119h-57z" />
<glyph horiz-adv-x="612" d="M-16 0l16 76h172l242 1198h-176l16 76h442l-16 -76h-178l-242 -1198h180l-16 -76h-440zM266 1542q0 37 22.5 61.5t53.5 24.5q61 0 61 -63q0 -33 -23 -58.5t-52 -25.5q-61 0 -62 61zM575 1542q0 37 23 61.5t53 24.5q61 0 62 -63q0 -33 -23.5 -58.5t-52.5 -25.5 q-61 0 -62 61z" />
<glyph horiz-adv-x="612" d="M-16 0l16 76h172l242 1198h-176l16 76h442l-16 -76h-178l-242 -1198h180l-16 -76h-440zM256 1503l14 70h445l-15 -70h-444z" />
<glyph horiz-adv-x="612" d="M-16 0l16 76h172l242 1198h-176l16 76h442l-16 -76h-178l-242 -1198h180l-16 -76h-440zM412 1548q0 39 26.5 65.5t59.5 26.5q31 0 50 -19t19 -52q0 -37 -26.5 -62.5t-59.5 -25.5q-31 0 -50 18.5t-19 48.5z" />
<glyph horiz-adv-x="612" d="M-16 0l16 76h172l242 1198h-176l16 76h442l-16 -76h-178l-242 -1198h180l-16 -76h-440zM287 1665h71l115 -152h8l178 152h80l-229 -213h-76z" />
<glyph horiz-adv-x="612" d="M-16 0l16 76h172l242 1198h-176l16 76h442l-16 -76h-178l-242 -1198h180l-16 -76h-440zM371 1485q84 27 122.5 56.5t38.5 74.5q0 41 -32.5 61.5t-118.5 28.5l14 57q209 -12 209 -131q0 -76 -56 -122t-161 -74z" />
<glyph horiz-adv-x="612" d="M-16 0l16 76h172l242 1198h-176l16 76h442l-16 -76h-178l-242 -1198h180l-16 -76h-440zM76 -352q0 39 25.5 65.5t60.5 26.5q29 0 48 -19.5t19 -50.5q0 -37 -25.5 -63.5t-60.5 -26.5q-29 0 -48 19.5t-19 48.5z" />
<glyph horiz-adv-x="612" d="M-16 0l16 76h172l242 1198h-176l16 76h442l-16 -76h-178l-242 -1198h180l-16 -76h-176q-170 -139 -170 -266q0 -37 21.5 -60.5t54.5 -23.5q43 0 82 24l24 -49q-55 -43 -125 -43q-61 0 -100 34t-39 95q0 76 54 156t122 133h-188z" />
<glyph horiz-adv-x="980" d="M78 211q0 375 684 395q14 70 14 117q0 117 -48 164t-159 47q-129 0 -288 -94l-33 65q174 102 332 103q137 0 208.5 -64.5t71.5 -212.5q0 -57 -16 -131l-117 -600h-72l15 125h-4q-172 -150 -344 -150q-102 0 -173 62.5t-71 173.5zM162 229q0 -90 51 -135t135 -45 q152 0 336 164l66 326q-279 -6 -433.5 -84t-154.5 -226z" />
<glyph horiz-adv-x="980" d="M78 211q0 375 684 395q14 70 14 117q0 117 -48 164t-159 47q-129 0 -288 -94l-33 65q174 102 332 103q137 0 208.5 -64.5t71.5 -212.5q0 -57 -16 -131l-117 -600h-72l15 125h-4q-172 -150 -344 -150q-102 0 -173 62.5t-71 173.5zM162 229q0 -90 51 -135t135 -45 q152 0 336 164l66 326q-279 -6 -433.5 -84t-154.5 -226zM508 1446h92l121 -279h-66z" />
<glyph horiz-adv-x="980" d="M78 211q0 375 684 395q14 70 14 117q0 117 -48 164t-159 47q-129 0 -288 -94l-33 65q174 102 332 103q137 0 208.5 -64.5t71.5 -212.5q0 -57 -16 -131l-117 -600h-72l15 125h-4q-172 -150 -344 -150q-102 0 -173 62.5t-71 173.5zM162 229q0 -90 51 -135t135 -45 q152 0 336 164l66 326q-279 -6 -433.5 -84t-154.5 -226zM504 1167l237 279h103l-264 -279h-76z" />
<glyph horiz-adv-x="980" d="M78 211q0 375 684 395q14 70 14 117q0 117 -48 164t-159 47q-129 0 -288 -94l-33 65q174 102 332 103q137 0 208.5 -64.5t71.5 -212.5q0 -57 -16 -131l-117 -600h-72l15 125h-4q-172 -150 -344 -150q-102 0 -173 62.5t-71 173.5zM162 229q0 -90 51 -135t135 -45 q152 0 336 164l66 326q-279 -6 -433.5 -84t-154.5 -226zM393 1167l250 279h59l138 -279h-64l-110 201h-9l-190 -201h-74z" />
<glyph horiz-adv-x="980" d="M78 211q0 375 684 395q14 70 14 117q0 117 -48 164t-159 47q-129 0 -288 -94l-33 65q174 102 332 103q137 0 208.5 -64.5t71.5 -212.5q0 -57 -16 -131l-117 -600h-72l15 125h-4q-172 -150 -344 -150q-102 0 -173 62.5t-71 173.5zM162 229q0 -90 51 -135t135 -45 q152 0 336 164l66 326q-279 -6 -433.5 -84t-154.5 -226zM375 1190q23 78 64.5 129t97.5 51q61 0 117.5 -59.5t97.5 -59.5q53 0 96 115h57q-23 -76 -64.5 -128t-97.5 -52q-61 0 -117.5 60.5t-97.5 60.5q-53 0 -96 -117h-57z" />
<glyph horiz-adv-x="980" d="M78 211q0 375 684 395q14 70 14 117q0 117 -48 164t-159 47q-129 0 -288 -94l-33 65q174 102 332 103q137 0 208.5 -64.5t71.5 -212.5q0 -57 -16 -131l-117 -600h-72l15 125h-4q-172 -150 -344 -150q-102 0 -173 62.5t-71 173.5zM162 229q0 -90 51 -135t135 -45 q152 0 336 164l66 326q-279 -6 -433.5 -84t-154.5 -226zM422 1286q0 37 22.5 62.5t53.5 25.5q61 0 61 -65q0 -35 -22.5 -59.5t-53.5 -24.5q-29 0 -45 16t-16 45zM731 1286q0 37 22.5 62.5t53.5 25.5q61 0 61 -65q0 -35 -22 -59.5t-53 -24.5q-27 0 -44.5 16t-17.5 45z" />
<glyph horiz-adv-x="980" d="M78 211q0 375 684 395q14 70 14 117q0 117 -48 164t-159 47q-129 0 -288 -94l-33 65q174 102 332 103q137 0 208.5 -64.5t71.5 -212.5q0 -57 -16 -131l-117 -600h-72l15 125h-4q-172 -150 -344 -150q-102 0 -173 62.5t-71 173.5zM162 229q0 -90 51 -135t135 -45 q152 0 336 164l66 326q-279 -6 -433.5 -84t-154.5 -226zM410 1241l10 70h446l-10 -70h-446z" />
<glyph horiz-adv-x="980" d="M78 211q0 375 684 395q14 70 14 117q0 117 -48 164t-159 47q-129 0 -288 -94l-33 65q174 102 332 103q137 0 208.5 -64.5t71.5 -212.5q0 -57 -16 -131l-117 -600h-72l15 125h-4q-172 -150 -344 -150q-102 0 -173 62.5t-71 173.5zM162 229q0 -90 51 -135t135 -45 q152 0 336 164l66 326q-279 -6 -433.5 -84t-154.5 -226zM440 1419h58q-14 -178 129 -178q72 0 127 49t82 129h63q-33 -100 -101.5 -169.5t-177 -69.5t-148.5 69.5t-32 169.5z" />
<glyph horiz-adv-x="980" d="M78 211q0 375 684 395q14 70 14 117q0 117 -48 164t-159 47q-129 0 -288 -94l-33 65q174 102 332 103q137 0 208.5 -64.5t71.5 -212.5q0 -57 -16 -131l-117 -600h-72l15 125h-4q-172 -150 -344 -150q-102 0 -173 62.5t-71 173.5zM162 229q0 -90 51 -135t135 -45 q152 0 336 164l66 326q-279 -6 -433.5 -84t-154.5 -226zM473 1255q0 80 54.5 138.5t127.5 58.5q68 0 109 -41t41 -117q0 -80 -54 -138t-128 -58q-68 0 -109 41t-41 116zM532 1260q0 -49 26 -80t69 -31q47 0 82.5 42t35.5 99q0 49 -25.5 80t-68.5 31q-47 0 -83 -42t-36 -99z " />
<glyph horiz-adv-x="980" d="M78 211q0 375 684 395q14 70 14 117q0 117 -48 164t-159 47q-129 0 -288 -94l-33 65q174 102 332 103q137 0 208.5 -64.5t71.5 -212.5q0 -57 -16 -131l-117 -600h-72l15 125h-4q-172 -150 -344 -150q-102 0 -173 62.5t-71 173.5zM162 229q0 -90 51 -135t135 -45 q152 0 336 164l66 326q-279 -6 -433.5 -84t-154.5 -226zM453 1446h63l111 -199h8l190 199h74l-250 -279h-59z" />
<glyph horiz-adv-x="980" d="M78 211q0 375 684 395q14 70 14 117q0 117 -48 164t-159 47q-129 0 -288 -94l-33 65q174 102 332 103q137 0 208.5 -64.5t71.5 -212.5q0 -57 -16 -131l-117 -600h-72l15 125h-4q-172 -150 -344 -150q-102 0 -173 62.5t-71 173.5zM162 229q0 -90 51 -135t135 -45 q152 0 336 164l66 326q-279 -6 -433.5 -84t-154.5 -226zM268 -334q0 39 27 65.5t59 26.5q31 0 50.5 -19.5t19.5 -49.5q0 -37 -25.5 -63.5t-60.5 -26.5q-29 0 -49.5 19.5t-20.5 47.5z" />
<glyph horiz-adv-x="980" d="M78 211q0 375 684 395q14 70 14 117q0 117 -48 164t-159 47q-129 0 -288 -94l-33 65q174 102 332 103q137 0 208.5 -64.5t71.5 -212.5q0 -57 -16 -131l-117 -600h-72l15 125h-4q-172 -150 -344 -150q-102 0 -173 62.5t-71 173.5zM162 229q0 -90 51 -135t135 -45 q152 0 336 164l66 326q-279 -6 -433.5 -84t-154.5 -226zM569 1178q84 29 123 57.5t39 73.5q0 41 -32.5 61.5t-118.5 28.5l14 57q209 -12 209 -131q0 -76 -56.5 -122t-160.5 -75z" />
<glyph horiz-adv-x="980" d="M78 211q0 375 684 395q14 70 14 117q0 117 -48 164t-159 47q-129 0 -288 -94l-33 65q174 102 332 103q137 0 208.5 -64.5t71.5 -212.5q0 -57 -16 -131l-117 -600h-72l15 125h-4q-172 -150 -344 -150q-102 0 -173 62.5t-71 173.5zM162 229q0 -90 51 -135t135 -45 q152 0 336 164l66 326q-279 -6 -433.5 -84t-154.5 -226zM412 1167l217 234h57l121 -234h-62l-96 158h-8l-158 -158h-71zM805 1300l190 228h90l-211 -228h-69z" />
<glyph horiz-adv-x="980" d="M78 211q0 375 684 395q14 70 14 117q0 117 -48 164t-159 47q-129 0 -288 -94l-33 65q174 102 332 103q137 0 208.5 -64.5t71.5 -212.5q0 -57 -16 -131l-117 -600h-72l15 125h-4q-172 -150 -344 -150q-102 0 -173 62.5t-71 173.5zM162 229q0 -90 51 -135t135 -45 q152 0 336 164l66 326q-279 -6 -433.5 -84t-154.5 -226zM412 1167l217 234h57l121 -234h-62l-96 158h-8l-158 -158h-71zM784 1528h82l105 -228h-64z" />
<glyph horiz-adv-x="980" d="M78 211q0 375 684 395q14 70 14 117q0 117 -48 164t-159 47q-129 0 -288 -94l-33 65q174 102 332 103q137 0 208.5 -64.5t71.5 -212.5q0 -57 -16 -131l-117 -600h-72l15 125h-4q-172 -150 -344 -150q-102 0 -173 62.5t-71 173.5zM162 229q0 -90 51 -135t135 -45 q152 0 336 164l66 326q-279 -6 -433.5 -84t-154.5 -226zM412 1167l217 234h57l121 -234h-62l-96 158h-8l-158 -158h-71zM825 1329q135 41 136 121q0 39 -29 59.5t-101 28.5l13 53q92 -6 139 -39.5t47 -85.5q0 -129 -190 -184z" />
<glyph horiz-adv-x="980" d="M78 211q0 375 684 395q14 70 14 117q0 117 -48 164t-159 47q-129 0 -288 -94l-33 65q174 102 332 103q137 0 208.5 -64.5t71.5 -212.5q0 -57 -16 -131l-117 -600h-72l15 125h-4q-172 -150 -344 -150q-102 0 -173 62.5t-71 173.5zM162 229q0 -90 51 -135t135 -45 q152 0 336 164l66 326q-279 -6 -433.5 -84t-154.5 -226zM391 1167l223 197h74l143 -197h-63l-123 131h-8l-168 -131h-78zM434 1442q18 66 60.5 111.5t91.5 45.5q57 0 110.5 -50t89.5 -50q25 0 52.5 28.5t40.5 67.5h55q-18 -66 -61.5 -111.5t-92.5 -45.5q-57 0 -109.5 50 t-88.5 50q-25 0 -53 -28.5t-40 -67.5h-55z" />
<glyph horiz-adv-x="980" d="M78 211q0 375 684 395q14 70 14 117q0 117 -48 164t-159 47q-129 0 -288 -94l-33 65q174 102 332 103q137 0 208.5 -64.5t71.5 -212.5q0 -57 -16 -131l-117 -600h-72l15 125h-4q-172 -150 -344 -150q-102 0 -173 62.5t-71 173.5zM162 229q0 -90 51 -135t135 -45 q152 0 336 164l66 326q-279 -6 -433.5 -84t-154.5 -226zM272 -334q0 39 27 65.5t59 26.5q31 0 50.5 -19.5t19.5 -49.5q0 -37 -26.5 -63.5t-59.5 -26.5q-29 0 -49.5 19.5t-20.5 47.5zM393 1167l250 279h59l138 -279h-64l-110 201h-9l-190 -201h-74z" />
</font>
</defs>
</svg>
